<?xml version="1.0" standalone="no"?>
<!DOCTYPE svg PUBLIC "-//W3C//DTD SVG 1.1//EN" "http://www.w3.org/Graphics/SVG/1.1/DTD/svg11.dtd" >
<svg xmlns="http://www.w3.org/2000/svg" xmlns:xlink="http://www.w3.org/1999/xlink" version="1.1">
<metadata></metadata>
<defs>
<font id="noto_sansmedium" horiz-adv-x="0" >
<font-face units-per-em="2048" ascent="1638" descent="-410" />
<missing-glyph horiz-adv-x="532" />
<glyph />
<glyph />
<glyph unicode="&#xd;" horiz-adv-x="532" />
<glyph unicode=" "  horiz-adv-x="532" />
<glyph unicode="&#x09;" horiz-adv-x="532" />
<glyph unicode="&#xa0;" horiz-adv-x="532" />
<glyph unicode="!" horiz-adv-x="561" d="M139 121q0 80 41 112.5t101 32.5q55 0 97 -32.5t42 -112.5t-42 -115t-97 -35q-59 0 -100.5 35t-41.5 115zM154 1462h256l-52 -1028h-153z" />
<glyph unicode="&#x22;" horiz-adv-x="874" d="M133 1462h219l-41 -528h-137zM522 1462h219l-41 -528h-137z" />
<glyph unicode="#" horiz-adv-x="1323" d="M49 422v158h283l59 299h-266v157h295l80 426h170l-82 -426h268l80 426h164l-82 -426h254v-157h-285l-57 -299h272v-158h-303l-82 -422h-168l82 422h-264l-78 -422h-164l76 422h-252zM498 580h264l59 299h-264z" />
<glyph unicode="$" horiz-adv-x="1171" d="M115 1042q0 152 110.5 240t292.5 100v172h133v-170q111 -4 203 -24.5t174 -54.5l-67 -177q-72 27 -152 47.5t-158 26.5v-377q127 -39 221.5 -85t144.5 -112.5t50 -174.5q0 -145 -106.5 -237.5t-309.5 -113.5v-221h-133v213q-121 4 -225.5 22.5t-175.5 51.5v201 q74 -35 184.5 -62.5t216.5 -30.5v383q-213 66 -308 151t-95 232zM328 1053q0 -70 42 -110t148 -71v326q-96 -8 -143 -47t-47 -98zM651 285q104 12 153.5 52t49.5 103q0 66 -44 103t-159 69v-327z" />
<glyph unicode="%" horiz-adv-x="1744" d="M90 1026q0 217 73.5 337t237.5 120q156 0 238 -120t82 -337t-77 -339t-243 -122q-152 0 -231.5 122t-79.5 339zM268 1026q0 -309 133 -309q141 0 142 309q-1 305 -142 305q-133 0 -133 -305zM375 0l811 1462h182l-811 -1462h-182zM1022 440q0 217 74.5 337t238.5 120 q156 0 238 -120t82 -337t-78 -338.5t-242 -121.5q-154 0 -233.5 121.5t-79.5 338.5zM1202 440q0 -307 133 -307q139 0 140 307q-1 305 -140 305q-133 0 -133 -305z" />
<glyph unicode="&#x26;" horiz-adv-x="1509" d="M100 385q0 156 81 251t220 175q-70 78 -119 160t-49 188q0 152 107 239t287 87q168 0 269 -83t101 -235q0 -131 -84 -223t-208 -166l362 -350q49 63 82 145t55 175h221q-31 -127 -83 -245t-134 -212l299 -291h-282l-160 154q-94 -78 -210 -126t-273 -48 q-223 0 -352.5 107.5t-129.5 297.5zM328 397q0 -104 72.5 -166.5t191.5 -62.5q113 0 195.5 35t142.5 86l-400 389q-96 -59 -149 -121.5t-53 -159.5zM442 1155q0 -68 35 -126t98 -126q113 63 163 120.5t50 135.5q0 70 -47.5 111t-119.5 41q-76 0 -127.5 -39t-51.5 -117z" />
<glyph unicode="'" horiz-adv-x="485" d="M133 1462h219l-41 -528h-137z" />
<glyph unicode="(" horiz-adv-x="638" d="M82 561q0 250 72.5 482.5t228.5 418.5h195q-143 -193 -216 -424t-73 -475q0 -238 72.5 -467t213.5 -420h-192q-156 180 -228.5 408.5t-72.5 476.5z" />
<glyph unicode=")" horiz-adv-x="638" d="M61 1462h195q156 -186 228.5 -418.5t72.5 -482.5q0 -248 -72.5 -476t-228.5 -409h-193q139 190 212 420t73 467q0 244 -72.5 475.5t-214.5 423.5z" />
<glyph unicode="*" horiz-adv-x="1124" d="M78 1073l33 207l381 -109l-43 385h219l-41 -385l387 109l30 -207l-366 -31l237 -315l-190 -102l-170 344l-152 -344l-196 102l233 315z" />
<glyph unicode="+" horiz-adv-x="1171" d="M98 639v166h402v414h168v-414h401v-166h-401v-412h-168v412h-402z" />
<glyph unicode="," horiz-adv-x="559" d="M78 -264q29 119 57.5 257t44.5 245h217l15 -23q-27 -109 -76 -239t-100 -240h-158z" />
<glyph unicode="-" horiz-adv-x="659" d="M76 457v184h508v-184h-508z" />
<glyph unicode="." horiz-adv-x="559" d="M139 121q0 80 41 112.5t99 32.5q57 0 99 -32.5t42 -112.5t-42 -115t-99 -35t-98.5 35t-41.5 115z" />
<glyph unicode="/" horiz-adv-x="786" d="M18 0l545 1462h207l-545 -1462h-207z" />
<glyph unicode="0" horiz-adv-x="1171" d="M92 733q0 238 48 406t157 257t287 89q250 0 372.5 -198t122.5 -554q0 -238 -49 -405.5t-158.5 -257.5t-287.5 -90q-252 0 -372 199.5t-120 553.5zM309 733q0 -287 61.5 -429t213.5 -142q150 0 213 141t63 430q0 285 -63.5 427.5t-212.5 142.5q-152 0 -213.5 -142.5 t-61.5 -427.5z" />
<glyph unicode="1" horiz-adv-x="1171" d="M164 1135l418 327h180v-1462h-215v971q0 78 2 140.5t6 121.5q-27 -29 -55.5 -53.5t-65.5 -55.5l-160 -129z" />
<glyph unicode="2" horiz-adv-x="1171" d="M94 0v168l377 383q111 113 184.5 195.5t110.5 159.5t37 167q0 111 -64.5 168t-171.5 57q-100 0 -180 -36.5t-166 -106.5l-117 145q88 74 201 128.5t268 54.5q207 0 328 -106.5t121 -284.5q0 -117 -47 -217.5t-133 -198.5t-203 -209l-272 -264v-10h710v-193h-983z" />
<glyph unicode="3" horiz-adv-x="1171" d="M88 59v197q92 -47 198.5 -71.5t200.5 -24.5q188 0 269.5 70.5t81.5 197.5q0 123 -98.5 180.5t-295.5 57.5h-133v178h135q186 0 270.5 69.5t84.5 182.5q0 98 -64.5 152.5t-185.5 54.5q-113 0 -196 -36t-154 -83l-107 149q82 61 197 105.5t266 44.5q227 0 345 -99.5 t118 -259.5q0 -150 -84 -237.5t-221 -116.5v-8q174 -20 262 -110.5t88 -233.5q0 -127 -60.5 -226.5t-186.5 -155.5t-322 -56q-117 0 -217.5 18t-190.5 61z" />
<glyph unicode="4" horiz-adv-x="1171" d="M41 324v172l674 972h215v-960h203v-184h-203v-324h-211v324h-678zM246 508h473v397q0 96 3 181t7 143h-8q-16 -41 -41 -84t-47 -76z" />
<glyph unicode="5" horiz-adv-x="1171" d="M121 59v199q74 -43 179.5 -69.5t201.5 -26.5q154 0 246 70.5t92 220.5q0 133 -83 203.5t-261 70.5q-57 0 -128 -10t-114 -21l-100 60l55 706h752v-192h-564l-32 -383q35 6 88 13t125 7q217 0 350 -112.5t133 -321.5q0 -231 -145.5 -362t-411.5 -131q-115 0 -214.5 20 t-168.5 59z" />
<glyph unicode="6" horiz-adv-x="1171" d="M100 623q0 127 17.5 249.5t61.5 232t122 194.5t197.5 133.5t289.5 48.5q43 0 97.5 -3t89.5 -14v-182q-39 12 -85 18.5t-91 6.5q-141 0 -233.5 -43t-145.5 -119t-78 -176.5t-31 -214.5h13q45 72 126.5 122t211.5 50q190 0 305.5 -118t115.5 -333q0 -229 -128 -362 t-347 -133q-141 0 -256.5 69.5t-183.5 212t-68 361.5zM319 508q0 -82 33 -163t96.5 -133t157.5 -52q117 0 190.5 76.5t73.5 238.5q0 129 -64.5 205t-193.5 76q-88 0 -153.5 -37t-102.5 -94.5t-37 -116.5z" />
<glyph unicode="7" horiz-adv-x="1171" d="M80 1270v192h1001v-155l-581 -1307h-236l584 1270h-768z" />
<glyph unicode="8" horiz-adv-x="1171" d="M92 373q0 98 41 173t108.5 128t147.5 90q-106 61 -178 148t-72 221q0 113 59.5 191.5t160 118.5t225.5 40q129 0 229 -40t158.5 -119t58.5 -194q0 -131 -80 -215t-192 -141q86 -43 158.5 -97t116.5 -127t44 -171q0 -123 -61.5 -212t-171 -138t-256.5 -49q-238 0 -367 103 t-129 290zM301 377q0 -98 69.5 -164t213.5 -66q139 0 211.5 64.5t72.5 167.5q0 100 -79.5 165.5t-198.5 117.5l-31 12q-125 -53 -191.5 -124t-66.5 -173zM348 1120q0 -102 70.5 -158.5t171.5 -101.5q94 41 161.5 100.5t67.5 159.5q0 92 -65.5 142.5t-171.5 50.5 q-102 0 -168 -50.5t-66 -142.5z" />
<glyph unicode="9" horiz-adv-x="1171" d="M92 983q0 231 129 364.5t346 133.5q141 0 257 -70t183.5 -212t67.5 -361q0 -125 -17.5 -249t-61.5 -233.5t-121.5 -194.5t-198.5 -133t-291 -48q-41 0 -97.5 4t-90.5 14v182q39 -12 87 -18t93 -6q141 0 233 42t145.5 117.5t78 175t28.5 214.5h-12q-45 -70 -125 -120 t-215 -50q-188 0 -303 117.5t-115 330.5zM305 987q0 -131 63.5 -206.5t192.5 -75.5q90 0 156.5 36.5t102.5 94t36 118.5q0 82 -31.5 162t-96.5 133.5t-159 53.5q-117 0 -190.5 -78t-73.5 -238z" />
<glyph unicode=":" horiz-adv-x="559" d="M139 121q0 80 41 112.5t99 32.5q57 0 99 -32.5t42 -112.5t-42 -115t-99 -35t-98.5 35t-41.5 115zM139 981q0 84 41 116.5t99 32.5q57 0 99 -32.5t42 -116.5q0 -78 -42 -112.5t-99 -34.5t-98.5 34.5t-41.5 112.5z" />
<glyph unicode=";" horiz-adv-x="559" d="M63 -264q29 117 59 256t44 246h219l14 -23q-27 -109 -77 -239t-99 -240h-160zM135 981q0 84 41 116.5t100 32.5t100.5 -32.5t41.5 -116.5q0 -78 -41 -112.5t-101 -34.5q-59 0 -100 34.5t-41 112.5z" />
<glyph unicode="&#x3c;" horiz-adv-x="1171" d="M98 655v115l973 485v-182l-745 -352l745 -311v-183z" />
<glyph unicode="=" horiz-adv-x="1171" d="M106 436v168h955v-168h-955zM106 840v166h955v-166h-955z" />
<glyph unicode="&#x3e;" horiz-adv-x="1171" d="M98 227v183l746 311l-746 352v182l973 -485v-115z" />
<glyph unicode="?" horiz-adv-x="915" d="M18 1374q88 47 192.5 78t231.5 31q201 0 310.5 -98.5t109.5 -262.5q0 -90 -28.5 -153.5t-83 -116.5t-127.5 -115q-66 -53 -101 -92t-47 -78t-12 -92v-41h-178v60q0 113 37.5 185.5t138.5 154.5q74 59 115.5 101t60 84t18.5 97q0 88 -59 135t-168 47q-96 0 -176 -25.5 t-156 -62.5zM242 121q0 80 40 112.5t101 32.5q57 0 98 -32.5t41 -112.5t-41 -115t-98 -35q-61 0 -101 35t-40 115z" />
<glyph unicode="@" horiz-adv-x="1839" d="M115 575q0 190 60.5 351t173 282t273 187.5t363.5 66.5q215 0 383 -88t263 -252t95 -391q0 -94 -22.5 -184t-67.5 -164t-112.5 -118t-157.5 -44q-88 0 -143.5 48t-69.5 116h-12q-39 -70 -108.5 -117t-176.5 -47q-164 0 -253 105.5t-89 279.5q0 135 55.5 239.5t155.5 164 t238 59.5q92 0 183 -15.5t144 -35.5l-20 -416q-2 -33 -2 -50v-24q0 -100 33.5 -131.5t76.5 -31.5q59 0 99.5 50t62 133t21.5 185q0 184 -75 313.5t-205 197t-296 67.5q-227 0 -384 -94.5t-237.5 -258t-80.5 -376.5q0 -295 156.5 -453t451.5 -158q123 0 240.5 28t211.5 62 v-155q-90 -39 -203.5 -62.5t-246.5 -23.5q-246 0 -420 90t-266 259t-92 406zM694 602q0 -127 50.5 -182t136.5 -55q111 0 158.5 81.5t56.5 215.5l12 245q-27 8 -63.5 13.5t-77.5 5.5q-98 0 -158.5 -47.5t-87.5 -121t-27 -155.5z" />
<glyph unicode="A" horiz-adv-x="1339" d="M0 0l555 1468h229l553 -1468h-231l-156 422h-565l-156 -422h-229zM451 614h438l-148 412q-8 23 -22 68t-28.5 94t-22.5 80q-16 -63 -37 -135t-33 -107z" />
<glyph unicode="B" horiz-adv-x="1343" d="M195 0v1462h428q279 0 423 -82t144 -282q0 -127 -68.5 -213t-195.5 -109v-10q86 -16 156.5 -54t111.5 -109t41 -185q0 -201 -139.5 -309.5t-376.5 -108.5h-524zM416 184h268q176 0 246.5 70t70.5 184q0 104 -72.5 169t-258.5 65h-254v-488zM416 852h243q172 0 237 55.5 t65 163.5q0 109 -79 157t-247 48h-219v-424z" />
<glyph unicode="C" horiz-adv-x="1296" d="M123 731q0 221 81 390t236.5 265.5t380.5 96.5q111 0 216.5 -23.5t193.5 -66.5l-82 -185q-72 33 -154 58.5t-176 25.5q-217 0 -341 -150.5t-124 -412.5q0 -260 115 -409.5t348 -149.5q94 0 181 17.5t178 45.5v-190q-86 -33 -176.5 -48t-208.5 -15q-225 0 -374 93 t-221.5 262t-72.5 396z" />
<glyph unicode="D" horiz-adv-x="1501" d="M195 0v1462h452q223 0 387 -82t254 -242t90 -393q0 -371 -203.5 -558t-570.5 -187h-409zM416 186h178q553 0 553 553q0 276 -133 406.5t-381 130.5h-217v-1090z" />
<glyph unicode="E" horiz-adv-x="1140" d="M195 0v1462h823v-188h-602v-418h565v-186h-565v-480h602v-190h-823z" />
<glyph unicode="F" horiz-adv-x="1081" d="M195 0v1462h823v-188h-604v-477h565v-189h-565v-608h-219z" />
<glyph unicode="G" horiz-adv-x="1488" d="M123 731q0 229 89 398t259 261.5t412 92.5q121 0 231.5 -24.5t204.5 -63.5l-80 -185q-76 35 -170 58.5t-195 23.5q-162 0 -279.5 -68.5t-180 -195.5t-62.5 -299q0 -164 51.5 -291t162 -198.5t288.5 -71.5q88 0 148.5 9t111.5 22v397h-309v190h528v-729 q-117 -39 -238.5 -58t-277.5 -19q-336 0 -515 198.5t-179 552.5z" />
<glyph unicode="H" horiz-adv-x="1531" d="M195 0v1462h221v-606h698v606h221v-1462h-221v668h-698v-668h-221z" />
<glyph unicode="I" horiz-adv-x="724" d="M78 0v127l174 51v1104l-174 53v127h567v-127l-172 -53v-1104l172 -51v-127h-567z" />
<glyph unicode="J" horiz-adv-x="593" d="M-158 -190q33 -8 70 -14.5t78 -6.5q51 0 96 20.5t72.5 72.5t27.5 151v1429h222v-1419q0 -231 -112 -337.5t-292 -106.5q-53 0 -93 7t-69 19v185z" />
<glyph unicode="K" horiz-adv-x="1294" d="M195 0v1462h221v-706q51 61 106.5 122.5t106.5 125.5l395 458h254l-559 -639l575 -823h-256l-479 674l-143 -119v-555h-221z" />
<glyph unicode="L" horiz-adv-x="1097" d="M195 0v1462h221v-1272h624v-190h-845z" />
<glyph unicode="M" horiz-adv-x="1880" d="M195 0v1462h315l420 -1173h8l432 1173h316v-1462h-216v838q0 72 3.5 147.5t6.5 143l5 112.5h-8l-455 -1241h-191l-442 1243h-8q4 -43 7 -111.5t5 -149.5t2 -157v-825h-200z" />
<glyph unicode="N" horiz-adv-x="1589" d="M195 0v1462h266l737 -1175h6q-2 43 -5 108.5t-5 140t-4 140.5v786h205v-1462h-269l-739 1182h-8q4 -82 9 -187.5t7 -216.5v-778h-200z" />
<glyph unicode="O" horiz-adv-x="1607" d="M123 735q0 225 73.5 394t225 262.5t385.5 93.5q225 0 375.5 -93.5t226.5 -262.5t76 -396t-76 -396t-227.5 -263t-376.5 -94q-231 0 -383 94t-225.5 264t-73.5 397zM356 733q0 -262 108.5 -413.5t340.5 -151.5q233 0 339.5 151.5t106.5 413.5t-106.5 411.5t-337.5 149.5 q-233 0 -342 -149.5t-109 -411.5z" />
<glyph unicode="P" horiz-adv-x="1253" d="M195 0v1462h409q287 0 418 -115.5t131 -322.5q0 -123 -54.5 -229.5t-181 -173t-344.5 -66.5h-157v-555h-221zM416 741h133q186 0 281.5 62.5t95.5 212.5q0 131 -82 195.5t-256 64.5h-172v-535z" />
<glyph unicode="Q" horiz-adv-x="1607" d="M123 735q0 225 73.5 394t225 262.5t385.5 93.5q225 0 375.5 -93.5t226.5 -262.5t76 -396q0 -262 -101.5 -448.5t-304.5 -259.5l351 -373h-304l-278 330q-10 0 -21.5 -1t-21.5 -1q-231 0 -383 94t-225.5 264t-73.5 397zM356 733q0 -262 108.5 -413.5t340.5 -151.5 q233 0 339.5 151.5t106.5 413.5t-106.5 411.5t-337.5 149.5q-233 0 -342 -149.5t-109 -411.5z" />
<glyph unicode="R" horiz-adv-x="1296" d="M195 0v1462h409q281 0 415 -104.5t134 -317.5q0 -113 -41 -189.5t-107.5 -125.5t-138.5 -76l410 -649h-254l-352 592h-254v-592h-221zM416 776h184q170 0 248 64.5t78 191.5q0 131 -82 186.5t-254 55.5h-174v-498z" />
<glyph unicode="S" horiz-adv-x="1126" d="M102 55v209q82 -37 193 -66.5t225 -29.5q147 0 221 57.5t74 153.5q0 68 -32.5 114t-105.5 85.5t-190 85.5q-106 41 -190 96t-131 137t-47 201q0 180 131 282.5t344 102.5q119 0 220 -24.5t194 -63.5l-70 -183q-84 35 -171 57.5t-179 22.5q-121 0 -184.5 -53t-63.5 -139 q0 -68 30.5 -114t98.5 -84t178 -81q123 -49 210 -103t132 -131t45 -192q0 -195 -141 -305t-387 -110q-121 0 -225.5 19t-178.5 56z" />
<glyph unicode="T" horiz-adv-x="1153" d="M27 1272v190h1097v-190h-438v-1272h-221v1272h-438z" />
<glyph unicode="U" horiz-adv-x="1511" d="M182 520v942h221v-932q0 -362 357 -362q184 0 267 98.5t83 265.5v930h219v-946q0 -152 -62.5 -273.5t-191.5 -192t-325 -70.5q-279 0 -423.5 148t-144.5 392z" />
<glyph unicode="V" horiz-adv-x="1259" d="M0 1462h227l314 -917q27 -74 51 -162t37 -160q12 72 36.5 160t51.5 164l313 915h230l-517 -1462h-229z" />
<glyph unicode="W" horiz-adv-x="1927" d="M16 1462h228l215 -864q20 -90 39.5 -186.5t29.5 -171.5q10 78 32 178t44 180l244 864h221l252 -868q25 -82 45 -182.5t31 -171.5q8 76 28.5 172t42.5 186l215 864h226l-385 -1462h-236l-258 903q-14 49 -29.5 110.5t-27.5 116t-17 76.5q-2 -23 -12 -76t-24.5 -116.5 t-30.5 -116.5l-254 -897h-236z" />
<glyph unicode="X" horiz-adv-x="1249" d="M6 0l486 760l-455 702h246l344 -559l346 559h235l-454 -704l489 -758h-252l-373 610l-376 -610h-236z" />
<glyph unicode="Y" horiz-adv-x="1193" d="M0 1462h240l358 -684l358 684h238l-487 -895v-567h-220v559z" />
<glyph unicode="Z" horiz-adv-x="1175" d="M70 0v158l749 1114h-727v190h993v-157l-749 -1115h768v-190h-1034z" />
<glyph unicode="[" horiz-adv-x="675" d="M158 -324v1786h467v-166h-267v-1454h267v-166h-467z" />
<glyph unicode="\" horiz-adv-x="786" d="M18 1462h205l547 -1462h-207z" />
<glyph unicode="]" horiz-adv-x="675" d="M51 -158h264v1454h-264v166h467v-1786h-467v166z" />
<glyph unicode="^" horiz-adv-x="1171" d="M70 539l434 934h114l484 -934h-182l-355 708l-315 -708h-180z" />
<glyph unicode="_" horiz-adv-x="888" d="M-4 -184h897v-133h-897v133z" />
<glyph unicode="`" horiz-adv-x="624" d="M82 1548v21h252q25 -45 61.5 -101.5t76.5 -110.5t71 -91v-25h-146q-49 37 -111.5 95.5t-118.5 116.5t-85 95z" />
<glyph unicode="a" horiz-adv-x="1175" d="M92 313q0 170 128 257t390 96l189 6v61q0 121 -55.5 171t-155.5 50q-84 0 -162 -24.5t-150 -59.5l-69 158q78 41 179 68.5t212 27.5q207 0 310.5 -91t103.5 -285v-748h-154l-43 154h-8q-72 -90 -150.5 -132t-218.5 -42q-150 0 -248 80.5t-98 252.5zM315 311 q0 -86 51.5 -125t133.5 -39q127 0 212 72t85 215v96l-148 -4q-188 -8 -261 -63t-73 -152z" />
<glyph unicode="b" horiz-adv-x="1269" d="M170 0v1556h217v-374q0 -66 -3 -128.5t-7 -95.5h10q47 70 127 117t207 47q199 0 320.5 -143t121.5 -426q0 -285 -122.5 -429t-321.5 -144q-127 0 -206 46t-126 109h-16l-41 -135h-160zM387 551q0 -190 60.5 -291.5t226.5 -101.5q133 0 199.5 102t66.5 295q0 391 -270 391 q-158 0 -219.5 -93t-63.5 -286v-16z" />
<glyph unicode="c" horiz-adv-x="1003" d="M106 545q0 205 68 332t186.5 187t270.5 60q92 0 173 -18.5t134 -44.5l-66 -176q-57 20 -120.5 37.5t-122.5 17.5q-299 0 -299 -393q0 -188 73.5 -286.5t217.5 -98.5q90 0 161.5 20.5t130.5 53.5v-189q-59 -35 -129 -51t-170 -16q-229 0 -368.5 136t-139.5 429z" />
<glyph unicode="d" horiz-adv-x="1269" d="M106 549q0 285 123 430t324 145q125 0 205 -47t129 -114h12q-4 29 -10 84t-6 96v413h217v-1556h-170l-37 147h-10q-47 -70 -127 -118.5t-207 -48.5q-201 0 -322 143t-121 426zM330 545q0 -186 67.5 -286.5t202.5 -100.5q160 0 224.5 88t66.5 268v33q0 195 -62.5 297 t-230.5 102q-133 0 -200.5 -106.5t-67.5 -294.5z" />
<glyph unicode="e" horiz-adv-x="1171" d="M106 543q0 186 62.5 315t174 197.5t261.5 68.5q217 0 342 -134t125 -365v-119h-741q4 -170 89 -260t238 -90q106 0 189.5 19.5t171.5 57.5v-180q-84 -39 -168 -56t-201 -17q-160 0 -282.5 63t-191.5 188t-69 312zM334 666h520q-2 129 -62.5 209.5t-187.5 80.5 q-117 0 -187.5 -75.5t-82.5 -214.5z" />
<glyph unicode="f" horiz-adv-x="731" d="M33 938v102l186 68v70q0 211 97.5 300t271.5 89q72 0 131 -12.5t100 -26.5l-55 -166q-35 10 -78 19.5t-88 9.5q-162 0 -162 -215v-72h273v-166h-273v-938h-217v938h-186z" />
<glyph unicode="g" horiz-adv-x="1269" d="M106 549q0 266 118 420.5t327 154.5q106 0 192 -41t146 -125h10l25 146h176v-1118q0 -477 -510 -478q-119 0 -219.5 16.5t-184.5 51.5v191q86 -43 191.5 -64.5t224.5 -21.5q133 0 208 76.5t75 215.5v37q0 27 2 70t4 65h-8q-57 -86 -140.5 -125.5t-191.5 -39.5 q-209 0 -327 150.5t-118 418.5zM330 547q0 -193 68.5 -293t201.5 -100q152 0 222.5 82.5t70.5 271.5v41q0 213 -71.5 304t-225.5 91q-129 0 -197.5 -101.5t-68.5 -295.5z" />
<glyph unicode="h" horiz-adv-x="1290" d="M170 0v1556h217v-415q0 -51 -4 -102.5t-8 -84.5h14q53 84 142.5 126t193.5 42q195 0 298 -96t103 -307v-719h-215v688q0 258 -227 258q-170 0 -233.5 -102.5t-63.5 -288.5v-555h-217z" />
<glyph unicode="i" horiz-adv-x="557" d="M156 1399q0 68 37 96.5t88 28.5q49 0 85.5 -29t36.5 -96q0 -66 -36.5 -95.5t-85.5 -29.5q-51 0 -88 29.5t-37 95.5zM170 0v1104h217v-1104h-217z" />
<glyph unicode="j" horiz-adv-x="557" d="M-119 -293q33 -10 66 -15t73 -5q66 0 108 35.5t42 136.5v1245h217v-1256q0 -154 -79 -247t-255 -93q-53 0 -97 7.5t-75 17.5v174zM156 1399q0 68 36.5 96.5t88.5 28.5q49 0 85.5 -29t36.5 -96q0 -66 -36.5 -95.5t-85.5 -29.5q-51 0 -88 29.5t-37 95.5z" />
<glyph unicode="k" horiz-adv-x="1144" d="M170 0v1556h215v-778q0 -41 -4 -98t-6 -102h6q23 31 62.5 81t70.5 82l338 363h252l-445 -473l474 -631h-256l-365 494l-127 -107v-387h-215z" />
<glyph unicode="l" horiz-adv-x="557" d="M170 0v1556h217v-1556h-217z" />
<glyph unicode="m" horiz-adv-x="1943" d="M170 0v1104h172l31 -148h12q51 86 138 127t186 41q254 0 335 -178h17q53 90 147.5 134t198.5 44q186 0 280.5 -96t94.5 -309v-719h-217v690q0 256 -207 256q-147 0 -211 -91t-64 -261v-594h-215v690q0 256 -209 256q-156 0 -214 -100.5t-58 -288.5v-557h-217z" />
<glyph unicode="n" horiz-adv-x="1290" d="M170 0v1104h172l31 -148h12q53 86 146.5 127t197.5 41q193 0 295 -96t102 -309v-719h-215v688q0 258 -227 258q-168 0 -232.5 -100.5t-64.5 -288.5v-557h-217z" />
<glyph unicode="o" horiz-adv-x="1247" d="M106 553q0 274 139.5 422.5t381.5 148.5q152 0 267.5 -66.5t182 -193.5t66.5 -311q0 -274 -141.5 -423.5t-380.5 -149.5q-150 0 -265.5 66.5t-182.5 194.5t-67 312zM330 553q0 -186 70.5 -290.5t224.5 -104.5t224.5 104.5t70.5 290.5q0 188 -71 289.5t-226 101.5 q-154 0 -223.5 -101.5t-69.5 -289.5z" />
<glyph unicode="p" horiz-adv-x="1269" d="M170 -492v1596h176l31 -148h10q47 70 126 119t208 49q201 0 321.5 -143t120.5 -428q0 -281 -122.5 -427t-321.5 -146q-125 0 -205 46t-127 109h-14q4 -37 9 -87t5 -89v-451h-217zM387 555q0 -193 61.5 -295t225.5 -102q135 0 200.5 110.5t65.5 288.5q0 180 -66.5 284.5 t-203.5 104.5q-154 0 -217.5 -88t-65.5 -270v-33z" />
<glyph unicode="q" horiz-adv-x="1269" d="M106 549q0 285 124 430t323 145q127 0 207 -48t129 -120h8l27 148h176v-1596h-217v469q0 39 3 86.5t9 83.5h-12q-47 -70 -128 -118.5t-208 -48.5q-197 0 -319 143t-122 426zM330 545q0 -186 66.5 -287.5t205.5 -101.5q156 0 221.5 87t67.5 267v37q0 197 -63.5 298 t-229.5 101q-135 0 -201.5 -106.5t-66.5 -294.5z" />
<glyph unicode="r" horiz-adv-x="870" d="M170 0v1104h172l29 -197h8q51 88 137 152.5t199 64.5q66 0 121 -10l-23 -203q-53 14 -111 15q-84 0 -155.5 -41t-115.5 -118t-44 -185v-582h-217z" />
<glyph unicode="s" horiz-adv-x="991" d="M100 827q0 143 116 220t306 77q100 0 189.5 -20.5t173.5 -56.5l-72 -166q-72 31 -147.5 52t-153.5 21q-201 0 -201 -116q0 -39 23.5 -68t82 -57.5t163.5 -69.5q100 -39 172.5 -81t111.5 -101.5t39 -149.5q0 -164 -117.5 -247.5t-330.5 -83.5q-117 0 -200 16t-153 51v191 q72 -35 169.5 -63t189.5 -28q123 0 177 39t54 105q0 37 -20.5 66.5t-76.5 61.5t-165 73q-106 41 -179 83.5t-112 102t-39 149.5z" />
<glyph unicode="t" horiz-adv-x="784" d="M37 938v98l162 82l75 234h134v-248h315v-166h-315v-606q0 -90 43.5 -133t115.5 -43q92 0 166 26v-164q-35 -16 -94 -27t-119 -11q-90 0 -164.5 30.5t-120 106.5t-45.5 211v610h-153z" />
<glyph unicode="u" horiz-adv-x="1290" d="M160 381v723h219v-690q0 -129 54 -192.5t169 -63.5q170 0 235.5 99t65.5 288v559h217v-1104h-174l-31 145h-10q-53 -86 -147 -125.5t-199 -39.5q-195 0 -297 95t-102 306z" />
<glyph unicode="v" horiz-adv-x="1077" d="M0 1104h229l230 -645q20 -66 42.5 -143.5t30.5 -129.5h9q8 51 32.5 130t44.5 143l230 645h229l-420 -1104h-239z" />
<glyph unicode="w" horiz-adv-x="1652" d="M23 1106h221l143 -559q23 -86 42.5 -183.5t27.5 -156.5h8q6 35 17.5 93t24.5 115.5t25 94.5l177 596h237l172 -596q12 -41 26.5 -97.5t26 -111.5t15.5 -92h8q4 33 14.5 90t25.5 122.5t30 125.5l147 559h219l-309 -1104h-248l-158 551q-14 53 -32.5 121.5t-32.5 131 t-23 97.5h-8q-6 -35 -20.5 -97.5t-31.5 -131t-34 -123.5l-164 -549h-241z" />
<glyph unicode="x" horiz-adv-x="1112" d="M29 0l393 563l-375 541h248l262 -397l262 397h246l-375 -541l393 -563h-245l-281 422l-283 -422h-245z" />
<glyph unicode="y" horiz-adv-x="1079" d="M2 1104h234l229 -627q27 -72 47 -137.5t29 -130.5h8q10 53 31.5 125t48.5 145l217 625h233l-473 -1254q-59 -160 -158.5 -251t-259.5 -91q-51 0 -88 5.5t-63 11.5v172q20 -4 53 -8t68 -4q94 0 151.5 54t89.5 142l45 119z" />
<glyph unicode="z" horiz-adv-x="972" d="M72 0v137l569 799h-535v168h777v-154l-557 -782h573v-168h-827z" />
<glyph unicode="{" horiz-adv-x="786" d="M49 481v176q123 2 187.5 44t64.5 143v307q0 160 105.5 235.5t310.5 75.5v-170q-98 -2 -155.5 -42t-57.5 -136v-295q0 -205 -225 -241v-13q225 -39 225 -241v-301q0 -96 55 -135.5t158 -41.5v-170q-211 2 -313.5 77t-102.5 235v305q0 102 -64.5 145t-187.5 43z" />
<glyph unicode="|" horiz-adv-x="1128" d="M479 -485v2039h170v-2039h-170z" />
<glyph unicode="}" horiz-adv-x="786" d="M70 -154q98 2 155.5 42t57.5 137v297q0 205 225 241v12q-225 37 -225 242v299q0 96 -55.5 135t-157.5 41v170q213 -2 314 -76.5t101 -234.5v-305q0 -100 64.5 -144.5t187.5 -44.5v-176q-123 0 -187.5 -42t-64.5 -144v-307q0 -160 -105 -236t-310 -76v170z" />
<glyph unicode="~" horiz-adv-x="1171" d="M98 578v180q98 109 248 108q59 0 118.5 -13t153.5 -52q76 -33 125.5 -44.5t92.5 -11.5q59 0 122.5 35t112.5 86v-178q-100 -111 -248 -110q-59 0 -118.5 12t-153.5 53q-76 33 -125 44t-94 11q-57 0 -121 -34.5t-113 -85.5z" />
<glyph unicode="&#xa1;" horiz-adv-x="561" d="M139 971q0 78 41 112.5t99 34.5q57 0 99 -34.5t42 -112.5q0 -82 -42 -115t-99 -33t-98.5 33t-41.5 115zM150 -371l51 1026h155l52 -1026h-258z" />
<glyph unicode="&#xa2;" horiz-adv-x="1171" d="M174 741q0 188 50 307t140.5 182.5t213.5 82.5v170h151v-162q82 -2 153.5 -20.5t125.5 -43.5l-66 -176q-57 23 -122.5 40.5t-125.5 17.5q-299 0 -299 -396q0 -199 75 -291t220 -92q90 0 157.5 18.5t135.5 47.5v-186q-57 -29 -118.5 -44.5t-137.5 -19.5v-196h-149v202 q-186 27 -295 157t-109 402z" />
<glyph unicode="&#xa3;" horiz-adv-x="1171" d="M70 0v180q88 27 142 88.5t54 190.5v194h-190v162h190v270q0 195 118 295.5t304 100.5q113 0 205 -23.5t166 -58.5l-72 -170q-66 29 -139.5 51.5t-149.5 22.5q-100 0 -157.5 -53.5t-57.5 -178.5v-256h404v-162h-404v-192q0 -121 -45 -179.5t-98 -88.5h766v-193h-1036z" />
<glyph unicode="&#xa4;" horiz-adv-x="1171" d="M119 1075l114 111l132 -129q47 31 103 48t118 17q117 0 217 -65l133 129l113 -109l-129 -135q29 -45 47 -102.5t18 -116.5q0 -61 -17.5 -117.5t-47.5 -103.5l127 -131l-111 -111l-133 129q-47 -29 -102.5 -46t-114.5 -17q-127 0 -221 65l-132 -129l-112 111l131 131 q-31 47 -48.5 103.5t-17.5 115.5t17.5 114.5t48.5 102.5zM344 723q0 -100 69.5 -171t172.5 -71q102 0 172.5 71t70.5 171q0 102 -70.5 174t-172.5 72q-68 0 -123 -33t-87 -89t-32 -124z" />
<glyph unicode="&#xa5;" horiz-adv-x="1171" d="M23 1462h227l334 -682l336 682h225l-404 -762h238v-145h-291v-158h291v-145h-291v-252h-209v252h-291v145h291v158h-291v145h232z" />
<glyph unicode="&#xa6;" horiz-adv-x="1128" d="M479 305h170v-790h-170v790zM479 764v790h170v-790h-170z" />
<glyph unicode="&#xa7;" horiz-adv-x="1034" d="M117 57v170q70 -35 166 -61.5t186 -26.5q139 0 192.5 41t53.5 96q0 37 -18.5 65t-72 57.5t-157.5 70.5q-160 59 -247 131t-87 207q0 96 46 158.5t108 95.5q-70 41 -110 97t-40 138q0 125 105.5 198t298.5 73q111 0 192.5 -20.5t161.5 -53.5l-64 -154q-70 29 -139 51.5 t-162 22.5q-111 0 -156.5 -29.5t-45.5 -83.5q0 -55 54 -94t198 -92q154 -57 241.5 -133t87.5 -199q0 -102 -43 -166.5t-102 -101.5q70 -39 106.5 -92t36.5 -131q0 -143 -117.5 -223t-326.5 -80q-113 0 -197 18.5t-149 50.5zM307 827q0 -70 61.5 -121t213.5 -110l34 -12 q43 25 80 66.5t37 105.5q0 47 -25.5 87t-90 75.5t-181.5 74.5q-49 -14 -89 -58.5t-40 -107.5z" />
<glyph unicode="&#xa8;" horiz-adv-x="1204" d="M297 1397q0 59 31.5 84.5t77.5 25.5q45 0 77.5 -25.5t32.5 -84.5q0 -55 -32.5 -83t-77.5 -28t-77 28t-32 83zM688 1397q0 59 31 84.5t78 25.5q43 0 75.5 -25.5t32.5 -84.5q0 -55 -32.5 -83t-75.5 -28q-47 0 -78 28t-31 83z" />
<glyph unicode="&#xa9;" horiz-adv-x="1703" d="M100 731q0 162 56.5 299t157 238.5t237.5 158t301 56.5q156 0 292 -55.5t239.5 -157t162 -238.5t58.5 -301t-55.5 -301t-157 -238.5t-238.5 -156.5t-301 -55t-301 55t-238.5 156.5t-157 238.5t-55.5 301zM223 731q0 -178 81 -322.5t222.5 -229.5t325.5 -85 q129 0 242.5 47t199.5 132t135.5 202t49.5 256q0 131 -46.5 247t-131 203t-199.5 137t-250 50q-182 0 -324.5 -82t-223.5 -225t-81 -330zM475 731q0 133 48 237.5t141.5 164t226.5 59.5t252 -62l-60 -129q-102 53 -190 54q-121 0 -187.5 -87t-66.5 -237q0 -158 58.5 -241.5 t193.5 -83.5q47 0 105.5 13t109.5 34v-134q-49 -20 -100 -34.5t-123 -14.5q-205 0 -306.5 126t-101.5 335z" />
<glyph unicode="&#xaa;" horiz-adv-x="747" d="M59 983q0 106 84 159.5t248 59.5l111 4v37q0 61 -40 88t-102 27q-53 0 -105 -15.5t-103 -39.5l-52 110q57 29 127 47.5t150 18.5q272 0 272 -244v-449h-106l-27 95q-41 -47 -100.5 -77t-134.5 -30q-100 0 -161 51.5t-61 157.5zM213 985q0 -49 27.5 -70.5t72.5 -21.5 q96 0 142.5 47t46.5 123v43l-99 -4q-113 -4 -151.5 -36t-38.5 -81z" />
<glyph unicode="&#xab;" horiz-adv-x="1105" d="M82 532v27l352 424l156 -86l-285 -350l285 -350l-156 -88zM516 532v27l356 424l154 -86l-285 -350l285 -350l-154 -88z" />
<glyph unicode="&#xac;" horiz-adv-x="1171" d="M98 639v166h971v-547h-166v381h-805z" />
<glyph unicode="&#xad;" horiz-adv-x="659" d="M76 457v184h508v-184h-508z" />
<glyph unicode="&#xae;" horiz-adv-x="1703" d="M100 731q0 162 56.5 299t157 238.5t237.5 158t301 56.5q156 0 292 -55.5t239.5 -157t162 -238.5t58.5 -301t-55.5 -301t-157 -238.5t-238.5 -156.5t-301 -55t-301 55t-238.5 156.5t-157 238.5t-55.5 301zM223 731q0 -178 81 -322.5t222.5 -229.5t325.5 -85 q129 0 242.5 47t199.5 132t135.5 202t49.5 256q0 131 -46.5 247t-131 203t-199.5 137t-250 50q-182 0 -324.5 -82t-223.5 -225t-81 -330zM569 283v897h265q168 0 245.5 -68t77.5 -199q0 -96 -49 -152t-111 -81l238 -397h-178l-203 352h-127v-352h-158zM727 764h102 q80 0 124 40t44 105q0 72 -39.5 105t-130.5 33h-100v-283z" />
<glyph unicode="&#xaf;" horiz-adv-x="1024" d="M-6 1556v154h1036v-154h-1036z" />
<glyph unicode="&#xb0;" horiz-adv-x="876" d="M102 1159q0 143 92.5 233.5t243.5 90.5q150 0 242 -90t92 -234q0 -143 -92 -233t-242 -90q-152 0 -244 90t-92 233zM256 1159q0 -82 47 -132t137 -50q88 0 134.5 50t46.5 132q0 84 -48.5 134t-132.5 50q-90 0 -137 -50t-47 -134z" />
<glyph unicode="&#xb1;" horiz-adv-x="1171" d="M98 0v168h973v-168h-973zM98 662v165h402v414h168v-414h401v-165h-401v-412h-168v412h-402z" />
<glyph unicode="&#xb2;" horiz-adv-x="735" d="M51 852v127l232 227q78 74 117.5 121t55 84t15.5 80q0 57 -35 87t-88 30q-55 0 -103 -23.5t-102 -64.5l-88 110q61 53 135 85t168 32q131 0 208 -64.5t77 -179.5q0 -98 -58.5 -177t-172.5 -187l-148 -138h385v-149h-598z" />
<glyph unicode="&#xb3;" horiz-adv-x="735" d="M43 897v147q139 -76 270 -75q186 0 187 141q0 131 -209 131h-115v125h109q104 0 146 38t42 95t-36 86t-95 29t-109.5 -20.5t-105.5 -57.5l-82 109q63 47 135 74.5t170 27.5q137 0 214 -62.5t77 -164.5q0 -78 -43 -131.5t-113 -73.5v-8q86 -16 134.5 -71.5t48.5 -133.5 q0 -119 -87 -192.5t-270 -73.5q-76 0 -141.5 14t-126.5 47z" />
<glyph unicode="&#xb4;" horiz-adv-x="624" d="M82 1241v25q31 37 69.5 91t74.5 110.5t63 101.5h254v-21q-31 -37 -87.5 -95t-119 -116.5t-111.5 -95.5h-143z" />
<glyph unicode="&#xb5;" horiz-adv-x="1298" d="M170 -492v1596h217v-692q0 -254 227 -254q168 0 232.5 99t64.5 288v559h217v-1104h-170l-32 147h-13q-49 -82 -124.5 -124.5t-182.5 -42.5q-74 0 -129 24.5t-92 67.5h-8q4 -35 7 -101.5t3 -142.5v-320h-217z" />
<glyph unicode="&#xb6;" horiz-adv-x="1341" d="M113 1042q0 195 56 307.5t158.5 159.5t235.5 47h574v-1816h-131v1677h-197v-1677h-131v819q-31 -10 -70 -14t-76 -4q-127 0 -221 47t-146 157.5t-52 296.5z" />
<glyph unicode="&#xb7;" horiz-adv-x="559" d="M139 723q0 80 41 112.5t99 32.5q57 0 99 -32.5t42 -112.5t-42 -115t-99 -35t-98.5 35t-41.5 115z" />
<glyph unicode="&#xb8;" horiz-adv-x="448" d="M10 -350q23 -4 55.5 -8t63.5 -4q59 0 93 17t34 64q0 49 -48 75t-132 36l86 170h139l-45 -94q72 -18 123 -60t51 -120q0 -102 -73.5 -160t-231.5 -58q-35 0 -64.5 4.5t-50.5 8.5v129z" />
<glyph unicode="&#xb9;" horiz-adv-x="735" d="M80 1526l276 203h162v-877h-172v530q0 49 3 100.5t5 88.5q-18 -16 -42.5 -39t-47.5 -39l-100 -76z" />
<glyph unicode="&#xba;" horiz-adv-x="778" d="M63 1128q0 170 88.5 260.5t239.5 90.5q145 0 234.5 -90.5t89.5 -260.5t-89 -262t-239 -92q-141 0 -232.5 91t-91.5 263zM213 1128q0 -115 41 -172t135 -57q90 0 132 57.5t42 171.5q0 115 -42 170.5t-132 55.5q-92 0 -134 -55.5t-42 -170.5z" />
<glyph unicode="&#xbb;" horiz-adv-x="1105" d="M80 197l285 350l-285 350l156 86l352 -424v-27l-352 -423zM516 197l285 350l-285 350l154 86l354 -424v-27l-354 -423z" />
<glyph unicode="&#xbc;" horiz-adv-x="1576" d="M61 1260l277 202h162v-876h-172v530q0 49 2 100.5t6 88.5q-16 -16 -42 -39t-48 -39l-101 -76zM276 0l869 1462h178l-868 -1462h-179zM860 184v119l400 580h174v-564h125v-135h-125v-184h-179v184h-395zM1016 319h239v183q0 43 1 97t6 103q-10 -25 -40 -74.5t-53 -82.5z " />
<glyph unicode="&#xbd;" horiz-adv-x="1640" d="M45 1260l277 202h161v-876h-172v530q0 49 2 100.5t6 88.5q-18 -16 -42.5 -39t-47.5 -39l-102 -76zM233 0l869 1462h178l-868 -1462h-179zM958 0v127l232 227q76 74 117 121t55 84t14 80q0 57 -33.5 87t-89.5 30q-53 0 -102 -23.5t-102 -64.5l-86 110q61 53 134.5 85 t168.5 32q131 0 207.5 -64.5t76.5 -179.5q0 -98 -58 -177t-173 -187l-148 -137h385v-150h-598z" />
<glyph unicode="&#xbe;" horiz-adv-x="1638" d="M49 631v147q139 -76 270 -76q186 0 187 142q0 131 -209 131h-115v125h109q104 0 146 38t42 95t-36.5 86t-94.5 29q-57 0 -108.5 -20.5t-106.5 -57.5l-82 108q63 47 135 75t170 28q139 0 215 -62.5t76 -165.5q0 -78 -43 -131t-112 -73v-9q86 -16 134 -71.5t48 -132.5 q0 -119 -87.5 -193t-269.5 -74q-76 0 -141 14.5t-127 47.5zM360 0l869 1462h180l-868 -1462h-181zM922 184v119l397 580h176v-564h125v-135h-125v-184h-178v184h-395zM1077 319h240v183q0 43 1 97t5 103q-10 -25 -40 -74.5t-52 -82.5z" />
<glyph unicode="&#xbf;" horiz-adv-x="915" d="M51 -32q0 90 28.5 153.5t83 116.5t127.5 115q66 53 101 92t47 78t12 92v41h178v-60q0 -113 -37.5 -185.5t-138.5 -154.5q-74 -59 -115.5 -101t-60 -84t-18.5 -97q0 -88 59 -135t168 -47q96 0 176 25.5t156 62.5l78 -164q-88 -47 -192.5 -78t-231.5 -31 q-201 0 -310.5 98.5t-109.5 262.5zM391 969q0 80 41 115t98 35q61 0 101 -35t40 -115t-40 -112.5t-101 -32.5q-57 0 -98 32.5t-41 112.5z" />
<glyph unicode="&#xc0;" horiz-adv-x="1339" d="M0 0l555 1468h229l553 -1468h-231l-156 422h-565l-156 -422h-229zM363 1906v21h252q25 -45 61.5 -101.5t76.5 -110.5t71 -91v-25h-146q-49 37 -111.5 95.5t-118.5 116.5t-85 95zM451 614h438l-148 412q-8 23 -22 68t-28.5 94t-22.5 80q-16 -63 -37 -135t-33 -107z" />
<glyph unicode="&#xc1;" horiz-adv-x="1339" d="M0 0l555 1468h229l553 -1468h-231l-156 422h-565l-156 -422h-229zM451 614h438l-148 412q-8 23 -22 68t-28.5 94t-22.5 80q-16 -63 -37 -135t-33 -107zM526 1599v25q31 37 69.5 91t74.5 110.5t63 101.5h254v-21q-31 -37 -87.5 -95t-119 -116.5t-111.5 -95.5h-143z" />
<glyph unicode="&#xc2;" horiz-adv-x="1339" d="M0 0l555 1468h229l553 -1468h-231l-156 422h-565l-156 -422h-229zM299 1599v25q37 39 86 92t94 109.5t74 101.5h233q27 -45 73 -101.5t95 -110.5t88 -91v-25h-149q-53 33 -112.5 80t-112.5 102q-55 -55 -111.5 -102t-110.5 -80h-147zM451 614h438l-148 412q-8 23 -22 68 t-28.5 94t-22.5 80q-16 -63 -37 -135t-33 -107z" />
<glyph unicode="&#xc3;" horiz-adv-x="1339" d="M0 0l555 1468h229l553 -1468h-231l-156 422h-565l-156 -422h-229zM279 1599q12 131 75.5 203t164.5 72q59 0 112 -29t102.5 -56.5t94.5 -27.5q80 0 108 115h117q-12 -131 -74.5 -203t-163.5 -72q-57 0 -110 27.5t-102.5 56.5t-96.5 29q-84 0 -110 -115h-117zM451 614h438 l-148 412q-8 23 -22 68t-28.5 94t-22.5 80q-16 -63 -37 -135t-33 -107z" />
<glyph unicode="&#xc4;" horiz-adv-x="1339" d="M0 0l555 1468h229l553 -1468h-231l-156 422h-565l-156 -422h-229zM363 1755q0 59 31.5 84.5t77.5 25.5q45 0 77.5 -25.5t32.5 -84.5q0 -55 -32.5 -83t-77.5 -28t-77 28t-32 83zM451 614h438l-148 412q-8 23 -22 68t-28.5 94t-22.5 80q-16 -63 -37 -135t-33 -107z M754 1755q0 59 31 84.5t78 25.5q43 0 75.5 -25.5t32.5 -84.5q0 -55 -32.5 -83t-75.5 -28q-47 0 -78 28t-31 83z" />
<glyph unicode="&#xc5;" horiz-adv-x="1339" d="M0 0l555 1468h229l553 -1468h-231l-156 422h-565l-156 -422h-229zM434 1579q0 102 63.5 162t167.5 60q98 0 166 -58.5t68 -161.5q0 -106 -67 -165.5t-167 -59.5q-104 0 -167.5 58.5t-63.5 164.5zM451 614h438l-148 412q-8 23 -22 68t-28.5 94t-22.5 80q-16 -63 -37 -135 t-33 -107zM555 1579q-1 -110 110 -110q47 0 78 29.5t31 80.5t-31 80t-78 29t-78.5 -28.5t-31.5 -80.5z" />
<glyph unicode="&#xc6;" horiz-adv-x="1847" d="M-2 0l684 1462h1042v-188h-573v-418h537v-186h-537v-480h573v-190h-794v422h-506l-199 -422h-227zM508 614h422v656h-121z" />
<glyph unicode="&#xc7;" horiz-adv-x="1296" d="M123 731q0 221 81 390t236.5 265.5t380.5 96.5q111 0 216.5 -23.5t193.5 -66.5l-82 -185q-72 33 -154 58.5t-176 25.5q-217 0 -341 -150.5t-124 -412.5q0 -260 115 -409.5t348 -149.5q94 0 181 17.5t178 45.5v-190q-86 -33 -176.5 -48t-208.5 -15q-225 0 -374 93 t-221.5 262t-72.5 396zM557 -350q23 -4 55.5 -8t63.5 -4q59 0 93 17t34 64q0 49 -48 75t-132 36l86 170h139l-45 -94q72 -18 123 -60t51 -120q0 -102 -73.5 -160t-231.5 -58q-35 0 -64.5 4.5t-50.5 8.5v129z" />
<glyph unicode="&#xc8;" horiz-adv-x="1140" d="M195 0v1462h823v-188h-602v-418h565v-186h-565v-480h602v-190h-823zM318 1906v21h252q25 -45 61.5 -101.5t76.5 -110.5t71 -91v-25h-146q-49 37 -111.5 95.5t-118.5 116.5t-85 95z" />
<glyph unicode="&#xc9;" horiz-adv-x="1140" d="M195 0v1462h823v-188h-602v-418h565v-186h-565v-480h602v-190h-823zM481 1599v25q31 37 69.5 91t74.5 110.5t63 101.5h254v-21q-31 -37 -87.5 -95t-119 -116.5t-111.5 -95.5h-143z" />
<glyph unicode="&#xca;" horiz-adv-x="1140" d="M195 0v1462h823v-188h-602v-418h565v-186h-565v-480h602v-190h-823zM254 1599v25q37 39 86 92t94 109.5t74 101.5h233q27 -45 73 -101.5t95 -110.5t88 -91v-25h-149q-53 33 -112.5 80t-112.5 102q-55 -55 -111.5 -102t-110.5 -80h-147z" />
<glyph unicode="&#xcb;" horiz-adv-x="1140" d="M195 0v1462h823v-188h-602v-418h565v-186h-565v-480h602v-190h-823zM317 1755q0 59 31.5 84.5t77.5 25.5q45 0 77.5 -25.5t32.5 -84.5q0 -55 -32.5 -83t-77.5 -28t-77 28t-32 83zM708 1755q0 59 31 84.5t78 25.5q43 0 75.5 -25.5t32.5 -84.5q0 -55 -32.5 -83t-75.5 -28 q-47 0 -78 28t-31 83z" />
<glyph unicode="&#xcc;" horiz-adv-x="724" d="M59 1906v21h252q25 -45 61.5 -101.5t76.5 -110.5t71 -91v-25h-146q-49 37 -111.5 95.5t-118.5 116.5t-85 95zM78 0v127l174 51v1104l-174 53v127h567v-127l-172 -53v-1104l172 -51v-127h-567z" />
<glyph unicode="&#xcd;" horiz-adv-x="724" d="M78 0v127l174 51v1104l-174 53v127h567v-127l-172 -53v-1104l172 -51v-127h-567zM223 1599v25q31 37 69.5 91t74.5 110.5t63 101.5h254v-21q-31 -37 -87.5 -95t-119 -116.5t-111.5 -95.5h-143z" />
<glyph unicode="&#xce;" horiz-adv-x="724" d="M-6 1599v25q37 39 86 92t94 109.5t74 101.5h233q27 -45 73 -101.5t95 -110.5t88 -91v-25h-149q-53 33 -112.5 80t-112.5 102q-55 -55 -111.5 -102t-110.5 -80h-147zM78 0v127l174 51v1104l-174 53v127h567v-127l-172 -53v-1104l172 -51v-127h-567z" />
<glyph unicode="&#xcf;" horiz-adv-x="724" d="M57 1755q0 59 31.5 84.5t77.5 25.5q45 0 77.5 -25.5t32.5 -84.5q0 -55 -32.5 -83t-77.5 -28t-77 28t-32 83zM78 0v127l174 51v1104l-174 53v127h567v-127l-172 -53v-1104l172 -51v-127h-567zM448 1755q0 59 31 84.5t78 25.5q43 0 75.5 -25.5t32.5 -84.5q0 -55 -32.5 -83 t-75.5 -28q-47 0 -78 28t-31 83z" />
<glyph unicode="&#xd0;" horiz-adv-x="1501" d="M57 629v188h148v645h442q221 0 386 -82t255 -241.5t90 -393.5q0 -371 -204.5 -558t-571.5 -187h-397v629h-148zM426 186h168q553 0 553 553q0 276 -135 406.5t-379 130.5h-207v-459h328v-188h-328v-443z" />
<glyph unicode="&#xd1;" horiz-adv-x="1589" d="M195 0v1462h266l737 -1175h6q-2 43 -5 108.5t-5 140t-4 140.5v786h205v-1462h-269l-739 1182h-8q4 -82 9 -187.5t7 -216.5v-778h-200zM406 1599q12 131 75.5 203t164.5 72q59 0 112 -29t102.5 -56.5t94.5 -27.5q80 0 108 115h117q-12 -131 -74.5 -203t-163.5 -72 q-57 0 -110 27.5t-102.5 56.5t-96.5 29q-84 0 -110 -115h-117z" />
<glyph unicode="&#xd2;" horiz-adv-x="1607" d="M123 735q0 225 73.5 394t225 262.5t385.5 93.5q225 0 375.5 -93.5t226.5 -262.5t76 -396t-76 -396t-227.5 -263t-376.5 -94q-231 0 -383 94t-225.5 264t-73.5 397zM356 733q0 -262 108.5 -413.5t340.5 -151.5q233 0 339.5 151.5t106.5 413.5t-106.5 411.5t-337.5 149.5 q-233 0 -342 -149.5t-109 -411.5zM500 1906v21h252q25 -45 61.5 -101.5t76.5 -110.5t71 -91v-25h-146q-49 37 -111.5 95.5t-118.5 116.5t-85 95z" />
<glyph unicode="&#xd3;" horiz-adv-x="1607" d="M123 735q0 225 73.5 394t225 262.5t385.5 93.5q225 0 375.5 -93.5t226.5 -262.5t76 -396t-76 -396t-227.5 -263t-376.5 -94q-231 0 -383 94t-225.5 264t-73.5 397zM356 733q0 -262 108.5 -413.5t340.5 -151.5q233 0 339.5 151.5t106.5 413.5t-106.5 411.5t-337.5 149.5 q-233 0 -342 -149.5t-109 -411.5zM664 1599v25q31 37 69.5 91t74.5 110.5t63 101.5h254v-21q-31 -37 -87.5 -95t-119 -116.5t-111.5 -95.5h-143z" />
<glyph unicode="&#xd4;" horiz-adv-x="1607" d="M123 735q0 225 73.5 394t225 262.5t385.5 93.5q225 0 375.5 -93.5t226.5 -262.5t76 -396t-76 -396t-227.5 -263t-376.5 -94q-231 0 -383 94t-225.5 264t-73.5 397zM356 733q0 -262 108.5 -413.5t340.5 -151.5q233 0 339.5 151.5t106.5 413.5t-106.5 411.5t-337.5 149.5 q-233 0 -342 -149.5t-109 -411.5zM436 1599v25q37 39 86 92t94 109.5t74 101.5h233q27 -45 73 -101.5t95 -110.5t88 -91v-25h-149q-53 33 -112.5 80t-112.5 102q-55 -55 -111.5 -102t-110.5 -80h-147z" />
<glyph unicode="&#xd5;" horiz-adv-x="1607" d="M123 735q0 225 73.5 394t225 262.5t385.5 93.5q225 0 375.5 -93.5t226.5 -262.5t76 -396t-76 -396t-227.5 -263t-376.5 -94q-231 0 -383 94t-225.5 264t-73.5 397zM356 733q0 -262 108.5 -413.5t340.5 -151.5q233 0 339.5 151.5t106.5 413.5t-106.5 411.5t-337.5 149.5 q-233 0 -342 -149.5t-109 -411.5zM416 1599q12 131 75.5 203t164.5 72q59 0 112 -29t102.5 -56.5t94.5 -27.5q80 0 108 115h117q-12 -131 -74.5 -203t-163.5 -72q-57 0 -110 27.5t-102.5 56.5t-96.5 29q-84 0 -110 -115h-117z" />
<glyph unicode="&#xd6;" horiz-adv-x="1607" d="M123 735q0 225 73.5 394t225 262.5t385.5 93.5q225 0 375.5 -93.5t226.5 -262.5t76 -396t-76 -396t-227.5 -263t-376.5 -94q-231 0 -383 94t-225.5 264t-73.5 397zM356 733q0 -262 108.5 -413.5t340.5 -151.5q233 0 339.5 151.5t106.5 413.5t-106.5 411.5t-337.5 149.5 q-233 0 -342 -149.5t-109 -411.5zM500 1755q0 59 31.5 84.5t77.5 25.5q45 0 77.5 -25.5t32.5 -84.5q0 -55 -32.5 -83t-77.5 -28t-77 28t-32 83zM891 1755q0 59 31 84.5t78 25.5q43 0 75.5 -25.5t32.5 -84.5q0 -55 -32.5 -83t-75.5 -28q-47 0 -78 28t-31 83z" />
<glyph unicode="&#xd7;" horiz-adv-x="1171" d="M131 1057l119 119l334 -334l336 334l118 -117l-336 -336l332 -336l-114 -117l-338 332l-330 -332l-119 119l332 334z" />
<glyph unicode="&#xd8;" horiz-adv-x="1607" d="M123 735q0 225 73.5 394t225 262.5t385.5 93.5q104 0 194.5 -23.5t163.5 -62.5l92 133l136 -90l-101 -142q96 -98 144.5 -242.5t48.5 -324.5q0 -227 -76 -396t-227.5 -263t-376.5 -94q-219 0 -367 88l-96 -140l-135 90l102 148q-94 100 -140 244.5t-46 324.5zM356 733 q0 -117 20.5 -212t63.5 -165l611 875q-98 63 -244 63q-233 0 -342 -149.5t-109 -411.5zM555 236q47 -33 110.5 -50.5t139.5 -17.5q233 0 339.5 151.5t106.5 413.5q0 240 -88 379z" />
<glyph unicode="&#xd9;" horiz-adv-x="1511" d="M182 520v942h221v-932q0 -362 357 -362q184 0 267 98.5t83 265.5v930h219v-946q0 -152 -62.5 -273.5t-191.5 -192t-325 -70.5q-279 0 -423.5 148t-144.5 392zM453 1906v21h252q25 -45 61.5 -101.5t76.5 -110.5t71 -91v-25h-146q-49 37 -111.5 95.5t-118.5 116.5t-85 95z " />
<glyph unicode="&#xda;" horiz-adv-x="1511" d="M182 520v942h221v-932q0 -362 357 -362q184 0 267 98.5t83 265.5v930h219v-946q0 -152 -62.5 -273.5t-191.5 -192t-325 -70.5q-279 0 -423.5 148t-144.5 392zM617 1599v25q31 37 69.5 91t74.5 110.5t63 101.5h254v-21q-31 -37 -87.5 -95t-119 -116.5t-111.5 -95.5h-143z " />
<glyph unicode="&#xdb;" horiz-adv-x="1511" d="M182 520v942h221v-932q0 -362 357 -362q184 0 267 98.5t83 265.5v930h219v-946q0 -152 -62.5 -273.5t-191.5 -192t-325 -70.5q-279 0 -423.5 148t-144.5 392zM389 1599v25q37 39 86 92t94 109.5t74 101.5h233q27 -45 73 -101.5t95 -110.5t88 -91v-25h-149 q-53 33 -112.5 80t-112.5 102q-55 -55 -111.5 -102t-110.5 -80h-147z" />
<glyph unicode="&#xdc;" horiz-adv-x="1511" d="M182 520v942h221v-932q0 -362 357 -362q184 0 267 98.5t83 265.5v930h219v-946q0 -152 -62.5 -273.5t-191.5 -192t-325 -70.5q-279 0 -423.5 148t-144.5 392zM451 1755q0 59 31.5 84.5t77.5 25.5q45 0 77.5 -25.5t32.5 -84.5q0 -55 -32.5 -83t-77.5 -28t-77 28t-32 83z M842 1755q0 59 31 84.5t78 25.5q43 0 75.5 -25.5t32.5 -84.5q0 -55 -32.5 -83t-75.5 -28q-47 0 -78 28t-31 83z" />
<glyph unicode="&#xdd;" horiz-adv-x="1193" d="M0 1462h240l358 -684l358 684h238l-487 -895v-567h-220v559zM457 1599v25q31 37 69.5 91t74.5 110.5t63 101.5h254v-21q-31 -37 -87.5 -95t-119 -116.5t-111.5 -95.5h-143z" />
<glyph unicode="&#xde;" horiz-adv-x="1253" d="M195 0v1462h221v-245h190q289 0 418 -117t129 -322q0 -123 -53 -229.5t-179 -173t-343 -66.5h-162v-309h-221zM416 494h133q195 0 286 64.5t91 213.5q0 131 -82 194.5t-262 63.5h-166v-536z" />
<glyph unicode="&#xdf;" horiz-adv-x="1341" d="M170 0v1180q0 139 63.5 224t172 124t245.5 39q139 0 244.5 -35t166 -104t60.5 -171q0 -72 -28.5 -125t-71.5 -93t-86 -71.5t-71.5 -61t-28.5 -64.5q0 -27 16 -49.5t57 -53t117 -80.5q109 -70 169 -145.5t60 -196.5q0 -174 -109.5 -255.5t-295.5 -81.5q-188 0 -299 67v186 q51 -33 131 -59.5t158 -26.5q102 0 150 42t48 118q0 68 -40 114t-152 118q-127 80 -175 140t-48 142q0 63 27.5 108.5t69.5 79t84 65.5t69.5 70t27.5 91q0 78 -70.5 117t-179.5 39q-72 0 -132 -19.5t-96 -67t-36 -128.5v-1176h-217z" />
<glyph unicode="&#xe0;" horiz-adv-x="1175" d="M92 313q0 170 128 257t390 96l189 6v61q0 121 -55.5 171t-155.5 50q-84 0 -162 -24.5t-150 -59.5l-69 158q78 41 179 68.5t212 27.5q207 0 310.5 -91t103.5 -285v-748h-154l-43 154h-8q-72 -90 -150.5 -132t-218.5 -42q-150 0 -248 80.5t-98 252.5zM283 1548v21h252 q25 -45 61.5 -101.5t76.5 -110.5t71 -91v-25h-146q-49 37 -111.5 95.5t-118.5 116.5t-85 95zM315 311q0 -86 51.5 -125t133.5 -39q127 0 212 72t85 215v96l-148 -4q-188 -8 -261 -63t-73 -152z" />
<glyph unicode="&#xe1;" horiz-adv-x="1175" d="M92 313q0 170 128 257t390 96l189 6v61q0 121 -55.5 171t-155.5 50q-84 0 -162 -24.5t-150 -59.5l-69 158q78 41 179 68.5t212 27.5q207 0 310.5 -91t103.5 -285v-748h-154l-43 154h-8q-72 -90 -150.5 -132t-218.5 -42q-150 0 -248 80.5t-98 252.5zM315 311 q0 -86 51.5 -125t133.5 -39q127 0 212 72t85 215v96l-148 -4q-188 -8 -261 -63t-73 -152zM447 1241v25q31 37 69.5 91t74.5 110.5t63 101.5h254v-21q-31 -37 -87.5 -95t-119 -116.5t-111.5 -95.5h-143z" />
<glyph unicode="&#xe2;" horiz-adv-x="1175" d="M92 313q0 170 128 257t390 96l189 6v61q0 121 -55.5 171t-155.5 50q-84 0 -162 -24.5t-150 -59.5l-69 158q78 41 179 68.5t212 27.5q207 0 310.5 -91t103.5 -285v-748h-154l-43 154h-8q-72 -90 -150.5 -132t-218.5 -42q-150 0 -248 80.5t-98 252.5zM219 1241v25 q37 39 86 92t94 109.5t74 101.5h233q27 -45 73 -101.5t95 -110.5t88 -91v-25h-149q-53 33 -112.5 80t-112.5 102q-55 -55 -111.5 -102t-110.5 -80h-147zM315 311q0 -86 51.5 -125t133.5 -39q127 0 212 72t85 215v96l-148 -4q-188 -8 -261 -63t-73 -152z" />
<glyph unicode="&#xe3;" horiz-adv-x="1175" d="M92 313q0 170 128 257t390 96l189 6v61q0 121 -55.5 171t-155.5 50q-84 0 -162 -24.5t-150 -59.5l-69 158q78 41 179 68.5t212 27.5q207 0 310.5 -91t103.5 -285v-748h-154l-43 154h-8q-72 -90 -150.5 -132t-218.5 -42q-150 0 -248 80.5t-98 252.5zM201 1241 q12 131 75.5 203t164.5 72q59 0 112 -29t102.5 -56.5t94.5 -27.5q80 0 108 115h117q-12 -131 -74.5 -203t-163.5 -72q-57 0 -110 27.5t-102.5 56.5t-96.5 29q-84 0 -110 -115h-117zM315 311q0 -86 51.5 -125t133.5 -39q127 0 212 72t85 215v96l-148 -4q-188 -8 -261 -63 t-73 -152z" />
<glyph unicode="&#xe4;" horiz-adv-x="1175" d="M92 313q0 170 128 257t390 96l189 6v61q0 121 -55.5 171t-155.5 50q-84 0 -162 -24.5t-150 -59.5l-69 158q78 41 179 68.5t212 27.5q207 0 310.5 -91t103.5 -285v-748h-154l-43 154h-8q-72 -90 -150.5 -132t-218.5 -42q-150 0 -248 80.5t-98 252.5zM283 1397 q0 59 31.5 84.5t77.5 25.5q45 0 77.5 -25.5t32.5 -84.5q0 -55 -32.5 -83t-77.5 -28t-77 28t-32 83zM315 311q0 -86 51.5 -125t133.5 -39q127 0 212 72t85 215v96l-148 -4q-188 -8 -261 -63t-73 -152zM674 1397q0 59 31 84.5t78 25.5q43 0 75.5 -25.5t32.5 -84.5 q0 -55 -32.5 -83t-75.5 -28q-47 0 -78 28t-31 83z" />
<glyph unicode="&#xe5;" horiz-adv-x="1175" d="M92 313q0 170 128 257t390 96l189 6v61q0 121 -55.5 171t-155.5 50q-84 0 -162 -24.5t-150 -59.5l-69 158q78 41 179 68.5t212 27.5q207 0 310.5 -91t103.5 -285v-748h-154l-43 154h-8q-72 -90 -150.5 -132t-218.5 -42q-150 0 -248 80.5t-98 252.5zM315 311 q0 -86 51.5 -125t133.5 -39q127 0 212 72t85 215v96l-148 -4q-188 -8 -261 -63t-73 -152zM361 1464q0 102 63.5 162t167.5 60q98 0 166 -58.5t68 -161.5q0 -106 -67 -165.5t-167 -59.5q-104 0 -167.5 58.5t-63.5 164.5zM482 1464q-1 -110 110 -110q47 0 78 29.5t31 80.5 t-31 80t-78 29t-78.5 -28.5t-31.5 -80.5z" />
<glyph unicode="&#xe6;" horiz-adv-x="1802" d="M92 313q0 338 494 353l186 6v73q0 115 -57.5 162t-153.5 47q-80 0 -157.5 -24.5t-147.5 -57.5l-68 156q78 41 180.5 68.5t209.5 27.5q246 0 337 -163q57 78 142 120.5t200 42.5q135 0 235.5 -61.5t155 -173t54.5 -260.5v-123h-709q4 -176 83 -263t222 -87 q102 0 184.5 19.5t166.5 57.5v-180q-84 -39 -165 -56t-194 -17q-139 0 -247.5 56t-174.5 167q-78 -106 -170 -164.5t-256 -58.5q-98 0 -178 35.5t-126 109.5t-46 188zM315 311q0 -86 48.5 -125t128.5 -39q119 0 198.5 72t79.5 215v96l-141 -4q-176 -8 -245 -63t-69 -152z M997 666h486q0 129 -56.5 209.5t-171.5 80.5q-113 0 -180 -73.5t-78 -216.5z" />
<glyph unicode="&#xe7;" horiz-adv-x="1003" d="M106 545q0 205 68 332t186.5 187t270.5 60q92 0 173 -18.5t134 -44.5l-66 -176q-57 20 -120.5 37.5t-122.5 17.5q-299 0 -299 -393q0 -188 73.5 -286.5t217.5 -98.5q90 0 161.5 20.5t130.5 53.5v-189q-59 -35 -129 -51t-170 -16q-229 0 -368.5 136t-139.5 429zM379 -350 q23 -4 55.5 -8t63.5 -4q59 0 93 17t34 64q0 49 -48 75t-132 36l86 170h139l-45 -94q72 -18 123 -60t51 -120q0 -102 -73.5 -160t-231.5 -58q-35 0 -64.5 4.5t-50.5 8.5v129z" />
<glyph unicode="&#xe8;" horiz-adv-x="1171" d="M106 543q0 186 62.5 315t174 197.5t261.5 68.5q217 0 342 -134t125 -365v-119h-741q4 -170 89 -260t238 -90q106 0 189.5 19.5t171.5 57.5v-180q-84 -39 -168 -56t-201 -17q-160 0 -282.5 63t-191.5 188t-69 312zM287 1548v21h252q25 -45 61.5 -101.5t76.5 -110.5t71 -91 v-25h-146q-49 37 -111.5 95.5t-118.5 116.5t-85 95zM334 666h520q-2 129 -62.5 209.5t-187.5 80.5q-117 0 -187.5 -75.5t-82.5 -214.5z" />
<glyph unicode="&#xe9;" horiz-adv-x="1171" d="M106 543q0 186 62.5 315t174 197.5t261.5 68.5q217 0 342 -134t125 -365v-119h-741q4 -170 89 -260t238 -90q106 0 189.5 19.5t171.5 57.5v-180q-84 -39 -168 -56t-201 -17q-160 0 -282.5 63t-191.5 188t-69 312zM334 666h520q-2 129 -62.5 209.5t-187.5 80.5 q-117 0 -187.5 -75.5t-82.5 -214.5zM449 1241v25q31 37 69.5 91t74.5 110.5t63 101.5h254v-21q-31 -37 -87.5 -95t-119 -116.5t-111.5 -95.5h-143z" />
<glyph unicode="&#xea;" horiz-adv-x="1171" d="M106 543q0 186 62.5 315t174 197.5t261.5 68.5q217 0 342 -134t125 -365v-119h-741q4 -170 89 -260t238 -90q106 0 189.5 19.5t171.5 57.5v-180q-84 -39 -168 -56t-201 -17q-160 0 -282.5 63t-191.5 188t-69 312zM221 1241v25q37 39 86 92t94 109.5t74 101.5h233 q27 -45 73 -101.5t95 -110.5t88 -91v-25h-149q-53 33 -112.5 80t-112.5 102q-55 -55 -111.5 -102t-110.5 -80h-147zM334 666h520q-2 129 -62.5 209.5t-187.5 80.5q-117 0 -187.5 -75.5t-82.5 -214.5z" />
<glyph unicode="&#xeb;" horiz-adv-x="1171" d="M106 543q0 186 62.5 315t174 197.5t261.5 68.5q217 0 342 -134t125 -365v-119h-741q4 -170 89 -260t238 -90q106 0 189.5 19.5t171.5 57.5v-180q-84 -39 -168 -56t-201 -17q-160 0 -282.5 63t-191.5 188t-69 312zM285 1397q0 59 31.5 84.5t77.5 25.5q45 0 77.5 -25.5 t32.5 -84.5q0 -55 -32.5 -83t-77.5 -28t-77 28t-32 83zM334 666h520q-2 129 -62.5 209.5t-187.5 80.5q-117 0 -187.5 -75.5t-82.5 -214.5zM676 1397q0 59 31 84.5t78 25.5q43 0 75.5 -25.5t32.5 -84.5q0 -55 -32.5 -83t-75.5 -28q-47 0 -78 28t-31 83z" />
<glyph unicode="&#xec;" horiz-adv-x="557" d="M-27 1548v21h252q25 -45 61.5 -101.5t76.5 -110.5t71 -91v-25h-146q-49 37 -111.5 95.5t-118.5 116.5t-85 95zM170 0v1104h217v-1104h-217z" />
<glyph unicode="&#xed;" horiz-adv-x="557" d="M137 1241v25q31 37 69.5 91t74.5 110.5t63 101.5h254v-21q-31 -37 -87.5 -95t-119 -116.5t-111.5 -95.5h-143zM170 0v1104h217v-1104h-217z" />
<glyph unicode="&#xee;" horiz-adv-x="557" d="M-90 1241v25q37 39 86 92t94 109.5t74 101.5h233q27 -45 73 -101.5t95 -110.5t88 -91v-25h-149q-53 33 -112.5 80t-112.5 102q-55 -55 -111.5 -102t-110.5 -80h-147zM170 0v1104h217v-1104h-217z" />
<glyph unicode="&#xef;" horiz-adv-x="557" d="M-27 1397q0 59 31.5 84.5t77.5 25.5q45 0 77.5 -25.5t32.5 -84.5q0 -55 -32.5 -83t-77.5 -28t-77 28t-32 83zM170 0v1104h217v-1104h-217zM364 1397q0 59 31 84.5t78 25.5q43 0 75.5 -25.5t32.5 -84.5q0 -55 -32.5 -83t-75.5 -28q-47 0 -78 28t-31 83z" />
<glyph unicode="&#xf0;" horiz-adv-x="1247" d="M106 481q0 231 131.5 363.5t350.5 132.5q215 0 307 -113l8 4q-35 106 -96.5 195.5t-140.5 161.5l-254 -150l-86 125l215 125q-82 55 -174 102l79 140q68 -31 134.5 -68t124.5 -78l233 138l84 -123l-193 -113q143 -131 228.5 -320.5t85.5 -437.5q0 -289 -140.5 -437 t-381.5 -148q-150 0 -266.5 60t-182.5 172t-66 269zM328 475q0 -143 69.5 -234t227.5 -91q156 0 226.5 95t70.5 275q0 117 -72.5 202t-224.5 85q-158 0 -227.5 -84t-69.5 -248z" />
<glyph unicode="&#xf1;" horiz-adv-x="1290" d="M170 0v1104h172l31 -148h12q53 86 146.5 127t197.5 41q193 0 295 -96t102 -309v-719h-215v688q0 258 -227 258q-168 0 -232.5 -100.5t-64.5 -288.5v-557h-217zM256 1241q12 131 75.5 203t164.5 72q59 0 112 -29t102.5 -56.5t94.5 -27.5q80 0 108 115h117 q-12 -131 -74.5 -203t-163.5 -72q-57 0 -110 27.5t-102.5 56.5t-96.5 29q-84 0 -110 -115h-117z" />
<glyph unicode="&#xf2;" horiz-adv-x="1247" d="M106 553q0 274 139.5 422.5t381.5 148.5q152 0 267.5 -66.5t182 -193.5t66.5 -311q0 -274 -141.5 -423.5t-380.5 -149.5q-150 0 -265.5 66.5t-182.5 194.5t-67 312zM320 1548v21h252q25 -45 61.5 -101.5t76.5 -110.5t71 -91v-25h-146q-49 37 -111.5 95.5t-118.5 116.5 t-85 95zM330 553q0 -186 70.5 -290.5t224.5 -104.5t224.5 104.5t70.5 290.5q0 188 -71 289.5t-226 101.5q-154 0 -223.5 -101.5t-69.5 -289.5z" />
<glyph unicode="&#xf3;" horiz-adv-x="1247" d="M106 553q0 274 139.5 422.5t381.5 148.5q152 0 267.5 -66.5t182 -193.5t66.5 -311q0 -274 -141.5 -423.5t-380.5 -149.5q-150 0 -265.5 66.5t-182.5 194.5t-67 312zM330 553q0 -186 70.5 -290.5t224.5 -104.5t224.5 104.5t70.5 290.5q0 188 -71 289.5t-226 101.5 q-154 0 -223.5 -101.5t-69.5 -289.5zM483 1241v25q31 37 69.5 91t74.5 110.5t63 101.5h254v-21q-31 -37 -87.5 -95t-119 -116.5t-111.5 -95.5h-143z" />
<glyph unicode="&#xf4;" horiz-adv-x="1247" d="M106 553q0 274 139.5 422.5t381.5 148.5q152 0 267.5 -66.5t182 -193.5t66.5 -311q0 -274 -141.5 -423.5t-380.5 -149.5q-150 0 -265.5 66.5t-182.5 194.5t-67 312zM256 1241v25q37 39 86 92t94 109.5t74 101.5h233q27 -45 73 -101.5t95 -110.5t88 -91v-25h-149 q-53 33 -112.5 80t-112.5 102q-55 -55 -111.5 -102t-110.5 -80h-147zM330 553q0 -186 70.5 -290.5t224.5 -104.5t224.5 104.5t70.5 290.5q0 188 -71 289.5t-226 101.5q-154 0 -223.5 -101.5t-69.5 -289.5z" />
<glyph unicode="&#xf5;" horiz-adv-x="1247" d="M106 553q0 274 139.5 422.5t381.5 148.5q152 0 267.5 -66.5t182 -193.5t66.5 -311q0 -274 -141.5 -423.5t-380.5 -149.5q-150 0 -265.5 66.5t-182.5 194.5t-67 312zM236 1241q12 131 75.5 203t164.5 72q59 0 112 -29t102.5 -56.5t94.5 -27.5q80 0 108 115h117 q-12 -131 -74.5 -203t-163.5 -72q-57 0 -110 27.5t-102.5 56.5t-96.5 29q-84 0 -110 -115h-117zM330 553q0 -186 70.5 -290.5t224.5 -104.5t224.5 104.5t70.5 290.5q0 188 -71 289.5t-226 101.5q-154 0 -223.5 -101.5t-69.5 -289.5z" />
<glyph unicode="&#xf6;" horiz-adv-x="1247" d="M106 553q0 274 139.5 422.5t381.5 148.5q152 0 267.5 -66.5t182 -193.5t66.5 -311q0 -274 -141.5 -423.5t-380.5 -149.5q-150 0 -265.5 66.5t-182.5 194.5t-67 312zM320 1397q0 59 31.5 84.5t77.5 25.5q45 0 77.5 -25.5t32.5 -84.5q0 -55 -32.5 -83t-77.5 -28t-77 28 t-32 83zM330 553q0 -186 70.5 -290.5t224.5 -104.5t224.5 104.5t70.5 290.5q0 188 -71 289.5t-226 101.5q-154 0 -223.5 -101.5t-69.5 -289.5zM711 1397q0 59 31 84.5t78 25.5q43 0 75.5 -25.5t32.5 -84.5q0 -55 -32.5 -83t-75.5 -28q-47 0 -78 28t-31 83z" />
<glyph unicode="&#xf7;" horiz-adv-x="1171" d="M98 639v166h973v-166h-973zM461 373q0 74 35.5 102.5t87.5 28.5q49 0 85 -29t36 -102q0 -70 -36 -101.5t-85 -31.5q-51 0 -87 31.5t-36 101.5zM461 1071q0 74 35.5 102.5t87.5 28.5q49 0 85 -28.5t36 -102.5q0 -72 -36 -102.5t-85 -30.5q-51 0 -87 30.5t-36 102.5z" />
<glyph unicode="&#xf8;" horiz-adv-x="1247" d="M106 553q0 274 139.5 422.5t381.5 148.5q74 0 139 -17t123 -50l74 104l129 -86l-82 -114q61 -74 97 -175.5t36 -232.5q0 -274 -141.5 -423.5t-380.5 -149.5q-141 0 -256 61l-76 -111l-129 86l84 121q-66 74 -102 178.5t-36 237.5zM330 553q0 -70 9 -129t32 -105l409 584 q-63 41 -157 41q-154 0 -223.5 -101.5t-69.5 -289.5zM473 195q61 -37 152 -37q154 0 224.5 104.5t70.5 290.5q0 131 -37 221z" />
<glyph unicode="&#xf9;" horiz-adv-x="1290" d="M160 381v723h219v-690q0 -129 54 -192.5t169 -63.5q170 0 235.5 99t65.5 288v559h217v-1104h-174l-31 145h-10q-53 -86 -147 -125.5t-199 -39.5q-195 0 -297 95t-102 306zM340 1548v21h252q25 -45 61.5 -101.5t76.5 -110.5t71 -91v-25h-146q-49 37 -111.5 95.5 t-118.5 116.5t-85 95z" />
<glyph unicode="&#xfa;" horiz-adv-x="1290" d="M160 381v723h219v-690q0 -129 54 -192.5t169 -63.5q170 0 235.5 99t65.5 288v559h217v-1104h-174l-31 145h-10q-53 -86 -147 -125.5t-199 -39.5q-195 0 -297 95t-102 306zM504 1241v25q31 37 69.5 91t74.5 110.5t63 101.5h254v-21q-31 -37 -87.5 -95t-119 -116.5 t-111.5 -95.5h-143z" />
<glyph unicode="&#xfb;" horiz-adv-x="1290" d="M160 381v723h219v-690q0 -129 54 -192.5t169 -63.5q170 0 235.5 99t65.5 288v559h217v-1104h-174l-31 145h-10q-53 -86 -147 -125.5t-199 -39.5q-195 0 -297 95t-102 306zM277 1241v25q37 39 86 92t94 109.5t74 101.5h233q27 -45 73 -101.5t95 -110.5t88 -91v-25h-149 q-53 33 -112.5 80t-112.5 102q-55 -55 -111.5 -102t-110.5 -80h-147z" />
<glyph unicode="&#xfc;" horiz-adv-x="1290" d="M160 381v723h219v-690q0 -129 54 -192.5t169 -63.5q170 0 235.5 99t65.5 288v559h217v-1104h-174l-31 145h-10q-53 -86 -147 -125.5t-199 -39.5q-195 0 -297 95t-102 306zM340 1397q0 59 31.5 84.5t77.5 25.5q45 0 77.5 -25.5t32.5 -84.5q0 -55 -32.5 -83t-77.5 -28 t-77 28t-32 83zM731 1397q0 59 31 84.5t78 25.5q43 0 75.5 -25.5t32.5 -84.5q0 -55 -32.5 -83t-75.5 -28q-47 0 -78 28t-31 83z" />
<glyph unicode="&#xfd;" horiz-adv-x="1079" d="M2 1104h234l229 -627q27 -72 47 -137.5t29 -130.5h8q10 53 31.5 125t48.5 145l217 625h233l-473 -1254q-59 -160 -158.5 -251t-259.5 -91q-51 0 -88 5.5t-63 11.5v172q20 -4 53 -8t68 -4q94 0 151.5 54t89.5 142l45 119zM399 1241v25q31 37 69.5 91t74.5 110.5t63 101.5 h254v-21q-31 -37 -87.5 -95t-119 -116.5t-111.5 -95.5h-143z" />
<glyph unicode="&#xfe;" horiz-adv-x="1269" d="M170 -492v2048h217v-438q0 -35 -3 -85t-5 -77h10q45 70 125 119t207 49q199 0 320.5 -145t121.5 -426t-120.5 -427t-321.5 -146q-127 0 -207 45t-127 108h-12q2 -27 7 -81t5 -87v-457h-217zM387 555q0 -193 61.5 -295t225.5 -102q137 0 201.5 103t64.5 296 q0 195 -64.5 292t-203.5 97q-156 0 -219.5 -88t-65.5 -266v-37z" />
<glyph unicode="&#xff;" horiz-adv-x="1079" d="M2 1104h234l229 -627q27 -72 47 -137.5t29 -130.5h8q10 53 31.5 125t48.5 145l217 625h233l-473 -1254q-59 -160 -158.5 -251t-259.5 -91q-51 0 -88 5.5t-63 11.5v172q20 -4 53 -8t68 -4q94 0 151.5 54t89.5 142l45 119zM236 1397q0 59 31.5 84.5t77.5 25.5 q45 0 77.5 -25.5t32.5 -84.5q0 -55 -32.5 -83t-77.5 -28t-77 28t-32 83zM627 1397q0 59 31 84.5t78 25.5q43 0 75.5 -25.5t32.5 -84.5q0 -55 -32.5 -83t-75.5 -28q-47 0 -78 28t-31 83z" />
<glyph unicode="&#x100;" horiz-adv-x="1339" d="M0 0l555 1468h229l553 -1468h-231l-156 422h-565l-156 -422h-229zM352 1599v164h629v-164h-629zM451 614h438l-148 412q-8 23 -22 68t-28.5 94t-22.5 80q-16 -63 -37 -135t-33 -107z" />
<glyph unicode="&#x101;" horiz-adv-x="1175" d="M92 313q0 170 128 257t390 96l189 6v61q0 121 -55.5 171t-155.5 50q-84 0 -162 -24.5t-150 -59.5l-69 158q78 41 179 68.5t212 27.5q207 0 310.5 -91t103.5 -285v-748h-154l-43 154h-8q-72 -90 -150.5 -132t-218.5 -42q-150 0 -248 80.5t-98 252.5zM272 1241v164h629 v-164h-629zM315 311q0 -86 51.5 -125t133.5 -39q127 0 212 72t85 215v96l-148 -4q-188 -8 -261 -63t-73 -152z" />
<glyph unicode="&#x102;" horiz-adv-x="1339" d="M0 0l555 1468h229l553 -1468h-231l-156 422h-565l-156 -422h-229zM336 1892h129q8 -84 63.5 -105.5t147.5 -21.5q78 0 139.5 23.5t71.5 103.5h131q-10 -131 -101.5 -212t-244.5 -81q-160 0 -244 80t-92 213zM451 614h438l-148 412q-8 23 -22 68t-28.5 94t-22.5 80 q-16 -63 -37 -135t-33 -107z" />
<glyph unicode="&#x103;" horiz-adv-x="1175" d="M92 313q0 170 128 257t390 96l189 6v61q0 121 -55.5 171t-155.5 50q-84 0 -162 -24.5t-150 -59.5l-69 158q78 41 179 68.5t212 27.5q207 0 310.5 -91t103.5 -285v-748h-154l-43 154h-8q-72 -90 -150.5 -132t-218.5 -42q-150 0 -248 80.5t-98 252.5zM256 1534h129 q8 -84 63.5 -105.5t147.5 -21.5q78 0 139.5 23.5t71.5 103.5h131q-10 -131 -101.5 -212t-244.5 -81q-160 0 -244 80t-92 213zM315 311q0 -86 51.5 -125t133.5 -39q127 0 212 72t85 215v96l-148 -4q-188 -8 -261 -63t-73 -152z" />
<glyph unicode="&#x104;" horiz-adv-x="1339" d="M0 0l555 1468h229l553 -1468h-231l-156 422h-565l-156 -422h-229zM451 614h438l-148 412q-8 23 -22 68t-28.5 94t-22.5 80q-16 -63 -37 -135t-33 -107zM969 -260q0 59 29.5 114.5t75.5 101.5t94 77l108 -33q-70 -66 -105.5 -121.5t-35.5 -114.5q0 -45 23.5 -66.5 t64.5 -21.5q33 0 59.5 5.5t44.5 9.5v-133q-31 -8 -62.5 -14.5t-72.5 -6.5q-113 0 -168 54.5t-55 148.5z" />
<glyph unicode="&#x105;" horiz-adv-x="1175" d="M92 313q0 170 128 257t390 96l189 6v61q0 121 -55.5 171t-155.5 50q-84 0 -162 -24.5t-150 -59.5l-69 158q78 41 179 68.5t212 27.5q207 0 310.5 -91t103.5 -285v-748h-154l-43 154h-8q-72 -90 -150.5 -132t-218.5 -42q-150 0 -248 80.5t-98 252.5zM315 311 q0 -86 51.5 -125t133.5 -39q127 0 212 72t85 215v96l-148 -4q-188 -8 -261 -63t-73 -152zM698 -260q0 59 29.5 114.5t75.5 101.5t94 77l108 -33q-70 -66 -105.5 -121.5t-35.5 -114.5q0 -45 23.5 -66.5t64.5 -21.5q33 0 59.5 5.5t44.5 9.5v-133q-31 -8 -62.5 -14.5 t-72.5 -6.5q-113 0 -168 54.5t-55 148.5z" />
<glyph unicode="&#x106;" horiz-adv-x="1296" d="M123 731q0 221 81 390t236.5 265.5t380.5 96.5q111 0 216.5 -23.5t193.5 -66.5l-82 -185q-72 33 -154 58.5t-176 25.5q-217 0 -341 -150.5t-124 -412.5q0 -260 115 -409.5t348 -149.5q94 0 181 17.5t178 45.5v-190q-86 -33 -176.5 -48t-208.5 -15q-225 0 -374 93 t-221.5 262t-72.5 396zM635 1599v25q31 37 69.5 91t74.5 110.5t63 101.5h254v-21q-31 -37 -87.5 -95t-119 -116.5t-111.5 -95.5h-143z" />
<glyph unicode="&#x107;" horiz-adv-x="1003" d="M106 545q0 205 68 332t186.5 187t270.5 60q92 0 173 -18.5t134 -44.5l-66 -176q-57 20 -120.5 37.5t-122.5 17.5q-299 0 -299 -393q0 -188 73.5 -286.5t217.5 -98.5q90 0 161.5 20.5t130.5 53.5v-189q-59 -35 -129 -51t-170 -16q-229 0 -368.5 136t-139.5 429zM442 1241 v25q31 37 69.5 91t74.5 110.5t63 101.5h254v-21q-31 -37 -87.5 -95t-119 -116.5t-111.5 -95.5h-143z" />
<glyph unicode="&#x108;" horiz-adv-x="1296" d="M123 731q0 221 81 390t236.5 265.5t380.5 96.5q111 0 216.5 -23.5t193.5 -66.5l-82 -185q-72 33 -154 58.5t-176 25.5q-217 0 -341 -150.5t-124 -412.5q0 -260 115 -409.5t348 -149.5q94 0 181 17.5t178 45.5v-190q-86 -33 -176.5 -48t-208.5 -15q-225 0 -374 93 t-221.5 262t-72.5 396zM408 1599v25q37 39 86 92t94 109.5t74 101.5h233q27 -45 73 -101.5t95 -110.5t88 -91v-25h-149q-53 33 -112.5 80t-112.5 102q-55 -55 -111.5 -102t-110.5 -80h-147z" />
<glyph unicode="&#x109;" horiz-adv-x="1003" d="M106 545q0 205 68 332t186.5 187t270.5 60q92 0 173 -18.5t134 -44.5l-66 -176q-57 20 -120.5 37.5t-122.5 17.5q-299 0 -299 -393q0 -188 73.5 -286.5t217.5 -98.5q90 0 161.5 20.5t130.5 53.5v-189q-59 -35 -129 -51t-170 -16q-229 0 -368.5 136t-139.5 429zM215 1241 v25q37 39 86 92t94 109.5t74 101.5h233q27 -45 73 -101.5t95 -110.5t88 -91v-25h-149q-53 33 -112.5 80t-112.5 102q-55 -55 -111.5 -102t-110.5 -80h-147z" />
<glyph unicode="&#x10a;" horiz-adv-x="1296" d="M123 731q0 221 81 390t236.5 265.5t380.5 96.5q111 0 216.5 -23.5t193.5 -66.5l-82 -185q-72 33 -154 58.5t-176 25.5q-217 0 -341 -150.5t-124 -412.5q0 -260 115 -409.5t348 -149.5q94 0 181 17.5t178 45.5v-190q-86 -33 -176.5 -48t-208.5 -15q-225 0 -374 93 t-221.5 262t-72.5 396zM657 1757q0 68 37 96.5t88 28.5q49 0 85 -29t36 -96q0 -66 -36 -95.5t-85 -29.5q-51 0 -88 29.5t-37 95.5z" />
<glyph unicode="&#x10b;" horiz-adv-x="1003" d="M106 545q0 205 68 332t186.5 187t270.5 60q92 0 173 -18.5t134 -44.5l-66 -176q-57 20 -120.5 37.5t-122.5 17.5q-299 0 -299 -393q0 -188 73.5 -286.5t217.5 -98.5q90 0 161.5 20.5t130.5 53.5v-189q-59 -35 -129 -51t-170 -16q-229 0 -368.5 136t-139.5 429zM465 1399 q0 68 37 96.5t88 28.5q49 0 85 -29t36 -96q0 -66 -36 -95.5t-85 -29.5q-51 0 -88 29.5t-37 95.5z" />
<glyph unicode="&#x10c;" horiz-adv-x="1296" d="M123 731q0 221 81 390t236.5 265.5t380.5 96.5q111 0 216.5 -23.5t193.5 -66.5l-82 -185q-72 33 -154 58.5t-176 25.5q-217 0 -341 -150.5t-124 -412.5q0 -260 115 -409.5t348 -149.5q94 0 181 17.5t178 45.5v-190q-86 -33 -176.5 -48t-208.5 -15q-225 0 -374 93 t-221.5 262t-72.5 396zM406 1900v27h147q53 -35 110.5 -82t111.5 -103q53 55 112.5 103.5t112.5 81.5h149v-27q-39 -39 -88 -91t-95 -108.5t-73 -101.5h-233q-29 45 -74 100.5t-94 108.5t-86 92z" />
<glyph unicode="&#x10d;" horiz-adv-x="1003" d="M106 545q0 205 68 332t186.5 187t270.5 60q92 0 173 -18.5t134 -44.5l-66 -176q-57 20 -120.5 37.5t-122.5 17.5q-299 0 -299 -393q0 -188 73.5 -286.5t217.5 -98.5q90 0 161.5 20.5t130.5 53.5v-189q-59 -35 -129 -51t-170 -16q-229 0 -368.5 136t-139.5 429zM213 1542 v27h147q53 -35 110.5 -82t111.5 -103q53 55 112.5 103.5t112.5 81.5h149v-27q-39 -39 -88 -91t-95 -108.5t-73 -101.5h-233q-29 45 -74 100.5t-94 108.5t-86 92z" />
<glyph unicode="&#x10e;" horiz-adv-x="1501" d="M195 0v1462h452q223 0 387 -82t254 -242t90 -393q0 -371 -203.5 -558t-570.5 -187h-409zM375 1900v27h147q53 -35 110.5 -82t111.5 -103q53 55 112.5 103.5t112.5 81.5h149v-27q-39 -39 -88 -91t-95 -108.5t-73 -101.5h-233q-29 45 -74 100.5t-94 108.5t-86 92zM416 186 h178q553 0 553 553q0 276 -133 406.5t-381 130.5h-217v-1090z" />
<glyph unicode="&#x10f;" horiz-adv-x="1269" d="M106 549q0 285 123 430t324 145q125 0 205 -47t129 -114h12q-4 29 -10 84t-6 96v413h217v-1556h-170l-37 147h-10q-47 -70 -127 -118.5t-207 -48.5q-201 0 -322 143t-121 426zM330 545q0 -186 67.5 -286.5t202.5 -100.5q160 0 224.5 88t66.5 268v33q0 195 -62.5 297 t-230.5 102q-133 0 -200.5 -106.5t-67.5 -294.5zM1176 1229v24q20 59 39.5 148.5t27.5 154.5h209v-18q-20 -59 -63 -148.5t-90 -160.5h-123z" />
<glyph unicode="&#x110;" horiz-adv-x="1501" d="M57 629v188h148v645h442q221 0 386 -82t255 -241.5t90 -393.5q0 -371 -204.5 -558t-571.5 -187h-397v629h-148zM426 186h168q553 0 553 553q0 276 -135 406.5t-379 130.5h-207v-459h328v-188h-328v-443z" />
<glyph unicode="&#x111;" horiz-adv-x="1282" d="M106 539q0 283 123 423t322 140q125 0 206 -47t130 -115h12q-2 12 -6 45t-7 71t-3 66v105h-400v153h400v176h217v-176h155v-153h-155v-1227h-172l-37 147h-8q-47 -70 -127 -118.5t-207 -48.5q-201 0 -322 141t-121 418zM330 535q0 -182 67.5 -279.5t204.5 -97.5 q158 0 222.5 86t66.5 260v33q0 188 -62.5 287.5t-230.5 99.5q-133 0 -200.5 -103.5t-67.5 -285.5z" />
<glyph unicode="&#x112;" horiz-adv-x="1140" d="M195 0v1462h823v-188h-602v-418h565v-186h-565v-480h602v-190h-823zM307 1599v164h629v-164h-629z" />
<glyph unicode="&#x113;" horiz-adv-x="1171" d="M106 543q0 186 62.5 315t174 197.5t261.5 68.5q217 0 342 -134t125 -365v-119h-741q4 -170 89 -260t238 -90q106 0 189.5 19.5t171.5 57.5v-180q-84 -39 -168 -56t-201 -17q-160 0 -282.5 63t-191.5 188t-69 312zM277 1241v164h629v-164h-629zM334 666h520 q-2 129 -62.5 209.5t-187.5 80.5q-117 0 -187.5 -75.5t-82.5 -214.5z" />
<glyph unicode="&#x114;" horiz-adv-x="1140" d="M195 0v1462h823v-188h-602v-418h565v-186h-565v-480h602v-190h-823zM291 1892h129q8 -84 63.5 -105.5t147.5 -21.5q78 0 139.5 23.5t71.5 103.5h131q-10 -131 -101.5 -212t-244.5 -81q-160 0 -244 80t-92 213z" />
<glyph unicode="&#x115;" horiz-adv-x="1171" d="M106 543q0 186 62.5 315t174 197.5t261.5 68.5q217 0 342 -134t125 -365v-119h-741q4 -170 89 -260t238 -90q106 0 189.5 19.5t171.5 57.5v-180q-84 -39 -168 -56t-201 -17q-160 0 -282.5 63t-191.5 188t-69 312zM258 1534h129q8 -84 63.5 -105.5t147.5 -21.5 q78 0 139.5 23.5t71.5 103.5h131q-10 -131 -101.5 -212t-244.5 -81q-160 0 -244 80t-92 213zM334 666h520q-2 129 -62.5 209.5t-187.5 80.5q-117 0 -187.5 -75.5t-82.5 -214.5z" />
<glyph unicode="&#x116;" horiz-adv-x="1140" d="M195 0v1462h823v-188h-602v-418h565v-186h-565v-480h602v-190h-823zM504 1757q0 68 37 96.5t88 28.5q49 0 85 -29t36 -96q0 -66 -36 -95.5t-85 -29.5q-51 0 -88 29.5t-37 95.5z" />
<glyph unicode="&#x117;" horiz-adv-x="1171" d="M106 543q0 186 62.5 315t174 197.5t261.5 68.5q217 0 342 -134t125 -365v-119h-741q4 -170 89 -260t238 -90q106 0 189.5 19.5t171.5 57.5v-180q-84 -39 -168 -56t-201 -17q-160 0 -282.5 63t-191.5 188t-69 312zM334 666h520q-2 129 -62.5 209.5t-187.5 80.5 q-117 0 -187.5 -75.5t-82.5 -214.5zM471 1399q0 68 37 96.5t88 28.5q49 0 85 -29t36 -96q0 -66 -36 -95.5t-85 -29.5q-51 0 -88 29.5t-37 95.5z" />
<glyph unicode="&#x118;" horiz-adv-x="1140" d="M195 0v1462h823v-188h-602v-418h565v-186h-565v-480h602v-190h-823zM653 -260q0 59 29.5 114.5t75.5 101.5t94 77l108 -33q-70 -66 -105.5 -121.5t-35.5 -114.5q0 -45 23.5 -66.5t64.5 -21.5q33 0 59.5 5.5t44.5 9.5v-133q-31 -8 -62.5 -14.5t-72.5 -6.5 q-113 0 -168 54.5t-55 148.5z" />
<glyph unicode="&#x119;" horiz-adv-x="1171" d="M106 543q0 186 62.5 315t174.5 197.5t261 68.5q217 0 342 -134t125 -365v-119h-741q4 -170 89 -260t238 -90q106 0 189.5 19.5t171.5 57.5v-180q-123 -102 -165 -166t-42 -123q0 -45 24.5 -66.5t63.5 -21.5q35 0 60.5 5.5t44.5 9.5v-133q-31 -8 -63 -14.5t-73 -6.5 q-113 0 -168 54.5t-55 148.5q0 70 41 134.5t96 111.5q-59 -6 -133 -6q-160 0 -282.5 63t-191.5 188t-69 312zM334 666h520q-2 129 -62.5 209.5t-187.5 80.5q-117 0 -187.5 -75.5t-82.5 -214.5z" />
<glyph unicode="&#x11a;" horiz-adv-x="1140" d="M195 0v1462h823v-188h-602v-418h565v-186h-565v-480h602v-190h-823zM252 1900v27h147q53 -35 110.5 -82t111.5 -103q53 55 112.5 103.5t112.5 81.5h149v-27q-39 -39 -88 -91t-95 -108.5t-73 -101.5h-233q-29 45 -74 100.5t-94 108.5t-86 92z" />
<glyph unicode="&#x11b;" horiz-adv-x="1171" d="M106 543q0 186 62.5 315t174 197.5t261.5 68.5q217 0 342 -134t125 -365v-119h-741q4 -170 89 -260t238 -90q106 0 189.5 19.5t171.5 57.5v-180q-84 -39 -168 -56t-201 -17q-160 0 -282.5 63t-191.5 188t-69 312zM219 1542v27h147q53 -35 110.5 -82t111.5 -103 q53 55 112.5 103.5t112.5 81.5h149v-27q-39 -39 -88 -91t-95 -108.5t-73 -101.5h-233q-29 45 -74 100.5t-94 108.5t-86 92zM334 666h520q-2 129 -62.5 209.5t-187.5 80.5q-117 0 -187.5 -75.5t-82.5 -214.5z" />
<glyph unicode="&#x11c;" horiz-adv-x="1488" d="M123 731q0 229 89 398t259 261.5t412 92.5q121 0 231.5 -24.5t204.5 -63.5l-80 -185q-76 35 -170 58.5t-195 23.5q-162 0 -279.5 -68.5t-180 -195.5t-62.5 -299q0 -164 51.5 -291t162 -198.5t288.5 -71.5q88 0 148.5 9t111.5 22v397h-309v190h528v-729 q-117 -39 -238.5 -58t-277.5 -19q-336 0 -515 198.5t-179 552.5zM459 1599v25q37 39 86 92t94 109.5t74 101.5h233q27 -45 73 -101.5t95 -110.5t88 -91v-25h-149q-53 33 -112.5 80t-112.5 102q-55 -55 -111.5 -102t-110.5 -80h-147z" />
<glyph unicode="&#x11d;" horiz-adv-x="1269" d="M106 549q0 266 118 420.5t327 154.5q106 0 192 -41t146 -125h10l25 146h176v-1118q0 -477 -510 -478q-119 0 -219.5 16.5t-184.5 51.5v191q86 -43 191.5 -64.5t224.5 -21.5q133 0 208 76.5t75 215.5v37q0 27 2 70t4 65h-8q-57 -86 -140.5 -125.5t-191.5 -39.5 q-209 0 -327 150.5t-118 418.5zM250 1241v25q37 39 86 92t94 109.5t74 101.5h233q27 -45 73 -101.5t95 -110.5t88 -91v-25h-149q-53 33 -112.5 80t-112.5 102q-55 -55 -111.5 -102t-110.5 -80h-147zM330 547q0 -193 68.5 -293t201.5 -100q152 0 222.5 82.5t70.5 271.5v41 q0 213 -71.5 304t-225.5 91q-129 0 -197.5 -101.5t-68.5 -295.5z" />
<glyph unicode="&#x11e;" horiz-adv-x="1488" d="M123 731q0 229 89 398t259 261.5t412 92.5q121 0 231.5 -24.5t204.5 -63.5l-80 -185q-76 35 -170 58.5t-195 23.5q-162 0 -279.5 -68.5t-180 -195.5t-62.5 -299q0 -164 51.5 -291t162 -198.5t288.5 -71.5q88 0 148.5 9t111.5 22v397h-309v190h528v-729 q-117 -39 -238.5 -58t-277.5 -19q-336 0 -515 198.5t-179 552.5zM494 1892h129q8 -84 63.5 -105.5t147.5 -21.5q78 0 139.5 23.5t71.5 103.5h131q-10 -131 -101.5 -212t-244.5 -81q-160 0 -244 80t-92 213z" />
<glyph unicode="&#x11f;" horiz-adv-x="1269" d="M106 549q0 266 118 420.5t327 154.5q106 0 192 -41t146 -125h10l25 146h176v-1118q0 -477 -510 -478q-119 0 -219.5 16.5t-184.5 51.5v191q86 -43 191.5 -64.5t224.5 -21.5q133 0 208 76.5t75 215.5v37q0 27 2 70t4 65h-8q-57 -86 -140.5 -125.5t-191.5 -39.5 q-209 0 -327 150.5t-118 418.5zM287 1534h129q8 -84 63.5 -105.5t147.5 -21.5q78 0 139.5 23.5t71.5 103.5h131q-10 -131 -101.5 -212t-244.5 -81q-160 0 -244 80t-92 213zM330 547q0 -193 68.5 -293t201.5 -100q152 0 222.5 82.5t70.5 271.5v41q0 213 -71.5 304t-225.5 91 q-129 0 -197.5 -101.5t-68.5 -295.5z" />
<glyph unicode="&#x120;" horiz-adv-x="1488" d="M123 731q0 229 89 398t259 261.5t412 92.5q121 0 231.5 -24.5t204.5 -63.5l-80 -185q-76 35 -170 58.5t-195 23.5q-162 0 -279.5 -68.5t-180 -195.5t-62.5 -299q0 -164 51.5 -291t162 -198.5t288.5 -71.5q88 0 148.5 9t111.5 22v397h-309v190h528v-729 q-117 -39 -238.5 -58t-277.5 -19q-336 0 -515 198.5t-179 552.5zM709 1757q0 68 37 96.5t88 28.5q49 0 85 -29t36 -96q0 -66 -36 -95.5t-85 -29.5q-51 0 -88 29.5t-37 95.5z" />
<glyph unicode="&#x121;" horiz-adv-x="1269" d="M106 549q0 266 118 420.5t327 154.5q106 0 192 -41t146 -125h10l25 146h176v-1118q0 -477 -510 -478q-119 0 -219.5 16.5t-184.5 51.5v191q86 -43 191.5 -64.5t224.5 -21.5q133 0 208 76.5t75 215.5v37q0 27 2 70t4 65h-8q-57 -86 -140.5 -125.5t-191.5 -39.5 q-209 0 -327 150.5t-118 418.5zM330 547q0 -193 68.5 -293t201.5 -100q152 0 222.5 82.5t70.5 271.5v41q0 213 -71.5 304t-225.5 91q-129 0 -197.5 -101.5t-68.5 -295.5zM500 1399q0 68 37 96.5t88 28.5q49 0 85 -29t36 -96q0 -66 -36 -95.5t-85 -29.5q-51 0 -88 29.5 t-37 95.5z" />
<glyph unicode="&#x122;" horiz-adv-x="1488" d="M123 731q0 229 89 398t259 261.5t412 92.5q121 0 231.5 -24.5t204.5 -63.5l-80 -185q-76 35 -170 58.5t-195 23.5q-162 0 -279.5 -68.5t-180 -195.5t-62.5 -299q0 -164 51.5 -291t162 -198.5t288.5 -71.5q88 0 148.5 9t111.5 22v397h-309v190h528v-729 q-117 -39 -238.5 -58t-277.5 -19q-336 0 -515 198.5t-179 552.5zM673 -428q14 35 30 90t29 112.5t17 100.5h209v-18q-18 -59 -63 -148.5t-101 -161.5h-121v25z" />
<glyph unicode="&#x123;" horiz-adv-x="1269" d="M106 549q0 266 118 420.5t327 154.5q106 0 192 -41t146 -125h10l25 146h176v-1118q0 -477 -510 -478q-119 0 -219.5 16.5t-184.5 51.5v191q86 -43 191.5 -64.5t224.5 -21.5q133 0 208 76.5t75 215.5v37q0 27 2 70t4 65h-8q-57 -86 -140.5 -125.5t-191.5 -39.5 q-209 0 -327 150.5t-118 418.5zM330 547q0 -193 68.5 -293t201.5 -100q152 0 222.5 82.5t70.5 271.5v41q0 213 -71.5 304t-225.5 91q-129 0 -197.5 -101.5t-68.5 -295.5zM476 1241v19q18 59 63 148t100 161h123v-25q-14 -37 -30.5 -91t-28.5 -110.5t-19 -101.5h-208z" />
<glyph unicode="&#x124;" horiz-adv-x="1531" d="M195 0v1462h221v-606h698v606h221v-1462h-221v668h-698v-668h-221zM399 1599v25q37 39 86 92t94 109.5t74 101.5h233q27 -45 73 -101.5t95 -110.5t88 -91v-25h-149q-53 33 -112.5 80t-112.5 102q-55 -55 -111.5 -102t-110.5 -80h-147z" />
<glyph unicode="&#x125;" horiz-adv-x="1290" d="M-88 1694v25q37 39 86 92t94 109.5t74 101.5h233q27 -45 73 -101.5t95 -110.5t88 -91v-25h-149q-53 33 -112.5 80t-112.5 102q-55 -55 -111.5 -102t-110.5 -80h-147zM170 0v1556h217v-415q0 -51 -4 -102.5t-8 -84.5h14q53 84 142.5 126t193.5 42q195 0 298 -96t103 -307 v-719h-215v688q0 258 -227 258q-170 0 -233.5 -102.5t-63.5 -288.5v-555h-217z" />
<glyph unicode="&#x126;" horiz-adv-x="1531" d="M0 1071v162h195v229h221v-229h698v229h221v-229h195v-162h-195v-1071h-221v668h-698v-668h-221v1071h-195zM416 856h698v215h-698v-215z" />
<glyph unicode="&#x127;" horiz-adv-x="1290" d="M14 1225v153h156v178h217v-178h399v-153h-399v-131q0 -53 -4 -102.5t-8 -82.5h14q53 84 142.5 126t195.5 42q195 0 297 -96t102 -309v-672h-215v641q0 258 -227 258q-170 0 -233.5 -101.5t-63.5 -287.5v-510h-217v1225h-156z" />
<glyph unicode="&#x128;" horiz-adv-x="724" d="M-24 1599q12 131 75.5 203t164.5 72q59 0 112 -29t102.5 -56.5t94.5 -27.5q80 0 108 115h117q-12 -131 -74.5 -203t-163.5 -72q-57 0 -110 27.5t-102.5 56.5t-96.5 29q-84 0 -110 -115h-117zM78 0v127l174 51v1104l-174 53v127h567v-127l-172 -53v-1104l172 -51v-127 h-567z" />
<glyph unicode="&#x129;" horiz-adv-x="557" d="M-111 1241q12 131 75.5 203t164.5 72q59 0 112 -29t102.5 -56.5t94.5 -27.5q80 0 108 115h117q-12 -131 -74.5 -203t-163.5 -72q-57 0 -110 27.5t-102.5 56.5t-96.5 29q-84 0 -110 -115h-117zM170 0v1104h217v-1104h-217z" />
<glyph unicode="&#x12a;" horiz-adv-x="724" d="M49 1599v164h629v-164h-629zM78 0v127l174 51v1104l-174 53v127h567v-127l-172 -53v-1104l172 -51v-127h-567z" />
<glyph unicode="&#x12b;" horiz-adv-x="557" d="M-37 1241v164h629v-164h-629zM170 0v1104h217v-1104h-217z" />
<glyph unicode="&#x12c;" horiz-adv-x="724" d="M31 1892h129q8 -84 63.5 -105.5t147.5 -21.5q78 0 139.5 23.5t71.5 103.5h131q-10 -131 -101.5 -212t-244.5 -81q-160 0 -244 80t-92 213zM78 0v127l174 51v1104l-174 53v127h567v-127l-172 -53v-1104l172 -51v-127h-567z" />
<glyph unicode="&#x12d;" horiz-adv-x="557" d="M-53 1534h129q8 -84 63.5 -105.5t147.5 -21.5q78 0 139.5 23.5t71.5 103.5h131q-10 -131 -101.5 -212t-244.5 -81q-160 0 -244 80t-92 213zM170 0v1104h217v-1104h-217z" />
<glyph unicode="&#x12e;" horiz-adv-x="724" d="M78 0v127l174 51v1104l-174 53v127h567v-127l-172 -53v-1104l172 -51v-127h-567zM283 -260q0 59 29.5 114.5t75.5 101.5t94 77l108 -33q-70 -66 -105.5 -121.5t-35.5 -114.5q0 -45 23.5 -66.5t64.5 -21.5q33 0 59.5 5.5t44.5 9.5v-133q-31 -8 -62.5 -14.5t-72.5 -6.5 q-113 0 -168 54.5t-55 148.5z" />
<glyph unicode="&#x12f;" horiz-adv-x="557" d="M66 -260q0 59 29.5 114.5t75.5 101.5t94 77l108 -33q-70 -66 -105.5 -121.5t-35.5 -114.5q0 -45 23.5 -66.5t64.5 -21.5q33 0 59.5 5.5t44.5 9.5v-133q-31 -8 -62.5 -14.5t-72.5 -6.5q-113 0 -168 54.5t-55 148.5zM156 1399q0 68 37 96.5t88 28.5q49 0 85.5 -29t36.5 -96 q0 -66 -36.5 -95.5t-85.5 -29.5q-51 0 -88 29.5t-37 95.5zM170 0v1104h217v-1104h-217z" />
<glyph unicode="&#x130;" horiz-adv-x="724" d="M78 0v127l174 51v1104l-174 53v127h567v-127l-172 -53v-1104l172 -51v-127h-567zM246 1757q0 68 37 96.5t88 28.5q49 0 85 -29t36 -96q0 -66 -36 -95.5t-85 -29.5q-51 0 -88 29.5t-37 95.5z" />
<glyph unicode="&#x131;" horiz-adv-x="557" d="M170 0v1104h217v-1104h-217z" />
<glyph unicode="&#x132;" horiz-adv-x="1318" d="M78 0v127l174 51v1104l-174 53v127h567v-127l-172 -53v-1104l172 -51v-127h-567zM567 -190q33 -8 70 -14.5t78 -6.5q51 0 96 20.5t72.5 72.5t27.5 151v1429h222v-1419q0 -231 -112 -337.5t-292 -106.5q-53 0 -93 7t-69 19v185z" />
<glyph unicode="&#x133;" horiz-adv-x="1114" d="M156 1399q0 68 37 96.5t88 28.5q49 0 85.5 -29t36.5 -96q0 -66 -36.5 -95.5t-85.5 -29.5q-51 0 -88 29.5t-37 95.5zM170 0v1104h217v-1104h-217zM438 -293q33 -10 66 -15t73 -5q66 0 108 35.5t42 136.5v1245h217v-1256q0 -154 -79 -247t-255 -93q-53 0 -97 7.5t-75 17.5 v174zM713 1399q0 68 36.5 96.5t88.5 28.5q49 0 85.5 -29t36.5 -96q0 -66 -36.5 -95.5t-85.5 -29.5q-51 0 -88 29.5t-37 95.5z" />
<glyph unicode="&#x134;" horiz-adv-x="593" d="M-158 -190q33 -8 70 -14.5t78 -6.5q51 0 96 20.5t72.5 72.5t27.5 151v1429h222v-1419q0 -231 -112 -337.5t-292 -106.5q-53 0 -93 7t-69 19v185zM-70 1599v25q37 39 86 92t94 109.5t74 101.5h233q27 -45 73 -101.5t95 -110.5t88 -91v-25h-149q-53 33 -112.5 80 t-112.5 102q-55 -55 -111.5 -102t-110.5 -80h-147z" />
<glyph unicode="&#x135;" horiz-adv-x="557" d="M-119 -293q33 -10 66 -15t73 -5q66 0 108 35.5t42 136.5v1245h217v-1256q0 -154 -79 -247t-255 -93q-53 0 -97 7.5t-75 17.5v174zM-90 1241v25q37 39 86 92t94 109.5t74 101.5h233q27 -45 73 -101.5t95 -110.5t88 -91v-25h-149q-53 33 -112.5 80t-112.5 102 q-55 -55 -111.5 -102t-110.5 -80h-147z" />
<glyph unicode="&#x136;" horiz-adv-x="1294" d="M195 0v1462h221v-706q51 61 106.5 122.5t106.5 125.5l395 458h254l-559 -639l575 -823h-256l-479 674l-143 -119v-555h-221zM544 -428q14 35 30 90t29 112.5t17 100.5h209v-18q-18 -59 -63 -148.5t-101 -161.5h-121v25z" />
<glyph unicode="&#x137;" horiz-adv-x="1144" d="M170 0v1556h215v-778q0 -41 -4 -98t-6 -102h6q23 31 62.5 81t70.5 82l338 363h252l-445 -473l474 -631h-256l-365 494l-127 -107v-387h-215zM430 -428q14 35 30 90t29 112.5t17 100.5h209v-18q-18 -59 -63 -148.5t-101 -161.5h-121v25z" />
<glyph unicode="&#x138;" horiz-adv-x="1144" d="M170 0v1104h223v-287q0 -76 -3 -149.5t-7 -118.5h4q25 31 50.5 62.5t47.5 60.5l367 432h250l-424 -494l455 -610h-254l-347 475l-139 -104v-371h-223z" />
<glyph unicode="&#x139;" horiz-adv-x="1097" d="M160 1599v25q31 37 69.5 91t74.5 110.5t63 101.5h254v-21q-31 -37 -87.5 -95t-119 -116.5t-111.5 -95.5h-143zM195 0v1462h221v-1272h624v-190h-845z" />
<glyph unicode="&#x13a;" horiz-adv-x="557" d="M137 1694v25q31 37 69.5 91t74.5 110.5t63 101.5h254v-21q-31 -37 -87.5 -95t-119 -116.5t-111.5 -95.5h-143zM170 0v1556h217v-1556h-217z" />
<glyph unicode="&#x13b;" horiz-adv-x="1097" d="M195 0v1462h221v-1272h624v-190h-845zM477 -428q14 35 30 90t29 112.5t17 100.5h209v-18q-18 -59 -63 -148.5t-101 -161.5h-121v25z" />
<glyph unicode="&#x13c;" horiz-adv-x="557" d="M137 -428q14 35 30 90t29 112.5t17 100.5h209v-18q-18 -59 -63 -148.5t-101 -161.5h-121v25zM170 0v1556h217v-1556h-217z" />
<glyph unicode="&#x13d;" horiz-adv-x="1097" d="M195 0v1462h221v-1272h624v-190h-845zM783 1135v24q20 59 39.5 148.5t27.5 154.5h209v-18q-20 -59 -63 -148.5t-90 -160.5h-123z" />
<glyph unicode="&#x13e;" horiz-adv-x="557" d="M170 0v1556h217v-1556h-217zM467 1229v24q20 59 39.5 148.5t27.5 154.5h209v-18q-20 -59 -63 -148.5t-90 -160.5h-123z" />
<glyph unicode="&#x13f;" horiz-adv-x="1097" d="M195 0v1462h221v-1272h624v-190h-845zM694 754q0 68 37 96.5t88 28.5q49 0 85 -29t36 -96q0 -66 -36 -95.5t-85 -29.5q-51 0 -88 29.5t-37 95.5z" />
<glyph unicode="&#x140;" horiz-adv-x="606" d="M170 0v1556h217v-1556h-217zM457 776q0 68 37 96.5t88 28.5q49 0 85 -29t36 -96q0 -66 -36 -95.5t-85 -29.5q-51 0 -88 29.5t-37 95.5z" />
<glyph unicode="&#x141;" horiz-adv-x="1097" d="M18 594l177 104v764h221v-631l239 142l86 -148l-325 -192v-443h624v-190h-845v502l-93 -53z" />
<glyph unicode="&#x142;" horiz-adv-x="557" d="M-20 637l180 115v804h217v-667l112 76l89 -144l-201 -131v-690h-217v553l-94 -59z" />
<glyph unicode="&#x143;" horiz-adv-x="1589" d="M195 0v1462h266l737 -1175h6q-2 43 -5 108.5t-5 140t-4 140.5v786h205v-1462h-269l-739 1182h-8q4 -82 9 -187.5t7 -216.5v-778h-200zM653 1599v25q31 37 69.5 91t74.5 110.5t63 101.5h254v-21q-31 -37 -87.5 -95t-119 -116.5t-111.5 -95.5h-143z" />
<glyph unicode="&#x144;" horiz-adv-x="1290" d="M170 0v1104h172l31 -148h12q53 86 146.5 127t197.5 41q193 0 295 -96t102 -309v-719h-215v688q0 258 -227 258q-168 0 -232.5 -100.5t-64.5 -288.5v-557h-217zM504 1241v25q31 37 69.5 91t74.5 110.5t63 101.5h254v-21q-31 -37 -87.5 -95t-119 -116.5t-111.5 -95.5h-143z " />
<glyph unicode="&#x145;" horiz-adv-x="1589" d="M195 0v1462h266l737 -1175h6q-2 43 -5 108.5t-5 140t-4 140.5v786h205v-1462h-269l-739 1182h-8q4 -82 9 -187.5t7 -216.5v-778h-200zM651 -428q14 35 30 90t29 112.5t17 100.5h209v-18q-18 -59 -63 -148.5t-101 -161.5h-121v25z" />
<glyph unicode="&#x146;" horiz-adv-x="1290" d="M170 0v1104h172l31 -148h12q53 86 146.5 127t197.5 41q193 0 295 -96t102 -309v-719h-215v688q0 258 -227 258q-168 0 -232.5 -100.5t-64.5 -288.5v-557h-217zM501 -428q14 35 30 90t29 112.5t17 100.5h209v-18q-18 -59 -63 -148.5t-101 -161.5h-121v25z" />
<glyph unicode="&#x147;" horiz-adv-x="1589" d="M195 0v1462h266l737 -1175h6q-2 43 -5 108.5t-5 140t-4 140.5v786h205v-1462h-269l-739 1182h-8q4 -82 9 -187.5t7 -216.5v-778h-200zM424 1900v27h147q53 -35 110.5 -82t111.5 -103q53 55 112.5 103.5t112.5 81.5h149v-27q-39 -39 -88 -91t-95 -108.5t-73 -101.5h-233 q-29 45 -74 100.5t-94 108.5t-86 92z" />
<glyph unicode="&#x148;" horiz-adv-x="1290" d="M170 0v1104h172l31 -148h12q53 86 146.5 127t197.5 41q193 0 295 -96t102 -309v-719h-215v688q0 258 -227 258q-168 0 -232.5 -100.5t-64.5 -288.5v-557h-217zM275 1542v27h147q53 -35 110.5 -82t111.5 -103q53 55 112.5 103.5t112.5 81.5h149v-27q-39 -39 -88 -91 t-95 -108.5t-73 -101.5h-233q-29 45 -74 100.5t-94 108.5t-86 92z" />
<glyph unicode="&#x149;" horiz-adv-x="1458" d="M2 961q29 117 57.5 256t44.5 245h217l14 -22q-27 -109 -76 -239t-100 -240h-157zM340 0v1104h172l31 -148h12q53 86 146.5 127t197.5 41q193 0 295 -96t102 -309v-719h-215v688q0 258 -227 258q-168 0 -232.5 -100.5t-64.5 -288.5v-557h-217z" />
<glyph unicode="&#x14a;" horiz-adv-x="1589" d="M195 0v1462h266l737 -1091h6q-2 31 -5 99.5t-6 151.5t-3 156v684h205v-1454q0 -211 -112 -310t-298 -99q-104 0 -168 26v180q35 -10 74 -15t86 -5q88 0 151.5 46t65.5 171l-807 1180h-8q2 -27 6 -98.5t7 -159.5t3 -162v-762h-200z" />
<glyph unicode="&#x14b;" horiz-adv-x="1290" d="M170 0v1104h172l31 -148h14q53 86 144.5 127t197.5 41q193 0 296 -95t103 -308v-873q0 -154 -74.5 -247t-240.5 -93q-47 0 -88 7.5t-68 17.5v174q27 -10 56.5 -15t64.5 -5q57 0 95 35.5t38 136.5v837q0 250 -225 250q-170 0 -234.5 -100.5t-64.5 -286.5v-559h-217z" />
<glyph unicode="&#x14c;" horiz-adv-x="1607" d="M123 735q0 225 73.5 394t225 262.5t385.5 93.5q225 0 375.5 -93.5t226.5 -262.5t76 -396t-76 -396t-227.5 -263t-376.5 -94q-231 0 -383 94t-225.5 264t-73.5 397zM356 733q0 -262 108.5 -413.5t340.5 -151.5q233 0 339.5 151.5t106.5 413.5t-106.5 411.5t-337.5 149.5 q-233 0 -342 -149.5t-109 -411.5zM490 1599v164h629v-164h-629z" />
<glyph unicode="&#x14d;" horiz-adv-x="1247" d="M106 553q0 274 139.5 422.5t381.5 148.5q152 0 267.5 -66.5t182 -193.5t66.5 -311q0 -274 -141.5 -423.5t-380.5 -149.5q-150 0 -265.5 66.5t-182.5 194.5t-67 312zM309 1241v164h629v-164h-629zM330 553q0 -186 70.5 -290.5t224.5 -104.5t224.5 104.5t70.5 290.5 q0 188 -71 289.5t-226 101.5q-154 0 -223.5 -101.5t-69.5 -289.5z" />
<glyph unicode="&#x14e;" horiz-adv-x="1607" d="M123 735q0 225 73.5 394t225 262.5t385.5 93.5q225 0 375.5 -93.5t226.5 -262.5t76 -396t-76 -396t-227.5 -263t-376.5 -94q-231 0 -383 94t-225.5 264t-73.5 397zM356 733q0 -262 108.5 -413.5t340.5 -151.5q233 0 339.5 151.5t106.5 413.5t-106.5 411.5t-337.5 149.5 q-233 0 -342 -149.5t-109 -411.5zM473 1892h129q8 -84 63.5 -105.5t147.5 -21.5q78 0 139.5 23.5t71.5 103.5h131q-10 -131 -101.5 -212t-244.5 -81q-160 0 -244 80t-92 213z" />
<glyph unicode="&#x14f;" horiz-adv-x="1247" d="M106 553q0 274 139.5 422.5t381.5 148.5q152 0 267.5 -66.5t182 -193.5t66.5 -311q0 -274 -141.5 -423.5t-380.5 -149.5q-150 0 -265.5 66.5t-182.5 194.5t-67 312zM293 1534h129q8 -84 63.5 -105.5t147.5 -21.5q78 0 139.5 23.5t71.5 103.5h131q-10 -131 -101.5 -212 t-244.5 -81q-160 0 -244 80t-92 213zM330 553q0 -186 70.5 -290.5t224.5 -104.5t224.5 104.5t70.5 290.5q0 188 -71 289.5t-226 101.5q-154 0 -223.5 -101.5t-69.5 -289.5z" />
<glyph unicode="&#x150;" horiz-adv-x="1607" d="M123 735q0 225 73.5 394t225 262.5t385.5 93.5q225 0 375.5 -93.5t226.5 -262.5t76 -396t-76 -396t-227.5 -263t-376.5 -94q-231 0 -383 94t-225.5 264t-73.5 397zM356 733q0 -262 108.5 -413.5t340.5 -151.5q233 0 339.5 151.5t106.5 413.5t-106.5 411.5t-337.5 149.5 q-233 0 -342 -149.5t-109 -411.5zM539 1599v25q29 39 62.5 92t65.5 109.5t54 101.5h228v-21q-20 -37 -71.5 -95t-111 -116.5t-106.5 -95.5h-121zM910 1599v25q29 39 62.5 92t66 109.5t55.5 101.5h227v-21q-20 -37 -72.5 -95t-111.5 -116.5t-107 -95.5h-120z" />
<glyph unicode="&#x151;" horiz-adv-x="1247" d="M106 553q0 274 139.5 422.5t381.5 148.5q152 0 267.5 -66.5t182 -193.5t66.5 -311q0 -274 -141.5 -423.5t-380.5 -149.5q-150 0 -265.5 66.5t-182.5 194.5t-67 312zM330 553q0 -186 70.5 -290.5t224.5 -104.5t224.5 104.5t70.5 290.5q0 188 -71 289.5t-226 101.5 q-154 0 -223.5 -101.5t-69.5 -289.5zM358 1241v25q29 39 62.5 92t65.5 109.5t54 101.5h228v-21q-20 -37 -71.5 -95t-111 -116.5t-106.5 -95.5h-121zM729 1241v25q29 39 62.5 92t66 109.5t55.5 101.5h227v-21q-20 -37 -72.5 -95t-111.5 -116.5t-107 -95.5h-120z" />
<glyph unicode="&#x152;" horiz-adv-x="1927" d="M123 735q0 227 72.5 395t219 261.5t371.5 93.5q111 0 205 -23h815v-188h-581v-418h542v-186h-542v-480h581v-190h-807q-45 -8 -100 -14t-106 -6q-227 0 -376 94t-221.5 264t-72.5 397zM352 733q0 -262 107.5 -413.5t337.5 -151.5q119 0 209 37v1055q-41 18 -95.5 26 t-111.5 8q-229 0 -338 -149.5t-109 -411.5z" />
<glyph unicode="&#x153;" horiz-adv-x="1955" d="M104 553q0 274 137.5 421.5t376.5 147.5q125 0 226.5 -51t165.5 -153q133 204 381 204q217 0 340.5 -133t123.5 -364v-119h-733q4 -178 86 -264t234 -86q106 0 190 19.5t170 57.5v-180q-84 -39 -167 -56t-199 -17q-137 0 -244 51t-174 155q-66 -102 -169.5 -154 t-234.5 -52q-147 0 -261.5 66.5t-181.5 194.5t-67 312zM330 553q0 -195 68.5 -295t217.5 -100q147 0 216 99t69 292q0 201 -69.5 298t-219.5 97t-216 -98t-66 -293zM1126 666h510q0 129 -59 208.5t-186 79.5q-113 0 -182.5 -72.5t-82.5 -215.5z" />
<glyph unicode="&#x154;" horiz-adv-x="1296" d="M195 0v1462h409q281 0 415 -104.5t134 -317.5q0 -113 -41 -189.5t-107.5 -125.5t-138.5 -76l410 -649h-254l-352 592h-254v-592h-221zM416 776h184q170 0 248 64.5t78 191.5q0 131 -82 186.5t-254 55.5h-174v-498zM512 1599v25q31 37 69.5 91t74.5 110.5t63 101.5h254 v-21q-31 -37 -87.5 -95t-119 -116.5t-111.5 -95.5h-143z" />
<glyph unicode="&#x155;" horiz-adv-x="870" d="M170 0v1104h172l29 -197h8q51 88 137 152.5t199 64.5q66 0 121 -10l-23 -203q-53 14 -111 15q-84 0 -155.5 -41t-115.5 -118t-44 -185v-582h-217zM358 1241v25q31 37 69.5 91t74.5 110.5t63 101.5h254v-21q-31 -37 -87.5 -95t-119 -116.5t-111.5 -95.5h-143z" />
<glyph unicode="&#x156;" horiz-adv-x="1296" d="M195 0v1462h409q281 0 415 -104.5t134 -317.5q0 -113 -41 -189.5t-107.5 -125.5t-138.5 -76l410 -649h-254l-352 592h-254v-592h-221zM416 776h184q170 0 248 64.5t78 191.5q0 131 -82 186.5t-254 55.5h-174v-498zM546 -428q14 35 30 90t29 112.5t17 100.5h209v-18 q-18 -59 -63 -148.5t-101 -161.5h-121v25z" />
<glyph unicode="&#x157;" horiz-adv-x="870" d="M133 -428q14 35 30 90t29 112.5t17 100.5h209v-18q-18 -59 -63 -148.5t-101 -161.5h-121v25zM170 0v1104h172l29 -197h8q51 88 137 152.5t199 64.5q66 0 121 -10l-23 -203q-53 14 -111 15q-84 0 -155.5 -41t-115.5 -118t-44 -185v-582h-217z" />
<glyph unicode="&#x158;" horiz-adv-x="1296" d="M195 0v1462h409q281 0 415 -104.5t134 -317.5q0 -113 -41 -189.5t-107.5 -125.5t-138.5 -76l410 -649h-254l-352 592h-254v-592h-221zM283 1900v27h147q53 -35 110.5 -82t111.5 -103q53 55 112.5 103.5t112.5 81.5h149v-27q-39 -39 -88 -91t-95 -108.5t-73 -101.5h-233 q-29 45 -74 100.5t-94 108.5t-86 92zM416 776h184q170 0 248 64.5t78 191.5q0 131 -82 186.5t-254 55.5h-174v-498z" />
<glyph unicode="&#x159;" horiz-adv-x="870" d="M129 1542v27h147q53 -35 110.5 -82t111.5 -103q53 55 112.5 103.5t112.5 81.5h149v-27q-39 -39 -88 -91t-95 -108.5t-73 -101.5h-233q-29 45 -74 100.5t-94 108.5t-86 92zM170 0v1104h172l29 -197h8q51 88 137 152.5t199 64.5q66 0 121 -10l-23 -203q-53 14 -111 15 q-84 0 -155.5 -41t-115.5 -118t-44 -185v-582h-217z" />
<glyph unicode="&#x15a;" horiz-adv-x="1126" d="M102 55v209q82 -37 193 -66.5t225 -29.5q147 0 221 57.5t74 153.5q0 68 -32.5 114t-105.5 85.5t-190 85.5q-106 41 -190 96t-131 137t-47 201q0 180 131 282.5t344 102.5q119 0 220 -24.5t194 -63.5l-70 -183q-84 35 -171 57.5t-179 22.5q-121 0 -184.5 -53t-63.5 -139 q0 -68 30.5 -114t98.5 -84t178 -81q123 -49 210 -103t132 -131t45 -192q0 -195 -141 -305t-387 -110q-121 0 -225.5 19t-178.5 56zM442 1599v25q31 37 69.5 91t74.5 110.5t63 101.5h254v-21q-31 -37 -87.5 -95t-119 -116.5t-111.5 -95.5h-143z" />
<glyph unicode="&#x15b;" horiz-adv-x="991" d="M100 827q0 143 116 220t306 77q100 0 189.5 -20.5t173.5 -56.5l-72 -166q-72 31 -147.5 52t-153.5 21q-201 0 -201 -116q0 -39 23.5 -68t82 -57.5t163.5 -69.5q100 -39 172.5 -81t111.5 -101.5t39 -149.5q0 -164 -117.5 -247.5t-330.5 -83.5q-117 0 -200 16t-153 51v191 q72 -35 169.5 -63t189.5 -28q123 0 177 39t54 105q0 37 -20.5 66.5t-76.5 61.5t-165 73q-106 41 -179 83.5t-112 102t-39 149.5zM356 1241v25q31 37 69.5 91t74.5 110.5t63 101.5h254v-21q-31 -37 -87.5 -95t-119 -116.5t-111.5 -95.5h-143z" />
<glyph unicode="&#x15c;" horiz-adv-x="1126" d="M102 55v209q82 -37 193 -66.5t225 -29.5q147 0 221 57.5t74 153.5q0 68 -32.5 114t-105.5 85.5t-190 85.5q-106 41 -190 96t-131 137t-47 201q0 180 131 282.5t344 102.5q119 0 220 -24.5t194 -63.5l-70 -183q-84 35 -171 57.5t-179 22.5q-121 0 -184.5 -53t-63.5 -139 q0 -68 30.5 -114t98.5 -84t178 -81q123 -49 210 -103t132 -131t45 -192q0 -195 -141 -305t-387 -110q-121 0 -225.5 19t-178.5 56zM215 1599v25q37 39 86 92t94 109.5t74 101.5h233q27 -45 73 -101.5t95 -110.5t88 -91v-25h-149q-53 33 -112.5 80t-112.5 102 q-55 -55 -111.5 -102t-110.5 -80h-147z" />
<glyph unicode="&#x15d;" horiz-adv-x="991" d="M100 827q0 143 116 220t306 77q100 0 189.5 -20.5t173.5 -56.5l-72 -166q-72 31 -147.5 52t-153.5 21q-201 0 -201 -116q0 -39 23.5 -68t82 -57.5t163.5 -69.5q100 -39 172.5 -81t111.5 -101.5t39 -149.5q0 -164 -117.5 -247.5t-330.5 -83.5q-117 0 -200 16t-153 51v191 q72 -35 169.5 -63t189.5 -28q123 0 177 39t54 105q0 37 -20.5 66.5t-76.5 61.5t-165 73q-106 41 -179 83.5t-112 102t-39 149.5zM129 1241v25q37 39 86 92t94 109.5t74 101.5h233q27 -45 73 -101.5t95 -110.5t88 -91v-25h-149q-53 33 -112.5 80t-112.5 102 q-55 -55 -111.5 -102t-110.5 -80h-147z" />
<glyph unicode="&#x15e;" horiz-adv-x="1126" d="M102 55v209q82 -37 193 -66.5t225 -29.5q147 0 221 57.5t74 153.5q0 68 -32.5 114t-105.5 85.5t-190 85.5q-106 41 -190 96t-131 137t-47 201q0 180 131 282.5t344 102.5q119 0 220 -24.5t194 -63.5l-70 -183q-84 35 -171 57.5t-179 22.5q-121 0 -184.5 -53t-63.5 -139 q0 -68 30.5 -114t98.5 -84t178 -81q123 -49 210 -103t132 -131t45 -192q0 -195 -141 -305t-387 -110q-121 0 -225.5 19t-178.5 56zM329 -350q23 -4 55.5 -8t63.5 -4q59 0 93 17t34 64q0 49 -48 75t-132 36l86 170h139l-45 -94q72 -18 123 -60t51 -120q0 -102 -73.5 -160 t-231.5 -58q-35 0 -64.5 4.5t-50.5 8.5v129z" />
<glyph unicode="&#x15f;" horiz-adv-x="991" d="M100 827q0 143 116 220t306 77q100 0 189.5 -20.5t173.5 -56.5l-72 -166q-72 31 -147.5 52t-153.5 21q-201 0 -201 -116q0 -39 23.5 -68t82 -57.5t163.5 -69.5q100 -39 172.5 -81t111.5 -101.5t39 -149.5q0 -164 -117.5 -247.5t-330.5 -83.5q-117 0 -200 16t-153 51v191 q72 -35 169.5 -63t189.5 -28q123 0 177 39t54 105q0 37 -20.5 66.5t-76.5 61.5t-165 73q-106 41 -179 83.5t-112 102t-39 149.5zM293 -350q23 -4 55.5 -8t63.5 -4q59 0 93 17t34 64q0 49 -48 75t-132 36l86 170h139l-45 -94q72 -18 123 -60t51 -120q0 -102 -73.5 -160 t-231.5 -58q-35 0 -64.5 4.5t-50.5 8.5v129z" />
<glyph unicode="&#x160;" horiz-adv-x="1126" d="M102 55v209q82 -37 193 -66.5t225 -29.5q147 0 221 57.5t74 153.5q0 68 -32.5 114t-105.5 85.5t-190 85.5q-106 41 -190 96t-131 137t-47 201q0 180 131 282.5t344 102.5q119 0 220 -24.5t194 -63.5l-70 -183q-84 35 -171 57.5t-179 22.5q-121 0 -184.5 -53t-63.5 -139 q0 -68 30.5 -114t98.5 -84t178 -81q123 -49 210 -103t132 -131t45 -192q0 -195 -141 -305t-387 -110q-121 0 -225.5 19t-178.5 56zM213 1900v27h147q53 -35 110.5 -82t111.5 -103q53 55 112.5 103.5t112.5 81.5h149v-27q-39 -39 -88 -91t-95 -108.5t-73 -101.5h-233 q-29 45 -74 100.5t-94 108.5t-86 92z" />
<glyph unicode="&#x161;" horiz-adv-x="991" d="M100 827q0 143 116 220t306 77q100 0 189.5 -20.5t173.5 -56.5l-72 -166q-72 31 -147.5 52t-153.5 21q-201 0 -201 -116q0 -39 23.5 -68t82 -57.5t163.5 -69.5q100 -39 172.5 -81t111.5 -101.5t39 -149.5q0 -164 -117.5 -247.5t-330.5 -83.5q-117 0 -200 16t-153 51v191 q72 -35 169.5 -63t189.5 -28q123 0 177 39t54 105q0 37 -20.5 66.5t-76.5 61.5t-165 73q-106 41 -179 83.5t-112 102t-39 149.5zM127 1542v27h147q53 -35 110.5 -82t111.5 -103q53 55 112.5 103.5t112.5 81.5h149v-27q-39 -39 -88 -91t-95 -108.5t-73 -101.5h-233 q-29 45 -74 100.5t-94 108.5t-86 92z" />
<glyph unicode="&#x162;" horiz-adv-x="1153" d="M27 1272v190h1097v-190h-438v-1272h-221v1272h-438zM372 -350q23 -4 55.5 -8t63.5 -4q59 0 93 17t34 64q0 49 -48 75t-132 36l86 170h139l-45 -94q72 -18 123 -60t51 -120q0 -102 -73.5 -160t-231.5 -58q-35 0 -64.5 4.5t-50.5 8.5v129z" />
<glyph unicode="&#x163;" horiz-adv-x="784" d="M37 938v98l162 82l75 234h134v-248h315v-166h-315v-606q0 -90 43.5 -133t115.5 -43q92 0 166 26v-164q-35 -16 -94 -27t-119 -11q-90 0 -164.5 30.5t-120 106.5t-45.5 211v610h-153zM252 -350q23 -4 55.5 -8t63.5 -4q59 0 93 17t34 64q0 49 -48 75t-132 36l86 170h139 l-45 -94q72 -18 123 -60t51 -120q0 -102 -73.5 -160t-231.5 -58q-35 0 -64.5 4.5t-50.5 8.5v129z" />
<glyph unicode="&#x164;" horiz-adv-x="1153" d="M27 1272v190h1097v-190h-438v-1272h-221v1272h-438zM205 1900v27h147q53 -35 110.5 -82t111.5 -103q53 55 112.5 103.5t112.5 81.5h149v-27q-39 -39 -88 -91t-95 -108.5t-73 -101.5h-233q-29 45 -74 100.5t-94 108.5t-86 92z" />
<glyph unicode="&#x165;" horiz-adv-x="784" d="M37 938v98l162 82l75 234h134v-248h315v-166h-315v-606q0 -90 43.5 -133t115.5 -43q92 0 166 26v-164q-35 -16 -94 -27t-119 -11q-90 0 -164.5 30.5t-120 106.5t-45.5 211v610h-153zM748 1229v24q20 59 39.5 148.5t27.5 154.5h209v-18q-20 -59 -63 -148.5t-90 -160.5 h-123z" />
<glyph unicode="&#x166;" horiz-adv-x="1153" d="M27 1270v192h1097v-192h-438v-443h287v-182h-287v-645h-221v645h-289v182h289v443h-438z" />
<glyph unicode="&#x167;" horiz-adv-x="784" d="M37 938v98l162 82l75 234h134v-248h315v-166h-315v-233h292v-154h-292v-219q0 -90 44 -133t115 -43q92 0 166 26v-164q-35 -16 -94 -27t-119 -11q-90 0 -164.5 30.5t-120 106.5t-45.5 211v223h-137v154h137v233h-153z" />
<glyph unicode="&#x168;" horiz-adv-x="1511" d="M182 520v942h221v-932q0 -362 357 -362q184 0 267 98.5t83 265.5v930h219v-946q0 -152 -62.5 -273.5t-191.5 -192t-325 -70.5q-279 0 -423.5 148t-144.5 392zM369 1599q12 131 75.5 203t164.5 72q59 0 112 -29t102.5 -56.5t94.5 -27.5q80 0 108 115h117 q-12 -131 -74.5 -203t-163.5 -72q-57 0 -110 27.5t-102.5 56.5t-96.5 29q-84 0 -110 -115h-117z" />
<glyph unicode="&#x169;" horiz-adv-x="1290" d="M160 381v723h219v-690q0 -129 54 -192.5t169 -63.5q170 0 235.5 99t65.5 288v559h217v-1104h-174l-31 145h-10q-53 -86 -147 -125.5t-199 -39.5q-195 0 -297 95t-102 306zM256 1241q12 131 75.5 203t164.5 72q59 0 112 -29t102.5 -56.5t94.5 -27.5q80 0 108 115h117 q-12 -131 -74.5 -203t-163.5 -72q-57 0 -110 27.5t-102.5 56.5t-96.5 29q-84 0 -110 -115h-117z" />
<glyph unicode="&#x16a;" horiz-adv-x="1511" d="M182 520v942h221v-932q0 -362 357 -362q184 0 267 98.5t83 265.5v930h219v-946q0 -152 -62.5 -273.5t-191.5 -192t-325 -70.5q-279 0 -423.5 148t-144.5 392zM442 1599v164h629v-164h-629z" />
<glyph unicode="&#x16b;" horiz-adv-x="1290" d="M160 381v723h219v-690q0 -129 54 -192.5t169 -63.5q170 0 235.5 99t65.5 288v559h217v-1104h-174l-31 145h-10q-53 -86 -147 -125.5t-199 -39.5q-195 0 -297 95t-102 306zM330 1241v164h629v-164h-629z" />
<glyph unicode="&#x16c;" horiz-adv-x="1511" d="M182 520v942h221v-932q0 -362 357 -362q184 0 267 98.5t83 265.5v930h219v-946q0 -152 -62.5 -273.5t-191.5 -192t-325 -70.5q-279 0 -423.5 148t-144.5 392zM424 1892h129q8 -84 63.5 -105.5t147.5 -21.5q78 0 139.5 23.5t71.5 103.5h131q-10 -131 -101.5 -212 t-244.5 -81q-160 0 -244 80t-92 213z" />
<glyph unicode="&#x16d;" horiz-adv-x="1290" d="M160 381v723h219v-690q0 -129 54 -192.5t169 -63.5q170 0 235.5 99t65.5 288v559h217v-1104h-174l-31 145h-10q-53 -86 -147 -125.5t-199 -39.5q-195 0 -297 95t-102 306zM313 1534h129q8 -84 63.5 -105.5t147.5 -21.5q78 0 139.5 23.5t71.5 103.5h131 q-10 -131 -101.5 -212t-244.5 -81q-160 0 -244 80t-92 213z" />
<glyph unicode="&#x16e;" horiz-adv-x="1511" d="M182 520v942h221v-932q0 -362 357 -362q184 0 267 98.5t83 265.5v930h219v-946q0 -152 -62.5 -273.5t-191.5 -192t-325 -70.5q-279 0 -423.5 148t-144.5 392zM528 1822q0 102 63.5 162t167.5 60q98 0 166 -58.5t68 -161.5q0 -106 -67 -165.5t-167 -59.5 q-104 0 -167.5 58.5t-63.5 164.5zM649 1822q-1 -110 110 -110q47 0 78 29.5t31 80.5t-31 80t-78 29t-78.5 -28.5t-31.5 -80.5z" />
<glyph unicode="&#x16f;" horiz-adv-x="1290" d="M160 381v723h219v-690q0 -129 54 -192.5t169 -63.5q170 0 235.5 99t65.5 288v559h217v-1104h-174l-31 145h-10q-53 -86 -147 -125.5t-199 -39.5q-195 0 -297 95t-102 306zM416 1464q0 102 63.5 162t167.5 60q98 0 166 -58.5t68 -161.5q0 -106 -67 -165.5t-167 -59.5 q-104 0 -167.5 58.5t-63.5 164.5zM537 1464q-1 -110 110 -110q47 0 78 29.5t31 80.5t-31 80t-78 29t-78.5 -28.5t-31.5 -80.5z" />
<glyph unicode="&#x170;" horiz-adv-x="1511" d="M182 520v942h221v-932q0 -362 357 -362q184 0 267 98.5t83 265.5v930h219v-946q0 -152 -62.5 -273.5t-191.5 -192t-325 -70.5q-279 0 -423.5 148t-144.5 392zM492 1599v25q29 39 62.5 92t65.5 109.5t54 101.5h228v-21q-20 -37 -71.5 -95t-111 -116.5t-106.5 -95.5h-121z M863 1599v25q29 39 62.5 92t66 109.5t55.5 101.5h227v-21q-20 -37 -72.5 -95t-111.5 -116.5t-107 -95.5h-120z" />
<glyph unicode="&#x171;" horiz-adv-x="1290" d="M160 381v723h219v-690q0 -129 54 -192.5t169 -63.5q170 0 235.5 99t65.5 288v559h217v-1104h-174l-31 145h-10q-53 -86 -147 -125.5t-199 -39.5q-195 0 -297 95t-102 306zM379 1241v25q29 39 62.5 92t65.5 109.5t54 101.5h228v-21q-20 -37 -71.5 -95t-111 -116.5 t-106.5 -95.5h-121zM750 1241v25q29 39 62.5 92t66 109.5t55.5 101.5h227v-21q-20 -37 -72.5 -95t-111.5 -116.5t-107 -95.5h-120z" />
<glyph unicode="&#x172;" horiz-adv-x="1511" d="M182 520v942h221v-932q0 -362 357 -362q184 0 267 98.5t83 265.5v930h219v-946q0 -129 -46 -238.5t-140 -183.5q-92 -98 -134 -169.5t-42 -139.5q0 -57 24.5 -83t63.5 -26q35 0 60.5 5.5t41.5 9.5v-133q-29 -8 -60.5 -14.5t-74.5 -6.5q-223 0 -223 221q0 63 30.5 124 t73.5 112q-72 -14 -153 -14q-279 0 -423.5 148t-144.5 392z" />
<glyph unicode="&#x173;" horiz-adv-x="1290" d="M160 381v723h219v-690q0 -129 54 -192.5t169 -63.5q170 0 235.5 99t65.5 288v559h217v-1104h-174l-31 145h-10q-53 -86 -147 -125.5t-199 -39.5q-195 0 -297 95t-102 306zM768 -260q0 59 29.5 114.5t75.5 101.5t94 77l108 -33q-70 -66 -105.5 -121.5t-35.5 -114.5 q0 -45 23.5 -66.5t64.5 -21.5q33 0 59.5 5.5t44.5 9.5v-133q-31 -8 -62.5 -14.5t-72.5 -6.5q-113 0 -168 54.5t-55 148.5z" />
<glyph unicode="&#x174;" horiz-adv-x="1927" d="M16 1462h228l215 -864q20 -90 39.5 -186.5t29.5 -171.5q10 78 32 178t44 180l244 864h221l252 -868q25 -82 45 -182.5t31 -171.5q8 76 28.5 172t42.5 186l215 864h226l-385 -1462h-236l-258 903q-14 49 -29.5 110.5t-27.5 116t-17 76.5q-2 -23 -12 -76t-24.5 -116.5 t-30.5 -116.5l-254 -897h-236zM596 1599v25q37 39 86 92t94 109.5t74 101.5h233q27 -45 73 -101.5t95 -110.5t88 -91v-25h-149q-53 33 -112.5 80t-112.5 102q-55 -55 -111.5 -102t-110.5 -80h-147z" />
<glyph unicode="&#x175;" horiz-adv-x="1652" d="M23 1106h221l143 -559q23 -86 42.5 -183.5t27.5 -156.5h8q6 35 17.5 93t24.5 115.5t25 94.5l177 596h237l172 -596q12 -41 26.5 -97.5t26 -111.5t15.5 -92h8q4 33 14.5 90t25.5 122.5t30 125.5l147 559h219l-309 -1104h-248l-158 551q-14 53 -32.5 121.5t-32.5 131 t-23 97.5h-8q-6 -35 -20.5 -97.5t-31.5 -131t-34 -123.5l-164 -549h-241zM457 1241v25q37 39 86 92t94 109.5t74 101.5h233q27 -45 73 -101.5t95 -110.5t88 -91v-25h-149q-53 33 -112.5 80t-112.5 102q-55 -55 -111.5 -102t-110.5 -80h-147z" />
<glyph unicode="&#x176;" horiz-adv-x="1193" d="M0 1462h240l358 -684l358 684h238l-487 -895v-567h-220v559zM229 1599v25q37 39 86 92t94 109.5t74 101.5h233q27 -45 73 -101.5t95 -110.5t88 -91v-25h-149q-53 33 -112.5 80t-112.5 102q-55 -55 -111.5 -102t-110.5 -80h-147z" />
<glyph unicode="&#x177;" horiz-adv-x="1079" d="M2 1104h234l229 -627q27 -72 47 -137.5t29 -130.5h8q10 53 31.5 125t48.5 145l217 625h233l-473 -1254q-59 -160 -158.5 -251t-259.5 -91q-51 0 -88 5.5t-63 11.5v172q20 -4 53 -8t68 -4q94 0 151.5 54t89.5 142l45 119zM172 1241v25q37 39 86 92t94 109.5t74 101.5h233 q27 -45 73 -101.5t95 -110.5t88 -91v-25h-149q-53 33 -112.5 80t-112.5 102q-55 -55 -111.5 -102t-110.5 -80h-147z" />
<glyph unicode="&#x178;" horiz-adv-x="1193" d="M0 1462h240l358 -684l358 684h238l-487 -895v-567h-220v559zM291 1755q0 59 31.5 84.5t77.5 25.5q45 0 77.5 -25.5t32.5 -84.5q0 -55 -32.5 -83t-77.5 -28t-77 28t-32 83zM682 1755q0 59 31 84.5t78 25.5q43 0 75.5 -25.5t32.5 -84.5q0 -55 -32.5 -83t-75.5 -28 q-47 0 -78 28t-31 83z" />
<glyph unicode="&#x179;" horiz-adv-x="1175" d="M70 0v158l749 1114h-727v190h993v-157l-749 -1115h768v-190h-1034zM457 1599v25q31 37 69.5 91t74.5 110.5t63 101.5h254v-21q-31 -37 -87.5 -95t-119 -116.5t-111.5 -95.5h-143z" />
<glyph unicode="&#x17a;" horiz-adv-x="972" d="M72 0v137l569 799h-535v168h777v-154l-557 -782h573v-168h-827zM346 1241v25q31 37 69.5 91t74.5 110.5t63 101.5h254v-21q-31 -37 -87.5 -95t-119 -116.5t-111.5 -95.5h-143z" />
<glyph unicode="&#x17b;" horiz-adv-x="1175" d="M70 0v158l749 1114h-727v190h993v-157l-749 -1115h768v-190h-1034zM479 1757q0 68 37 96.5t88 28.5q49 0 85 -29t36 -96q0 -66 -36 -95.5t-85 -29.5q-51 0 -88 29.5t-37 95.5z" />
<glyph unicode="&#x17c;" horiz-adv-x="972" d="M72 0v137l569 799h-535v168h777v-154l-557 -782h573v-168h-827zM369 1399q0 68 37 96.5t88 28.5q49 0 85 -29t36 -96q0 -66 -36 -95.5t-85 -29.5q-51 0 -88 29.5t-37 95.5z" />
<glyph unicode="&#x17d;" horiz-adv-x="1175" d="M70 0v158l749 1114h-727v190h993v-157l-749 -1115h768v-190h-1034zM225 1900v27h147q53 -35 110.5 -82t111.5 -103q53 55 112.5 103.5t112.5 81.5h149v-27q-39 -39 -88 -91t-95 -108.5t-73 -101.5h-233q-29 45 -74 100.5t-94 108.5t-86 92z" />
<glyph unicode="&#x17e;" horiz-adv-x="972" d="M72 0v137l569 799h-535v168h777v-154l-557 -782h573v-168h-827zM117 1542v27h147q53 -35 110.5 -82t111.5 -103q53 55 112.5 103.5t112.5 81.5h149v-27q-39 -39 -88 -91t-95 -108.5t-73 -101.5h-233q-29 45 -74 100.5t-94 108.5t-86 92z" />
<glyph unicode="&#x17f;" horiz-adv-x="702" d="M170 0v1188q0 211 101.5 295t269.5 84q74 0 130 -13.5t97 -27.5l-55 -166q-33 10 -75 20.5t-87 10.5q-80 0 -122 -49.5t-42 -157.5v-1184h-217z" />
<glyph unicode="&#x180;" horiz-adv-x="1269" d="M14 1227v153h156v176h217v-176h401v-153h-401v-51q0 -66 -3 -125.5t-7 -98.5h10q47 70 127 117t207 47q199 0 320.5 -138t121.5 -425q0 -285 -122.5 -429t-321.5 -144q-127 0 -206 46t-126 109h-16l-41 -135h-160v1227h-156zM387 551q0 -190 60.5 -291.5t226.5 -101.5 q133 0 199.5 102t66.5 295q0 385 -270 385q-154 0 -217.5 -93t-65.5 -286v-10z" />
<glyph unicode="&#x181;" horiz-adv-x="1533" d="M18 1178q0 135 75 209.5t241 74.5h479q279 0 422 -82t143 -282q0 -127 -68.5 -213t-193.5 -109v-10q86 -16 155.5 -54t110.5 -109t41 -185q0 -201 -138 -309.5t-378 -108.5h-522v1276h-53q-66 0 -95.5 -29.5t-29.5 -77.5q0 -35 7 -63.5t13 -42.5h-186q-8 20 -15.5 53 t-7.5 62zM604 184h268q178 0 248 70t70 184q0 104 -71.5 169t-258.5 65h-256v-488zM604 852h244q172 0 237.5 55.5t65.5 163.5q0 109 -79 157t-249 48h-219v-424z" />
<glyph unicode="&#x182;" horiz-adv-x="1273" d="M195 0v1462h884v-190h-663v-412h188q215 0 340 -55t177.5 -150.5t52.5 -218.5q0 -207 -129.5 -321.5t-421.5 -114.5h-428zM416 186h190q180 0 260 60.5t80 189.5q0 133 -88 185.5t-283 52.5h-159v-488z" />
<glyph unicode="&#x183;" horiz-adv-x="1269" d="M170 0v1556h883v-174h-666v-206q0 -68 -3 -132.5t-7 -91.5h10q47 70 127 117t207 47q199 0 320.5 -138t121.5 -425q0 -285 -122.5 -429t-321.5 -144q-127 0 -206 46t-126 109h-16l-41 -135h-160zM387 551q0 -190 60.5 -291.5t226.5 -101.5q133 0 199.5 102t66.5 295 q0 385 -270 385q-154 0 -217.5 -93t-65.5 -286v-10z" />
<glyph unicode="&#x184;" horiz-adv-x="1316" d="M182 430v1032h221v-602h246q205 0 329 -57.5t180 -155.5t56 -219q0 -201 -127 -324.5t-385 -123.5q-279 0 -399.5 118.5t-120.5 331.5zM403 434q0 -143 70.5 -205.5t224.5 -62.5q291 0 291 262q0 137 -95 191.5t-273 54.5h-218v-240z" />
<glyph unicode="&#x185;" horiz-adv-x="1265" d="M164 547v1009h217v-374q0 -66 -4 -127.5t-6 -96.5h10q45 70 127 117t209 47q201 0 321.5 -143t120.5 -428t-134 -428t-357 -143q-233 0 -368.5 143t-135.5 424zM381 543q0 -188 75 -286.5t212 -98.5q268 0 268 395q0 393 -270 393q-158 0 -221.5 -93t-63.5 -286v-24z" />
<glyph unicode="&#x186;" horiz-adv-x="1296" d="M66 1393q86 43 196.5 66.5t243.5 23.5q223 0 370.5 -93.5t222.5 -262.5t75 -396q0 -223 -78 -392t-228.5 -264t-367.5 -95q-119 0 -208 15t-173 48v190q90 -29 174 -46t178 -17q223 0 347 149.5t124 411.5q0 260 -118.5 410.5t-348.5 150.5q-94 0 -176 -25.5t-152 -58.5z " />
<glyph unicode="&#x187;" horiz-adv-x="1296" d="M123 731q0 221 81 390t236.5 265.5t380.5 96.5q57 0 113.5 -7.5t107.5 -19.5v27q1 286 261 286q41 0 74.5 -8t54.5 -18v-174q-14 6 -45 13t-64 7q-98 0 -98 -102v-98l-80 -181q-72 33 -152 58.5t-174 25.5q-217 0 -341 -150.5t-124 -412.5q0 -260 115 -409.5t348 -149.5 q94 0 181 17.5t178 45.5v-190q-86 -33 -176.5 -48t-208.5 -15q-225 0 -374 93t-221.5 262t-72.5 396z" />
<glyph unicode="&#x188;" horiz-adv-x="1036" d="M106 545q0 205 68 332t186.5 187t270.5 60q33 0 63.5 -3t61.5 -7v156q0 297 258 297q41 0 74.5 -9.5t54.5 -19.5v-174q-14 6 -44 13t-65 7q-96 0 -96 -102v-225l-66 -172q-57 20 -120.5 37.5t-122.5 17.5q-299 0 -299 -393q0 -188 73.5 -286.5t217.5 -98.5 q90 0 161.5 20.5t130.5 53.5v-189q-59 -35 -129 -51t-170 -16q-229 0 -368.5 136t-139.5 429z" />
<glyph unicode="&#x189;" horiz-adv-x="1501" d="M57 629v188h148v645h442q221 0 386 -82t255 -241.5t90 -393.5q0 -371 -204.5 -558t-571.5 -187h-397v629h-148zM426 186h168q553 0 553 553q0 276 -135 406.5t-379 130.5h-207v-459h328v-188h-328v-443z" />
<glyph unicode="&#x18a;" horiz-adv-x="1689" d="M18 1178q0 135 74 209.5t242 74.5h504q223 0 385.5 -82t253 -241.5t90.5 -393.5q0 -371 -204 -558t-570 -187h-410v1276h-53q-63 0 -94 -29.5t-31 -77.5q0 -35 7 -63.5t13 -42.5h-184q-8 20 -15.5 53t-7.5 62zM604 186h180q551 0 551 553q0 276 -133 406.5t-379 130.5 h-219v-1090z" />
<glyph unicode="&#x18b;" horiz-adv-x="1273" d="M100 418q0 119 57.5 220t187.5 161.5t347 60.5h166v412h-663v190h884v-1462h-420q-293 0 -426 109.5t-133 308.5zM328 426q0 -125 88 -182.5t266 -57.5h176v488h-141q-193 0 -291 -54.5t-98 -193.5z" />
<glyph unicode="&#x18c;" horiz-adv-x="1269" d="M106 549q0 279 123 424t324 145q125 0 205 -47t129 -115h12q-2 12 -6 45t-7 71t-3 65v245h-666v174h883v-1556h-170l-37 147h-10q-47 -70 -127 -118.5t-207 -48.5q-201 0 -322 143t-121 426zM330 545q0 -186 67.5 -286.5t202.5 -100.5q160 0 224.5 88t66.5 268v33 q0 188 -62.5 290.5t-230.5 102.5q-133 0 -200.5 -105.5t-67.5 -289.5z" />
<glyph unicode="&#x18d;" horiz-adv-x="1245" d="M104 612q0 254 142.5 383t380.5 129q150 0 265 -53t182 -155.5t67 -249.5q0 -135 -55.5 -231.5t-151 -161t-211.5 -99.5q109 -63 178.5 -144t69.5 -194q0 -143 -111 -217t-283 -74q-141 0 -242.5 33t-191.5 78l92 162q80 -43 166 -73t187 -30q88 0 128 39t40 90 q0 68 -63.5 122.5t-211.5 133.5q-186 98 -281.5 218t-95.5 294zM327 621q0 -129 64.5 -212.5t177.5 -142.5q74 18 155 62.5t136 125.5t55 210q0 125 -75.5 203.5t-212.5 78.5q-143 0 -221.5 -84t-78.5 -241z" />
<glyph unicode="&#x18e;" horiz-adv-x="1140" d="M123 0v190h602v480h-565v186h565v418h-602v188h823v-1462h-823z" />
<glyph unicode="&#x18f;" horiz-adv-x="1560" d="M133 739v72h1071q-16 229 -134 356t-349 127q-154 0 -282 -34.5t-218 -71.5v196q90 41 208 71t296 30q233 0 391 -94.5t239 -263.5t81 -398q0 -227 -77 -396t-226.5 -261t-366.5 -92q-227 0 -366.5 94t-203 265t-63.5 400zM367 621q0 -211 88 -331t311 -120 q188 0 305 115.5t131 335.5h-835z" />
<glyph unicode="&#x190;" horiz-adv-x="1241" d="M104 403q0 154 99.5 246t288.5 115v8q-145 23 -235.5 107t-90.5 235q0 164 127 266.5t360 102.5q160 0 284 -44t216 -110l-102 -149q-82 55 -171 89t-216 34t-202 -54.5t-75 -154.5q0 -115 97.5 -180.5t314.5 -65.5h176v-180h-189q-217 0 -336.5 -59.5t-119.5 -186.5 t96 -195.5t285 -68.5q109 0 229.5 29.5t214.5 74.5v-194q-94 -43 -211 -65.5t-260 -22.5q-205 0 -333 54t-187.5 149.5t-59.5 219.5z" />
<glyph unicode="&#x191;" horiz-adv-x="1081" d="M-27 -285q41 -20 99 -20q59 0 91 33.5t32 119.5v1614h823v-188h-604v-477h565v-189h-565v-766q0 -174 -82.5 -254t-229.5 -80q-41 0 -73.5 8.5t-55.5 20.5v178z" />
<glyph unicode="&#x192;" horiz-adv-x="1171" d="M193 -295q31 -8 60.5 -13t63.5 -5q76 0 116 42t40 156v938h-201v103l201 67v119q0 141 42 222t120.5 115t189.5 34q74 0 130.5 -14.5t97.5 -30.5l-54 -164q-33 10 -71.5 21.5t-83.5 11.5q-80 0 -117 -45t-37 -152v-121h262v-166h-258v-952q0 -186 -87 -274.5t-263 -88.5 q-86 0 -151 21v176z" />
<glyph unicode="&#x193;" horiz-adv-x="1488" d="M123 731q0 229 89 398t259 261.5t412 92.5q137 0 254 -31v31q0 286 260 286q41 0 73.5 -8t53.5 -18v-174q-14 6 -44 13t-63 7q-98 0 -98 -102v-96l-80 -181q-76 35 -170 58.5t-195 23.5q-162 0 -279.5 -68.5t-180 -195.5t-62.5 -299q0 -164 51.5 -291t162 -198.5 t288.5 -71.5q88 0 148.5 9t111.5 22v397h-309v190h528v-729q-117 -39 -238.5 -58t-277.5 -19q-336 0 -515 198.5t-179 552.5z" />
<glyph unicode="&#x194;" horiz-adv-x="1216" d="M0 1462h229l277 -727q29 -76 56.5 -157.5t41.5 -151.5q14 70 42 150.5t59 160.5l280 725h232l-498 -1233q139 -272 139 -442q0 -119 -66.5 -199t-187.5 -80t-186.5 79t-65.5 200q0 94 39 210t96 232zM535 -207q0 -61 19 -90t50 -29q70 0 70 115q0 47 -16.5 119t-53.5 143 q-37 -74 -53 -143.5t-16 -114.5z" />
<glyph unicode="&#x195;" horiz-adv-x="1945" d="M170 0v1556h217v-415q0 -100 -12 -187h14q51 84 135 126t185 42q180 0 278 -96t98 -309v-295q0 -264 240 -264q125 0 182.5 69.5t57.5 231.5v645h217v-658q0 -250 -115 -358t-342 -108t-342 98t-115 321v289q0 258 -206 258q-158 0 -216.5 -102.5t-58.5 -288.5v-555h-217 z" />
<glyph unicode="&#x196;" horiz-adv-x="745" d="M182 334v1128h224v-1110q0 -182 149 -182q47 0 93 8t77 19v-179q-33 -16 -92.5 -27t-122.5 -11q-94 0 -168 31.5t-117 108.5t-43 214z" />
<glyph unicode="&#x197;" horiz-adv-x="724" d="M66 651v187h186v444l-174 53v127h567v-127l-172 -53v-444h184v-187h-184v-473l172 -51v-127h-567v127l174 51v473h-186z" />
<glyph unicode="&#x198;" horiz-adv-x="1294" d="M195 0v1462h221v-719q49 63 105.5 131t107.5 134l227 284q82 104 145.5 144.5t147.5 40.5q39 0 67.5 -5.5t49.5 -15.5v-172q-16 4 -43 7t-49 3q-31 0 -64 -18.5t-80 -73.5l-309 -377l573 -825h-256l-469 676l-153 -139v-537h-221z" />
<glyph unicode="&#x199;" horiz-adv-x="1144" d="M170 0v1262q0 156 72 231.5t209 75.5q43 0 80.5 -10.5t60.5 -18.5v-174q-14 6 -45 13t-64 7q-45 0 -71.5 -27.5t-26.5 -90.5v-490q0 -41 -3 -98t-7 -102h6q20 31 61 81t72 82l338 363h252l-445 -473l474 -631h-256l-365 494l-127 -107v-387h-215z" />
<glyph unicode="&#x19a;" horiz-adv-x="571" d="M29 696v164h147v696h217v-696h152v-164h-152v-696h-217v696h-147z" />
<glyph unicode="&#x19b;" horiz-adv-x="1155" d="M-6 0l473 1071l-41 109l-213 -64l-43 141l195 58q-31 41 -66 57.5t-88 16.5q-35 0 -61.5 -4.5t-49.5 -8.5v176q27 6 68 11.5t78 5.5q125 0 197.5 -47t123.5 -144l213 66l43 -141l-198 -62l340 -944q27 -78 55.5 -107.5t66.5 -29.5q37 0 64 10v-164q-23 -10 -60.5 -18 t-72.5 -8q-90 0 -140.5 45t-84.5 139l-134 377q-27 70 -55.5 156.5t-38.5 142.5h-8q-16 -68 -44 -145t-58 -146l-236 -549h-225z" />
<glyph unicode="&#x19c;" horiz-adv-x="2111" d="M182 418v1044h221v-1018q0 -137 54.5 -206.5t171.5 -69.5q168 0 238.5 98.5t70.5 282.5v913h221v-1018q0 -137 55.5 -206.5t174.5 -69.5q174 0 240.5 108.5t66.5 311.5v874h221v-1462h-172l-35 164h-12q-55 -92 -154.5 -138t-208.5 -46q-135 0 -221 50t-133 148h-10 q-59 -100 -160.5 -149t-222.5 -49q-199 0 -302.5 104t-103.5 334z" />
<glyph unicode="&#x19d;" horiz-adv-x="1589" d="M-27 -285q41 -20 99 -20q59 0 91 33.5t32 119.5v1614h266l737 -1175h6q0 23 -4 90t-7 150t-3 149v786h205v-1462h-269l-739 1182h-8q2 -35 6 -101.5t7 -147.5t3 -155v-936q0 -174 -77 -254t-220 -80q-41 0 -71.5 8.5t-53.5 20.5v178z" />
<glyph unicode="&#x19e;" horiz-adv-x="1290" d="M170 0v1104h172l31 -148h12q53 86 146.5 127t197.5 41q193 0 295 -96t102 -309v-1211h-215v1180q0 127 -54 192.5t-173 65.5q-168 0 -232.5 -100.5t-64.5 -288.5v-557h-217z" />
<glyph unicode="&#x19f;" horiz-adv-x="1609" d="M123 735q0 225 73.5 394t225 262.5t385.5 93.5q225 0 375.5 -93.5t226.5 -262.5t76 -396t-76 -396t-227.5 -263t-376.5 -94q-231 0 -383 94t-225.5 264t-73.5 397zM356 653q16 -229 124 -357t325 -128q215 0 323.5 128t122.5 357h-895zM358 842h889q-20 211 -125.5 331.5 t-314.5 120.5q-211 0 -319.5 -120.5t-129.5 -331.5z" />
<glyph unicode="&#x1a0;" horiz-adv-x="1630" d="M123 735q0 225 73.5 394t225 262.5t385.5 93.5q170 0 299 -55.5t213 -155.5q74 27 96.5 102.5t22.5 179.5h227l14 -22q-27 -135 -88 -237.5t-190 -151.5q84 -172 84 -412q0 -227 -76 -396t-227.5 -263t-376.5 -94q-231 0 -383 94t-225.5 264t-73.5 397zM356 733 q0 -262 107.5 -413.5t341.5 -151.5q236 0 341 151.5t105 413.5t-105.5 411.5t-338.5 149.5q-236 0 -343.5 -149.5t-107.5 -411.5z" />
<glyph unicode="&#x1a1;" horiz-adv-x="1300" d="M106 553q0 274 139.5 422.5t381.5 148.5q225 0 364 -139q90 27 116 104.5t26 182.5h223l14 -23q-27 -143 -90 -243.5t-203 -145.5q31 -63 48.5 -140t17.5 -167q0 -274 -141.5 -423.5t-380.5 -149.5q-150 0 -265.5 66.5t-182.5 194.5t-67 312zM330 553q0 -195 69.5 -295 t225.5 -100t225.5 100t69.5 295t-71 293t-226 98q-156 0 -224.5 -98t-68.5 -293z" />
<glyph unicode="&#x1a2;" horiz-adv-x="2236" d="M123 735q0 225 71.5 394t217 262.5t366.5 93.5q152 0 269.5 -48t197.5 -139q66 90 170.5 138.5t224.5 48.5q203 0 308.5 -108.5t105.5 -348.5v-1028h-221v1020q0 276 -238 276q-100 0 -164.5 -29.5t-101.5 -84.5q98 -183 98 -449q0 -227 -72.5 -396t-218 -263t-360.5 -94 q-221 0 -365.5 94t-216 264t-71.5 397zM356 733q0 -262 101.5 -413.5t318.5 -151.5q219 0 318.5 151.5t99.5 413.5t-99.5 411.5t-316.5 149.5t-319.5 -149.5t-102.5 -411.5z" />
<glyph unicode="&#x1a3;" horiz-adv-x="1781" d="M106 553q0 274 133.5 422.5t362.5 148.5q223 0 356 -151q57 78 138.5 114.5t175.5 36.5q168 0 258 -96t90 -309v-1211h-217v1182q0 256 -186 256q-125 0 -187 -86q64 -127 64 -307q0 -274 -134.5 -423.5t-361.5 -149.5q-143 0 -254 66.5t-174.5 194.5t-63.5 312zM330 553 q0 -186 64.5 -290.5t205.5 -104.5q139 0 204.5 104.5t65.5 290.5q0 188 -65.5 289.5t-204.5 101.5q-141 0 -205.5 -101.5t-64.5 -289.5z" />
<glyph unicode="&#x1a4;" horiz-adv-x="1441" d="M18 1178q0 135 74 209.5t242 74.5h461q287 0 416.5 -115.5t129.5 -322.5q0 -123 -54 -229.5t-181 -173t-344 -66.5h-158v-555h-221v1276h-53q-63 0 -94 -29.5t-31 -77.5q0 -35 7 -63.5t13 -42.5h-184q-8 20 -15.5 53t-7.5 62zM604 741h135q186 0 280.5 62.5t94.5 212.5 q0 131 -81 195.5t-255 64.5h-174v-535z" />
<glyph unicode="&#x1a5;" horiz-adv-x="1269" d="M170 -492v1754q0 156 73 230.5t210 74.5q41 0 78.5 -9.5t60.5 -19.5v-174q-14 6 -43 13t-64 7q-47 0 -72.5 -26.5t-25.5 -89.5v-133q0 -39 -5 -89.5t-7 -89.5h12q47 70 126 119t208 49q199 0 320.5 -143t121.5 -428q0 -281 -120.5 -427t-321.5 -146q-127 0 -207 45 t-127 108h-12q4 -37 8 -87t4 -89v-449h-217zM387 555q0 -193 61.5 -295t225.5 -102q135 0 200.5 110.5t65.5 288.5q0 180 -66.5 284.5t-203.5 104.5q-154 0 -217.5 -88t-65.5 -270v-33z" />
<glyph unicode="&#x1a6;" horiz-adv-x="1296" d="M195 0v1462h221v-205h188q281 0 415 -104t134 -317q0 -113 -41 -190t-107.5 -126t-138.5 -76l410 -649h-254l-352 592h-254v-387h-221zM416 571h184q170 0 248 64.5t78 191.5q0 131 -82 186.5t-254 55.5h-174v-498z" />
<glyph unicode="&#x1a7;" horiz-adv-x="1126" d="M94 393q0 115 48 192t137.5 133t214.5 103q113 43 182 81t100 84t31 116q0 86 -63.5 138t-186.5 52q-86 0 -167 -22.5t-159 -57.5l-67 183q86 39 184 63.5t213 24.5q209 0 338 -100.5t129 -280.5q0 -119 -45 -201t-129 -138t-201 -99q-176 -66 -258 -123.5t-82 -159.5 q0 -100 75 -156.5t220 -56.5q115 0 224.5 30.5t191.5 65.5v-201q-76 -37 -183.5 -60t-232.5 -23q-244 0 -379 109.5t-135 303.5z" />
<glyph unicode="&#x1a8;" horiz-adv-x="991" d="M88 305q0 137 86 208t240 128q102 39 161.5 67.5t84 57.5t24.5 70q0 55 -53 86.5t-152 31.5q-68 0 -137.5 -21.5t-140.5 -51.5l-68 166q84 37 171 57t177 20q193 0 303.5 -74.5t110.5 -220.5q0 -92 -39 -150t-113.5 -101t-181.5 -84q-106 -43 -163.5 -74t-78 -60.5 t-20.5 -66.5q0 -68 57.5 -107t180.5 -39q90 0 184 26t166 63v-185q-70 -35 -155 -53t-200 -18q-444 0 -444 325z" />
<glyph unicode="&#x1a9;" horiz-adv-x="1181" d="M76 0v178l475 586l-463 520v178h979v-190h-498h-78t-88 1t-69 3l459 -510l-482 -582l152 4t153 2h510v-190h-1050z" />
<glyph unicode="&#x1aa;" horiz-adv-x="768" d="M-16 1339q0 57 26.5 110.5t85 86.5t156.5 33q293 0 293 -312v-1396q0 -176 149 -176q47 0 94.5 8t81.5 18v-164q-35 -16 -93 -27.5t-120 -11.5q-96 0 -169.5 31t-116.5 106.5t-43 213.5v1243h-80q-139 0 -201.5 67.5t-62.5 169.5zM154 1337q0 -41 28.5 -62.5t75.5 -21.5 h70v37q0 57 -22 92t-75 35q-41 0 -59 -24.5t-18 -55.5z" />
<glyph unicode="&#x1ab;" horiz-adv-x="784" d="M37 938v98l162 82l75 234h134v-248h315v-166h-315v-606q0 -176 159 -176q92 0 166 26v-381q0 -293 -256 -293q-41 0 -75.5 8.5t-59.5 16.5v168q18 -6 45 -12t57 -6q98 0 99 110v187h-37q-84 0 -155.5 30.5t-116 106.5t-44.5 211v610h-153z" />
<glyph unicode="&#x1ac;" horiz-adv-x="1204" d="M18 1178q0 135 74 209.5t242 74.5h844v-190h-439v-1272h-221v1272h-188q-63 0 -94 -27.5t-31 -75.5q0 -35 7 -63.5t13 -42.5h-184q-8 20 -15.5 53t-7.5 62z" />
<glyph unicode="&#x1ad;" horiz-adv-x="784" d="M37 938v98l153 78v127q0 164 84 245t244 81q49 0 94 -9.5t72 -19.5v-174q-20 6 -65.5 13t-90.5 7q-66 0 -93 -32.5t-27 -98.5v-149h315v-166h-315v-606q0 -90 44 -133t115 -43q92 0 166 26v-164q-35 -16 -94 -27t-119 -11q-90 0 -164.5 30.5t-120 106.5t-45.5 211v610 h-153z" />
<glyph unicode="&#x1ae;" horiz-adv-x="1153" d="M27 1272v190h1097v-190h-438v-1424q0 -86 32 -119.5t91 -33.5q57 0 98 20v-178q-51 -29 -141 -29q-145 0 -223 79t-78 255v1430h-438z" />
<glyph unicode="&#x1af;" horiz-adv-x="1660" d="M182 520v942h221v-942q0 -172 89.5 -262t271.5 -90q186 0 266 97t80 257v940h219v-196q92 20 124 97t32 193h223l14 -22q-18 -100 -58 -186t-119 -144.5t-216 -81.5v-606q0 -152 -60.5 -273.5t-185.5 -192t-323 -70.5q-283 0 -430.5 148t-147.5 392z" />
<glyph unicode="&#x1b0;" horiz-adv-x="1431" d="M160 381v721h219v-688q0 -129 54 -192.5t169 -63.5q170 0 235.5 99t65.5 288v557h217v-119q90 18 121 97t31 194h223l14 -23q-18 -100 -57 -188t-117 -147.5t-215 -75.5v-840h-174l-31 145h-10q-53 -86 -146 -125.5t-198 -39.5q-195 0 -298 95t-103 306z" />
<glyph unicode="&#x1b1;" horiz-adv-x="1603" d="M70 1272v190h606v-186q-180 -119 -252 -277.5t-72 -353.5q0 -225 112 -351t339 -126q225 0 334.5 126t109.5 351q0 197 -69.5 353.5t-249.5 277.5v186h604v-190h-365q133 -96 222.5 -262t89.5 -387q0 -197 -80 -342.5t-231.5 -224.5t-364.5 -79q-217 0 -368.5 79 t-231.5 223.5t-80 341.5q0 223 89 389t224 262h-366z" />
<glyph unicode="&#x1b2;" horiz-adv-x="1511" d="M182 520v942h221v-932q0 -362 357 -362q184 0 267 98.5t83 265.5v621q0 78 -33 108.5t-90 30.5q-84 0 -151 -39v181q33 20 88 34.5t114 14.5q291 0 291 -303v-664q0 -152 -62.5 -273.5t-191 -192t-325.5 -70.5q-279 0 -423.5 148t-144.5 392z" />
<glyph unicode="&#x1b3;" horiz-adv-x="1193" d="M0 1282v176q20 8 55 17.5t78 9.5q84 0 137.5 -41t98.5 -139l237 -527l350 684h238l-479 -895v-567h-221v559l-299 631q-33 66 -58.5 87t-58.5 21q-41 0 -78 -16z" />
<glyph unicode="&#x1b4;" horiz-adv-x="1155" d="M8 1104h234l219 -594q27 -74 49 -146.5t35 -140.5h8q10 49 35.5 127t54.5 158l141 403q39 109 92.5 161t143.5 52q37 0 71.5 -8t59.5 -18v-164q-27 10 -64 10q-39 0 -66.5 -29.5t-55.5 -107.5l-351 -952q-57 -160 -156.5 -253.5t-267.5 -93.5q-45 0 -82.5 5.5t-64.5 11.5 v172q20 -4 53 -8t66 -4q92 0 151.5 53t94.5 141l43 121z" />
<glyph unicode="&#x1b5;" horiz-adv-x="1175" d="M70 0v158l338 504h-256v176h376l291 434h-727v190h993v-157l-315 -467h234v-176h-353l-315 -472h768v-190h-1034z" />
<glyph unicode="&#x1b6;" horiz-adv-x="972" d="M72 0v137l252 352h-209v160h323l203 287h-535v168h777v-154l-213 -301h190v-160h-307l-227 -321h573v-168h-827z" />
<glyph unicode="&#x1b7;" horiz-adv-x="1200" d="M68 59v197q96 -47 210.5 -71.5t215.5 -24.5q197 0 286.5 71.5t89.5 196.5q0 244 -438 244h-133v170l446 430h-634v190h923v-162l-481 -460q258 -10 401.5 -116t143.5 -304q0 -129 -65.5 -228.5t-199 -155.5t-335.5 -56q-121 0 -228.5 18t-201.5 61z" />
<glyph unicode="&#x1b8;" horiz-adv-x="1200" d="M102 428q0 150 65.5 249t177.5 151.5t249 58.5l-428 413v162h924v-190h-635l401 -395v-158h-147q-176 0 -277.5 -68.5t-101.5 -212.5q0 -131 92 -204.5t285 -73.5q100 0 214.5 24.5t211.5 71.5v-197q-94 -43 -204 -61t-247 -18q-201 0 -329 60t-189.5 161.5t-61.5 226.5z " />
<glyph unicode="&#x1b9;" horiz-adv-x="1069" d="M72 -16q0 227 138 351t361 144l-444 473v152h877v-176h-617l434 -463v-154h-121q-201 0 -305 -77.5t-104 -241.5q0 -135 90 -220t252 -85q113 0 215 25.5t178 62.5v-191q-74 -35 -175.5 -55.5t-240.5 -20.5q-172 0 -291.5 62.5t-183 170t-63.5 243.5z" />
<glyph unicode="&#x1ba;" horiz-adv-x="1069" d="M70 -225q0 74 33.5 134t116.5 98t233 40q162 2 227 52.5t65 162.5q0 113 -90 157t-270 44h-125v149l354 316h-538v176h835v-150l-376 -325q201 -10 315.5 -100.5t114.5 -266.5q0 -106 -46.5 -194t-155 -141.5t-300.5 -59.5q-115 -2 -156 -25.5t-41 -66.5q0 -94 211 -94 q113 0 202 24.5t152 50.5v-182q-61 -29 -156 -47.5t-210 -18.5q-172 0 -283.5 63.5t-111.5 203.5z" />
<glyph unicode="&#x1bb;" horiz-adv-x="1167" d="M86 0v172l436 526h-383v160h504q57 84 78.5 159t21.5 157q0 100 -60 155t-159 55q-94 0 -166.5 -37.5t-146.5 -103.5l-111 141q76 70 183 126.5t254 56.5q201 0 314.5 -105.5t113.5 -279.5q0 -84 -21.5 -162t-69.5 -162h187v-160h-291l-436 -518v-10h735v-170h-983z" />
<glyph unicode="&#x1bc;" horiz-adv-x="1191" d="M68 59v197q88 -45 202.5 -70.5t214.5 -25.5q182 0 279.5 74.5t97.5 220.5q0 141 -97 207.5t-247 66.5h-256v541h-190v192h962v-192h-553v-359h78q154 0 273.5 -53t188.5 -154.5t69 -244.5q0 -213 -149 -346t-454 -133q-119 0 -225 18t-194 61z" />
<glyph unicode="&#x1bd;" horiz-adv-x="1042" d="M70 51v189q70 -35 170 -60.5t209 -25.5q125 0 208.5 45t83.5 151q0 96 -78.5 140.5t-232.5 44.5h-186v395h-156v174h807v-174h-453v-228h52q244 0 352 -91t108 -251q0 -104 -53 -191t-164.5 -138t-283.5 -51q-115 0 -216.5 18t-166.5 53z" />
<glyph unicode="&#x1be;" horiz-adv-x="968" d="M74 49v191q66 -35 162 -64t190 -29q129 0 186.5 39t57.5 109q0 57 -47.5 94t-161.5 88q-88 41 -136.5 105.5t-48.5 201.5v154h-190v98l193 82l75 234h133v-248h308v-166h-308v-154q0 -68 20.5 -98.5t74.5 -50.5q90 -37 156.5 -79t104.5 -100.5t38 -146.5 q0 -156 -116 -242.5t-335 -86.5q-223 0 -356 69z" />
<glyph unicode="&#x1bf;" horiz-adv-x="1230" d="M170 -492v1596h176l31 -148h10q47 70 122 119t200 49q186 0 305 -122.5t119 -352.5q0 -184 -89.5 -329.5t-257.5 -236.5t-399 -110v-465h-217zM387 156q244 31 383 160.5t139 332.5q0 133 -66.5 215t-189.5 82q-145 0 -205.5 -89t-60.5 -269v-432z" />
<glyph unicode="&#x1c0;" horiz-adv-x="661" d="M242 0v1556h178v-1556h-178z" />
<glyph unicode="&#x1c1;" horiz-adv-x="1134" d="M242 0v1556h178v-1556h-178zM715 0v1556h178v-1556h-178z" />
<glyph unicode="&#x1c2;" horiz-adv-x="1056" d="M125 537v163h315v191h-315v162h315v503h176v-503h316v-162h-316v-191h316v-163h-316v-537h-176v537h-315z" />
<glyph unicode="&#x1c3;" horiz-adv-x="561" d="M139 121q0 80 41 112.5t101 32.5q55 0 97 -32.5t42 -112.5t-42 -115t-97 -35q-59 0 -100.5 35t-41.5 115zM154 1462h256l-52 -1028h-153z" />
<glyph unicode="&#x1c4;" horiz-adv-x="2656" d="M195 0v1462h452q223 0 387 -82t254 -242t90 -393q0 -371 -203.5 -558t-570.5 -187h-409zM416 186h178q553 0 553 553q0 276 -133 406.5t-381 130.5h-217v-1090zM1551 0v158l749 1114h-727v190h993v-157l-749 -1115h768v-190h-1034zM1706 1900v27h147q53 -35 110.5 -82 t111.5 -103q53 55 112.5 103.5t112.5 81.5h149v-27q-39 -39 -88 -91t-95 -108.5t-73 -101.5h-233q-29 45 -74 100.5t-94 108.5t-86 92z" />
<glyph unicode="&#x1c5;" horiz-adv-x="2473" d="M195 0v1462h452q223 0 387 -82t254 -242t90 -393q0 -371 -203.5 -558t-570.5 -187h-409zM416 186h178q553 0 553 553q0 276 -133 406.5t-381 130.5h-217v-1090zM1573 0v137l569 799h-535v168h777v-154l-557 -782h573v-168h-827zM1618 1542v27h147q53 -35 110.5 -82 t111.5 -103q53 55 112.5 103.5t112.5 81.5h149v-27q-39 -39 -88 -91t-95 -108.5t-73 -101.5h-233q-29 45 -74 100.5t-94 108.5t-86 92z" />
<glyph unicode="&#x1c6;" horiz-adv-x="2244" d="M106 549q0 285 123 430t324 145q125 0 205 -47t129 -114h12q-4 29 -10 84t-6 96v413h217v-1556h-170l-37 147h-10q-47 -70 -127 -118.5t-207 -48.5q-201 0 -322 143t-121 426zM330 545q0 -186 67.5 -286.5t202.5 -100.5q160 0 224.5 88t66.5 268v33q0 195 -62.5 297 t-230.5 102q-133 0 -200.5 -106.5t-67.5 -294.5zM1342 0v137l569 799h-535v168h777v-154l-557 -782h573v-168h-827zM1387 1542v27h147q53 -35 110.5 -82t111.5 -103q53 55 112.5 103.5t112.5 81.5h149v-27q-39 -39 -88 -91t-95 -108.5t-73 -101.5h-233q-29 45 -74 100.5 t-94 108.5t-86 92z" />
<glyph unicode="&#x1c7;" horiz-adv-x="1691" d="M195 0v1462h221v-1272h624v-190h-845zM940 -190q33 -8 70 -14.5t78 -6.5q51 0 96 20.5t72.5 72.5t27.5 151v1429h222v-1419q0 -231 -112 -337.5t-292 -106.5q-53 0 -93 7t-69 19v185z" />
<glyph unicode="&#x1c8;" horiz-adv-x="1654" d="M195 0v1462h221v-1272h624v-190h-845zM979 -293q33 -10 66 -15t73 -5q66 0 108 35.5t42 136.5v1245h217v-1256q0 -154 -79 -247t-255 -93q-53 0 -97 7.5t-75 17.5v174zM1254 1399q0 68 36.5 96.5t88.5 28.5q49 0 85.5 -29t36.5 -96q0 -66 -36.5 -95.5t-85.5 -29.5 q-51 0 -88 29.5t-37 95.5z" />
<glyph unicode="&#x1c9;" horiz-adv-x="1114" d="M170 0v1556h217v-1556h-217zM438 -293q33 -10 66 -15t73 -5q66 0 108 35.5t42 136.5v1245h217v-1256q0 -154 -79 -247t-255 -93q-53 0 -97 7.5t-75 17.5v174zM713 1399q0 68 36.5 96.5t88.5 28.5q49 0 85.5 -29t36.5 -96q0 -66 -36.5 -95.5t-85.5 -29.5q-51 0 -88 29.5 t-37 95.5z" />
<glyph unicode="&#x1ca;" horiz-adv-x="2183" d="M195 0v1462h266l737 -1175h6q-2 43 -5 108.5t-5 140t-4 140.5v786h205v-1462h-269l-739 1182h-8q4 -82 9 -187.5t7 -216.5v-778h-200zM1431 -190q33 -8 70 -14.5t78 -6.5q51 0 96 20.5t72.5 72.5t27.5 151v1429h222v-1419q0 -231 -112 -337.5t-292 -106.5q-53 0 -93 7 t-69 19v185z" />
<glyph unicode="&#x1cb;" horiz-adv-x="2146" d="M195 0v1462h266l737 -1175h6q-2 43 -5 108.5t-5 140t-4 140.5v786h205v-1462h-269l-739 1182h-8q4 -82 9 -187.5t7 -216.5v-778h-200zM1470 -293q33 -10 66 -15t73 -5q66 0 108 35.5t42 136.5v1245h217v-1256q0 -154 -79 -247t-255 -93q-53 0 -97 7.5t-75 17.5v174z M1745 1399q0 68 36.5 96.5t88.5 28.5q49 0 85.5 -29t36.5 -96q0 -66 -36.5 -95.5t-85.5 -29.5q-51 0 -88 29.5t-37 95.5z" />
<glyph unicode="&#x1cc;" horiz-adv-x="1845" d="M170 0v1104h172l31 -148h12q53 86 146.5 127t197.5 41q193 0 295 -96t102 -309v-719h-215v688q0 258 -227 258q-168 0 -232.5 -100.5t-64.5 -288.5v-557h-217zM1171 -293q33 -10 66 -15t73 -5q66 0 108 35.5t42 136.5v1245h217v-1256q0 -154 -79 -247t-255 -93 q-53 0 -97 7.5t-75 17.5v174zM1446 1399q0 68 36.5 96.5t88.5 28.5q49 0 85.5 -29t36.5 -96q0 -66 -36.5 -95.5t-85.5 -29.5q-51 0 -88 29.5t-37 95.5z" />
<glyph unicode="&#x1cd;" horiz-adv-x="1339" d="M0 0l555 1468h229l553 -1468h-231l-156 422h-565l-156 -422h-229zM297 1900v27h147q53 -35 110.5 -82t111.5 -103q53 55 112.5 103.5t112.5 81.5h149v-27q-39 -39 -88 -91t-95 -108.5t-73 -101.5h-233q-29 45 -74 100.5t-94 108.5t-86 92zM451 614h438l-148 412 q-8 23 -22 68t-28.5 94t-22.5 80q-16 -63 -37 -135t-33 -107z" />
<glyph unicode="&#x1ce;" horiz-adv-x="1175" d="M92 313q0 170 128 257t390 96l189 6v61q0 121 -55.5 171t-155.5 50q-84 0 -162 -24.5t-150 -59.5l-69 158q78 41 179 68.5t212 27.5q207 0 310.5 -91t103.5 -285v-748h-154l-43 154h-8q-72 -90 -150.5 -132t-218.5 -42q-150 0 -248 80.5t-98 252.5zM217 1542v27h147 q53 -35 110.5 -82t111.5 -103q53 55 112.5 103.5t112.5 81.5h149v-27q-39 -39 -88 -91t-95 -108.5t-73 -101.5h-233q-29 45 -74 100.5t-94 108.5t-86 92zM315 311q0 -86 51.5 -125t133.5 -39q127 0 212 72t85 215v96l-148 -4q-188 -8 -261 -63t-73 -152z" />
<glyph unicode="&#x1cf;" horiz-adv-x="724" d="M-8 1900v27h147q53 -35 110.5 -82t111.5 -103q53 55 112.5 103.5t112.5 81.5h149v-27q-39 -39 -88 -91t-95 -108.5t-73 -101.5h-233q-29 45 -74 100.5t-94 108.5t-86 92zM78 0v127l174 51v1104l-174 53v127h567v-127l-172 -53v-1104l172 -51v-127h-567z" />
<glyph unicode="&#x1d0;" horiz-adv-x="557" d="M-92 1542v27h147q53 -35 110.5 -82t111.5 -103q53 55 112.5 103.5t112.5 81.5h149v-27q-39 -39 -88 -91t-95 -108.5t-73 -101.5h-233q-29 45 -74 100.5t-94 108.5t-86 92zM170 0v1104h217v-1104h-217z" />
<glyph unicode="&#x1d1;" horiz-adv-x="1607" d="M123 735q0 225 73.5 394t225 262.5t385.5 93.5q225 0 375.5 -93.5t226.5 -262.5t76 -396t-76 -396t-227.5 -263t-376.5 -94q-231 0 -383 94t-225.5 264t-73.5 397zM356 733q0 -262 108.5 -413.5t340.5 -151.5q233 0 339.5 151.5t106.5 413.5t-106.5 411.5t-337.5 149.5 q-233 0 -342 -149.5t-109 -411.5zM434 1900v27h147q53 -35 110.5 -82t111.5 -103q53 55 112.5 103.5t112.5 81.5h149v-27q-39 -39 -88 -91t-95 -108.5t-73 -101.5h-233q-29 45 -74 100.5t-94 108.5t-86 92z" />
<glyph unicode="&#x1d2;" horiz-adv-x="1247" d="M106 553q0 274 139.5 422.5t381.5 148.5q152 0 267.5 -66.5t182 -193.5t66.5 -311q0 -274 -141.5 -423.5t-380.5 -149.5q-150 0 -265.5 66.5t-182.5 194.5t-67 312zM254 1542v27h147q53 -35 110.5 -82t111.5 -103q53 55 112.5 103.5t112.5 81.5h149v-27q-39 -39 -88 -91 t-95 -108.5t-73 -101.5h-233q-29 45 -74 100.5t-94 108.5t-86 92zM330 553q0 -186 70.5 -290.5t224.5 -104.5t224.5 104.5t70.5 290.5q0 188 -71 289.5t-226 101.5q-154 0 -223.5 -101.5t-69.5 -289.5z" />
<glyph unicode="&#x1d3;" horiz-adv-x="1511" d="M182 520v942h221v-932q0 -362 357 -362q184 0 267 98.5t83 265.5v930h219v-946q0 -152 -62.5 -273.5t-191.5 -192t-325 -70.5q-279 0 -423.5 148t-144.5 392zM385 1900v27h147q53 -35 110.5 -82t111.5 -103q53 55 112.5 103.5t112.5 81.5h149v-27q-39 -39 -88 -91 t-95 -108.5t-73 -101.5h-233q-29 45 -74 100.5t-94 108.5t-86 92z" />
<glyph unicode="&#x1d4;" horiz-adv-x="1290" d="M160 381v723h219v-690q0 -129 54 -192.5t169 -63.5q170 0 235.5 99t65.5 288v559h217v-1104h-174l-31 145h-10q-53 -86 -147 -125.5t-199 -39.5q-195 0 -297 95t-102 306zM275 1542v27h147q53 -35 110.5 -82t111.5 -103q53 55 112.5 103.5t112.5 81.5h149v-27 q-39 -39 -88 -91t-95 -108.5t-73 -101.5h-233q-29 45 -74 100.5t-94 108.5t-86 92z" />
<glyph unicode="&#x1d5;" horiz-adv-x="1511" d="M182 520v942h221v-932q0 -362 357 -362q184 0 267 98.5t83 265.5v930h219v-946q0 -152 -62.5 -273.5t-191.5 -192t-325 -70.5q-279 0 -423.5 148t-144.5 392zM443 1923v159h628v-159h-628zM457 1695q0 55 30.5 82t75.5 27q43 0 74 -26.5t31 -82.5q0 -57 -31 -82.5 t-74 -25.5q-45 0 -75.5 25.5t-30.5 82.5zM846 1695q0 55 31 82t74 27q45 0 75.5 -26.5t30.5 -82.5q0 -57 -30.5 -82.5t-75.5 -25.5q-43 0 -74 25.5t-31 82.5z" />
<glyph unicode="&#x1d6;" horiz-adv-x="1290" d="M160 381v723h219v-690q0 -129 54 -192.5t169 -63.5q170 0 235.5 99t65.5 288v559h217v-1104h-174l-31 145h-10q-53 -86 -147 -125.5t-199 -39.5q-195 0 -297 95t-102 306zM330 1565v159h628v-159h-628zM344 1337q0 55 30.5 82t75.5 27q43 0 74 -26.5t31 -82.5 q0 -57 -31 -82.5t-74 -25.5q-45 0 -75.5 25.5t-30.5 82.5zM733 1337q0 55 31 82t74 27q45 0 75.5 -26.5t30.5 -82.5q0 -57 -30.5 -82.5t-75.5 -25.5q-43 0 -74 25.5t-31 82.5z" />
<glyph unicode="&#x1d7;" horiz-adv-x="1511" d="M182 520v942h221v-932q0 -362 357 -362q184 0 267 98.5t83 265.5v930h219v-946q0 -152 -62.5 -273.5t-191.5 -192t-325 -70.5q-279 0 -423.5 148t-144.5 392zM457 1695q0 55 30.5 82t75.5 27q43 0 74 -26.5t31 -82.5q0 -57 -31 -82.5t-74 -25.5q-45 0 -75.5 25.5 t-30.5 82.5zM641 1851v25q47 57 103.5 129.5t91.5 142.5h248v-21q-27 -39 -79 -90t-111.5 -101t-106.5 -85h-146zM846 1695q0 55 31 82t74 27q45 0 75.5 -26.5t30.5 -82.5q0 -57 -30.5 -82.5t-75.5 -25.5q-43 0 -74 25.5t-31 82.5z" />
<glyph unicode="&#x1d8;" horiz-adv-x="1290" d="M160 381v723h219v-690q0 -129 54 -192.5t169 -63.5q170 0 235.5 99t65.5 288v559h217v-1104h-174l-31 145h-10q-53 -86 -147 -125.5t-199 -39.5q-195 0 -297 95t-102 306zM344 1337q0 55 30.5 82t75.5 27q43 0 74 -26.5t31 -82.5q0 -57 -31 -82.5t-74 -25.5 q-45 0 -75.5 25.5t-30.5 82.5zM528 1493v25q47 57 103.5 129.5t91.5 142.5h248v-21q-27 -39 -79 -90t-111.5 -101t-106.5 -85h-146zM733 1337q0 55 31 82t74 27q45 0 75.5 -26.5t30.5 -82.5q0 -57 -30.5 -82.5t-75.5 -25.5q-43 0 -74 25.5t-31 82.5z" />
<glyph unicode="&#x1d9;" horiz-adv-x="1511" d="M182 520v942h221v-932q0 -362 357 -362q184 0 267 98.5t83 265.5v930h219v-946q0 -152 -62.5 -273.5t-191.5 -192t-325 -70.5q-279 0 -423.5 148t-144.5 392zM404 2136v26h129q55 -35 113.5 -71.5t109.5 -90.5q53 53 111.5 90t113.5 72h131v-26q-39 -37 -87 -84 t-92 -96.5t-71 -94.5h-210q-43 70 -117 143.5t-131 131.5zM457 1695q0 55 30.5 82t75.5 27q43 0 74 -26.5t31 -82.5q0 -57 -31 -82.5t-74 -25.5q-45 0 -75.5 25.5t-30.5 82.5zM846 1695q0 55 31 82t74 27q45 0 75.5 -26.5t30.5 -82.5q0 -57 -30.5 -82.5t-75.5 -25.5 q-43 0 -74 25.5t-31 82.5z" />
<glyph unicode="&#x1da;" horiz-adv-x="1290" d="M160 381v723h219v-690q0 -129 54 -192.5t169 -63.5q170 0 235.5 99t65.5 288v559h217v-1104h-174l-31 145h-10q-53 -86 -147 -125.5t-199 -39.5q-195 0 -297 95t-102 306zM291 1778v26h129q55 -35 113.5 -71.5t109.5 -90.5q53 53 111.5 90t113.5 72h131v-26 q-39 -37 -87 -84t-92 -96.5t-71 -94.5h-210q-43 70 -117 143.5t-131 131.5zM344 1337q0 55 30.5 82t75.5 27q43 0 74 -26.5t31 -82.5q0 -57 -31 -82.5t-74 -25.5q-45 0 -75.5 25.5t-30.5 82.5zM733 1337q0 55 31 82t74 27q45 0 75.5 -26.5t30.5 -82.5q0 -57 -30.5 -82.5 t-75.5 -25.5q-43 0 -74 25.5t-31 82.5z" />
<glyph unicode="&#x1db;" horiz-adv-x="1511" d="M182 520v942h221v-932q0 -362 357 -362q184 0 267 98.5t83 265.5v930h219v-946q0 -152 -62.5 -273.5t-191.5 -192t-325 -70.5q-279 0 -423.5 148t-144.5 392zM432 2127v21h248q35 -70 91.5 -142.5t103.5 -129.5v-25h-146q-47 35 -106.5 85t-111.5 101.5t-79 89.5z M457 1695q0 55 30.5 82t75.5 27q43 0 74 -26.5t31 -82.5q0 -57 -31 -82.5t-74 -25.5q-45 0 -75.5 25.5t-30.5 82.5zM846 1695q0 55 31 82t74 27q45 0 75.5 -26.5t30.5 -82.5q0 -57 -30.5 -82.5t-75.5 -25.5q-43 0 -74 25.5t-31 82.5z" />
<glyph unicode="&#x1dc;" horiz-adv-x="1290" d="M160 381v723h219v-690q0 -129 54 -192.5t169 -63.5q170 0 235.5 99t65.5 288v559h217v-1104h-174l-31 145h-10q-53 -86 -147 -125.5t-199 -39.5q-195 0 -297 95t-102 306zM319 1769v21h248q35 -70 91.5 -142.5t103.5 -129.5v-25h-146q-47 35 -106.5 85t-111.5 101.5 t-79 89.5zM344 1337q0 55 30.5 82t75.5 27q43 0 74 -26.5t31 -82.5q0 -57 -31 -82.5t-74 -25.5q-45 0 -75.5 25.5t-30.5 82.5zM733 1337q0 55 31 82t74 27q45 0 75.5 -26.5t30.5 -82.5q0 -57 -30.5 -82.5t-75.5 -25.5q-43 0 -74 25.5t-31 82.5z" />
<glyph unicode="&#x1dd;" horiz-adv-x="1171" d="M100 479v119h742q-4 168 -89 259t-239 91q-106 0 -189 -19.5t-171 -58.5v181q84 39 167.5 56t200.5 17q162 0 284 -63.5t190.5 -189.5t68.5 -312q0 -184 -62.5 -314t-174 -197.5t-261.5 -67.5q-217 0 -342 135t-125 364zM317 438q2 -129 62.5 -210t187.5 -81 q117 0 188 76t83 215h-521z" />
<glyph unicode="&#x1de;" horiz-adv-x="1339" d="M0 0l555 1468h229l553 -1468h-231l-156 422h-565l-156 -422h-229zM353 1923v159h628v-159h-628zM367 1695q0 55 30.5 82t75.5 27q43 0 74 -26.5t31 -82.5q0 -57 -31 -82.5t-74 -25.5q-45 0 -75.5 25.5t-30.5 82.5zM451 614h438l-148 412q-8 23 -22 68t-28.5 94t-22.5 80 q-16 -63 -37 -135t-33 -107zM756 1695q0 55 31 82t74 27q45 0 75.5 -26.5t30.5 -82.5q0 -57 -30.5 -82.5t-75.5 -25.5q-43 0 -74 25.5t-31 82.5z" />
<glyph unicode="&#x1df;" horiz-adv-x="1175" d="M92 313q0 170 128 257t390 96l189 6v61q0 121 -55.5 171t-155.5 50q-84 0 -162 -24.5t-150 -59.5l-69 158q78 41 179 68.5t212 27.5q207 0 310.5 -91t103.5 -285v-748h-154l-43 154h-8q-72 -90 -150.5 -132t-218.5 -42q-150 0 -248 80.5t-98 252.5zM273 1565v159h628 v-159h-628zM287 1337q0 55 30.5 82t75.5 27q43 0 74 -26.5t31 -82.5q0 -57 -31 -82.5t-74 -25.5q-45 0 -75.5 25.5t-30.5 82.5zM315 311q0 -86 51.5 -125t133.5 -39q127 0 212 72t85 215v96l-148 -4q-188 -8 -261 -63t-73 -152zM676 1337q0 55 31 82t74 27q45 0 75.5 -26.5 t30.5 -82.5q0 -57 -30.5 -82.5t-75.5 -25.5q-43 0 -74 25.5t-31 82.5z" />
<glyph unicode="&#x1e0;" horiz-adv-x="1339" d="M0 0l555 1468h229l553 -1468h-231l-156 422h-565l-156 -422h-229zM353 1903v159h628v-159h-628zM451 614h438l-148 412q-8 23 -22 68t-28.5 94t-22.5 80q-16 -63 -37 -135t-33 -107zM555 1690q0 61 33 89.5t82 28.5q47 0 80 -28.5t33 -89.5q0 -59 -33 -88t-80 -29 q-49 0 -82 28.5t-33 88.5z" />
<glyph unicode="&#x1e1;" horiz-adv-x="1175" d="M92 313q0 170 128 257t390 96l189 6v61q0 121 -55.5 171t-155.5 50q-84 0 -162 -24.5t-150 -59.5l-69 158q78 41 179 68.5t212 27.5q207 0 310.5 -91t103.5 -285v-748h-154l-43 154h-8q-72 -90 -150.5 -132t-218.5 -42q-150 0 -248 80.5t-98 252.5zM273 1567v157h628 v-157h-628zM315 311q0 -86 51.5 -125t133.5 -39q127 0 212 72t85 215v96l-148 -4q-188 -8 -261 -63t-73 -152zM473 1354q0 61 33 90t80 29t80 -29t33 -90q0 -59 -33 -88t-80 -29t-80 28.5t-33 88.5z" />
<glyph unicode="&#x1e2;" horiz-adv-x="1847" d="M-2 0l684 1462h1042v-188h-573v-418h537v-186h-537v-480h573v-190h-794v422h-506l-199 -422h-227zM508 614h422v656h-121zM703 1599v164h629v-164h-629z" />
<glyph unicode="&#x1e3;" horiz-adv-x="1802" d="M92 313q0 338 494 353l186 6v73q0 115 -57.5 162t-153.5 47q-80 0 -157.5 -24.5t-147.5 -57.5l-68 156q78 41 180.5 68.5t209.5 27.5q246 0 337 -163q57 78 142 120.5t200 42.5q135 0 235.5 -61.5t155 -173t54.5 -260.5v-123h-709q4 -176 83 -263t222 -87 q102 0 184.5 19.5t166.5 57.5v-180q-84 -39 -165 -56t-194 -17q-139 0 -247.5 56t-174.5 167q-78 -106 -170 -164.5t-256 -58.5q-98 0 -178 35.5t-126 109.5t-46 188zM315 311q0 -86 48.5 -125t128.5 -39q119 0 198.5 72t79.5 215v96l-141 -4q-176 -8 -245 -63t-69 -152z M600 1241v164h629v-164h-629zM997 666h486q0 129 -56.5 209.5t-171.5 80.5q-113 0 -180 -73.5t-78 -216.5z" />
<glyph unicode="&#x1e4;" horiz-adv-x="1488" d="M123 727q0 227 89 397t259 264.5t412 94.5q121 0 231.5 -24.5t204.5 -63.5l-80 -185q-76 35 -172 58.5t-197 23.5q-244 0 -381 -148.5t-137 -414.5t119 -416.5t385 -150.5q84 0 145.5 8t112.5 23v133h-289v159h289v142h-309v186h528v-328h131v-159h-131v-265 q-109 -35 -225.5 -58t-276.5 -23q-358 0 -533 200.5t-175 546.5z" />
<glyph unicode="&#x1e5;" horiz-adv-x="1269" d="M106 580q0 252 118 398t327 146q106 0 192 -41t146 -125h10l25 146h176v-1159h117v-148h-136q-33 -133 -154.5 -211t-336.5 -78q-119 0 -219.5 16.5t-184.5 51.5v186q178 -86 416 -86q207 0 254 121h-330v148h359v125q0 33 2 72.5t4 66.5h-8q-57 -86 -140.5 -126 t-191.5 -40q-209 0 -327 140.5t-118 396.5zM330 578q0 -365 270 -365q152 0 222.5 76t70.5 252v28q0 199 -71.5 287t-225.5 88q-129 0 -197.5 -93t-68.5 -273z" />
<glyph unicode="&#x1e6;" horiz-adv-x="1488" d="M123 731q0 229 89 398t259 261.5t412 92.5q121 0 231.5 -24.5t204.5 -63.5l-80 -185q-76 35 -170 58.5t-195 23.5q-162 0 -279.5 -68.5t-180 -195.5t-62.5 -299q0 -164 51.5 -291t162 -198.5t288.5 -71.5q88 0 148.5 9t111.5 22v397h-309v190h528v-729 q-117 -39 -238.5 -58t-277.5 -19q-336 0 -515 198.5t-179 552.5zM455 1900v27h147q53 -35 110.5 -82t111.5 -103q53 55 112.5 103.5t112.5 81.5h149v-27q-39 -39 -88 -91t-95 -108.5t-73 -101.5h-233q-29 45 -74 100.5t-94 108.5t-86 92z" />
<glyph unicode="&#x1e7;" horiz-adv-x="1269" d="M106 549q0 266 118 420.5t327 154.5q106 0 192 -41t146 -125h10l25 146h176v-1118q0 -477 -510 -478q-119 0 -219.5 16.5t-184.5 51.5v191q86 -43 191.5 -64.5t224.5 -21.5q133 0 208 76.5t75 215.5v37q0 27 2 70t4 65h-8q-57 -86 -140.5 -125.5t-191.5 -39.5 q-209 0 -327 150.5t-118 418.5zM248 1542v27h147q53 -35 110.5 -82t111.5 -103q53 55 112.5 103.5t112.5 81.5h149v-27q-39 -39 -88 -91t-95 -108.5t-73 -101.5h-233q-29 45 -74 100.5t-94 108.5t-86 92zM330 547q0 -193 68.5 -293t201.5 -100q152 0 222.5 82.5t70.5 271.5 v41q0 213 -71.5 304t-225.5 91q-129 0 -197.5 -101.5t-68.5 -295.5z" />
<glyph unicode="&#x1e8;" horiz-adv-x="1294" d="M195 0v1462h221v-706q51 61 106.5 122.5t106.5 125.5l395 458h254l-559 -639l575 -823h-256l-479 674l-143 -119v-555h-221zM332 1900v27h147q53 -35 110.5 -82t111.5 -103q53 55 112.5 103.5t112.5 81.5h149v-27q-39 -39 -88 -91t-95 -108.5t-73 -101.5h-233 q-29 45 -74 100.5t-94 108.5t-86 92z" />
<glyph unicode="&#x1e9;" horiz-adv-x="1144" d="M-88 1995v27h147q53 -35 110.5 -82t111.5 -103q53 55 112.5 103.5t112.5 81.5h149v-27q-39 -39 -88 -91t-95 -108.5t-73 -101.5h-233q-29 45 -74 100.5t-94 108.5t-86 92zM170 0v1556h215v-778q0 -41 -4 -98t-6 -102h6q23 31 62.5 81t70.5 82l338 363h252l-445 -473 l474 -631h-256l-365 494l-127 -107v-387h-215z" />
<glyph unicode="&#x1ea;" horiz-adv-x="1607" d="M123 735q0 225 73.5 394t225 262.5t385.5 93.5q225 0 375.5 -93.5t226.5 -262.5t76 -396t-76 -396t-227.5 -263t-376.5 -94q-231 0 -383 94t-225.5 264t-73.5 397zM356 733q0 -262 108.5 -413.5t340.5 -151.5q233 0 339.5 151.5t106.5 413.5t-106.5 411.5t-337.5 149.5 q-233 0 -342 -149.5t-109 -411.5zM639 -260q0 59 29.5 114.5t75.5 101.5t94 77l108 -33q-70 -66 -105.5 -121.5t-35.5 -114.5q0 -45 23.5 -66.5t64.5 -21.5q33 0 59.5 5.5t44.5 9.5v-133q-31 -8 -62.5 -14.5t-72.5 -6.5q-113 0 -168 54.5t-55 148.5z" />
<glyph unicode="&#x1eb;" horiz-adv-x="1247" d="M106 553q0 274 139.5 422.5t381.5 148.5q152 0 267.5 -66.5t182 -193.5t66.5 -311q0 -274 -141.5 -423.5t-380.5 -149.5q-150 0 -265.5 66.5t-182.5 194.5t-67 312zM330 553q0 -186 70.5 -290.5t224.5 -104.5t224.5 104.5t70.5 290.5q0 188 -71 289.5t-226 101.5 q-154 0 -223.5 -101.5t-69.5 -289.5zM455 -260q0 59 29.5 114.5t75.5 101.5t94 77l108 -33q-70 -66 -105.5 -121.5t-35.5 -114.5q0 -45 23.5 -66.5t64.5 -21.5q33 0 59.5 5.5t44.5 9.5v-133q-31 -8 -62.5 -14.5t-72.5 -6.5q-113 0 -168 54.5t-55 148.5z" />
<glyph unicode="&#x1ec;" horiz-adv-x="1607" d="M123 735q0 225 73.5 394t225 262.5t385.5 93.5q225 0 375.5 -93.5t226.5 -262.5t76 -396t-76 -396t-227.5 -263t-376.5 -94q-231 0 -383 94t-225.5 264t-73.5 397zM356 733q0 -262 108.5 -413.5t340.5 -151.5q233 0 339.5 151.5t106.5 413.5t-106.5 411.5t-337.5 149.5 q-233 0 -342 -149.5t-109 -411.5zM490 1599v164h629v-164h-629zM655 -260q0 59 29.5 114.5t75.5 101.5t94 77l108 -33q-70 -66 -105.5 -121.5t-35.5 -114.5q0 -45 23.5 -66.5t64.5 -21.5q33 0 59.5 5.5t44.5 9.5v-133q-31 -8 -62.5 -14.5t-72.5 -6.5q-113 0 -168 54.5 t-55 148.5z" />
<glyph unicode="&#x1ed;" horiz-adv-x="1247" d="M106 553q0 274 139.5 422.5t381.5 148.5q152 0 267.5 -66.5t182 -193.5t66.5 -311q0 -274 -141.5 -423.5t-380.5 -149.5q-150 0 -265.5 66.5t-182.5 194.5t-67 312zM309 1241v164h629v-164h-629zM330 553q0 -186 70.5 -290.5t224.5 -104.5t224.5 104.5t70.5 290.5 q0 188 -71 289.5t-226 101.5q-154 0 -223.5 -101.5t-69.5 -289.5zM455 -260q0 59 29.5 114.5t75.5 101.5t94 77l108 -33q-70 -66 -105.5 -121.5t-35.5 -114.5q0 -45 23.5 -66.5t64.5 -21.5q33 0 59.5 5.5t44.5 9.5v-133q-31 -8 -62.5 -14.5t-72.5 -6.5q-113 0 -168 54.5 t-55 148.5z" />
<glyph unicode="&#x1ee;" horiz-adv-x="1200" d="M68 59v197q96 -47 210.5 -71.5t215.5 -24.5q197 0 286.5 71.5t89.5 196.5q0 244 -438 244h-133v170l446 430h-634v190h923v-162l-481 -460q258 -10 401.5 -116t143.5 -304q0 -129 -65.5 -228.5t-199 -155.5t-335.5 -56q-121 0 -228.5 18t-201.5 61zM201 1900v27h147 q53 -35 110.5 -82t111.5 -103q53 55 112.5 103.5t112.5 81.5h149v-27q-39 -39 -88 -91t-95 -108.5t-73 -101.5h-233q-29 45 -74 100.5t-94 108.5t-86 92z" />
<glyph unicode="&#x1ef;" horiz-adv-x="1069" d="M37 -225q78 -37 181.5 -62.5t215.5 -25.5q166 0 255 87t89 230q0 154 -104.5 230.5t-304.5 76.5h-119v154l436 463h-616v176h874v-152l-446 -473q227 -20 363 -142t136 -335q0 -145 -66.5 -256t-192.5 -174.5t-304 -63.5q-121 0 -221 19.5t-176 54.5v193zM141 1542v27 h147q53 -35 110.5 -82t111.5 -103q53 55 112.5 103.5t112.5 81.5h149v-27q-39 -39 -88 -91t-95 -108.5t-73 -101.5h-233q-29 45 -74 100.5t-94 108.5t-86 92z" />
<glyph unicode="&#x1f0;" horiz-adv-x="557" d="M-119 -293q33 -10 66 -15t73 -5q66 0 108 35.5t42 136.5v1245h217v-1256q0 -154 -79 -247t-255 -93q-53 0 -97 7.5t-75 17.5v174zM-92 1542v27h147q53 -35 110.5 -82t111.5 -103q53 55 112.5 103.5t112.5 81.5h149v-27q-39 -39 -88 -91t-95 -108.5t-73 -101.5h-233 q-29 45 -74 100.5t-94 108.5t-86 92z" />
<glyph unicode="&#x1f1;" horiz-adv-x="2656" d="M195 0v1462h452q223 0 387 -82t254 -242t90 -393q0 -371 -203.5 -558t-570.5 -187h-409zM416 186h178q553 0 553 553q0 276 -133 406.5t-381 130.5h-217v-1090zM1551 0v158l749 1114h-727v190h993v-157l-749 -1115h768v-190h-1034z" />
<glyph unicode="&#x1f2;" horiz-adv-x="2473" d="M195 0v1462h452q223 0 387 -82t254 -242t90 -393q0 -371 -203.5 -558t-570.5 -187h-409zM416 186h178q553 0 553 553q0 276 -133 406.5t-381 130.5h-217v-1090zM1573 0v137l569 799h-535v168h777v-154l-557 -782h573v-168h-827z" />
<glyph unicode="&#x1f3;" horiz-adv-x="2244" d="M106 549q0 285 123 430t324 145q125 0 205 -47t129 -114h12q-4 29 -10 84t-6 96v413h217v-1556h-170l-37 147h-10q-47 -70 -127 -118.5t-207 -48.5q-201 0 -322 143t-121 426zM330 545q0 -186 67.5 -286.5t202.5 -100.5q160 0 224.5 88t66.5 268v33q0 195 -62.5 297 t-230.5 102q-133 0 -200.5 -106.5t-67.5 -294.5zM1342 0v137l569 799h-535v168h777v-154l-557 -782h573v-168h-827z" />
<glyph unicode="&#x1f4;" horiz-adv-x="1488" d="M123 731q0 229 89 398t259 261.5t412 92.5q121 0 231.5 -24.5t204.5 -63.5l-80 -185q-76 35 -170 58.5t-195 23.5q-162 0 -279.5 -68.5t-180 -195.5t-62.5 -299q0 -164 51.5 -291t162 -198.5t288.5 -71.5q88 0 148.5 9t111.5 22v397h-309v190h528v-729 q-117 -39 -238.5 -58t-277.5 -19q-336 0 -515 198.5t-179 552.5zM686 1599v25q31 37 69.5 91t74.5 110.5t63 101.5h254v-21q-31 -37 -87.5 -95t-119 -116.5t-111.5 -95.5h-143z" />
<glyph unicode="&#x1f5;" horiz-adv-x="1269" d="M106 549q0 266 118 420.5t327 154.5q106 0 192 -41t146 -125h10l25 146h176v-1118q0 -477 -510 -478q-119 0 -219.5 16.5t-184.5 51.5v191q86 -43 191.5 -64.5t224.5 -21.5q133 0 208 76.5t75 215.5v37q0 27 2 70t4 65h-8q-57 -86 -140.5 -125.5t-191.5 -39.5 q-209 0 -327 150.5t-118 418.5zM330 547q0 -193 68.5 -293t201.5 -100q152 0 222.5 82.5t70.5 271.5v41q0 213 -71.5 304t-225.5 91q-129 0 -197.5 -101.5t-68.5 -295.5zM477 1241v25q31 37 69.5 91t74.5 110.5t63 101.5h254v-21q-31 -37 -87.5 -95t-119 -116.5 t-111.5 -95.5h-143z" />
<glyph unicode="&#x1f6;" horiz-adv-x="1986" d="M195 0v1462h221v-606h569v606h221v-1083q0 -211 191 -211q98 0 143 56.5t45 162.5v717h221v-719q0 -182 -101 -292.5t-312 -110.5q-205 0 -306.5 101t-101.5 290v295h-569v-668h-221z" />
<glyph unicode="&#x1f7;" horiz-adv-x="1361" d="M195 -492v1956h172l36 -196h9q59 88 156 152.5t247 64.5q127 0 226.5 -56.5t155.5 -169t56 -284.5q0 -186 -79.5 -367.5t-264 -341.5t-493.5 -278v-480h-221zM416 195q305 125 459.5 329.5t154.5 448.5q0 162 -69.5 242.5t-194.5 80.5q-190 0 -270 -123.5t-80 -332.5 v-645z" />
<glyph unicode="&#x1f8;" horiz-adv-x="1589" d="M195 0v1462h266l737 -1175h6q-2 43 -5 108.5t-5 140t-4 140.5v786h205v-1462h-269l-739 1182h-8q4 -82 9 -187.5t7 -216.5v-778h-200zM490 1906v21h252q25 -45 61.5 -101.5t76.5 -110.5t71 -91v-25h-146q-49 37 -111.5 95.5t-118.5 116.5t-85 95z" />
<glyph unicode="&#x1f9;" horiz-adv-x="1290" d="M170 0v1104h172l31 -148h12q53 86 146.5 127t197.5 41q193 0 295 -96t102 -309v-719h-215v688q0 258 -227 258q-168 0 -232.5 -100.5t-64.5 -288.5v-557h-217zM340 1548v21h252q25 -45 61.5 -101.5t76.5 -110.5t71 -91v-25h-146q-49 37 -111.5 95.5t-118.5 116.5t-85 95z " />
<glyph unicode="&#x1fa;" horiz-adv-x="1341" d="M0 0l520 1266q-84 57 -84 172q0 106 64.5 164.5t167.5 58.5q98 0 166.5 -58.5t68.5 -162.5q0 -59 -22.5 -102.5t-59.5 -69.5l520 -1268h-233l-150 375h-583l-144 -375h-231zM440 567h461l-149 383q-16 41 -42 112t-40 124q-10 -35 -25.5 -82t-31 -90t-23.5 -66zM557 1438 q0 -51 29 -80t82 -29q49 0 78.5 27.5t29.5 81.5q0 53 -30.5 81.5t-77.5 28.5t-79 -28.5t-32 -81.5zM563 1714v19q43 45 92.5 110.5t81.5 118.5h254v-14q-20 -29 -70.5 -73t-108.5 -88t-103 -73h-146z" />
<glyph unicode="&#x1fb;" horiz-adv-x="1175" d="M92 313q0 170 128 257t390 96l189 6v61q0 121 -55.5 171t-155.5 50q-84 0 -162 -24.5t-150 -59.5l-69 158q78 41 179 68.5t212 27.5q207 0 310.5 -91t103.5 -285v-748h-154l-43 154h-8q-72 -90 -150.5 -132t-218.5 -42q-150 0 -248 80.5t-98 252.5zM315 311 q0 -86 51.5 -125t133.5 -39q127 0 212 72t85 215v96l-148 -4q-188 -8 -261 -63t-73 -152zM367 1452q0 104 63.5 162.5t165.5 58.5q100 0 167.5 -58.5t67.5 -160.5q0 -106 -67.5 -165.5t-167.5 -59.5q-102 0 -165.5 58.5t-63.5 164.5zM471 1753v16q43 39 92 93.5t82 99.5h291 v-12q-23 -25 -80 -62t-122.5 -73.5t-110.5 -61.5h-152zM487 1452q0 -51 29 -81t80 -30q47 0 79 30t32 81t-32 80t-79 29t-78 -29t-31 -80z" />
<glyph unicode="&#x1fc;" horiz-adv-x="1847" d="M-2 0l684 1462h1042v-188h-573v-418h537v-186h-537v-480h573v-190h-794v422h-506l-199 -422h-227zM508 614h422v656h-121zM877 1599v25q31 37 69.5 91t74.5 110.5t63 101.5h254v-21q-31 -37 -87.5 -95t-119 -116.5t-111.5 -95.5h-143z" />
<glyph unicode="&#x1fd;" horiz-adv-x="1802" d="M92 313q0 338 494 353l186 6v73q0 115 -57.5 162t-153.5 47q-80 0 -157.5 -24.5t-147.5 -57.5l-68 156q78 41 180.5 68.5t209.5 27.5q246 0 337 -163q57 78 142 120.5t200 42.5q135 0 235.5 -61.5t155 -173t54.5 -260.5v-123h-709q4 -176 83 -263t222 -87 q102 0 184.5 19.5t166.5 57.5v-180q-84 -39 -165 -56t-194 -17q-139 0 -247.5 56t-174.5 167q-78 -106 -170 -164.5t-256 -58.5q-98 0 -178 35.5t-126 109.5t-46 188zM315 311q0 -86 48.5 -125t128.5 -39q119 0 198.5 72t79.5 215v96l-141 -4q-176 -8 -245 -63t-69 -152z M774 1241v25q31 37 69.5 91t74.5 110.5t63 101.5h254v-21q-31 -37 -87.5 -95t-119 -116.5t-111.5 -95.5h-143zM997 666h486q0 129 -56.5 209.5t-171.5 80.5q-113 0 -180 -73.5t-78 -216.5z" />
<glyph unicode="&#x1fe;" horiz-adv-x="1607" d="M123 735q0 225 73.5 394t225 262.5t385.5 93.5q104 0 194.5 -23.5t163.5 -62.5l92 133l136 -90l-101 -142q96 -98 144.5 -242.5t48.5 -324.5q0 -227 -76 -396t-227.5 -263t-376.5 -94q-219 0 -367 88l-96 -140l-135 90l102 148q-94 100 -140 244.5t-46 324.5zM356 733 q0 -117 20.5 -212t63.5 -165l611 875q-98 63 -244 63q-233 0 -342 -149.5t-109 -411.5zM555 236q47 -33 110.5 -50.5t139.5 -17.5q233 0 339.5 151.5t106.5 413.5q0 240 -88 379zM668 1599v25q31 37 69.5 91t74.5 110.5t63 101.5h254v-21q-31 -37 -87.5 -95t-119 -116.5 t-111.5 -95.5h-143z" />
<glyph unicode="&#x1ff;" horiz-adv-x="1247" d="M106 553q0 274 139.5 422.5t381.5 148.5q74 0 139 -17t123 -50l74 104l129 -86l-82 -114q61 -74 97 -175.5t36 -232.5q0 -274 -141.5 -423.5t-380.5 -149.5q-141 0 -256 61l-76 -111l-129 86l84 121q-66 74 -102 178.5t-36 237.5zM330 553q0 -70 9 -129t32 -105l409 584 q-63 41 -157 41q-154 0 -223.5 -101.5t-69.5 -289.5zM473 195q61 -37 152 -37q154 0 224.5 104.5t70.5 290.5q0 131 -37 221zM485 1241v25q31 37 69.5 91t74.5 110.5t63 101.5h254v-21q-31 -37 -87.5 -95t-119 -116.5t-111.5 -95.5h-143z" />
<glyph unicode="&#x200;" horiz-adv-x="1339" d="M0 0l555 1468h229l553 -1468h-231l-156 422h-565l-156 -422h-229zM182 1906v21h230q33 -70 82 -158t92 -145v-25h-119q-47 37 -104.5 95.5t-108.5 116.5t-72 95zM451 614h438l-148 412q-8 23 -22 68t-28.5 94t-22.5 80q-16 -63 -37 -135t-33 -107zM553 1906v21h229 q33 -70 83.5 -158t93.5 -145v-25h-121q-45 37 -104.5 95.5t-108.5 116.5t-72 95z" />
<glyph unicode="&#x201;" horiz-adv-x="1175" d="M92 313q0 170 128 257t390 96l189 6v61q0 121 -55.5 171t-155.5 50q-84 0 -162 -24.5t-150 -59.5l-69 158q78 41 179 68.5t212 27.5q207 0 310.5 -91t103.5 -285v-748h-154l-43 154h-8q-72 -90 -150.5 -132t-218.5 -42q-150 0 -248 80.5t-98 252.5zM102 1548v21h230 q33 -70 82 -158t92 -145v-25h-119q-47 37 -104.5 95.5t-108.5 116.5t-72 95zM315 311q0 -86 51.5 -125t133.5 -39q127 0 212 72t85 215v96l-148 -4q-188 -8 -261 -63t-73 -152zM473 1548v21h229q33 -70 83.5 -158t93.5 -145v-25h-121q-45 37 -104.5 95.5t-108.5 116.5 t-72 95z" />
<glyph unicode="&#x202;" horiz-adv-x="1339" d="M0 0l555 1468h229l553 -1468h-231l-156 422h-565l-156 -422h-229zM326 1599q10 131 101 212t245 81q160 0 244 -80t92 -213h-129q-8 84 -63.5 105.5t-147.5 21.5q-78 0 -139.5 -23.5t-71.5 -103.5h-131zM451 614h438l-148 412q-8 23 -22 68t-28.5 94t-22.5 80 q-16 -63 -37 -135t-33 -107z" />
<glyph unicode="&#x203;" horiz-adv-x="1175" d="M92 313q0 170 128 257t390 96l189 6v61q0 121 -55.5 171t-155.5 50q-84 0 -162 -24.5t-150 -59.5l-69 158q78 41 179 68.5t212 27.5q207 0 310.5 -91t103.5 -285v-748h-154l-43 154h-8q-72 -90 -150.5 -132t-218.5 -42q-150 0 -248 80.5t-98 252.5zM246 1241 q10 131 101 212t245 81q160 0 244 -80t92 -213h-129q-8 84 -63.5 105.5t-147.5 21.5q-78 0 -139.5 -23.5t-71.5 -103.5h-131zM315 311q0 -86 51.5 -125t133.5 -39q127 0 212 72t85 215v96l-148 -4q-188 -8 -261 -63t-73 -152z" />
<glyph unicode="&#x204;" horiz-adv-x="1140" d="M137 1906v21h230q33 -70 82 -158t92 -145v-25h-119q-47 37 -104.5 95.5t-108.5 116.5t-72 95zM195 0v1462h823v-188h-602v-418h565v-186h-565v-480h602v-190h-823zM508 1906v21h229q33 -70 83.5 -158t93.5 -145v-25h-121q-45 37 -104.5 95.5t-108.5 116.5t-72 95z" />
<glyph unicode="&#x205;" horiz-adv-x="1171" d="M104 1548v21h230q33 -70 82 -158t92 -145v-25h-119q-47 37 -104.5 95.5t-108.5 116.5t-72 95zM106 543q0 186 62.5 315t174 197.5t261.5 68.5q217 0 342 -134t125 -365v-119h-741q4 -170 89 -260t238 -90q106 0 189.5 19.5t171.5 57.5v-180q-84 -39 -168 -56t-201 -17 q-160 0 -282.5 63t-191.5 188t-69 312zM334 666h520q-2 129 -62.5 209.5t-187.5 80.5q-117 0 -187.5 -75.5t-82.5 -214.5zM475 1548v21h229q33 -70 83.5 -158t93.5 -145v-25h-121q-45 37 -104.5 95.5t-108.5 116.5t-72 95z" />
<glyph unicode="&#x206;" horiz-adv-x="1140" d="M195 0v1462h823v-188h-602v-418h565v-186h-565v-480h602v-190h-823zM281 1599q10 131 101 212t245 81q160 0 244 -80t92 -213h-129q-8 84 -63.5 105.5t-147.5 21.5q-78 0 -139.5 -23.5t-71.5 -103.5h-131z" />
<glyph unicode="&#x207;" horiz-adv-x="1171" d="M106 543q0 186 62.5 315t174 197.5t261.5 68.5q217 0 342 -134t125 -365v-119h-741q4 -170 89 -260t238 -90q106 0 189.5 19.5t171.5 57.5v-180q-84 -39 -168 -56t-201 -17q-160 0 -282.5 63t-191.5 188t-69 312zM248 1241q10 131 101 212t245 81q160 0 244 -80t92 -213 h-129q-8 84 -63.5 105.5t-147.5 21.5q-78 0 -139.5 -23.5t-71.5 -103.5h-131zM334 666h520q-2 129 -62.5 209.5t-187.5 80.5q-117 0 -187.5 -75.5t-82.5 -214.5z" />
<glyph unicode="&#x208;" horiz-adv-x="724" d="M-121 1906v21h230q33 -70 82 -158t92 -145v-25h-119q-47 37 -104.5 95.5t-108.5 116.5t-72 95zM78 0v127l174 51v1104l-174 53v127h567v-127l-172 -53v-1104l172 -51v-127h-567zM250 1906v21h229q33 -70 83.5 -158t93.5 -145v-25h-121q-45 37 -104.5 95.5t-108.5 116.5 t-72 95z" />
<glyph unicode="&#x209;" horiz-adv-x="557" d="M-207 1548v21h230q33 -70 82 -158t92 -145v-25h-119q-47 37 -104.5 95.5t-108.5 116.5t-72 95zM164 1548v21h229q33 -70 83.5 -158t93.5 -145v-25h-121q-45 37 -104.5 95.5t-108.5 116.5t-72 95zM170 0v1104h217v-1104h-217z" />
<glyph unicode="&#x20a;" horiz-adv-x="724" d="M20 1599q10 131 101 212t245 81q160 0 244 -80t92 -213h-129q-8 84 -63.5 105.5t-147.5 21.5q-78 0 -139.5 -23.5t-71.5 -103.5h-131zM78 0v127l174 51v1104l-174 53v127h567v-127l-172 -53v-1104l172 -51v-127h-567z" />
<glyph unicode="&#x20b;" horiz-adv-x="557" d="M-63 1241q10 131 101 212t245 81q160 0 244 -80t92 -213h-129q-8 84 -63.5 105.5t-147.5 21.5q-78 0 -139.5 -23.5t-71.5 -103.5h-131zM170 0v1104h217v-1104h-217z" />
<glyph unicode="&#x20c;" horiz-adv-x="1607" d="M123 735q0 225 73.5 394t225 262.5t385.5 93.5q225 0 375.5 -93.5t226.5 -262.5t76 -396t-76 -396t-227.5 -263t-376.5 -94q-231 0 -383 94t-225.5 264t-73.5 397zM319 1906v21h230q33 -70 82 -158t92 -145v-25h-119q-47 37 -104.5 95.5t-108.5 116.5t-72 95zM356 733 q0 -262 108.5 -413.5t340.5 -151.5q233 0 339.5 151.5t106.5 413.5t-106.5 411.5t-337.5 149.5q-233 0 -342 -149.5t-109 -411.5zM690 1906v21h229q33 -70 83.5 -158t93.5 -145v-25h-121q-45 37 -104.5 95.5t-108.5 116.5t-72 95z" />
<glyph unicode="&#x20d;" horiz-adv-x="1247" d="M106 553q0 274 139.5 422.5t381.5 148.5q152 0 267.5 -66.5t182 -193.5t66.5 -311q0 -274 -141.5 -423.5t-380.5 -149.5q-150 0 -265.5 66.5t-182.5 194.5t-67 312zM139 1548v21h230q33 -70 82 -158t92 -145v-25h-119q-47 37 -104.5 95.5t-108.5 116.5t-72 95zM330 553 q0 -186 70.5 -290.5t224.5 -104.5t224.5 104.5t70.5 290.5q0 188 -71 289.5t-226 101.5q-154 0 -223.5 -101.5t-69.5 -289.5zM510 1548v21h229q33 -70 83.5 -158t93.5 -145v-25h-121q-45 37 -104.5 95.5t-108.5 116.5t-72 95z" />
<glyph unicode="&#x20e;" horiz-adv-x="1607" d="M123 735q0 225 73.5 394t225 262.5t385.5 93.5q225 0 375.5 -93.5t226.5 -262.5t76 -396t-76 -396t-227.5 -263t-376.5 -94q-231 0 -383 94t-225.5 264t-73.5 397zM356 733q0 -262 108.5 -413.5t340.5 -151.5q233 0 339.5 151.5t106.5 413.5t-106.5 411.5t-337.5 149.5 q-233 0 -342 -149.5t-109 -411.5zM463 1599q10 131 101 212t245 81q160 0 244 -80t92 -213h-129q-8 84 -63.5 105.5t-147.5 21.5q-78 0 -139.5 -23.5t-71.5 -103.5h-131z" />
<glyph unicode="&#x20f;" horiz-adv-x="1247" d="M106 553q0 274 139.5 422.5t381.5 148.5q152 0 267.5 -66.5t182 -193.5t66.5 -311q0 -274 -141.5 -423.5t-380.5 -149.5q-150 0 -265.5 66.5t-182.5 194.5t-67 312zM283 1241q10 131 101 212t245 81q160 0 244 -80t92 -213h-129q-8 84 -63.5 105.5t-147.5 21.5 q-78 0 -139.5 -23.5t-71.5 -103.5h-131zM330 553q0 -186 70.5 -290.5t224.5 -104.5t224.5 104.5t70.5 290.5q0 188 -71 289.5t-226 101.5q-154 0 -223.5 -101.5t-69.5 -289.5z" />
<glyph unicode="&#x210;" horiz-adv-x="1296" d="M168 1906v21h230q33 -70 82 -158t92 -145v-25h-119q-47 37 -104.5 95.5t-108.5 116.5t-72 95zM195 0v1462h409q281 0 415 -104.5t134 -317.5q0 -113 -41 -189.5t-107.5 -125.5t-138.5 -76l410 -649h-254l-352 592h-254v-592h-221zM416 776h184q170 0 248 64.5t78 191.5 q0 131 -82 186.5t-254 55.5h-174v-498zM539 1906v21h229q33 -70 83.5 -158t93.5 -145v-25h-121q-45 37 -104.5 95.5t-108.5 116.5t-72 95z" />
<glyph unicode="&#x211;" horiz-adv-x="870" d="M14 1548v21h230q33 -70 82 -158t92 -145v-25h-119q-47 37 -104.5 95.5t-108.5 116.5t-72 95zM170 0v1104h172l29 -197h8q51 88 137 152.5t199 64.5q66 0 121 -10l-23 -203q-53 14 -111 15q-84 0 -155.5 -41t-115.5 -118t-44 -185v-582h-217zM385 1548v21h229 q33 -70 83.5 -158t93.5 -145v-25h-121q-45 37 -104.5 95.5t-108.5 116.5t-72 95z" />
<glyph unicode="&#x212;" horiz-adv-x="1296" d="M195 0v1462h409q281 0 415 -104.5t134 -317.5q0 -113 -41 -189.5t-107.5 -125.5t-138.5 -76l410 -649h-254l-352 592h-254v-592h-221zM311 1599q10 131 101 212t245 81q160 0 244 -80t92 -213h-129q-8 84 -63.5 105.5t-147.5 21.5q-78 0 -139.5 -23.5t-71.5 -103.5h-131z M416 776h184q170 0 248 64.5t78 191.5q0 131 -82 186.5t-254 55.5h-174v-498z" />
<glyph unicode="&#x213;" horiz-adv-x="870" d="M158 1241q10 131 101 212t245 81q160 0 244 -80t92 -213h-129q-8 84 -63.5 105.5t-147.5 21.5q-78 0 -139.5 -23.5t-71.5 -103.5h-131zM170 0v1104h172l29 -197h8q51 88 137 152.5t199 64.5q66 0 121 -10l-23 -203q-53 14 -111 15q-84 0 -155.5 -41t-115.5 -118t-44 -185 v-582h-217z" />
<glyph unicode="&#x214;" horiz-adv-x="1511" d="M182 520v942h221v-932q0 -362 357 -362q184 0 267 98.5t83 265.5v930h219v-946q0 -152 -62.5 -273.5t-191.5 -192t-325 -70.5q-279 0 -423.5 148t-144.5 392zM272 1906v21h230q33 -70 82 -158t92 -145v-25h-119q-47 37 -104.5 95.5t-108.5 116.5t-72 95zM643 1906v21h229 q33 -70 83.5 -158t93.5 -145v-25h-121q-45 37 -104.5 95.5t-108.5 116.5t-72 95z" />
<glyph unicode="&#x215;" horiz-adv-x="1290" d="M159 1548v21h230q33 -70 82 -158t92 -145v-25h-119q-47 37 -104.5 95.5t-108.5 116.5t-72 95zM160 381v723h219v-690q0 -129 54 -192.5t169 -63.5q170 0 235.5 99t65.5 288v559h217v-1104h-174l-31 145h-10q-53 -86 -147 -125.5t-199 -39.5q-195 0 -297 95t-102 306z M530 1548v21h229q33 -70 83.5 -158t93.5 -145v-25h-121q-45 37 -104.5 95.5t-108.5 116.5t-72 95z" />
<glyph unicode="&#x216;" horiz-adv-x="1511" d="M182 520v942h221v-932q0 -362 357 -362q184 0 267 98.5t83 265.5v930h219v-946q0 -152 -62.5 -273.5t-191.5 -192t-325 -70.5q-279 0 -423.5 148t-144.5 392zM416 1599q10 131 101 212t245 81q160 0 244 -80t92 -213h-129q-8 84 -63.5 105.5t-147.5 21.5 q-78 0 -139.5 -23.5t-71.5 -103.5h-131z" />
<glyph unicode="&#x217;" horiz-adv-x="1290" d="M160 381v723h219v-690q0 -129 54 -192.5t169 -63.5q170 0 235.5 99t65.5 288v559h217v-1104h-174l-31 145h-10q-53 -86 -147 -125.5t-199 -39.5q-195 0 -297 95t-102 306zM303 1241q10 131 101 212t245 81q160 0 244 -80t92 -213h-129q-8 84 -63.5 105.5t-147.5 21.5 q-78 0 -139.5 -23.5t-71.5 -103.5h-131z" />
<glyph unicode="&#x218;" horiz-adv-x="1126" d="M102 55v209q82 -37 193 -66.5t225 -29.5q147 0 221 57.5t74 153.5q0 68 -32.5 114t-105.5 85.5t-190 85.5q-106 41 -190 96t-131 137t-47 201q0 180 131 282.5t344 102.5q119 0 220 -24.5t194 -63.5l-70 -183q-84 35 -171 57.5t-179 22.5q-121 0 -184.5 -53t-63.5 -139 q0 -68 30.5 -114t98.5 -84t178 -81q123 -49 210 -103t132 -131t45 -192q0 -195 -141 -305t-387 -110q-121 0 -225.5 19t-178.5 56zM391 -428q14 35 30 90t29 112.5t17 100.5h209v-18q-18 -59 -63 -148.5t-101 -161.5h-121v25z" />
<glyph unicode="&#x219;" horiz-adv-x="991" d="M100 827q0 143 116 220t306 77q100 0 189.5 -20.5t173.5 -56.5l-72 -166q-72 31 -147.5 52t-153.5 21q-201 0 -201 -116q0 -39 23.5 -68t82 -57.5t163.5 -69.5q100 -39 172.5 -81t111.5 -101.5t39 -149.5q0 -164 -117.5 -247.5t-330.5 -83.5q-117 0 -200 16t-153 51v191 q72 -35 169.5 -63t189.5 -28q123 0 177 39t54 105q0 37 -20.5 66.5t-76.5 61.5t-165 73q-106 41 -179 83.5t-112 102t-39 149.5zM354 -428q14 35 30 90t29 112.5t17 100.5h209v-18q-18 -59 -63 -148.5t-101 -161.5h-121v25z" />
<glyph unicode="&#x21a;" horiz-adv-x="1153" d="M27 1272v190h1097v-190h-438v-1272h-221v1272h-438zM434 -428q14 35 30 90t29 112.5t17 100.5h209v-18q-18 -59 -63 -148.5t-101 -161.5h-121v25z" />
<glyph unicode="&#x21b;" horiz-adv-x="784" d="M37 938v98l162 82l75 234h134v-248h315v-166h-315v-606q0 -90 43.5 -133t115.5 -43q92 0 166 26v-164q-35 -16 -94 -27t-119 -11q-90 0 -164.5 30.5t-120 106.5t-45.5 211v610h-153zM311 -428q14 35 30 90t29 112.5t17 100.5h209v-18q-18 -59 -63 -148.5t-101 -161.5 h-121v25z" />
<glyph unicode="&#x21c;" horiz-adv-x="1210" d="M78 1329q117 82 248 118t272 36q127 0 235.5 -38t173 -121t64.5 -220q0 -113 -60.5 -195t-162.5 -141q70 -35 128 -86t94 -125t36 -178q0 -190 -105.5 -326.5t-330 -238t-582.5 -183.5v201q233 57 387 117.5t243 127t126 141.5t37 161q0 117 -58.5 185.5t-156.5 117.5 q-76 -27 -158 -49.5t-168 -42.5l-39 168q186 47 307 91t180.5 102.5t59.5 146.5q0 98 -68.5 151.5t-191.5 53.5q-119 0 -218.5 -32t-189.5 -91z" />
<glyph unicode="&#x21d;" horiz-adv-x="1021" d="M55 -305q330 70 493 173t163 269q0 96 -41 154.5t-117 99.5q-59 -25 -128 -45t-144 -39l-41 160q174 45 269 90t132 97.5t37 117.5q0 88 -56.5 132t-150.5 44q-88 0 -166 -20.5t-151 -57.5l-70 158q90 51 188.5 73.5t200.5 22.5q117 0 212 -35.5t151.5 -111.5t56.5 -199 q0 -96 -47 -171t-131 -130q90 -45 151.5 -125t61.5 -215q0 -184 -110.5 -304t-307.5 -196t-455 -129v187z" />
<glyph unicode="&#x21e;" horiz-adv-x="1531" d="M195 0v1462h221v-606h698v606h221v-1462h-221v668h-698v-668h-221zM395 1900v27h147q53 -35 110.5 -82t111.5 -103q53 55 112.5 103.5t112.5 81.5h149v-27q-39 -39 -88 -91t-95 -108.5t-73 -101.5h-233q-29 45 -74 100.5t-94 108.5t-86 92z" />
<glyph unicode="&#x21f;" horiz-adv-x="1290" d="M-90 1995v27h147q53 -35 110.5 -82t111.5 -103q53 55 112.5 103.5t112.5 81.5h149v-27q-39 -39 -88 -91t-95 -108.5t-73 -101.5h-233q-29 45 -74 100.5t-94 108.5t-86 92zM170 0v1556h217v-415q0 -51 -4 -102.5t-8 -84.5h14q53 84 142.5 126t193.5 42q195 0 298 -96 t103 -307v-719h-215v688q0 258 -227 258q-170 0 -233.5 -102.5t-63.5 -288.5v-555h-217z" />
<glyph unicode="&#x220;" horiz-adv-x="1529" d="M195 0v1464h172l36 -188h9q70 96 190.5 152.5t249.5 56.5q227 0 361.5 -125t134.5 -399v-1453h-222v1430q0 178 -75.5 268t-243.5 90q-213 0 -302 -121.5t-89 -334.5v-840h-221z" />
<glyph unicode="&#x221;" horiz-adv-x="1769" d="M106 549q0 285 123 430t324 145q125 0 205 -47t129 -114h12q-2 12 -6 44.5t-7 69.5t-3 66v413h217v-1122q0 -98 26 -158q70 117 166.5 163t196.5 44q129 -2 197.5 -63.5t68.5 -153.5q0 -72 -39 -132t-128 -97t-238 -37q-82 0 -144 12q-10 -49 -17 -106.5t-11 -120.5 l-187 10q14 160 49 281q-37 27 -55 55.5t-27 50.5h-10q-51 -96 -137 -149t-248 -53q-209 0 -333 142t-124 427zM330 545q0 -186 67.5 -286.5t202.5 -100.5q160 0 224.5 88t66.5 268v33q0 195 -62.5 297t-230.5 102q-133 0 -200.5 -106.5t-67.5 -294.5zM1260 172 q47 -12 108 -12q106 0 151.5 25.5t45.5 68.5q0 25 -26 45t-73 20q-70 0 -121 -38.5t-85 -108.5z" />
<glyph unicode="&#x222;" horiz-adv-x="1431" d="M117 485q0 160 76.5 263.5t222.5 152.5q-121 53 -174.5 153.5t-53.5 239.5v168h222v-168q0 -137 73.5 -222t231.5 -85q162 0 234.5 85t72.5 222v168h221v-168q0 -141 -54 -241.5t-175 -153.5q141 -47 222 -150.5t81 -263.5q0 -236 -158.5 -370.5t-445.5 -134.5 q-180 0 -314.5 60t-208 174t-73.5 271zM348 485q0 -150 88.5 -233.5t278.5 -83.5q193 0 280.5 84t87.5 233q0 150 -88 232t-280 82q-193 0 -280 -82t-87 -232z" />
<glyph unicode="&#x223;" horiz-adv-x="1241" d="M100 496q0 166 69 272t200 156q-106 39 -154.5 132t-48.5 255v245h217v-241q0 -158 56.5 -230.5t181.5 -72.5t180 72.5t55 230.5v241h217v-245q0 -164 -49 -256t-156 -133q127 -49 200 -153.5t73 -272.5q0 -248 -142.5 -382t-382.5 -134q-150 0 -265 59t-183 175t-68 282 zM324 498q0 -162 71.5 -251t225.5 -89q152 0 224.5 89t72.5 251q0 160 -73 248t-227 88t-224 -88.5t-70 -247.5z" />
<glyph unicode="&#x224;" horiz-adv-x="1175" d="M70 0v158l749 1114h-727v190h993v-157l-749 -1115h768v-190h-1034zM693 -229q20 -8 46.5 -13.5t59.5 -5.5q47 0 77 27.5t30 97.5v123h-21v190h221v-319q0 -137 -65.5 -219t-206.5 -82q-41 0 -80 8t-61 16v177z" />
<glyph unicode="&#x225;" horiz-adv-x="972" d="M72 0v137l569 799h-535v168h777v-154l-557 -782h573v-301q0 -291 -254 -291q-41 0 -77 7t-58 18v168q18 -6 44 -12.5t56 -6.5q47 0 74 25.5t27 85.5v139h-639z" />
<glyph unicode="&#x226;" horiz-adv-x="1339" d="M0 0l555 1468h229l553 -1468h-231l-156 422h-565l-156 -422h-229zM451 614h438l-148 412q-8 23 -22 68t-28.5 94t-22.5 80q-16 -63 -37 -135t-33 -107zM549 1757q0 68 37 96.5t88 28.5q49 0 85 -29t36 -96q0 -66 -36 -95.5t-85 -29.5q-51 0 -88 29.5t-37 95.5z" />
<glyph unicode="&#x227;" horiz-adv-x="1175" d="M92 313q0 170 128 257t390 96l189 6v61q0 121 -55.5 171t-155.5 50q-84 0 -162 -24.5t-150 -59.5l-69 158q78 41 179 68.5t212 27.5q207 0 310.5 -91t103.5 -285v-748h-154l-43 154h-8q-72 -90 -150.5 -132t-218.5 -42q-150 0 -248 80.5t-98 252.5zM315 311 q0 -86 51.5 -125t133.5 -39q127 0 212 72t85 215v96l-148 -4q-188 -8 -261 -63t-73 -152zM469 1399q0 68 37 96.5t88 28.5q49 0 85 -29t36 -96q0 -66 -36 -95.5t-85 -29.5q-51 0 -88 29.5t-37 95.5z" />
<glyph unicode="&#x228;" horiz-adv-x="1140" d="M195 0v1462h823v-188h-602v-418h565v-186h-565v-480h602v-190h-823zM413 -350q23 -4 55.5 -8t63.5 -4q59 0 93 17t34 64q0 49 -48 75t-132 36l86 170h139l-45 -94q72 -18 123 -60t51 -120q0 -102 -73.5 -160t-231.5 -58q-35 0 -64.5 4.5t-50.5 8.5v129z" />
<glyph unicode="&#x229;" horiz-adv-x="1171" d="M106 543q0 186 62.5 315t174 197.5t261.5 68.5q217 0 342 -134t125 -365v-119h-741q4 -170 89 -260t238 -90q106 0 189.5 19.5t171.5 57.5v-180q-84 -39 -168 -56t-201 -17q-160 0 -282.5 63t-191.5 188t-69 312zM334 666h520q-2 129 -62.5 209.5t-187.5 80.5 q-117 0 -187.5 -75.5t-82.5 -214.5zM409 -350q23 -4 55.5 -8t63.5 -4q59 0 93 17t34 64q0 49 -48 75t-132 36l86 170h139l-45 -94q72 -18 123 -60t51 -120q0 -102 -73.5 -160t-231.5 -58q-35 0 -64.5 4.5t-50.5 8.5v129z" />
<glyph unicode="&#x22a;" horiz-adv-x="1607" d="M123 735q0 225 73.5 394t225 262.5t385.5 93.5q225 0 375.5 -93.5t226.5 -262.5t76 -396t-76 -396t-227.5 -263t-376.5 -94q-231 0 -383 94t-225.5 264t-73.5 397zM356 733q0 -262 108.5 -413.5t340.5 -151.5q233 0 339.5 151.5t106.5 413.5t-106.5 411.5t-337.5 149.5 q-233 0 -342 -149.5t-109 -411.5zM490 1923v159h628v-159h-628zM504 1695q0 55 30.5 82t75.5 27q43 0 74 -26.5t31 -82.5q0 -57 -31 -82.5t-74 -25.5q-45 0 -75.5 25.5t-30.5 82.5zM893 1695q0 55 31 82t74 27q45 0 75.5 -26.5t30.5 -82.5q0 -57 -30.5 -82.5t-75.5 -25.5 q-43 0 -74 25.5t-31 82.5z" />
<glyph unicode="&#x22b;" horiz-adv-x="1247" d="M106 553q0 274 139.5 422.5t381.5 148.5q152 0 267.5 -66.5t182 -193.5t66.5 -311q0 -274 -141.5 -423.5t-380.5 -149.5q-150 0 -265.5 66.5t-182.5 194.5t-67 312zM310 1565v159h628v-159h-628zM324 1337q0 55 30.5 82t75.5 27q43 0 74 -26.5t31 -82.5q0 -57 -31 -82.5 t-74 -25.5q-45 0 -75.5 25.5t-30.5 82.5zM330 553q0 -186 70.5 -290.5t224.5 -104.5t224.5 104.5t70.5 290.5q0 188 -71 289.5t-226 101.5q-154 0 -223.5 -101.5t-69.5 -289.5zM713 1337q0 55 31 82t74 27q45 0 75.5 -26.5t30.5 -82.5q0 -57 -30.5 -82.5t-75.5 -25.5 q-43 0 -74 25.5t-31 82.5z" />
<glyph unicode="&#x22c;" horiz-adv-x="1607" d="M123 735q0 225 73.5 394t225 262.5t385.5 93.5q225 0 375.5 -93.5t226.5 -262.5t76 -396t-76 -396t-227.5 -263t-376.5 -94q-231 0 -383 94t-225.5 264t-73.5 397zM356 733q0 -262 108.5 -413.5t340.5 -151.5q233 0 339.5 151.5t106.5 413.5t-106.5 411.5t-337.5 149.5 q-233 0 -342 -149.5t-109 -411.5zM459 1597q10 106 60 171t143 65q57 0 108 -25t96 -48.5t84 -23.5q43 0 61.5 26t33.5 71h108q-10 -104 -60 -169t-145 -65q-53 0 -103 24.5t-96 48t-87 23.5q-43 0 -62.5 -25.5t-32.5 -72.5h-108zM490 1923v159h628v-159h-628z" />
<glyph unicode="&#x22d;" horiz-adv-x="1247" d="M106 553q0 274 139.5 422.5t381.5 148.5q152 0 267.5 -66.5t182 -193.5t66.5 -311q0 -274 -141.5 -423.5t-380.5 -149.5q-150 0 -265.5 66.5t-182.5 194.5t-67 312zM279 1239q10 106 60 171t143 65q57 0 108 -25t96 -48.5t84 -23.5q43 0 61.5 26t33.5 71h108 q-10 -104 -60 -169t-145 -65q-53 0 -103 24.5t-96 48t-87 23.5q-43 0 -62.5 -25.5t-32.5 -72.5h-108zM310 1565v159h628v-159h-628zM330 553q0 -186 70.5 -290.5t224.5 -104.5t224.5 104.5t70.5 290.5q0 188 -71 289.5t-226 101.5q-154 0 -223.5 -101.5t-69.5 -289.5z" />
<glyph unicode="&#x22e;" horiz-adv-x="1607" d="M123 735q0 225 73.5 394t225 262.5t385.5 93.5q225 0 375.5 -93.5t226.5 -262.5t76 -396t-76 -396t-227.5 -263t-376.5 -94q-231 0 -383 94t-225.5 264t-73.5 397zM356 733q0 -262 108.5 -413.5t340.5 -151.5q233 0 339.5 151.5t106.5 413.5t-106.5 411.5t-337.5 149.5 q-233 0 -342 -149.5t-109 -411.5zM686 1757q0 68 37 96.5t88 28.5q49 0 85 -29t36 -96q0 -66 -36 -95.5t-85 -29.5q-51 0 -88 29.5t-37 95.5z" />
<glyph unicode="&#x22f;" horiz-adv-x="1247" d="M106 553q0 274 139.5 422.5t381.5 148.5q152 0 267.5 -66.5t182 -193.5t66.5 -311q0 -274 -141.5 -423.5t-380.5 -149.5q-150 0 -265.5 66.5t-182.5 194.5t-67 312zM330 553q0 -186 70.5 -290.5t224.5 -104.5t224.5 104.5t70.5 290.5q0 188 -71 289.5t-226 101.5 q-154 0 -223.5 -101.5t-69.5 -289.5zM506 1399q0 68 37 96.5t88 28.5q49 0 85 -29t36 -96q0 -66 -36 -95.5t-85 -29.5q-51 0 -88 29.5t-37 95.5z" />
<glyph unicode="&#x230;" horiz-adv-x="1607" d="M123 735q0 225 73.5 394t225 262.5t385.5 93.5q225 0 375.5 -93.5t226.5 -262.5t76 -396t-76 -396t-227.5 -263t-376.5 -94q-231 0 -383 94t-225.5 264t-73.5 397zM356 733q0 -262 108.5 -413.5t340.5 -151.5q233 0 339.5 151.5t106.5 413.5t-106.5 411.5t-337.5 149.5 q-233 0 -342 -149.5t-109 -411.5zM490 1903v159h628v-159h-628zM692 1690q0 61 33 89.5t82 28.5q47 0 80 -28.5t33 -89.5q0 -59 -33 -88t-80 -29q-49 0 -82 28.5t-33 88.5z" />
<glyph unicode="&#x231;" horiz-adv-x="1247" d="M106 553q0 274 139.5 422.5t381.5 148.5q152 0 267.5 -66.5t182 -193.5t66.5 -311q0 -274 -141.5 -423.5t-380.5 -149.5q-150 0 -265.5 66.5t-182.5 194.5t-67 312zM310 1567v157h628v-157h-628zM330 553q0 -186 70.5 -290.5t224.5 -104.5t224.5 104.5t70.5 290.5 q0 188 -71 289.5t-226 101.5q-154 0 -223.5 -101.5t-69.5 -289.5zM510 1354q0 61 33 90t80 29t80 -29t33 -90q0 -59 -33 -88t-80 -29t-80 28.5t-33 88.5z" />
<glyph unicode="&#x232;" horiz-adv-x="1193" d="M0 1462h240l358 -684l358 684h238l-487 -895v-567h-220v559zM283 1599v164h629v-164h-629z" />
<glyph unicode="&#x233;" horiz-adv-x="1079" d="M2 1104h234l229 -627q27 -72 47 -137.5t29 -130.5h8q10 53 31.5 125t48.5 145l217 625h233l-473 -1254q-59 -160 -158.5 -251t-259.5 -91q-51 0 -88 5.5t-63 11.5v172q20 -4 53 -8t68 -4q94 0 151.5 54t89.5 142l45 119zM225 1241v164h629v-164h-629z" />
<glyph unicode="&#x234;" horiz-adv-x="813" d="M33 0q70 172 143 270q-4 33 -5 73t-1 85v1128h217v-1103q63 29 143 28q133 0 201 -66.5t68 -176.5q0 -113 -74 -185.5t-215 -72.5q-94 0 -160.5 30.5t-105.5 83.5q-18 -33 -36 -74t-36 -86zM387 281q4 -68 33.5 -109t95.5 -41q53 0 80 28.5t27 71.5q0 49 -30 74t-81 25 q-66 0 -125 -49z" />
<glyph unicode="&#x235;" horiz-adv-x="1540" d="M170 0v1104h172l31 -148h12q53 86 145.5 127t194.5 41q188 0 288.5 -96t100.5 -309v-266q63 29 146 28q131 0 198.5 -70.5t67.5 -179.5q0 -117 -74 -184t-215 -67q-90 0 -157.5 29.5t-108.5 82.5q-18 -35 -35 -74t-35 -84l-139 66q33 84 69.5 151.5t75.5 118.5 q-6 31 -7 67t-1 75v276q0 258 -221 258q-166 0 -228.5 -100.5t-62.5 -288.5v-557h-217zM1114 281q4 -68 34.5 -109t96.5 -41q55 0 80 28.5t25 71.5q0 98 -111 99q-68 0 -125 -49z" />
<glyph unicode="&#x236;" horiz-adv-x="833" d="M37 938v98l162 82l75 234h134v-248h315v-166h-315v-485q63 29 143 28q131 0 199.5 -70.5t68.5 -179.5q0 -117 -74.5 -184t-214.5 -67q-184 0 -268 112q-36 -66 -69 -158l-140 66q70 172 144 270q-4 35 -5.5 76t-1.5 86v506h-153zM408 281q2 -68 32.5 -109t96.5 -41 q55 0 80.5 28.5t25.5 71.5q0 49 -29.5 74t-81.5 25q-66 0 -124 -49z" />
<glyph unicode="&#x237;" horiz-adv-x="557" d="M-119 -293q33 -10 66 -15t73 -5q66 0 108 35.5t42 136.5v1245h217v-1256q0 -154 -79 -247t-255 -93q-53 0 -97 7.5t-75 17.5v174z" />
<glyph unicode="&#x238;" horiz-adv-x="1984" d="M106 551q0 283 123 428t322 145q125 0 205 -47t127 -116h12q-2 33 -7 90t-5 127v378h217v-374q0 -68 -3 -127.5t-7 -96.5h10q47 70 127 117t207 47q201 0 322.5 -143t121.5 -428t-135 -428t-365 -143q-272 0 -389 235q-59 -121 -159.5 -178t-229.5 -57q-231 0 -362.5 143 t-131.5 428zM330 547q0 -190 68.5 -289.5t209.5 -99.5q137 0 207 103.5t70 295.5q0 195 -62.5 292t-226.5 97q-131 0 -198.5 -106.5t-67.5 -292.5zM1100 557q0 -201 67.5 -300t210.5 -99q276 0 277 395q0 393 -273 393q-158 0 -220 -94t-62 -295z" />
<glyph unicode="&#x239;" horiz-adv-x="1984" d="M106 551q0 285 135.5 429t362.5 144q272 0 391 -235q57 119 157.5 177t231.5 58q229 0 361.5 -142t132.5 -429q0 -283 -122 -428t-322 -145q-127 0 -206 47t-128 116h-13q4 -33 8.5 -90t4.5 -127v-418h-217v414q0 68 4 127.5t8 95.5h-12q-45 -70 -126 -116.5t-206 -46.5 q-199 0 -322 143t-123 426zM330 551q0 -393 270 -393q160 0 221.5 95t61.5 294t-67 299t-210 100q-276 0 -276 -395zM1100 547q0 -195 62.5 -292t226.5 -97q131 0 198.5 105.5t67.5 293.5q0 190 -69 289.5t-210 99.5q-139 0 -207.5 -103.5t-68.5 -295.5z" />
<glyph unicode="&#x23a;" horiz-adv-x="1339" d="M0 0l555 1468h229l41 -108l68 196h156l-144 -411l432 -1145h-231l-156 422h-295l-200 -576h-156l201 576h-115l-156 -422h-229zM451 614h114l160 461q-14 45 -31.5 101.5t-25.5 91.5q-16 -63 -37 -135t-33 -107zM721 614h168l-86 238z" />
<glyph unicode="&#x23b;" horiz-adv-x="1296" d="M123 731q0 221 81 390t236.5 265.5t380.5 96.5q74 0 146 -10l28 83h156l-41 -116q66 -20 121 -47l-82 -185q-25 10 -50.5 21.5t-54.5 21.5l-368 -1065q66 -16 141 -16q94 0 181 17.5t178 45.5v-190q-86 -33 -176.5 -48t-208.5 -15q-96 0 -181 18l-53 -152h-156l70 199 q-176 82 -262 260t-86 426zM354 729q0 -166 46 -288t141 -191l360 1036q-41 6 -82 6q-217 0 -341 -150.5t-124 -412.5z" />
<glyph unicode="&#x23c;" horiz-adv-x="1003" d="M106 545q0 205 68 332t186.5 187t270.5 60q35 0 67 -2l156 434h154l-164 -460q53 -14 94 -35l-66 -176l-46 16t-48 14l-262 -737q47 -16 105 -16q90 0 161.5 20.5t130.5 53.5v-189q-59 -35 -129 -51t-170 -16q-88 0 -161 18l-152 -424h-156l172 483q-98 63 -154.5 184 t-56.5 304zM330 547q0 -178 65 -275l238 668h-4q-299 0 -299 -393z" />
<glyph unicode="&#x23d;" horiz-adv-x="1097" d="M29 655v179h166v628h221v-628h315v-179h-315v-465h624v-190h-845v655h-166z" />
<glyph unicode="&#x23e;" horiz-adv-x="1153" d="M27 1272v190h882l45 94h150l-45 -94h65v-190h-157l-281 -582v-690h-221v233l-186 -387h-150l336 697v729h-438zM686 1001l131 271h-131v-271z" />
<glyph unicode="&#x23f;" horiz-adv-x="991" d="M100 827q0 143 116 220t306 77q100 0 189.5 -20.5t173.5 -56.5l-72 -166q-72 31 -147.5 52t-153.5 21q-201 0 -201 -116q0 -39 23.5 -68t82 -57.5t163.5 -69.5q100 -39 172.5 -81t111.5 -101.5t39 -149.5q0 -156 -107.5 -239.5t-303.5 -89.5q37 -57 59 -132 q29 -88 79 -125.5t128 -37.5q35 0 74.5 7t66.5 17v-174q-27 -12 -75 -20.5t-97 -8.5q-113 0 -184.5 36t-115.5 106.5t-75 177.5q-20 76 -57 119t-102 65q-49 14 -91 37v189q72 -35 169.5 -63t189.5 -28q123 0 177 39t54 105q0 37 -20.5 66.5t-76.5 61.5t-165 73 q-106 41 -179 83.5t-112 102t-39 149.5z" />
<glyph unicode="&#x240;" horiz-adv-x="972" d="M72 0v137l569 799h-535v168h777v-154l-566 -790q119 -23 181.5 -100.5t95.5 -192.5q31 -96 84 -138t145 -42q41 0 73 5t62 15v-174q-29 -10 -69.5 -17.5t-91.5 -7.5q-125 0 -204 38t-124 110t-74 172q-27 88 -76 130t-161 42h-86z" />
<glyph unicode="&#x241;" horiz-adv-x="935" d="M4 1366q82 51 186.5 84t219.5 33q215 0 337.5 -109.5t122.5 -292.5q0 -160 -95 -297t-302 -233v-551h-219v662q195 63 291 173.5t96 237.5q0 100 -61.5 161.5t-184.5 61.5q-78 0 -166 -29.5t-145 -70.5z" />
<glyph unicode="&#x242;" horiz-adv-x="925" d="M18 1006q82 53 179.5 85.5t212.5 32.5q215 0 328.5 -109.5t113.5 -291.5q0 -150 -88 -288t-293 -236v-199h-217v303q195 63 286 173t91 239q0 111 -60.5 171t-177.5 60q-78 0 -157.5 -29.5t-137.5 -70.5z" />
<glyph unicode="&#x243;" horiz-adv-x="1343" d="M29 350v170h166v942h428q279 0 423 -82t144 -282q0 -127 -68.5 -213t-195.5 -109v-10q86 -16 156.5 -54t111.5 -109t41 -185q0 -201 -139.5 -309.5t-376.5 -108.5h-524v350h-166zM416 184h268q176 0 246.5 70t70.5 184q0 104 -72.5 169t-258.5 65h-254v-152h282v-170 h-282v-166zM416 852h243q172 0 237 55.5t65 163.5q0 109 -79 157t-247 48h-219v-424z" />
<glyph unicode="&#x244;" horiz-adv-x="1511" d="M14 711v188h168v563h221v-563h707v563h219v-563h168v-188h-168v-195q0 -152 -62.5 -273.5t-191.5 -192t-325 -70.5q-279 0 -423.5 148t-144.5 392v191h-168zM403 530q0 -362 357 -362q184 0 267 98.5t83 265.5v179h-707v-181z" />
<glyph unicode="&#x245;" horiz-adv-x="1269" d="M0 0l516 1462h236l518 -1462h-230l-309 909q-27 80 -55.5 172.5t-42.5 161.5q-14 -70 -41 -163t-53 -171l-310 -909h-229z" />
<glyph unicode="&#x246;" horiz-adv-x="1140" d="M195 0v1462h583l25 94h151l-24 -94h88v-188h-135l-107 -418h205v-186h-252l-121 -480h410v-190h-459l-39 -154h-151l39 154h-213zM416 190h41l121 480h-162v-480zM416 856h209l106 418h-315v-418z" />
<glyph unicode="&#x247;" horiz-adv-x="1171" d="M106 543q0 186 62.5 315t174 197.5t261.5 68.5q47 0 90 -6l152 438h155l-167 -483q113 -57 175 -173t62 -275v-119h-434l-113 -330q59 -20 133 -20q106 0 189.5 19.5t171.5 57.5v-180q-84 -39 -168 -56t-201 -17q-100 0 -184 24l-150 -430h-155l170 489q-104 68 -164 189 t-60 291zM330 506q4 -150 69 -238l82 238h-151zM334 666h203l100 288q-15 2 -33 2q-117 0 -187.5 -75.5t-82.5 -214.5zM692 666h162q0 74 -20.5 133t-61.5 98z" />
<glyph unicode="&#x248;" horiz-adv-x="593" d="M-158 -190q33 -8 70 -14.5t78 -6.5q51 0 96 20.5t72.5 72.5t27.5 151v598h-172v188h172v643h222v-643h172v-188h-172v-588q0 -231 -112 -337.5t-292 -106.5q-53 0 -93 7t-69 19v185z" />
<glyph unicode="&#x249;" horiz-adv-x="557" d="M-119 -293q33 -10 66 -15t73 -5q66 0 108 35.5t42 136.5v639h-156v159h156v447h217v-447h156v-159h-156v-650q0 -154 -79 -247t-255 -93q-53 0 -97 7.5t-75 17.5v174zM156 1399q0 68 36.5 96.5t88.5 28.5q49 0 85.5 -29t36.5 -96q0 -66 -36.5 -95.5t-85.5 -29.5 q-51 0 -88 29.5t-37 95.5z" />
<glyph unicode="&#x24a;" horiz-adv-x="1574" d="M123 733q0 233 71.5 401.5t207 258.5t323.5 90q150 0 261.5 -55.5t168.5 -143.5h8l31 178h186v-1614q0 -86 33 -119.5t90 -33.5q29 0 53.5 5t45.5 15v-178q-23 -12 -58 -20.5t-76 -8.5q-145 0 -227 79t-82 255v168q0 47 2 88t4 86h-12q-59 -92 -167.5 -148t-268.5 -56 q-184 0 -317.5 91t-205 260t-71.5 402zM354 729q0 -268 104.5 -414.5t291.5 -146.5q160 0 248.5 55.5t124.5 155.5t36 239v242q0 131 -36 228.5t-124.5 151.5t-250.5 54q-184 0 -289 -149.5t-105 -415.5z" />
<glyph unicode="&#x24b;" horiz-adv-x="1269" d="M106 549q0 285 124 430t323 145q127 0 207 -48t129 -120h8l27 148h176v-1245q0 -100 26.5 -137t77.5 -37q33 0 59.5 6t45.5 16v-166q-49 -33 -156 -33q-125 0 -197.5 79t-72.5 270v110q0 41 3 91.5t9 88.5h-12q-47 -70 -128 -118.5t-208 -48.5q-197 0 -319 143t-122 426z M330 545q0 -186 66.5 -287.5t205.5 -101.5q156 0 221.5 87t67.5 267v37q0 197 -63.5 298t-229.5 101q-135 0 -201.5 -106.5t-66.5 -294.5z" />
<glyph unicode="&#x24c;" horiz-adv-x="1296" d="M20 592v184h175v686h409q281 0 415 -104.5t134 -317.5q0 -113 -41 -189.5t-107.5 -125.5t-138.5 -76l410 -649h-254l-352 592h-254v-592h-221v592h-175zM416 776h184q170 0 248 64.5t78 191.5q0 131 -82 186.5t-254 55.5h-174v-498z" />
<glyph unicode="&#x24d;" horiz-adv-x="870" d="M14 492v161h156v451h172l29 -197h8q51 88 137 152.5t199 64.5q66 0 121 -10l-23 -203q-53 14 -111 15q-111 0 -198.5 -72t-110.5 -201h242v-161h-248v-492h-217v492h-156z" />
<glyph unicode="&#x24e;" horiz-adv-x="1193" d="M0 1462h240l127 -241h462l127 241h238l-131 -241h117v-172h-211l-262 -482v-567h-220v559l-264 490h-209v172h117zM457 1049l141 -271l141 271h-282z" />
<glyph unicode="&#x24f;" horiz-adv-x="1079" d="M2 1104h234l129 -352h358l123 352h233l-133 -352h113v-162h-174l-279 -740q-59 -160 -158.5 -251t-259.5 -91q-51 0 -88 5.5t-63 11.5v172q20 -4 53 -8t68 -4q94 0 151.5 54t89.5 142l45 119l-235 590h-189v162h123zM424 590l41 -113q27 -72 47.5 -137t28.5 -131h8 q10 53 31.5 125t48.5 145l39 111h-244z" />
<glyph unicode="&#x250;" horiz-adv-x="1175" d="M164 356v748h154l43 -154h8q72 90 150.5 132t218.5 42q150 0 248 -80.5t98 -252.5q0 -170 -128 -257t-390 -96l-189 -6v-61q0 -121 55.5 -171t155.5 -50q84 0 162 24.5t150 59.5l69 -158q-78 -41 -179 -68.5t-212 -27.5q-207 0 -310.5 91t-103.5 285zM379 574l148 4 q188 8 261 63t73 152q0 86 -51.5 125t-133.5 39q-127 0 -212 -72t-85 -215v-96z" />
<glyph unicode="&#x251;" horiz-adv-x="1269" d="M106 549q0 285 123 430t324 145q125 0 205 -47t129 -114h8l29 141h176v-1104h-170l-37 147h-10q-47 -70 -127 -118.5t-207 -48.5q-201 0 -322 143t-121 426zM330 545q0 -188 67.5 -288.5t202.5 -100.5q160 0 225.5 89t65.5 269v33q0 195 -62.5 297t-230.5 102 q-133 0 -200.5 -106.5t-67.5 -294.5z" />
<glyph unicode="&#x252;" horiz-adv-x="1269" d="M170 0v1104h170l37 -147h10q47 70 127 118.5t207 48.5q201 0 322 -143t121 -426q0 -285 -123 -430t-324 -145q-125 0 -205 47t-129 114h-8l-29 -141h-176zM379 557q0 -195 62.5 -297t230.5 -102q133 0 200.5 106.5t67.5 294.5t-67.5 288.5t-202.5 100.5 q-160 0 -225.5 -89t-65.5 -269v-33z" />
<glyph unicode="&#x253;" horiz-adv-x="1269" d="M170 0v1262q0 156 72 230.5t209 74.5q43 0 80.5 -9.5t60.5 -19.5v-174q-14 6 -43 13t-64 7q-47 0 -71.5 -26.5t-26.5 -89.5v-86q0 -63 -3 -123t-7 -101h10q47 70 127 117t207 47q199 0 320.5 -143t121.5 -426q0 -285 -122.5 -429t-321.5 -144q-127 0 -206 46t-126 109 h-16l-41 -135h-160zM387 561q0 -199 60.5 -301t226.5 -102q133 0 199.5 102t66.5 295q0 391 -270 391q-158 0 -219.5 -94t-63.5 -291z" />
<glyph unicode="&#x254;" horiz-adv-x="1003" d="M66 1061q55 27 143 45t188 18q152 0 263.5 -57t174 -181t62.5 -319q0 -201 -67.5 -331t-185.5 -193t-269 -63q-96 0 -165 16t-128 51v189q61 -33 131 -53.5t158 -20.5q150 0 226.5 103.5t76.5 295.5q0 381 -301 381q-57 0 -123 -15.5t-119 -41.5z" />
<glyph unicode="&#x255;" horiz-adv-x="1099" d="M98 -39q20 63 47 120.5t58 108.5q-86 137 -86 355q0 205 68.5 332t188 187t275.5 60q94 0 173 -19.5t132 -43.5l-67 -176q-53 20 -117.5 37.5t-124.5 17.5q-305 0 -305 -393q0 -41 4 -80t12 -74q72 70 160 108t184 38q150 0 234 -72t84 -188q0 -106 -55.5 -172 t-140.5 -96.5t-179 -30.5q-205 0 -330 92q-20 -39 -38.5 -81t-34.5 -93zM426 244q76 -92 223 -92q80 0 132.5 34.5t52.5 92.5q0 41 -34 71.5t-114 30.5q-147 0 -260 -137z" />
<glyph unicode="&#x256;" horiz-adv-x="1269" d="M106 549q0 285 123 430t324 145q125 0 205 -47t129 -114h12q-2 12 -6 44.5t-7 69.5t-3 66v413h217v-1697q0 -100 29.5 -137t84.5 -37q37 0 67 6t50 16v-166q-53 -33 -166 -33q-129 0 -205.5 79t-76.5 270v112q0 39 5 90.5t7 83.5h-12q-47 -70 -127 -116.5t-205 -46.5 q-199 0 -322 143t-123 426zM330 545q0 -186 67.5 -286.5t202.5 -100.5q160 0 224.5 88t66.5 268v33q0 195 -62.5 297t-230.5 102q-133 0 -200.5 -106.5t-67.5 -294.5z" />
<glyph unicode="&#x257;" horiz-adv-x="1269" d="M106 549q0 285 123 430t324 145q125 0 205 -47t129 -114h12q-2 12 -6 43.5t-7 69.5t-3 67v119q0 307 280 307q45 0 84 -10.5t62 -18.5v-174q-14 6 -44 13t-65 7q-45 0 -72.5 -27.5t-27.5 -92.5v-1266h-170l-37 147h-10q-47 -70 -127 -118.5t-207 -48.5q-201 0 -322 143 t-121 426zM330 545q0 -186 67.5 -286.5t202.5 -100.5q160 0 224.5 88t66.5 268v33q0 195 -62.5 297t-230.5 102q-133 0 -200.5 -106.5t-67.5 -294.5z" />
<glyph unicode="&#x258;" horiz-adv-x="1171" d="M100 506h741q-4 -170 -89 -260t-238 -90q-106 0 -189.5 19.5t-171.5 57.5v-180q84 -39 168 -56t201 -17q160 0 282.5 63t191.5 188t69 312q0 186 -62.5 315t-174 197.5t-261.5 68.5q-217 0 -342 -134t-125 -365v-119zM317 666q2 129 62.5 209.5t187.5 80.5 q117 0 187.5 -75.5t82.5 -214.5h-520z" />
<glyph unicode="&#x259;" horiz-adv-x="1171" d="M100 479v119h742q-4 168 -89 259t-239 91q-106 0 -189 -19.5t-171 -58.5v181q84 39 167.5 56t200.5 17q162 0 284 -63.5t190.5 -189.5t68.5 -312q0 -184 -62.5 -314t-174 -197.5t-261.5 -67.5q-217 0 -342 135t-125 364zM317 438q2 -129 62.5 -210t187.5 -81 q117 0 188 76t83 215h-521z" />
<glyph unicode="&#x25a;" horiz-adv-x="1638" d="M100 489l740 203q-55 256 -322 256q-106 0 -191 -19.5t-173 -58.5v181q84 39 169 56t203 17q197 0 336 -95t187 -279l223 61l33 -119q27 -92 55.5 -128t73.5 -36q41 0 81.5 15.5t75.5 40.5l47 -150q-49 -33 -110.5 -55.5t-126.5 -22.5q-90 0 -156.5 56.5t-107.5 195.5 l-66 -18q0 -184 -53 -321.5t-164 -213t-283 -75.5q-221 0 -346 135t-125 374zM322 389q10 -102 69 -172t180 -70q113 0 173.5 55.5t83 143.5t22.5 186z" />
<glyph unicode="&#x25b;" horiz-adv-x="1032" d="M86 301q0 123 72.5 182.5t179.5 85.5v11q-96 27 -152.5 90t-56.5 164q0 96 57.5 160.5t157.5 97t227 32.5q119 0 212.5 -21.5t177.5 -58.5l-74 -165q-72 31 -144.5 52t-171.5 21q-240 0 -239 -141q0 -82 80 -118t223 -36h125v-165h-154q-158 0 -231.5 -44.5t-73.5 -130.5 q0 -88 77 -125.5t208 -37.5q117 0 210 26.5t162 59.5v-185q-68 -35 -163 -55t-224 -20q-250 0 -367.5 91t-117.5 230z" />
<glyph unicode="&#x25c;" horiz-adv-x="1042" d="M70 51v189q70 -33 168 -59.5t211 -26.5q123 0 207.5 36.5t84.5 131.5q0 170 -313 170h-139v165h117q143 0 228 35t85 119q0 141 -244 141q-88 0 -163.5 -17t-157.5 -52l-72 164q90 37 191.5 57t220.5 20q186 0 306 -73.5t120 -216.5q0 -100 -57.5 -160t-153.5 -86v-8 q66 -18 122 -50t89.5 -84.5t33.5 -136.5q0 -92 -52 -166.5t-161.5 -118.5t-279.5 -44q-123 0 -223.5 18t-167.5 53z" />
<glyph unicode="&#x25d;" horiz-adv-x="1492" d="M70 51v189q70 -33 168 -59.5t211 -26.5q123 0 207.5 36.5t84.5 131.5q0 170 -313 170h-139v165h117q143 0 228 35t85 119q0 141 -244 141q-88 0 -163.5 -17t-157.5 -52l-72 164q90 37 191.5 57t220.5 20q152 0 262 -50t147 -146l223 59l33 -117q27 -92 55.5 -127.5 t73.5 -35.5q41 0 82 16t76 39l47 -150q-49 -35 -110.5 -56t-127.5 -21q-88 0 -155.5 56t-108.5 195l-80 -22q-18 -70 -71.5 -113t-130.5 -63v-8q66 -18 122 -50t89.5 -84.5t33.5 -136.5q0 -92 -52 -166.5t-161.5 -118.5t-279.5 -44q-123 0 -223.5 18t-167.5 53z" />
<glyph unicode="&#x25e;" horiz-adv-x="1247" d="M106 551q0 270 154 421.5t426 151.5q211 0 324.5 -80.5t113.5 -222.5q0 -104 -57 -159.5t-156 -81.5v-9q63 -10 119.5 -37.5t92.5 -80t36 -131.5q0 -145 -127 -243.5t-368 -98.5q-266 0 -412 149.5t-146 421.5zM330 551q0 -211 91 -304t259 -93q117 0 191.5 44t74.5 134 q0 82 -73.5 116.5t-227.5 34.5h-74v166h52q143 0 221 32t78 122q0 66 -57.5 106.5t-182.5 40.5q-352 0 -352 -399z" />
<glyph unicode="&#x25f;" horiz-adv-x="557" d="M-119 -293q33 -10 66 -15t73 -5q66 0 108 35.5t42 136.5v639h-156v159h156v447h217v-447h156v-159h-156v-650q0 -154 -79 -247t-255 -93q-53 0 -97 7.5t-75 17.5v174z" />
<glyph unicode="&#x260;" horiz-adv-x="1269" d="M104 549q0 266 118 420.5t327 154.5q221 0 338 -166h12q-4 41 -10 94.5t-6 98.5v111q-1 307 280 307q45 0 84 -10.5t62 -18.5v-174q-14 6 -44 13t-65 7q-45 0 -72.5 -27.5t-27.5 -92.5v-1280q0 -236 -126 -357t-386 -121q-121 0 -219.5 16.5t-182.5 51.5v191 q84 -43 190.5 -64.5t223.5 -21.5q135 0 209 76.5t74 215.5v37q0 18 1 47t3 54.5t2 33.5h-6q-57 -86 -141.5 -125.5t-192.5 -39.5q-209 0 -327 150.5t-118 418.5zM328 547q0 -193 68.5 -293t203.5 -100q150 0 220.5 82.5t70.5 271.5v41q0 213 -71.5 304t-223.5 91 q-129 0 -198.5 -101.5t-69.5 -295.5z" />
<glyph unicode="&#x261;" horiz-adv-x="1269" d="M106 549q0 266 118 420.5t327 154.5q106 0 192 -41t146 -125h10l25 146h176v-1118q0 -477 -510 -478q-119 0 -219.5 16.5t-184.5 51.5v191q86 -43 191.5 -64.5t224.5 -21.5q133 0 208 76.5t75 215.5v37q0 27 2 70t4 65h-8q-57 -86 -140.5 -125.5t-191.5 -39.5 q-209 0 -327 150.5t-118 418.5zM330 547q0 -193 68.5 -293t201.5 -100q152 0 222.5 82.5t70.5 271.5v41q0 213 -71.5 304t-225.5 91q-129 0 -197.5 -101.5t-68.5 -295.5z" />
<glyph unicode="&#x262;" horiz-adv-x="1189" d="M106 549q0 190 72 318t200 192.5t294 64.5q109 0 197.5 -18.5t164.5 -58.5l-73 -179q-63 33 -135 52.5t-142 19.5q-168 0 -261 -97.5t-93 -293.5q0 -184 74.5 -285.5t228.5 -101.5q63 0 108 6t97 18v269h-230v161h443v-557q-96 -37 -199.5 -58t-226.5 -21 q-240 0 -379.5 142t-139.5 427z" />
<glyph unicode="&#x263;" horiz-adv-x="1077" d="M0 1104h229l207 -488q25 -59 54.5 -140t41.5 -142h9q14 59 43.5 140t56.5 142l207 488h229l-422 -930q61 -121 96 -216t35 -181q0 -113 -68 -189.5t-183 -76.5q-117 0 -184.5 75.5t-67.5 190.5q0 100 37.5 197.5t93.5 205.5zM461 -217q0 -59 21.5 -86t52.5 -27t52 25.5 t21 83.5q0 43 -18.5 109.5t-54.5 131.5q-39 -66 -56.5 -131t-17.5 -106z" />
<glyph unicode="&#x264;" horiz-adv-x="1077" d="M-4 938v164q20 8 48 15t58 7q70 0 119 -33.5t105 -109.5l110 -152q27 -37 52.5 -76.5t46.5 -76.5h8q20 33 46.5 76t53.5 77l111 154q47 68 96 104.5t125 36.5q59 0 104 -20v-166q-12 4 -29.5 7t-31.5 3q-35 0 -63.5 -20.5t-73.5 -83.5l-224 -301q68 -92 101 -162t33 -158 q0 -109 -69 -176t-185 -67q-115 0 -182.5 67.5t-67.5 177.5q0 90 31.5 160t95.5 156l-228 309q-39 51 -67.5 73.5t-63.5 24.5q-16 2 -31.5 -2t-27.5 -8zM465 233q0 -45 20.5 -69.5t53.5 -24.5t53 24.5t20 69.5q0 49 -22 94.5t-51 84.5q-35 -47 -54.5 -90t-19.5 -89z" />
<glyph unicode="&#x265;" horiz-adv-x="1290" d="M164 385v719h215v-688q0 -258 227 -258q170 0 233.5 102.5t63.5 288.5v555h217v-1556h-217v415q0 51 4 102.5t8 84.5h-14q-53 -84 -142.5 -126t-193.5 -42q-195 0 -298 96t-103 307z" />
<glyph unicode="&#x266;" horiz-adv-x="1290" d="M170 0v1262q0 156 72.5 230.5t210.5 74.5q41 0 78.5 -9.5t60.5 -19.5v-174q-14 6 -43 13t-64 7q-47 0 -72.5 -26.5t-25.5 -89.5v-148q0 -49 -4 -97t-8 -75h14q53 84 142.5 126t193.5 42q195 0 298 -95t103 -308v-713h-215v682q0 258 -227 258q-170 0 -233.5 -101.5 t-63.5 -289.5v-549h-217z" />
<glyph unicode="&#x267;" horiz-adv-x="1290" d="M170 0v1262q0 156 73 230.5t210 74.5q41 0 78.5 -9.5t60.5 -19.5v-174q-14 6 -43 13t-64 7q-47 0 -72.5 -26.5t-25.5 -89.5v-142q0 -51 -4 -97t-8 -75h14q53 84 141 126t197 42q195 0 297 -96t102 -307v-899q0 -143 -67.5 -227.5t-212.5 -84.5q-41 0 -82 8.5t-68 18.5 v176q20 -8 49 -14t62 -6q47 0 75.5 28.5t28.5 104.5v870q0 252 -227 252q-170 0 -233.5 -102.5t-63.5 -288.5v-555h-217z" />
<glyph unicode="&#x268;" horiz-adv-x="557" d="M14 498v159h156v447h217v-447h156v-159h-156v-498h-217v498h-156zM156 1399q0 68 37 96.5t88 28.5q49 0 85.5 -29t36.5 -96q0 -66 -36.5 -95.5t-85.5 -29.5q-51 0 -88 29.5t-37 95.5z" />
<glyph unicode="&#x269;" horiz-adv-x="745" d="M166 330v774h215v-772q0 -176 151 -176q45 0 93.5 8t81.5 18v-164q-35 -16 -93.5 -27t-119.5 -11q-94 0 -168 30.5t-117 106.5t-43 213z" />
<glyph unicode="&#x26a;" horiz-adv-x="679" d="M63 0v119l168 49v766l-168 51v119h553v-119l-167 -51v-766l167 -49v-119h-553z" />
<glyph unicode="&#x26b;" horiz-adv-x="808" d="M8 643q8 131 70.5 204t163.5 73q14 0 27.5 -3.5t25.5 -5.5v645h217v-735q16 -6 32.5 -11t33.5 -5q45 0 69.5 29.5t38.5 87.5h115q-10 -129 -70.5 -203t-161.5 -74q-14 0 -28.5 3t-28.5 5v-653h-217v743q-16 6 -32.5 10.5t-31.5 4.5q-47 0 -70.5 -29t-35.5 -86h-117z" />
<glyph unicode="&#x26c;" horiz-adv-x="749" d="M-20 821q0 88 52 152.5t171 64.5q63 0 106 -37v555h217v-800h209v-150h-209v-606h-217v606h-82q-131 0 -189 60.5t-58 154.5zM150 823q0 -37 25.5 -52t64.5 -15h69v24q0 49 -20.5 79t-67.5 30q-39 0 -55 -19.5t-16 -46.5z" />
<glyph unicode="&#x26d;" horiz-adv-x="555" d="M170 -143v1699h215v-1697q0 -174 143 -174q35 0 70 6t61 16v-166q-66 -33 -170 -33q-150 0 -234.5 79t-84.5 270z" />
<glyph unicode="&#x26e;" horiz-adv-x="1406" d="M170 0v1556h217v-452h895v-152l-446 -473q242 -20 370.5 -142t128.5 -335q0 -145 -66.5 -256t-192.5 -174.5t-304 -63.5q-121 0 -221 19.5t-176 54.5v193q76 -37 180 -62.5t217 -25.5q166 0 255 87t89 230q0 154 -104.5 230.5t-304.5 76.5h-119v154l434 463h-635v-928 h-217z" />
<glyph unicode="&#x26f;" horiz-adv-x="1943" d="M162 385v719h217v-690q0 -256 207 -256q147 0 211 91t64 261v594h215v-690q0 -256 209 -256q156 0 214 100.5t58 288.5v557h217v-1104h-172l-31 148h-12q-51 -86 -138 -127t-186 -41q-254 0 -335 178h-17q-53 -90 -147.5 -134t-198.5 -44q-186 0 -280.5 96t-94.5 309z " />
<glyph unicode="&#x270;" horiz-adv-x="1943" d="M162 385v719h217v-690q0 -256 207 -256q147 0 210.5 91t63.5 261v594h215v-690q0 -256 209 -256q156 0 214 101t58 288v557h218v-1596h-218v478q0 33 4.5 83t8.5 78h-15q-51 -86 -136 -126.5t-183 -40.5q-254 0 -338 178h-14q-53 -90 -147.5 -134t-198.5 -44 q-188 0 -281.5 96t-93.5 309z" />
<glyph unicode="&#x271;" horiz-adv-x="1943" d="M170 0v1104h172l31 -148h12q51 86 138 127t186 41q254 0 335 -178h17q53 90 147.5 134t198.5 44q186 0 280.5 -96t94.5 -309v-899q0 -143 -67.5 -227.5t-215.5 -84.5q-41 0 -82 8.5t-65 18.5v176q18 -8 48 -14t62 -6q45 0 74 28.5t29 104.5v866q0 256 -207 256 q-147 0 -211 -91t-64 -261v-594h-215v690q0 256 -209 256q-156 0 -214 -100.5t-58 -288.5v-557h-217z" />
<glyph unicode="&#x272;" horiz-adv-x="1290" d="M-59 -293q20 -10 48.5 -16t59.5 -6q57 0 89 36.5t32 137.5v1245h172l31 -148h12q53 86 146.5 127t197.5 41q193 0 295 -96t102 -309v-719h-215v688q0 258 -227 258q-168 0 -232.5 -100.5t-64.5 -288.5v-698q0 -186 -80 -268.5t-215 -82.5q-45 0 -86 8.5t-65 24.5v166z " />
<glyph unicode="&#x273;" horiz-adv-x="1290" d="M170 0v1104h172l31 -148h12q53 86 146.5 127t197.5 41q193 0 295 -96t102 -309v-860q0 -100 31 -137t90 -37q29 0 58.5 6t52.5 16v-166q-27 -16 -70 -24.5t-88 -8.5q-131 0 -210 79t-79 270v831q0 258 -227 258q-168 0 -232.5 -100.5t-64.5 -288.5v-557h-217z" />
<glyph unicode="&#x274;" horiz-adv-x="1347" d="M170 0v1104h264l553 -856q-4 31 -7 87t-6 110.5t-3 80.5v578h207v-1104h-267l-546 854q2 -31 5 -86t5 -112.5t2 -92.5v-563h-207z" />
<glyph unicode="&#x275;" horiz-adv-x="1247" d="M106 553q0 274 139.5 422.5t381.5 148.5q152 0 267.5 -66.5t182 -193.5t66.5 -311q0 -274 -141.5 -423.5t-380.5 -149.5q-150 0 -265.5 66.5t-182.5 194.5t-67 312zM332 479q10 -158 82 -239.5t211 -81.5t209.5 82t80.5 239h-583zM332 647h583q-14 147 -85.5 222 t-206.5 75q-137 0 -206 -74.5t-85 -222.5z" />
<glyph unicode="&#x276;" horiz-adv-x="1773" d="M106 553q0 274 138.5 422.5t380.5 148.5q174 0 295 -110v90h743v-174h-535v-271h502v-172h-502v-313h535v-174h-743v90q-121 -111 -302 -110q-147 0 -262.5 66.5t-182.5 194.5t-67 312zM330 553q0 -186 70.5 -290.5t224.5 -104.5t224.5 104.5t70.5 290.5 q0 188 -70.5 289.5t-226.5 101.5q-135 0 -214 -101.5t-79 -289.5z" />
<glyph unicode="&#x277;" horiz-adv-x="1630" d="M109 469q0 199 80.5 345.5t238.5 228t391 81.5q225 0 383 -80.5t239 -228t81 -346.5q0 -221 -104.5 -355t-299.5 -134q-119 0 -191.5 50t-107.5 142h-10q-35 -92 -106.5 -142t-190.5 -50q-197 0 -300 134t-103 355zM319 473q0 -156 55.5 -236.5t151.5 -80.5 q100 0 143.5 71.5t43.5 188.5v248h205v-248q0 -125 46 -192.5t138 -67.5q98 0 153.5 80.5t55.5 234.5q0 215 -122 345t-372 130t-374 -129t-124 -344z" />
<glyph unicode="&#x278;" horiz-adv-x="1538" d="M104 551q0 248 146.5 396.5t419.5 168.5v440h202v-440q258 -23 409 -171t151 -394q0 -244 -146.5 -393.5t-413.5 -171.5v-478h-206v478q-172 14 -298 86.5t-195 194.5t-69 284zM330 551q0 -170 83 -272.5t257 -120.5v786q-172 -18 -256 -120.5t-84 -272.5zM872 158 q170 20 253 121.5t83 271.5t-84 270.5t-252 120.5v-784z" />
<glyph unicode="&#x279;" horiz-adv-x="870" d="M34 -10l23 203q53 -14 111 -15q84 0 155.5 41t115.5 118t44 185v582h217v-1104h-172l-29 197h-8q-51 -88 -137 -152.5t-199 -64.5q-66 0 -121 10z" />
<glyph unicode="&#x27a;" horiz-adv-x="870" d="M35 -10l22 203q53 -14 111 -15q82 0 154.5 41t116.5 118t44 185v1034h217v-1556h-172l-26 197h-10q-53 -90 -137 -153.5t-199 -63.5q-66 0 -121 10z" />
<glyph unicode="&#x27b;" horiz-adv-x="870" d="M35 -10l22 203q53 -14 111 -15q82 0 154.5 41t116.5 118t44 185v582h217v-1245q0 -100 29 -137t84 -37q37 0 66.5 6t48.5 16v-166q-23 -16 -68 -24.5t-98 -8.5q-127 0 -203 79t-76 270v149q0 47 4.5 100.5t8.5 86.5h-9q-53 -88 -135 -150.5t-196 -62.5q-66 0 -121 10z " />
<glyph unicode="&#x27c;" horiz-adv-x="870" d="M170 -492v1596h172l29 -197h8q51 88 137 152.5t199 64.5q66 0 121 -10l-23 -203q-53 14 -111 15q-84 0 -155.5 -41t-115.5 -118t-44 -185v-1074h-217z" />
<glyph unicode="&#x27d;" horiz-adv-x="870" d="M170 -143v1247h172l29 -197h8q51 88 137 152.5t199 64.5q66 0 121 -10l-23 -203q-53 14 -111 15q-84 0 -155.5 -41t-115.5 -118t-44 -185v-723q0 -174 141 -174q35 0 65 6t56 16v-166q-31 -16 -68.5 -24.5t-91.5 -8.5q-150 0 -234.5 79t-84.5 270z" />
<glyph unicode="&#x27e;" horiz-adv-x="739" d="M164 0v764q0 205 92 283.5t252 78.5q51 0 101 -10t91 -22l-24 -183q-29 8 -65 17.5t-87 9.5q-145 0 -145 -180v-758h-215z" />
<glyph unicode="&#x27f;" horiz-adv-x="739" d="M39 1094q41 12 92 22t102 10q158 0 250 -78.5t92 -283.5v-1256h-215v1250q0 90 -34.5 135t-110.5 45q-51 0 -87 -9t-62 -18z" />
<glyph unicode="&#x280;" horiz-adv-x="1173" d="M174 0v1104h502q184 0 294.5 -84t110.5 -244q0 -94 -34.5 -156.5t-92 -100.5t-123.5 -56l318 -463h-246l-278 430h-234v-430h-217zM391 596h234q115 0 180 44t65 132q0 70 -50 117t-163 47h-266v-340z" />
<glyph unicode="&#x281;" horiz-adv-x="1173" d="M174 0h502q184 0 294.5 84t110.5 244q0 94 -34.5 156.5t-92 100.5t-123.5 56l318 463h-246l-278 -430h-234v430h-217v-1104zM391 168v340h234q115 0 180 -44t65 -132q0 -70 -50 -117t-163 -47h-266z" />
<glyph unicode="&#x282;" horiz-adv-x="991" d="M100 827q0 143 116 220t306 77q100 0 189.5 -20.5t173.5 -56.5l-72 -166q-72 31 -147.5 52t-153.5 21q-201 0 -201 -116q0 -39 23.5 -68t82 -57.5t163.5 -69.5q100 -39 172.5 -81t111.5 -101.5t39 -149.5q0 -164 -117.5 -247.5t-328.5 -83.5q-88 0 -152 12v-142 q0 -92 35 -132t104 -40q33 0 62 5.5t55 15.5v-160q-29 -14 -65.5 -22.5t-87.5 -8.5q-141 0 -223.5 76t-82.5 264v390q72 -35 169.5 -63t189.5 -28q123 0 177 39t54 105q0 37 -20.5 66.5t-76.5 61.5t-165 73q-106 41 -179 83.5t-112 102t-39 149.5z" />
<glyph unicode="&#x283;" horiz-adv-x="557" d="M-59 -293q20 -10 48.5 -16t59.5 -6q57 0 89 36.5t32 137.5v1364q0 131 38 206.5t104.5 107.5t152.5 32q49 0 89 -10.5t62 -22.5v-166q-16 8 -46.5 15.5t-59.5 7.5q-59 0 -91 -36t-32 -140v-1358q0 -186 -80 -268.5t-215 -82.5q-45 0 -86 8.5t-65 24.5v166z" />
<glyph unicode="&#x284;" horiz-adv-x="557" d="M-59 -293q20 -10 48.5 -16t59.5 -6q57 0 89 36.5t32 137.5v649h-156v170h156v545q0 131 38 206.5t104.5 107.5t152.5 32q49 0 89 -10.5t62 -22.5v-166q-16 8 -46.5 15.5t-59.5 7.5q-59 0 -91 -36t-32 -140v-539h156v-170h-156v-649q0 -186 -80 -268.5t-215 -82.5 q-45 0 -86 8.5t-65 24.5v166z" />
<glyph unicode="&#x285;" horiz-adv-x="557" d="M-39 926v166q23 12 61.5 22t83.5 10q123 0 202 -72.5t79 -258.5v-934q0 -100 32 -137t89 -37q29 0 58.5 6t49.5 16v-166q-25 -16 -66.5 -24.5t-86.5 -8.5q-133 0 -213 80t-80 269v927q0 88 -28.5 126t-82.5 38q-27 0 -54.5 -7t-43.5 -15z" />
<glyph unicode="&#x286;" horiz-adv-x="557" d="M-213 -250q0 111 69.5 180.5t225.5 69.5h88v1223q0 131 38 206.5t104.5 107.5t152.5 32q49 0 89 -10.5t62 -22.5v-166q-16 8 -46.5 15.5t-59.5 7.5q-59 0 -91 -36t-32 -140v-1217h150v-150h-150q-8 -186 -91 -264t-216 -78q-137 0 -215 69t-78 173zM-39 -248 q0 -37 21.5 -63.5t76.5 -26.5q51 0 81 34t30 114v40h-78q-57 0 -94 -23.5t-37 -74.5z" />
<glyph unicode="&#x287;" horiz-adv-x="784" d="M51 922v164q35 16 94 27t119 11q90 0 164.5 -30.5t120 -106.5t45.5 -211v-610h153v-98l-162 -82l-75 -234h-134v248h-315v166h315v606q0 90 -43.5 133t-115.5 43q-92 0 -166 -26z" />
<glyph unicode="&#x288;" horiz-adv-x="784" d="M37 938v98l162 82l75 234h134v-248h315v-166h-315v-1077q0 -90 43.5 -133t115.5 -43q92 0 166 26v-164q-35 -16 -94 -27.5t-119 -11.5q-90 0 -164.5 31t-120 106.5t-45.5 211.5v1081h-153z" />
<glyph unicode="&#x289;" horiz-adv-x="1290" d="M14 510v162h146v432h219v-432h524v432h217v-432h154v-162h-154v-510h-174l-31 145h-10q-53 -86 -147 -125.5t-199 -39.5q-195 0 -297 95t-102 306v129h-146zM379 414q0 -129 54 -192.5t169 -63.5q162 0 228.5 90t72.5 262h-524v-96z" />
<glyph unicode="&#x28a;" horiz-adv-x="1265" d="M59 930v174h498v-166q-102 -51 -168.5 -162.5t-66.5 -273.5q0 -160 76.5 -253t234.5 -93t235.5 93t77.5 255q0 147 -69.5 266t-169.5 168v166h499v-174h-258q100 -78 155.5 -186.5t55.5 -251.5q0 -238 -142 -375t-386 -137q-156 0 -273.5 61t-184.5 176t-67 270 q0 156 57.5 263.5t155.5 179.5h-260z" />
<glyph unicode="&#x28b;" horiz-adv-x="1290" d="M162 485v619h217v-617q0 -182 65.5 -255.5t206.5 -73.5q135 0 199.5 74.5t64.5 254.5v285q0 96 -30.5 133t-100.5 37q-59 0 -114 -18v176q31 12 73.5 18t73.5 6q156 0 236 -78.5t80 -265.5v-295q0 -240 -115 -372.5t-371 -132.5q-262 0 -373.5 130t-111.5 375z" />
<glyph unicode="&#x28c;" horiz-adv-x="1077" d="M0 0l420 1104h239l418 -1104h-229l-230 645q-20 66 -42.5 143.5t-30.5 129.5h-9q-8 -51 -32.5 -130t-44.5 -143l-230 -645h-229z" />
<glyph unicode="&#x28d;" horiz-adv-x="1652" d="M23 -2l309 1104h248l158 -551q14 -53 32.5 -121.5t32.5 -131t23 -97.5h8q6 35 20.5 97.5t31.5 131t34 123.5l164 549h241l305 -1104h-221l-143 559q-23 86 -42.5 183.5t-27.5 156.5h-8q-6 -35 -17.5 -93t-24.5 -115.5t-25 -94.5l-177 -596h-237l-172 596 q-12 41 -26.5 97.5t-26 111.5t-15.5 92h-8q-4 -33 -14.5 -90t-25.5 -122.5t-30 -125.5l-147 -559h-219z" />
<glyph unicode="&#x28e;" horiz-adv-x="1079" d="M0 0l473 1254q59 160 158.5 251t259.5 91q51 0 88 -5.5t63 -11.5v-172q-20 4 -53 8t-68 4q-94 0 -151.5 -54t-89.5 -142l-45 -119l442 -1104h-234l-229 627q-27 72 -47 137.5t-29 130.5h-8q-10 -53 -31.5 -125t-48.5 -145l-217 -625h-233z" />
<glyph unicode="&#x28f;" horiz-adv-x="1028" d="M0 1104h246l270 -475l268 475h244l-403 -662v-442h-217v442z" />
<glyph unicode="&#x290;" horiz-adv-x="972" d="M72 0v137l569 799h-535v168h777v-154l-557 -782h573v-318q0 -104 29.5 -138t89.5 -34q27 0 56.5 6.5t47.5 14.5v-160q-55 -31 -151 -31q-78 0 -137.5 31t-94 104.5t-34.5 200.5v156h-633z" />
<glyph unicode="&#x291;" horiz-adv-x="1130" d="M72 0v137l569 799h-535v168h781v-150l-563 -786h155q86 166 176 246t217 80q109 0 176.5 -64.5t67.5 -161.5q0 -131 -86 -199.5t-272 -68.5h-187q-18 -41 -36.5 -84t-36.5 -94l-144 57q12 33 24.5 62.5t24.5 58.5h-331zM655 168h117q88 0 123 27.5t35 70.5 q0 29 -20.5 51.5t-59.5 22.5q-53 0 -99.5 -42t-95.5 -130z" />
<glyph unicode="&#x292;" horiz-adv-x="1069" d="M37 -225q78 -37 181.5 -62.5t215.5 -25.5q166 0 255 87t89 230q0 154 -104.5 230.5t-304.5 76.5h-119v154l436 463h-616v176h874v-152l-446 -473q227 -20 363 -142t136 -335q0 -145 -66.5 -256t-192.5 -174.5t-304 -63.5q-121 0 -221 19.5t-176 54.5v193z" />
<glyph unicode="&#x293;" horiz-adv-x="1069" d="M-29 -190q0 117 92.5 187.5t249.5 70.5q125 0 235.5 -42t215.5 -120q14 45 14 100q0 158 -107.5 238t-305.5 80h-115v147l436 457h-616v176h874v-152l-446 -465q150 -12 261 -71.5t174.5 -161.5t63.5 -244q0 -76 -19.5 -137t-49.5 -111q31 -29 65.5 -64.5t67.5 -72.5 l-125 -117q-29 35 -61.5 69t-61.5 63q-76 -61 -182.5 -96.5t-245.5 -35.5q-102 0 -197.5 31t-156 96.5t-60.5 174.5zM156 -193q0 -57 61.5 -91.5t155.5 -34.5q86 0 162.5 23.5t128.5 66.5q-176 139 -349 139q-84 0 -121.5 -31t-37.5 -72z" />
<glyph unicode="&#x294;" horiz-adv-x="905" d="M18 1450q82 53 179.5 85t212.5 32q215 0 328.5 -109.5t113.5 -292.5q0 -150 -88 -288t-293 -236v-641h-217v745q195 63 287 173t92 239q0 111 -60.5 171.5t-177.5 60.5q-78 0 -158.5 -30t-138.5 -71z" />
<glyph unicode="&#x295;" horiz-adv-x="905" d="M53 1165q0 -150 88 -288t293 -236v-641h217v745q-195 63 -287 173t-92 239q0 111 60.5 171.5t177.5 60.5q78 0 158.5 -30t138.5 -71l80 162q-82 53 -179.5 85t-212.5 32q-215 0 -328.5 -109.5t-113.5 -292.5z" />
<glyph unicode="&#x296;" horiz-adv-x="905" d="M18 96l80 162q57 -41 138 -70.5t159 -29.5q117 0 177.5 60.5t60.5 170.5q0 129 -92 238.5t-287 173.5v755h217v-651q205 -96 293 -233t88 -287q0 -184 -116 -294.5t-333 -110.5q-113 0 -210 32.5t-175 83.5z" />
<glyph unicode="&#x297;" horiz-adv-x="987" d="M106 307q0 303 70 482.5t188.5 257t266.5 77.5q92 0 173 -18.5t134 -44.5l-66 -176q-53 20 -114.5 37.5t-120.5 17.5q-147 0 -227 -146.5t-80 -482.5q0 -225 34.5 -361t101 -196.5t165.5 -60.5q86 0 154.5 20.5t127.5 53.5v-191q-117 -65 -299 -65q-254 0 -381 192.5 t-127 603.5z" />
<glyph unicode="&#x298;" horiz-adv-x="1607" d="M123 735q0 225 73.5 394t225 262.5t385.5 93.5q225 0 375.5 -93.5t226.5 -262.5t76 -396t-76 -396t-227.5 -263t-376.5 -94q-231 0 -383 94t-225.5 264t-73.5 397zM356 733q0 -262 108.5 -413.5t340.5 -151.5q233 0 339.5 151.5t106.5 413.5t-106.5 411.5t-337.5 149.5 q-233 0 -342 -149.5t-109 -411.5zM665 723q0 80 41 112.5t99 32.5q57 0 99 -32.5t42 -112.5t-42 -115t-99 -35t-98.5 35t-41.5 115z" />
<glyph unicode="&#x299;" horiz-adv-x="1212" d="M170 0v1104h489q121 0 217.5 -26.5t152.5 -87.5t56 -167q0 -100 -59 -158.5t-162 -78.5v-8q106 -14 181 -75t75 -177q0 -141 -107.5 -233.5t-353.5 -92.5h-489zM387 164h252q121 0 188.5 38t67.5 128q0 86 -66.5 124t-193.5 38h-248v-328zM387 657h227q250 1 250 142 q0 70 -51 103.5t-166 33.5h-260v-279z" />
<glyph unicode="&#x29a;" horiz-adv-x="1247" d="M88 309q0 121 74 182.5t172 86.5v8q-96 25 -153.5 82t-57.5 157q0 145 122.5 222t327.5 77q272 0 420 -149.5t148 -421.5q0 -276 -151.5 -424.5t-416.5 -148.5q-246 0 -365.5 92t-119.5 237zM301 324q0 -94 79 -132t195 -38q170 0 256.5 96t86.5 303q-1 397 -343 397 q-121 0 -185 -34.5t-64 -106.5q0 -86 78.5 -120t220.5 -34h49v-166h-72q-154 0 -227.5 -39.5t-73.5 -125.5z" />
<glyph unicode="&#x29b;" horiz-adv-x="1189" d="M106 549q0 190 72 318t200 192.5t294 64.5q49 0 94 -4t86 -12v162q0 297 258 297q41 0 75 -9.5t54 -19.5v-174q-14 6 -44 13t-65 7q-96 0 -96 -102v-242l-73 -172q-63 33 -135 52.5t-142 19.5q-168 0 -261 -97.5t-93 -293.5q0 -184 74.5 -285.5t228.5 -101.5q63 0 108 6 t97 18v269h-230v161h443v-557q-96 -37 -199.5 -58t-226.5 -21q-240 0 -379.5 142t-139.5 427z" />
<glyph unicode="&#x29c;" horiz-adv-x="1318" d="M170 0v1104h217v-449h545v449h217v-1104h-217v481h-545v-481h-217z" />
<glyph unicode="&#x29d;" horiz-adv-x="557" d="M-193 -250q0 111 68 180.5t217 69.5h78v1104h217v-1104h150v-150h-150q-8 -186 -88 -264t-209 -78q-131 0 -207 69t-76 173zM-18 -248q0 -37 19.5 -63.5t68.5 -26.5q45 0 72.5 33t27.5 110v45h-70q-51 0 -84.5 -23.5t-33.5 -74.5zM156 1399q0 68 36.5 96.5t88.5 28.5 q49 0 85.5 -29t36.5 -96q0 -66 -36.5 -95.5t-85.5 -29.5q-51 0 -88 29.5t-37 95.5z" />
<glyph unicode="&#x29e;" horiz-adv-x="1144" d="M12 1104h256l365 -494l127 107v387h215v-1556h-215v778q0 41 4 98t6 102h-6q-23 -31 -62.5 -81t-70.5 -82l-338 -363h-252l445 473z" />
<glyph unicode="&#x29f;" horiz-adv-x="917" d="M170 0v1104h217v-930h490v-174h-707z" />
</font>
</defs>
</svg>
