<?xml version="1.0" standalone="no"?>
<!DOCTYPE svg PUBLIC "-//W3C//DTD SVG 1.1//EN" "http://www.w3.org/Graphics/SVG/1.1/DTD/svg11.dtd" >
<svg xmlns="http://www.w3.org/2000/svg" xmlns:xlink="http://www.w3.org/1999/xlink" version="1.1">
<metadata></metadata>
<defs>
<font id="noto_sans_thaibold" horiz-adv-x="0" >
<font-face units-per-em="2048" ascent="1638" descent="-410" />
<missing-glyph horiz-adv-x="532" />
<glyph unicode="&#xe24;&#xe45;" horiz-adv-x="1974" d="M113 727v53q0 100 58 184.5t169 134.5t266 50q147 0 244.5 -47t148.5 -135h9q45 86 143 134t240 48q223 0 331.5 -114.5t108.5 -305.5v-1163h-307v1124q0 111 -51.5 162t-141.5 51q-92 0 -143 -52t-51 -165v-1120h-308v1126q0 106 -54 158.5t-154 52.5q-96 0 -143.5 -40 t-49.5 -97l178 -82l-20 -131q-76 -2 -115 -36t-39 -118v-125q0 -84 82 -84q41 0 72 13l28 -183q-78 -41 -192 -40q-131 0 -210 64.5t-79 197.5v125q0 121 52.5 182t148.5 90l2 8z" />
<glyph unicode="&#xe26;&#xe45;" horiz-adv-x="1998" d="M45 23l29 170q25 -8 53 -9q66 0 66 72v150q0 100 40.5 156t124.5 77l2 8l-223 80v53q0 100 57.5 184.5t170 134.5t276.5 50q141 0 239.5 -47t143.5 -135h6q47 86 145.5 134t237.5 48q225 0 333.5 -114.5t108.5 -305.5v-1163h-307v1124q0 111 -52 162t-142 51t-141.5 -52 t-51.5 -165v-1120h-307v1126q0 106 -54.5 158.5t-154.5 52.5q-96 0 -143 -40t-49 -97l178 -80l-23 -133q-117 0 -116 -160v-172q0 -131 -73 -186t-186 -55q-57 0 -104 11t-84 32z" />
<glyph />
<glyph />
<glyph unicode="&#xd;" horiz-adv-x="532" />
<glyph unicode=" "  horiz-adv-x="532" />
<glyph unicode="&#x09;" horiz-adv-x="532" />
<glyph unicode="&#xa0;" horiz-adv-x="532" />
<glyph unicode="-" horiz-adv-x="659" d="M61 424v250h537v-250h-537z" />
<glyph unicode="&#xad;" horiz-adv-x="659" d="M61 424v250h537v-250h-537z" />
<glyph unicode="&#x2bc;" horiz-adv-x="444" d="M29 961q29 121 54.5 258t39.5 243h291l14 -22q-27 -109 -73 -238t-93 -241h-233z" />
<glyph unicode="&#x2d7;" horiz-adv-x="446" d="M25 500v127h397v-127h-397z" />
<glyph unicode="&#x303;" d="M-1032 1239q12 160 77.5 234.5t168.5 74.5q49 0 101 -26.5t103.5 -52t98.5 -25.5q23 0 46 26.5t34 79.5h157q-12 -158 -79.5 -233.5t-163.5 -75.5q-55 0 -107.5 25.5t-103 52.5t-97.5 27q-23 0 -46 -27t-34 -80h-155z" />
<glyph unicode="&#x331;" d="M-905 -156h659v-211h-659v211z" />
<glyph unicode="&#xe01;" horiz-adv-x="1277" d="M113 727v53q0 100 59 184.5t175 134.5t282 50q231 0 368.5 -107.5t137.5 -324.5v-717h-308v698q0 102 -54 153.5t-152 51.5q-96 0 -143.5 -40t-49.5 -97l182 -84l-22 -133q-74 -4 -111 -53.5t-37 -133.5v-362h-307v342q0 129 50 198.5t147 98.5l2 8z" />
<glyph unicode="&#xe02;" horiz-adv-x="1212" d="M92 1085q57 31 124 42.5t118 11.5q135 0 191.5 -64.5t56.5 -173.5q0 -63 -18.5 -111.5t-47.5 -99.5q-29 -47 -49.5 -88t-20.5 -119v-82q0 -100 42 -144t118 -44q158 0 158 178v731h305v-739q0 -203 -119 -306.5t-346 -103.5q-229 0 -346 102.5t-117 299.5v82 q0 84 22.5 138t55.5 99t54.5 81t21.5 75q0 37 -18.5 52.5t-45.5 15.5q-39 0 -90 -25z" />
<glyph unicode="&#xe03;" horiz-adv-x="1230" d="M80 1049v73h219q0 -57 13.5 -81.5t45.5 -24.5q14 0 35 6t39 22l35 78h162v-137q0 -66 -7.5 -108.5t-25.5 -78.5t-49 -79q-27 -39 -48.5 -68.5t-34.5 -68.5t-13 -103v-73q0 -102 44 -147.5t121 -45.5q86 0 126 47t40 131v731h305v-739q0 -203 -120 -306.5t-351 -103.5 q-242 0 -357.5 106.5t-115.5 301.5v68q0 96 35 163.5t98 139.5q20 23 44 51t26 55l-6 2q-41 -23 -88 -22q-76 0 -124 54t-48 157z" />
<glyph unicode="&#xe04;" horiz-adv-x="1323" d="M143 0v666q0 236 125 359.5t396 123.5q272 0 394 -124t122 -359v-666h-306v670q0 109 -50 171t-165 62q-113 0 -163 -62.5t-50 -170.5v-178l7 -3q39 80 92 106t149 26h47v-230h-47q-102 0 -155.5 -34.5t-73 -91t-19.5 -126.5v-139h-303z" />
<glyph unicode="&#xe05;" horiz-adv-x="1347" d="M143 0v864q0 143 80 214t213 71q88 0 149.5 -32t82.5 -97h10q23 66 84 97.5t149 31.5q133 0 213 -70.5t80 -214.5v-864h-305v786q0 66 -23.5 90.5t-58.5 24.5q-80 0 -86 -102h-119q-8 102 -86 102q-35 0 -58.5 -24.5t-23.5 -90.5v-294l7 -3q41 80 96 106t162 26h49v-230 h-49q-111 0 -167.5 -34.5t-76 -91t-19.5 -126.5v-139h-303z" />
<glyph unicode="&#xe06;" horiz-adv-x="1308" d="M88 1049v73h219q0 -57 14.5 -81.5t45.5 -24.5q16 0 36.5 6t38.5 22l33 78h172v-137q0 -57 -7 -98t-25.5 -80t-53.5 -88q-29 -43 -52.5 -74t-36.5 -65.5t-13 -90.5v-14q0 -104 59.5 -166.5t163.5 -62.5q84 0 130 49t46 166v661h307v-729q0 -201 -95 -307t-275 -106 q-143 0 -236.5 55t-128.5 141h-18l-33 -176h-227v434q0 102 31.5 174t97.5 144q29 33 50 57.5t23 48.5l-6 2q-41 -23 -88 -22q-76 0 -124 54t-48 157z" />
<glyph unicode="&#xe07;" horiz-adv-x="1169" d="M10 1122h309l248 -874h13q33 0 60.5 18.5t49.5 48.5q39 57 60.5 136t21.5 157q0 137 -52 211t-145 74q-18 0 -33.5 -2t-27.5 -8l-57 235q47 14 88 17.5t69 3.5q109 0 189 -29t137 -86q143 -143 143 -410q0 -166 -52 -289.5t-126 -195.5q-61 -59 -154.5 -94t-254.5 -35 h-160z" />
<glyph unicode="&#xe08;" horiz-adv-x="1144" d="M80 805v256q68 35 170 61.5t235 26.5q297 0 431.5 -144.5t134.5 -435.5q0 -274 -126 -421.5t-429 -147.5h-260v471h-117v188h393v-426h14q100 0 156.5 82t56.5 248q0 190 -79.5 266t-233.5 76q-106 0 -192.5 -29.5t-153.5 -70.5z" />
<glyph unicode="&#xe09;" horiz-adv-x="1275" d="M154 340v301h295v-211q0 -96 41.5 -141t119.5 -45q100 0 157.5 66.5t57.5 187.5v161q0 139 -73.5 192.5t-200.5 53.5q-109 0 -203 -30.5t-166 -69.5v256q66 33 183.5 60.5t255.5 27.5q272 0 392 -124t120 -359v-666h-234l-33 166h-16q-39 -76 -124 -131t-220 -55 q-170 0 -261 85t-91 275z" />
<glyph unicode="&#xe0a;" horiz-adv-x="1226" d="M92 1085q57 31 124 42.5t118 11.5q135 0 191.5 -64.5t56.5 -173.5q0 -63 -18.5 -111.5t-47.5 -99.5q-29 -47 -47 -88t-18 -119v-77q0 -102 44 -147.5t126 -45.5q88 0 125.5 47t37.5 131v199q0 61 -27.5 97t-92.5 36h-11v162h13q63 0 94 34.5t40 89t9 113.5h305 q0 -127 -32.5 -207.5t-114.5 -109.5v-8q72 -23 97.5 -78t25.5 -127v-209q0 -203 -119 -306.5t-350 -103.5q-233 0 -353.5 103.5t-120.5 298.5v80q0 82 19.5 138t52.5 101t54.5 81t21.5 75q0 37 -18.5 52.5t-45.5 15.5q-39 0 -90 -25z" />
<glyph unicode="&#xe0b;" horiz-adv-x="1234" d="M80 1049v73h219q0 -57 14.5 -81.5t44.5 -24.5q16 0 37 6t39 22l33 78h151v-137q0 -66 -5 -108.5t-20 -78.5t-46 -79q-25 -39 -46.5 -68.5t-33.5 -66.5t-12 -97v-81q0 -102 44 -147.5t124 -45.5q90 0 131 47t41 131v199q0 61 -27 97t-86 36h-6v162h8q61 0 90 34.5t37 89 t8 113.5h303q0 -127 -32.5 -205.5t-114.5 -111.5v-8q70 -20 96.5 -74.5t26.5 -138.5v-201q0 -201 -119.5 -305.5t-355.5 -104.5q-238 0 -357 106.5t-119 301.5v68q0 96 33 163.5t96 139.5q20 23 44 51t26 55l-6 2q-41 -23 -88 -22q-76 0 -124 54t-48 157z" />
<glyph unicode="&#xe0c;" horiz-adv-x="1898" d="M113 727v53q0 102 58 186.5t171 133.5t276 49q227 0 359.5 -103.5t132.5 -308.5v-221q0 -123 54.5 -196.5t138.5 -73.5q63 0 104 43t41 141v692h307v-760q0 -193 -82 -287.5t-252 -94.5q-127 0 -210 55t-119 141h-17l-33 -176h-235v707q0 109 -52.5 154.5t-140.5 45.5 q-84 0 -133 -34.5t-53 -100.5l178 -86l-20 -133q-76 -2 -115 -36t-39 -118v-125q0 -84 82 -84q41 0 72 13l28 -183q-77 -40 -192 -40q-131 0 -210 64.5t-79 197.5v133q0 121 52.5 178t148.5 86l2 8z" />
<glyph unicode="&#xe0d;" horiz-adv-x="1918" d="M113 727v53q0 104 58 187.5t171 132.5t274 49q225 0 357.5 -103.5t132.5 -308.5v-274q0 -98 43 -141t106 -43q88 0 141.5 73.5t53.5 196.5v573h307v-985q0 -272 -136 -405t-398 -133q-92 0 -184.5 17t-170.5 52v260q53 -35 136 -59.5t176 -24.5q131 0 205.5 59.5 t74.5 190.5v60h-14q-39 -57 -111.5 -98.5t-187.5 -41.5q-154 0 -248 85t-94 272v344q0 109 -55.5 150.5t-137.5 41.5q-78 0 -129 -33.5t-55 -101.5l178 -86l-20 -133q-76 -2 -115 -36t-39 -118v-125q0 -84 82 -84q41 0 72 13l28 -183q-78 -41 -192 -40q-131 0 -210 64.5 t-79 197.5v133q0 121 52.5 178t148.5 86l2 8z" />
<glyph unicode="&#xe0e;" horiz-adv-x="1304" d="M45 35l29 170q25 -8 53 -8q66 0 66 71v138q0 100 40.5 156t124.5 77l2 8l-223 80v53q0 100 57.5 184.5t171 134.5t283.5 50q236 0 374 -107.5t138 -324.5v-1151h-266q-45 57 -129 89t-156 32t-103.5 -28t-31.5 -75v-18h-289v35q0 168 89.5 245.5t246.5 77.5 q100 0 187.5 -27.5t144.5 -72.5v874q0 102 -54.5 153.5t-154.5 51.5q-96 0 -143 -40t-49 -97l178 -80l-23 -133q-117 0 -116 -160v-160q0 -131 -73 -186t-186 -55q-57 0 -104 12t-84 31z" />
<glyph unicode="&#xe0f;" horiz-adv-x="1304" d="M45 35l29 170q25 -8 53 -8q66 0 66 71v138q0 100 40.5 156t124.5 77l2 8l-223 80v53q0 100 57.5 184.5t171 134.5t283.5 50q236 0 374 -107.5t138 -324.5v-1151h-258l-141 106l-105 -106h-71q-20 43 -53 76.5t-80 33.5q-49 0 -65.5 -32.5t-16.5 -67.5v-10h-246v72 q0 141 75.5 206.5t182.5 65.5q84 0 142.5 -33t97.5 -98l116 106l115 -82v895q0 102 -54.5 153.5t-154.5 51.5q-96 0 -143 -40t-49 -97l178 -80l-23 -133q-117 0 -116 -160v-160q0 -131 -73 -186t-186 -55q-57 0 -104 12t-84 31z" />
<glyph unicode="&#xe10;" horiz-adv-x="1171" d="M84 -371q0 143 68.5 209t171.5 66q82 0 135 -36t94 -97l106 110l132 -96v149h253v-368h-264l-118 104l-89 -104h-55q-20 43 -52 76.5t-79 33.5t-61.5 -32.5t-14.5 -67.5v-10h-227v63zM84 805v256q68 35 170 61.5t240 26.5q90 0 164.5 -15.5t125.5 -52.5q68 45 70 115h268 q0 -82 -43 -153.5t-139 -116.5q53 -53 84 -144.5t31 -226.5q0 -264 -128 -409.5t-427 -145.5h-260v471h-117v188h393v-426h14q100 0 156.5 82t56.5 248q0 190 -78.5 266t-232.5 76q-109 0 -194.5 -29.5t-153.5 -70.5z" />
<glyph unicode="&#xe11;" horiz-adv-x="1331" d="M80 1049v73h213q0 -57 13 -81.5t46 -24.5q16 0 33.5 6t34.5 22l35 78h147v-153h8q51 84 129 129t181 45q133 0 200.5 -74t67.5 -199v-870h-307v743q0 145 -101 146q-51 0 -98 -37t-111 -123q-35 -45 -54 -86t-28.5 -89t-9.5 -120v-434h-307v430q0 98 15.5 168t80.5 145 q45 51 60.5 71t17.5 44l-6 2q-41 -23 -88 -22q-76 0 -124 54t-48 157z" />
<glyph unicode="&#xe12;" horiz-adv-x="1929" d="M106 575q0 301 87.5 434.5t252.5 133.5q70 0 123.5 -28t85.5 -101h9q29 76 94 102.5t135 26.5q131 0 200.5 -76t69.5 -221v-330q0 -123 53.5 -196.5t139.5 -73.5q63 0 104 43t41 141v692h307v-760q0 -383 -329 -382q-135 0 -216 57t-118 139h-17l-32 -176h-236v788 q0 63 -18.5 86t-50.5 23q-33 0 -52.5 -22.5t-25.5 -75.5h-119q-8 57 -28.5 77.5t-47.5 20.5q-51 0 -77.5 -68.5t-26.5 -248.5q0 -182 39 -274.5t159 -92.5q43 0 78 12l31 -219q-66 -26 -160 -26q-176 0 -275.5 73.5t-139.5 206.5t-40 315z" />
<glyph unicode="&#xe13;" horiz-adv-x="1918" d="M113 727v53q0 104 58 187.5t171 132.5t274 49q225 0 357.5 -103.5t132.5 -308.5v-307q0 -98 43 -141t106 -43q88 0 141.5 73.5t53.5 196.5v606h307v-1122h-237l-35 176h-17q-37 -86 -119.5 -141t-205.5 -55q-168 0 -253 89t-85 281v365q0 109 -55.5 150.5t-137.5 41.5 q-78 0 -129 -33.5t-55 -101.5l178 -86l-20 -133q-76 -2 -115 -36t-39 -118v-125q0 -84 82 -84q41 0 72 13l28 -183q-77 -40 -192 -40q-131 0 -210 64.5t-79 197.5v133q0 121 52.5 178t148.5 86l2 8z" />
<glyph unicode="&#xe14;" horiz-adv-x="1298" d="M98 547q0 178 40 296t114 184.5t175 94t222 27.5q182 0 294 -51t162 -145.5t50 -221.5v-731h-307v707q0 96 -46 146t-153 50q-72 0 -126 -29.5t-83.5 -105.5t-29.5 -217q0 -145 43 -235.5t149 -90.5q45 0 82 11l29 -230q-33 -14 -79 -20t-87 -6q-166 0 -264.5 72.5 t-141.5 200.5t-43 294z" />
<glyph unicode="&#xe15;" horiz-adv-x="1339" d="M106 575q0 297 88.5 432.5t262.5 135.5q72 0 126 -28t87 -101h8q29 76 94.5 102.5t140.5 26.5q141 0 212 -76t71 -221v-846h-307v788q0 63 -20.5 86t-55.5 23q-39 0 -58.5 -22.5t-25.5 -75.5h-121q-8 57 -30.5 77.5t-53.5 20.5q-53 0 -79.5 -73.5t-26.5 -250.5 q0 -174 41 -267t159 -93q49 0 80 12l31 -219q-66 -26 -158 -26q-182 0 -283.5 74.5t-141.5 208.5t-40 312z" />
<glyph unicode="&#xe16;" horiz-adv-x="1280" d="M113 727v53q0 100 59 184.5t175 134.5t282 50q233 0 370.5 -107.5t137.5 -324.5v-717h-308v698q0 102 -54 153.5t-154 51.5q-96 0 -143.5 -40t-49.5 -97l178 -82l-20 -131q-76 -2 -115 -31.5t-39 -113.5v-134q0 -84 82 -84q41 0 72 13l28 -183q-77 -40 -192 -40 q-131 0 -210 64.5t-79 197.5v125q0 121 52.5 182t148.5 90l2 8z" />
<glyph unicode="&#xe17;" horiz-adv-x="1318" d="M158 0v1122h225l41 -176h16q35 84 121 140.5t223 56.5q391 0 392 -420v-723h-308v662q0 115 -46 165t-134 50q-106 0 -164.5 -86t-58.5 -254v-537h-307z" />
<glyph unicode="&#xe18;" horiz-adv-x="1144" d="M100 838q0 170 131 240.5t353 70.5q139 0 240.5 -21.5t154.5 -44.5v-235q-41 16 -106.5 33.5t-145.5 30t-160 12.5q-68 0 -113.5 -14.5t-45.5 -53.5q0 -33 36.5 -50.5t101 -32.5t152.5 -42q117 -35 199 -80t125 -117.5t43 -187.5q0 -106 -44 -190t-148.5 -133.5 t-286.5 -49.5q-127 0 -243 22.5t-206 55.5v443h262v-279q31 -10 77 -18.5t95 -8.5q84 0 142.5 32t58.5 120q0 66 -38 98.5t-109.5 52t-171.5 46.5q-113 29 -191 63.5t-120 89.5t-42 148z" />
<glyph unicode="&#xe19;" horiz-adv-x="1323" d="M143 408v714h308v-661q0 -113 45 -164t131 -51q109 0 168 82t59 258v536h307v-1122h-233l-33 172h-18q-35 -82 -120.5 -137t-230.5 -55q-186 0 -284.5 108.5t-98.5 319.5z" />
<glyph unicode="&#xe1a;" horiz-adv-x="1298" d="M143 457v665h308v-682q0 -109 48 -165t150 -56t150.5 56.5t48.5 164.5v682h307v-665q0 -236 -120 -360t-386 -124q-268 0 -387 124t-119 360z" />
<glyph unicode="&#xe1b;" horiz-adv-x="1300" d="M143 457v665h308v-682q0 -109 48 -165t150 -56t150.5 56.5t48.5 164.5v1086h307v-1069q0 -236 -120 -360t-386 -124q-268 0 -387 124t-119 360z" />
<glyph unicode="&#xe1c;" horiz-adv-x="1396" d="M154 0v872q0 104 35.5 163t99 83.5t145.5 24.5q57 0 102.5 -11.5t73.5 -25.5l-41 -201q-16 4 -32.5 6t-26.5 2q-39 0 -54.5 -20.5t-15.5 -58.5v-191q0 -51 -4 -121.5t-14 -177.5h10q41 96 73 154.5t56 103.5l76 137h115l75 -137q41 -76 68 -128t61 -130h11 q-10 106 -14.5 177t-4.5 122v479h287v-1122h-293l-244 446h-8l-244 -446h-292z" />
<glyph unicode="&#xe1d;" horiz-adv-x="1398" d="M154 0v872q0 104 35.5 163t99 83.5t145.5 24.5q57 0 102.5 -11.5t73.5 -25.5l-41 -201q-16 4 -32.5 6t-26.5 2q-39 0 -54.5 -20.5t-15.5 -58.5v-191q0 -51 -4 -121.5t-14 -177.5h10q41 96 73 154.5t56 103.5l76 137h115l75 -137q41 -76 68 -128t61 -130h11 q-10 106 -14.5 177t-4.5 122v883h287v-1526h-293l-244 446h-8l-244 -446h-292z" />
<glyph unicode="&#xe1e;" horiz-adv-x="1488" d="M63 1122h299l56 -395q6 -49 15 -134t18 -198h6q27 113 47 198t37 140l110 389h187l110 -389q14 -55 36 -140t48 -198h6q10 113 17.5 198t15.5 134l57 395h297l-192 -1122h-301l-129 457q-20 80 -32.5 145.5t-20.5 136.5h-9q-12 -72 -23 -134t-36 -148l-131 -457h-293z " />
<glyph unicode="&#xe1f;" horiz-adv-x="1470" d="M63 1122h299l52 -395q4 -37 14 -131t18 -201h9q20 96 41.5 181.5t42.5 156.5l110 389h187l108 -389q20 -72 41 -156.5t43 -181.5h6q10 111 18.5 197t12.5 135l94 799h295l-225 -1526h-301l-129 457q-20 78 -31.5 144.5t-22.5 137.5h-8q-10 -72 -22.5 -134t-36.5 -148 l-131 -457h-293z" />
<glyph unicode="&#xe20;" horiz-adv-x="1304" d="M45 23l29 170q25 -8 53 -9q66 0 66 72v150q0 100 40.5 156t124.5 77l2 8l-223 80v53q0 100 57.5 184.5t171 134.5t283.5 50q236 0 374 -107.5t138 -324.5v-717h-307v698q0 102 -54.5 153.5t-154.5 51.5q-96 0 -143 -40t-49 -97l178 -80l-23 -133q-117 0 -116 -160v-172 q0 -131 -73 -186t-186 -55q-57 0 -104 11t-84 32z" />
<glyph unicode="&#xe21;" horiz-adv-x="1323" d="M162 0v1122h307v-536q0 -176 59.5 -258t167.5 -82q86 0 131 51t45 164v661h308v-729q0 -201 -95.5 -307t-279.5 -106q-145 0 -234.5 55t-126.5 141h-16l-33 -176h-233z" />
<glyph unicode="&#xe22;" horiz-adv-x="1273" d="M113 326q0 88 27.5 144t70.5 86t90 40v12q-72 23 -130 79t-58 167q0 76 35.5 141.5t115.5 105.5t211 40q63 0 121.5 -9.5t93.5 -25.5l-47 -207q-16 4 -45 9t-55 5q-63 0 -94 -29.5t-31 -76.5q0 -76 57 -99.5t125 -23.5h43v-190h-43q-88 0 -132 -31t-44 -101 q0 -39 17.5 -73.5t60.5 -58t123 -23.5q113 0 155.5 48t42.5 120v747h307v-737q0 -211 -124 -311.5t-388 -100.5q-184 0 -294.5 44t-160.5 124t-50 185z" />
<glyph unicode="&#xe23;" horiz-adv-x="1060" d="M70 76l86 243q61 -33 157.5 -68.5t202.5 -35.5q166 0 166 96q0 53 -62.5 83t-173.5 69q-109 37 -186.5 82t-119.5 110.5t-42 165.5q0 168 126 248t337 80q115 0 207 -19.5t143 -46.5v-241q-53 25 -150 48t-186 23q-170 0 -169 -86q0 -49 66.5 -76.5t186.5 -68.5 q160 -55 245 -133t85 -221q0 -92 -42 -173t-142.5 -131.5t-276.5 -50.5q-121 0 -242.5 27t-215.5 76z" />
<glyph unicode="&#xe24;" horiz-adv-x="1280" d="M113 727v53q0 100 59 184.5t175 134.5t282 50q233 0 370.5 -107.5t137.5 -324.5v-1151h-308v1132q0 102 -54 153.5t-154 51.5q-96 0 -143.5 -40t-49.5 -97l178 -82l-20 -131q-76 -2 -115 -31.5t-39 -113.5v-134q0 -84 82 -84q41 0 72 13l28 -183q-77 -40 -192 -40 q-131 0 -210 64.5t-79 197.5v125q0 121 52.5 182t148.5 90l2 8z" />
<glyph unicode="&#xe25;" horiz-adv-x="1226" d="M80 299q0 164 117.5 262t371.5 119l213 16v33q0 98 -53 141t-164 43q-106 0 -207.5 -31.5t-175.5 -74.5v254q59 29 168 58.5t252 29.5q139 0 247.5 -40t171 -134t62.5 -258v-717h-301v475l-178 -18q-123 -12 -171 -49t-48 -99q0 -61 39 -92t104 -31q25 0 49.5 5.5 t45.5 11.5l26 -193q-39 -14 -92.5 -22t-110.5 -8q-176 0 -271 83.5t-95 235.5z" />
<glyph unicode="&#xe26;" horiz-adv-x="1304" d="M45 23l29 170q25 -8 53 -9q66 0 66 72v150q0 100 40.5 156t124.5 77l2 8l-223 80v53q0 100 57.5 184.5t171 134.5t283.5 50q236 0 374 -107.5t138 -324.5v-1151h-307v1132q0 102 -54.5 153.5t-154.5 51.5q-96 0 -143 -40t-49 -97l178 -80l-23 -133q-117 0 -116 -160v-172 q0 -131 -73 -186t-186 -55q-57 0 -104 11t-84 32z" />
<glyph unicode="&#xe27;" horiz-adv-x="1052" d="M74 63l82 224q45 -27 108.5 -47.5t124.5 -20.5q115 0 182.5 87t67.5 261q0 162 -67.5 249t-211.5 87q-68 0 -139 -19.5t-119 -47.5v251q63 29 143.5 45.5t170.5 16.5q283 0 409.5 -154.5t126.5 -427.5q0 -293 -133 -443.5t-377 -150.5q-104 0 -196 23.5t-172 66.5z" />
<glyph unicode="&#xe28;" horiz-adv-x="1349" d="M143 0v666q0 236 125 359.5t398 123.5q82 0 151.5 -15.5t122.5 -52.5q66 45 68 115h268q0 -78 -39 -147.5t-127 -114.5q39 -49 55.5 -117.5t16.5 -152.5v-664h-305v670q0 109 -50.5 171t-162.5 62q-115 0 -165 -62.5t-50 -170.5v-178l6 -3q41 80 94 106t147 26h49v-230 h-49q-102 0 -155.5 -34.5t-72.5 -91t-19 -126.5v-139h-306z" />
<glyph unicode="&#xe29;" horiz-adv-x="1382" d="M143 461v661h306v-678q0 -113 52 -170t171 -57q115 0 164 53.5t49 173.5v2h-86q-98 0 -153.5 32t-78 82t-22.5 102q0 37 10 77.5t31 65.5l182 -37q-12 -25 -12 -57q0 -27 16 -46.5t45 -19.5h68v477h305v-477h119v-199h-119q-4 -229 -126 -351t-396 -122q-281 0 -403 126 t-122 362z" />
<glyph unicode="&#xe2a;" horiz-adv-x="1232" d="M80 299q0 164 117.5 262t371.5 119l213 16v33q0 98 -53 141t-164 43q-106 0 -207.5 -31.5t-175.5 -74.5v254q59 29 168 58.5t250 29.5q74 0 139.5 -11.5t112.5 -41.5q49 41 51 100h268q0 -74 -34.5 -139.5t-110.5 -110.5q31 -41 44 -98t13 -131v-717h-301v475l-178 -18 q-123 -12 -171 -49t-48 -99q0 -61 39 -92t104 -31q25 0 49.5 5.5t45.5 11.5l26 -193q-39 -14 -92.5 -22t-110.5 -8q-176 0 -271 83.5t-95 235.5z" />
<glyph unicode="&#xe2b;" horiz-adv-x="1273" d="M162 0v1122h303v-420h8l348 420h338v-10l-297 -330q145 -23 219 -123t74 -241v-418h-307v371q0 92 -45 140t-131 60l-207 -229v-342h-303z" />
<glyph unicode="&#xe2c;" horiz-adv-x="1452" d="M63 1122h304l51 -458q6 -51 13 -138.5t7 -193.5h6q27 94 50.5 163.5t50.5 139.5l94 260h174l94 -260q25 -70 48.5 -139.5t50.5 -163.5h8q2 92 10 179t16 151l27 174q18 119 -26 169t-156 50h-127v200h164q141 0 192 55.5t51 141.5v10h293v-10q0 -115 -51 -200t-172 -105 v-8q88 -33 115.5 -115t15.5 -160l-135 -864h-320l-104 326q-23 72 -41 140.5t-37 170.5h-8q-18 -106 -37.5 -176t-42.5 -137l-109 -324h-305z" />
<glyph unicode="&#xe2d;" horiz-adv-x="1214" d="M98 457q0 39 3 98t10 104h491v-194h-203v-29q0 -123 46.5 -179t142.5 -56q102 0 159.5 71.5t57.5 266.5q0 182 -64.5 273t-232.5 91q-92 0 -190.5 -28.5t-161.5 -63.5v256q66 35 180.5 58.5t228.5 23.5q199 0 321 -72.5t178 -206t56 -315.5q0 -281 -124.5 -431.5 t-405.5 -150.5q-250 0 -371 122t-121 362z" />
<glyph unicode="&#xe2e;" horiz-adv-x="1220" d="M98 457q0 39 3 98t10 104h491v-194h-203v-29q0 -123 46.5 -179t142.5 -56q100 0 158.5 71.5t58.5 259.5q0 193 -68.5 282t-226.5 89q-96 0 -192.5 -27.5t-163.5 -64.5v256q43 23 110.5 42t145 29.5t149.5 10.5q80 0 148.5 -15.5t123.5 -52.5q66 45 68 115h268 q0 -78 -40 -147.5t-128 -114.5q61 -66 91 -164t30 -229q0 -264 -124.5 -416t-407.5 -152q-489 0 -490 484z" />
<glyph unicode="&#xe2f;" horiz-adv-x="1112" d="M27 801q0 160 90 251t250 91q29 0 67.5 -4t81.5 -21l-22 -194q-20 6 -35 8t-25 2q-49 0 -84 -31t-35 -96q0 -66 42 -104.5t122 -38.5q170 0 170 188v270h307v-1122h-307v508q-86 -76 -241 -76q-102 0 -189.5 40t-139.5 122t-52 207z" />
<glyph unicode="&#xe30;" horiz-adv-x="733" d="M82 295q0 72 41 147l223 -28q-10 -31 -10 -66q0 -29 16.5 -43t57.5 -14h231v-203h-305q-141 0 -197.5 62.5t-56.5 144.5zM82 868q0 72 41 148l223 -29q-10 -31 -10 -65q0 -29 16.5 -43.5t57.5 -14.5h231v-202h-305q-141 0 -197.5 62t-56.5 144z" />
<glyph unicode="&#xe31;" d="M-715 1473q0 78 41 149l223 -29q-10 -31 -10 -57q0 -29 17.5 -44t58.5 -15h440v-199h-516q-96 0 -151.5 28.5t-79 72.5t-23.5 94z" />
<glyph unicode="&#xe32;" horiz-adv-x="890" d="M41 842v245q45 20 127 41t192 21q113 0 200 -33t137.5 -109.5t50.5 -209.5v-797h-308v741q0 86 -40 125t-130 39q-68 0 -124 -18.5t-105 -44.5z" />
<glyph unicode="&#xe33;" horiz-adv-x="890" d="M-627 1436q0 96 70 149t186 53q117 0 187.5 -53t70.5 -149t-70.5 -149.5t-187.5 -53.5t-186.5 53t-69.5 150zM-463 1436q0 -39 24.5 -61.5t67.5 -22.5q45 0 70 22.5t25 61.5t-25 61.5t-70 22.5q-43 0 -67.5 -22.5t-24.5 -61.5zM41 842v245q45 20 127 41t192 21 q113 0 200 -33t137.5 -109.5t50.5 -209.5v-797h-308v741q0 86 -40 125t-130 39q-68 0 -124 -18.5t-105 -44.5z" />
<glyph unicode="&#xe34;" d="M-1100 1278v129l207 86h731v-215h-938z" />
<glyph unicode="&#xe35;" d="M-1100 1278v129l207 86h469v141h262v-356h-938z" />
<glyph unicode="&#xe36;" d="M-1100 1278v129l207 86h361q4 72 58 120t146 48q102 0 157.5 -54.5t55.5 -138.5q0 -82 -51 -136t-158 -54h-776zM-416 1468q0 -35 21.5 -58.5t66.5 -23.5q43 0 64.5 24t21.5 56q0 35 -23.5 58.5t-64.5 23.5t-63.5 -22.5t-22.5 -57.5z" />
<glyph unicode="&#xe37;" d="M-1098 1278v129l207 86h223v141h195v-141h121v141h192v-356h-938z" />
<glyph unicode="&#xe38;" d="M-524 -162q29 10 78 20.5t102 10.5q100 0 141 -40t41 -110v-254h-262v183q0 51 -45 51q-10 0 -20.5 -3t-20.5 -5z" />
<glyph unicode="&#xe39;" d="M-874 -152q27 12 72.5 16.5t74.5 4.5q88 0 129 -33t41 -92v-47q0 -35 15.5 -54.5t56.5 -19.5q43 0 59 19.5t16 54.5v166h250v-199q0 -102 -75.5 -154.5t-241.5 -52.5q-164 0 -240 49.5t-76 128.5v35q0 35 -18 42t-49 -1z" />
<glyph unicode="&#xe3a;" d="M-473 -268q0 76 43 116.5t121 40.5q76 0 119 -41t43 -116q0 -76 -43 -117t-119 -41q-78 0 -121 41t-43 117z" />
<glyph unicode="&#xe3f;" horiz-adv-x="1189" d="M137 74v1315h350v167h146v-170q215 -10 314.5 -89.5t99.5 -233.5q0 -115 -68 -193.5t-182 -97.5v-10q121 -20 200.5 -92t79.5 -219q0 -180 -121.5 -278.5t-322.5 -98.5v-195h-146v195h-350zM360 301h127v346h-127v-346zM360 864h127v301h-127v-301zM633 301q106 4 150 53 t44 125q0 66 -43 114t-151 54v-346zM633 866q92 6 129 48t37 108q0 127 -166 141v-297z" />
<glyph unicode="&#xe40;" horiz-adv-x="698" d="M174 242v880h307v-843q0 -76 72 -76q31 0 70 14l28 -197q-77 -40 -192 -40q-139 0 -212 64.5t-73 197.5z" />
<glyph unicode="&#xe41;" horiz-adv-x="1314" d="M174 242v880h307v-843q0 -76 72 -76q31 0 70 14l28 -197q-77 -40 -192 -40q-139 0 -212 64.5t-73 197.5zM790 242v880h307v-843q0 -76 72 -76q31 0 70 14l28 -197q-77 -40 -192 -40q-139 0 -212 64.5t-73 197.5z" />
<glyph unicode="&#xe42;" horiz-adv-x="714" d="M33 1481v123l207 98h522v-221h-344l-2 -8q104 -63 104 -256v-938q0 -76 72 -76q31 0 70 14l28 -197q-77 -40 -192 -40q-137 0 -211 64.5t-74 197.5v1009q0 123 -45 176.5t-135 53.5z" />
<glyph unicode="&#xe43;" horiz-adv-x="692" d="M47 1444v227q27 16 102.5 38t182.5 22q162 0 256 -68t94 -203q0 -84 -32 -144.5t-66 -107.5q-35 -45 -57.5 -74.5t-34 -61.5t-11.5 -81v-712q0 -76 70 -76q33 0 72 14l28 -197q-77 -40 -192 -40q-139 0 -212 64.5t-73 197.5v757q0 53 7 88t27.5 67t59.5 77q39 47 66.5 82 t27.5 80q0 47 -33.5 74.5t-105.5 27.5q-55 0 -98 -14.5t-78 -36.5z" />
<glyph unicode="&#xe44;" horiz-adv-x="710" d="M0 1481l57 221h652v-221q-76 0 -131.5 -49.5t-55.5 -180.5v-972q0 -76 72 -76q31 0 70 14l28 -197q-77 -40 -192 -40q-139 0 -212 64.5t-73 197.5v975q0 115 32 170t72 86l-2 8h-317z" />
<glyph unicode="&#xe45;" horiz-adv-x="890" d="M41 842v245q45 20 127 41t192 21q113 0 200 -33t137.5 -109.5t50.5 -209.5v-1231h-308v1175q0 86 -40 125t-130 39q-68 0 -124 -18.5t-105 -44.5z" />
<glyph unicode="&#xe46;" horiz-adv-x="1304" d="M125 774q0 203 84 289t219 86q78 0 136.5 -25.5t86.5 -81.5h6q27 55 86.5 81t141.5 26q76 0 138 -24.5t100 -90t38 -186.5v-1282h-307v1272q0 92 -74 92q-76 0 -75 -92v-68h-144v68q0 92 -76 92q-41 0 -60 -35t-19 -117q0 -90 23.5 -123.5t72.5 -33.5q33 0 63 12l53 -193 q-31 -23 -76.5 -38t-107.5 -15q-145 0 -227 97.5t-82 289.5z" />
<glyph unicode="&#xe47;" d="M-975 1509q0 84 36 138.5t93.5 81t122.5 26.5h516v-149h-463q-39 0 -65.5 -25t-26.5 -76q0 -39 16.5 -62.5t51.5 -23.5l94 88h41q6 -41 26.5 -67.5t57.5 -26.5q31 0 47 19.5t16 52.5v31h207v-41q0 -111 -56.5 -163t-150.5 -52q-125 0 -176 92l-102 -86q-129 0 -207 62.5 t-78 180.5z" />
<glyph unicode="&#xe48;" d="M-457 1278v465h283v-465h-283z" />
<glyph unicode="&#xe49;" d="M-793 1681q41 35 101.5 46.5t101.5 11.5q92 0 144.5 -44t52.5 -126q0 -53 -31 -94h313v-199h-669v102q27 8 62.5 22.5t62 38t26.5 62.5q0 29 -16.5 45.5t-40.5 16.5q-16 0 -34.5 -6.5t-33.5 -12.5z" />
<glyph unicode="&#xe4a;" d="M-926 1497q0 109 62.5 171.5t169.5 68.5l127 -78l114 78q137 -6 190.5 -60.5t53.5 -128.5q0 -47 -20 -84h159v-186h-417v131q25 8 43 27.5t18 54.5q0 39 -19.5 56.5t-37.5 19.5l-78 -45h-8l-76 45q-18 -2 -35.5 -19.5t-17.5 -54.5q0 -35 18 -56.5t49 -21.5q8 0 18.5 1 t22.5 5l15 -131q-14 -10 -49 -16t-70 -6q-109 0 -170.5 61.5t-61.5 167.5z" />
<glyph unicode="&#xe4b;" d="M-666 1421v178h144v144h246v-144h141v-178h-141v-143h-246v143h-144z" />
<glyph unicode="&#xe4c;" d="M-582 1397q0 86 51.5 146.5t194.5 60.5h297v-207h-197q-82 0 -81 -62q0 -29 16 -61l-242 -41q-16 29 -27.5 74t-11.5 90z" />
<glyph unicode="&#xe4d;" d="M-627 1436q0 96 70 149t186 53q117 0 187.5 -53t70.5 -149t-70.5 -149.5t-187.5 -53.5t-186.5 53t-69.5 150zM-463 1436q0 -39 24.5 -61.5t67.5 -22.5q45 0 70 22.5t25 61.5t-25 61.5t-70 22.5q-43 0 -67.5 -22.5t-24.5 -61.5z" />
<glyph unicode="&#xe4e;" d="M-592 1346q0 80 51.5 117.5t124.5 37.5q39 0 68 -10q-4 16 -4 35q0 74 55 107.5t127 33.5q27 0 63.5 -5t63.5 -17v-138q-14 6 -34.5 9.5t-37.5 3.5q-37 0 -60.5 -18.5t-23.5 -51.5q0 -27 15 -49l-76 -53q-14 14 -32.5 17t-31.5 3q-33 0 -48 -17.5t-15 -39.5q0 -20 12 -45 l-186 -31q-31 45 -31 111z" />
<glyph unicode="&#xe4f;" horiz-adv-x="1318" d="M123 467q0 238 129 364.5t407 126.5q279 0 409 -126.5t130 -364.5q0 -227 -130 -360.5t-409 -133.5t-407.5 133.5t-128.5 360.5zM342 467q0 -154 76.5 -237t238.5 -83t240 83t78 237q0 164 -78 240.5t-240 76.5t-238.5 -76.5t-76.5 -240.5zM457 467q0 102 47 155.5 t153 53.5t154.5 -53.5t48.5 -155.5q0 -94 -48.5 -152.5t-154.5 -58.5t-153 58.5t-47 152.5z" />
<glyph unicode="&#xe50;" horiz-adv-x="1161" d="M96 467q0 238 124 364.5t360 126.5t360.5 -126.5t124.5 -364.5q0 -227 -124.5 -360.5t-360.5 -133.5t-360 133.5t-124 360.5zM391 467q1 -262 189 -262t188 262q0 139 -47 199.5t-141 60.5q-96 0 -142.5 -60.5t-46.5 -199.5z" />
<glyph unicode="&#xe51;" horiz-adv-x="1091" d="M86 594q0 176 103.5 267t322.5 91q260 0 371.5 -126t111.5 -345q0 -147 -48 -262t-153.5 -180.5t-277.5 -65.5q-47 0 -92 6.5t-84 20.5v199q33 -12 98 -13q131 0 196.5 73t65.5 230q0 139 -48 192.5t-138 53.5q-156 0 -156 -129q0 -53 24 -80.5t64 -27.5q23 0 48 10 l43 -186q-27 -25 -76 -39.5t-101 -14.5q-127 0 -200.5 85t-73.5 241z" />
<glyph unicode="&#xe52;" horiz-adv-x="1318" d="M109 440v756h288v-731q0 -121 63.5 -191.5t215.5 -70.5t207 70.5t55 197.5v219q0 74 -43 74q-27 0 -37 -21.5t-12 -60.5h-78q-2 39 -12.5 60.5t-36.5 21.5q-45 0 -45 -102q0 -49 12 -77t47 -28q8 0 22.5 3t28.5 11l45 -151q-27 -16 -57.5 -26.5t-69.5 -10.5 q-111 0 -176 74.5t-65 216.5q0 125 50 199.5t157 74.5q53 0 94 -21.5t59 -66.5h6q39 88 166 88q88 0 151.5 -52t63.5 -179v-273q0 -145 -51 -251.5t-167.5 -163t-317.5 -56.5q-299 0 -431 124t-132 343z" />
<glyph unicode="&#xe53;" horiz-adv-x="1159" d="M96 479q0 248 74 360.5t219 112.5q57 0 106.5 -22.5t86.5 -87.5h6q23 63 84 86.5t125 23.5q248 0 247 -278v-674h-290v627q0 55 -18.5 71.5t-39.5 16.5q-27 0 -42 -18.5t-19 -73.5h-107q-4 57 -21.5 74.5t-35.5 17.5q-80 0 -80 -232q0 -143 29 -214.5t98 -71.5 q10 0 24.5 2t26.5 8l35 -201q-31 -10 -79 -18t-99 -8q-121 0 -193.5 62t-104.5 175t-32 262z" />
<glyph unicode="&#xe54;" horiz-adv-x="1099" d="M96 457q0 133 38 243.5t123 176t228 65.5h76q90 0 121 32t31 107v115h268v-180q0 -139 -72.5 -214t-224.5 -75h-66q-127 0 -177 -73.5t-50 -204.5q0 -123 41 -178.5t129 -55.5h55q-39 57 -38 158q0 227 241 227q94 0 150 -31l-39 -159q-8 4 -20.5 5t-20.5 1 q-72 0 -72 -92q0 -109 115 -109h67v-215h-475q-217 0 -322.5 112.5t-105.5 344.5z" />
<glyph unicode="&#xe55;" horiz-adv-x="1134" d="M96 461q0 176 60.5 293.5t187.5 154.5q-31 23 -50.5 56.5t-19.5 81.5q0 80 57.5 129t160.5 49q104 0 159.5 -51.5t55.5 -129.5q0 -37 -11.5 -65.5t-29.5 -46.5q80 8 101 49t21 139v76h232v-180q0 -139 -79 -214t-230 -75h-78q-137 0 -189.5 -73.5t-52.5 -204.5 q0 -123 43 -178.5t139 -55.5h56q-39 61 -39 158q0 227 241 227q45 0 84 -8t68 -23l-41 -159q-8 4 -20.5 5t-20.5 1q-72 0 -72 -92q0 -109 115 -109h68v-215h-473q-231 0 -337 112.5t-106 348.5zM422 1032q0 -31 18.5 -52.5t53.5 -21.5t54 21.5t19 52.5q0 29 -19.5 50.5 t-53.5 21.5q-35 0 -53.5 -21.5t-18.5 -50.5z" />
<glyph unicode="&#xe56;" horiz-adv-x="1077" d="M49 1196h252l64 -326q72 82 225 82q203 0 297 -131t94 -350q0 -236 -108.5 -367t-344.5 -131q-129 0 -230 44t-165 149l197 147q39 -55 81 -85.5t101 -30.5q92 0 133 69.5t41 200.5q0 139 -42 200.5t-120 61.5q-57 0 -97 -31.5t-42 -93.5h-215z" />
<glyph unicode="&#xe57;" horiz-adv-x="1536" d="M96 487q0 254 74 359.5t215 105.5q57 0 103.5 -22.5t78.5 -87.5h6q29 68 87.5 89t115.5 21q104 0 161.5 -55t57.5 -170v-518q70 0 108 41t38 166v780h282v-756q0 -133 -41 -219t-107.5 -134t-146 -67.5t-155.5 -19.5h-248v631q0 49 -14.5 66.5t-36.5 17.5 q-29 0 -42.5 -19.5t-17.5 -72.5h-94q-4 55 -18.5 73.5t-34.5 18.5q-43 0 -59.5 -56.5t-16.5 -169.5q0 -150 27.5 -221t97.5 -71q12 0 26.5 2t26.5 8l35 -201q-31 -10 -78 -18t-92 -8q-188 0 -263 135t-75 372z" />
<glyph unicode="&#xe58;" horiz-adv-x="1161" d="M96 449q0 137 37 248.5t130 178t257 66.5h70q78 0 104.5 28.5t26.5 104.5v121h285v-180q0 -139 -73 -214t-222 -75h-133q-106 0 -155.5 -70.5t-49.5 -189.5q0 -117 34.5 -165t71.5 -58l76 102h82q0 -70 22.5 -99.5t67.5 -29.5q96 0 96 109q0 49 -20.5 79.5t-36.5 47.5 l166 139q76 -51 107.5 -125t31.5 -170q0 -156 -77 -240t-212 -84q-88 0 -145 35t-78 113l-110 -139q-168 0 -260.5 114.5t-92.5 352.5z" />
<glyph unicode="&#xe59;" horiz-adv-x="1124" d="M96 487q0 252 78 358.5t244 106.5q141 0 200 -84q14 37 45 60.5t78 23.5h11q39 0 54 20.5t15 63.5v160h258v-203q0 -109 -45 -168t-131 -59h-29q-59 0 -78.5 -34t7.5 -109l221 -623h-268l-217 668q-10 35 -23.5 51t-38.5 16t-44 -19.5t-30.5 -73.5t-11.5 -157 q0 -143 27.5 -215.5t99.5 -72.5q10 0 24.5 2t26.5 8l35 -201q-31 -12 -79 -19t-93 -7q-186 0 -261 135t-75 372z" />
<glyph unicode="&#xe5a;" horiz-adv-x="1693" d="M27 801q0 160 90 251t250 91q29 0 67.5 -4t81.5 -21l-22 -194q-20 6 -34 8t-24 2q-51 0 -86 -31t-35 -96q0 -66 41 -104.5t125 -38.5q168 0 168 182v276h307v-444q39 -16 86 -16q84 0 136.5 54t52.5 154v252h307v-1122h-307v528q-37 -43 -88 -64.5t-109 -21.5 q-39 0 -78 11v-453h-307v510q-84 -78 -239 -78q-104 0 -191.5 40t-139.5 122t-52 207z" />
<glyph unicode="&#xe5b;" horiz-adv-x="1855" d="M102 545q0 152 76 248t250 96q147 0 220 -66.5t73 -183.5q0 -47 -11.5 -89t-31.5 -81l-180 59q6 14 11 34t5 40q0 39 -19.5 59.5t-52.5 20.5q-45 0 -62.5 -41t-17.5 -90q0 -104 50.5 -148.5t136.5 -44.5q143 0 200.5 101.5t49.5 273.5h186l86 -248l55 228h152l70 -201 l51 168h135l10 -37q12 -45 25.5 -82t39 -58.5t79.5 -21.5q20 0 34.5 4t24.5 9v-195q-18 -10 -39.5 -17.5t-54.5 -7.5q-143 0 -213 175l-35 -179h-125l-72 234l-53 -254h-158l-63 219q-18 -74 -63.5 -148.5t-132.5 -126t-230 -51.5q-203 0 -304.5 106.5t-101.5 295.5z" />
<glyph unicode="&#x2000;" horiz-adv-x="1062" />
<glyph unicode="&#x2001;" horiz-adv-x="2124" />
<glyph unicode="&#x2002;" horiz-adv-x="1062" />
<glyph unicode="&#x2003;" horiz-adv-x="2124" />
<glyph unicode="&#x2004;" horiz-adv-x="708" />
<glyph unicode="&#x2005;" horiz-adv-x="531" />
<glyph unicode="&#x2006;" horiz-adv-x="354" />
<glyph unicode="&#x2007;" horiz-adv-x="354" />
<glyph unicode="&#x2008;" horiz-adv-x="265" />
<glyph unicode="&#x2009;" horiz-adv-x="424" />
<glyph unicode="&#x200a;" horiz-adv-x="118" />
<glyph unicode="&#x200b;" />
<glyph unicode="&#x200c;" d="M-43 -272v1558h86v-1558h-86z" />
<glyph unicode="&#x200d;" d="M-223 1024l168 168l-168 166l53 55l170 -170l170 170l53 -55l-168 -166l168 -168l-53 -55l-127 127v-1368h-86v1368l-127 -127z" />
<glyph unicode="&#x2010;" horiz-adv-x="659" d="M61 424v250h537v-250h-537z" />
<glyph unicode="&#x2011;" horiz-adv-x="659" d="M61 424v250h537v-250h-537z" />
<glyph unicode="&#x2012;" horiz-adv-x="659" d="M61 424v250h537v-250h-537z" />
<glyph unicode="&#x2013;" horiz-adv-x="1146" d="M61 424v250h1024v-250h-1024z" />
<glyph unicode="&#x2014;" horiz-adv-x="2170" d="M61 424v250h2048v-250h-2048z" />
<glyph unicode="&#x202f;" horiz-adv-x="424" />
<glyph unicode="&#x205f;" horiz-adv-x="531" />
<glyph unicode="&#x25cc;" horiz-adv-x="1216" d="M98 596q0 23 16.5 38t37.5 15q20 0 36.5 -15.5t16.5 -37.5q0 -23 -16.5 -38t-36.5 -15t-37 15t-17 38zM135 424q0 23 16.5 38t36.5 15t37 -15.5t17 -37.5q0 -23 -17 -38t-37 -15t-36.5 15t-16.5 38zM135 768q0 23 16.5 38t36.5 15t37 -15t17 -38t-17 -38t-37 -15 t-36.5 15t-16.5 38zM231 272q0 23 15.5 38.5t38.5 15.5t38 -15.5t15 -38.5t-15 -38t-38 -15t-38.5 15.5t-15.5 37.5zM231 920q0 23 15.5 38t38.5 15t38 -15.5t15 -37.5q0 -23 -15 -38.5t-38 -15.5t-38.5 15.5t-15.5 38.5zM383 176q0 20 15.5 36.5t37.5 16.5q23 0 38 -16 t15 -37q0 -20 -15 -36.5t-38 -16.5t-38 16.5t-15 36.5zM383 1016q0 20 15.5 36.5t37.5 16.5q23 0 38 -16.5t15 -36.5t-15 -36.5t-38 -16.5t-38 16t-15 37zM555 139q0 20 15.5 37t37.5 17q23 0 38.5 -16.5t15.5 -37.5q0 -20 -15.5 -36.5t-38.5 -16.5t-38 16.5t-15 36.5z M555 1053q0 20 15.5 36.5t37.5 16.5q23 0 38.5 -16.5t15.5 -36.5t-15.5 -37t-38.5 -17t-38 16.5t-15 37.5zM727 176q0 20 15.5 36.5t37.5 16.5q23 0 38.5 -16t15.5 -37q0 -20 -15.5 -36.5t-38.5 -16.5t-38 16.5t-15 36.5zM727 1016q0 20 15.5 36.5t37.5 16.5 q23 0 38.5 -16.5t15.5 -36.5t-15.5 -36.5t-38.5 -16.5t-38 16t-15 37zM879 272q0 23 15 38.5t38 15.5t38 -15.5t15 -38.5t-15 -38t-38 -15t-38 15.5t-15 37.5zM879 920q0 23 15 38t38 15t38 -15.5t15 -37.5q0 -23 -15 -38.5t-38 -15.5t-38 15.5t-15 38.5zM975 424 q0 23 16.5 38t36.5 15t36.5 -15.5t16.5 -37.5q0 -23 -16.5 -38t-36.5 -15t-36.5 15t-16.5 38zM975 768q0 23 16.5 38t36.5 15t36.5 -15t16.5 -38t-16.5 -38t-36.5 -15t-36.5 15t-16.5 38zM1012 596q0 23 16 38t37 15q20 0 36.5 -15.5t16.5 -37.5q0 -23 -16.5 -38t-36.5 -15 t-36.5 15t-16.5 38z" />
<glyph unicode="&#x25fc;" horiz-adv-x="1024" d="M0 0z" />
<glyph horiz-adv-x="1280" d="M113 727v53q0 100 59 184.5t175 134.5t282 50q233 0 370.5 -107.5t137.5 -324.5v-1073h-308v1054q0 102 -54 153.5t-154 51.5q-96 0 -143.5 -40t-49.5 -97l178 -82l-20 -131q-76 -2 -115 -31.5t-39 -113.5v-134q0 -84 82 -84q41 0 72 13l28 -183q-77 -40 -192 -40 q-131 0 -210 64.5t-79 197.5v125q0 121 52.5 182t148.5 90l2 8z" />
<glyph horiz-adv-x="1304" d="M45 23l29 170q25 -8 53 -9q66 0 66 72v150q0 100 40.5 156t124.5 77l2 8l-223 80v53q0 100 57.5 184.5t171 134.5t283.5 50q236 0 374 -107.5t138 -324.5v-1073h-307v1054q0 102 -54.5 153.5t-154.5 51.5q-96 0 -143 -40t-49 -97l178 -80l-23 -133q-117 0 -116 -160v-172 q0 -131 -73 -186t-186 -55q-57 0 -104 11t-84 32z" />
<glyph horiz-adv-x="1304" d="M45 35l29 170q25 -8 53 -8q66 0 66 71v138q0 100 40.5 156t124.5 77l2 8l-223 80v53q0 100 57.5 184.5t171 134.5t283.5 50q236 0 374 -107.5t138 -324.5v-1073h-266q-45 57 -129 90t-156 33t-103.5 -29t-31.5 -76v-18h-289v34q0 150 89.5 224.5t246.5 74.5 q100 0 187.5 -27.5t144.5 -72.5v821q0 102 -54.5 153.5t-154.5 51.5q-96 0 -143 -40t-49 -97l178 -80l-23 -133q-117 0 -116 -160v-160q0 -131 -73 -186t-186 -55q-57 0 -104 12t-84 31z" />
<glyph horiz-adv-x="1304" d="M45 35l29 170q25 -8 53 -8q66 0 66 71v138q0 100 40.5 156t124.5 77l2 8l-223 80v53q0 100 57.5 184.5t171 134.5t283.5 50q236 0 374 -107.5t138 -324.5v-1073h-258l-141 106l-105 -106h-71q-20 43 -53 76.5t-80 33.5q-49 0 -65.5 -32.5t-16.5 -65.5v-12h-246v71 q0 96 35 149.5t93 76t130 22.5q84 0 142.5 -32.5t97.5 -98.5l116 107l115 -84v843q0 102 -54.5 153.5t-154.5 51.5q-96 0 -143 -40t-49 -97l178 -80l-23 -133q-117 0 -116 -160v-160q0 -131 -73 -186t-186 -55q-57 0 -104 12t-84 31z" />
<glyph horiz-adv-x="1867" d="M113 727v53q0 104 57 187.5t166.5 132.5t267.5 49q141 0 251 -44t172.5 -134t62.5 -228v-335q0 -100 45 -144.5t118 -44.5q74 0 119 44t45 145v714h307v-690q0 -238 -114.5 -348.5t-354.5 -110.5t-353.5 111t-113.5 348v283q0 109 -51 150.5t-133 41.5q-80 0 -126 -33.5 t-50 -101.5l178 -86l-20 -133q-76 -2 -115 -36t-39 -118v-125q0 -84 82 -84q41 0 72 13l28 -183q-78 -41 -192 -40q-131 0 -210 64.5t-79 197.5v133q0 121 52.5 178t148.5 86l2 8z" />
<glyph horiz-adv-x="1171" d="M84 805v256q68 35 170 61.5t240 26.5q90 0 164.5 -15.5t125.5 -52.5q68 45 70 115h268q0 -82 -43 -153.5t-139 -116.5q53 -53 84 -144.5t31 -226.5q0 -264 -128 -409.5t-427 -145.5h-260v471h-117v188h393v-426h14q100 0 156.5 82t56.5 248q0 190 -78.5 266t-232.5 76 q-109 0 -194.5 -29.5t-153.5 -70.5z" />
<glyph horiz-adv-x="1449" d="M63 1122h316l43 -471q8 -84 9 -179t1 -206h8q18 70 43 145.5t60 170.5l80 219h184l84 -217q27 -66 52.5 -149t51.5 -177h9q6 98 15 172t19 152l21 139q12 80 -13.5 121t-105.5 41h-113v190h168q80 0 103.5 31t29.5 92h295q0 -94 -48 -159.5t-163 -82.5v-8 q88 -29 114 -96.5t13 -144.5l-110 -705h-330l-102 305q-23 63 -41.5 125t-34.5 139h-8q-16 -78 -35 -138t-41 -124l-109 -307h-331z" />
<glyph d="M-1507 -156h1261v-211h-1261v211z" />
<glyph d="M-1135 1473q0 76 39 149l224 -29q-4 -14 -6.5 -29.5t-2.5 -27.5q0 -29 17.5 -44t58.5 -15h258v-199h-334q-96 0 -151 28.5t-79 72.5t-24 94z" />
<glyph d="M-426 1743v381h266v-381h-266z" />
<glyph d="M-852 1278v465h281v-465h-281z" />
<glyph d="M-565 2077q37 29 91 38t93 9q78 0 126 -32t48 -103q0 -18 -4 -38t-14 -36h241v-172h-563v84q20 6 50 18.5t52.5 31.5t22.5 52q0 23 -13.5 36t-33.5 13q-35 0 -59 -20z" />
<glyph d="M-1106 1681q41 35 101.5 46.5t101.5 11.5q92 0 144 -43t52 -129q0 -23 -7 -47.5t-23 -44.5h190v-199h-545v102q27 8 62 22.5t60.5 38t25.5 62.5q0 61 -57 62q-14 0 -33 -6.5t-33 -12.5z" />
<glyph d="M-680 1925q0 82 55.5 140.5t171.5 58.5l95 -74l88 74q94 0 156.5 -36t62.5 -112q0 -45 -21 -78h154v-155h-371v112q23 4 39.5 22.5t16.5 45.5q0 25 -13.5 42t-34.5 20l-73 -50h-11l-75 50q-20 0 -33.5 -17.5t-13.5 -46.5q0 -59 59 -59q18 0 35 6l12 -113 q-14 -10 -42.5 -15t-59.5 -5q-104 0 -150.5 56t-46.5 134z" />
<glyph d="M-1249 1497q0 111 57 172.5t152 67.5l106 -78l98 78q119 -6 169.5 -58.5t50.5 -128.5q0 -53 -19 -94h103v-178h-336v131q27 8 43 27.5t16 54.5q0 39 -17.5 58.5t-37.5 21.5l-64 -45h-8l-61 45q-23 -2 -39.5 -22.5t-16.5 -55.5q0 -31 16.5 -54.5t49.5 -23.5q8 0 18.5 1 t22.5 5l14 -131q-14 -10 -44.5 -16t-59.5 -6q-102 0 -157.5 61.5t-55.5 167.5z" />
<glyph d="M-553 1847v172h131v105h246v-105h133v-172h-133v-104h-246v104h-131z" />
<glyph d="M-520 1864q0 53 26.5 100t94 77t188.5 30h225v-181h-192q-100 0 -101 -75q0 -16 4.5 -36t14.5 -36l-213 -47q-25 37 -36 82t-11 86z" />
<glyph d="M-1053 1397q0 86 57.5 146.5t200.5 60.5h246v-207h-158q-84 0 -84 -62q0 -29 17 -61l-240 -41q-16 29 -27.5 74t-11.5 90z" />
<glyph d="M-1231 1509q0 125 68.5 185.5t158.5 60.5h455v-149h-407q-35 0 -59.5 -25t-24.5 -76q0 -37 15 -61.5t48 -24.5l76 88h43q2 -43 19.5 -68.5t50.5 -25.5q27 0 42 19.5t15 52.5v31h184v-41q0 -111 -51 -163t-135 -52q-109 0 -160 92l-80 -86q-119 0 -188.5 62.5t-69.5 180.5 z" />
<glyph d="M-1309 1278v129l168 86h594v-215h-762z" />
<glyph d="M-1309 1278v115l168 88h344v151h250v-354h-762z" />
<glyph d="M-1309 1278v115l168 88h232v4q0 76 52 127t146 51q96 0 150.5 -55.5t54.5 -139.5q0 -82 -50 -136t-153 -54h-600zM-799 1470q0 -35 21.5 -59.5t64.5 -24.5q41 0 62.5 24t21.5 58q0 37 -23.5 60.5t-62.5 23.5t-61.5 -23.5t-22.5 -58.5z" />
<glyph d="M-1309 1278v115l168 88h158v151h166v-151h102v151h166v-151h2v-203h-762z" />
<glyph d="M-627 1436q0 96 70 149t186 53q117 0 187.5 -53t70.5 -149t-70.5 -149.5t-187.5 -53.5t-186.5 53t-69.5 150zM-487 1743v381h266v-381h-266zM-463 1436q0 -39 24.5 -61.5t67.5 -22.5q45 0 70 22.5t25 61.5t-25 61.5t-70 22.5q-43 0 -67.5 -22.5t-24.5 -61.5z" />
<glyph d="M-627 1436q0 96 70 149t186 53q117 0 187.5 -53t70.5 -149t-70.5 -149.5t-187.5 -53.5t-186.5 53t-69.5 150zM-626 2077q37 29 91 38t93 9q78 0 126 -32t48 -103q0 -18 -4 -38t-14 -36h241v-172h-563v84q20 6 50 18.5t52.5 31.5t22.5 52q0 23 -13.5 36t-33.5 13 q-35 0 -59 -20zM-463 1436q0 -39 24.5 -61.5t67.5 -22.5q45 0 70 22.5t25 61.5t-25 61.5t-70 22.5q-43 0 -67.5 -22.5t-24.5 -61.5z" />
<glyph d="M-741 1925q0 82 55.5 140.5t171.5 58.5l95 -74l88 74q94 0 156.5 -36t62.5 -112q0 -45 -21 -78h154v-155h-371v112q23 4 39.5 22.5t16.5 45.5q0 25 -13.5 42t-34.5 20l-73 -50h-11l-75 50q-20 0 -33.5 -17.5t-13.5 -46.5q0 -59 59 -59q18 0 35 6l12 -113 q-14 -10 -42.5 -15t-59.5 -5q-104 0 -150.5 56t-46.5 134zM-627 1436q0 96 70 149t186 53q117 0 187.5 -53t70.5 -149t-70.5 -149.5t-187.5 -53.5t-186.5 53t-69.5 150zM-463 1436q0 -39 24.5 -61.5t67.5 -22.5q45 0 70 22.5t25 61.5t-25 61.5t-70 22.5q-43 0 -67.5 -22.5 t-24.5 -61.5z" />
<glyph d="M-627 1436q0 96 70 149t186 53q117 0 187.5 -53t70.5 -149t-70.5 -149.5t-187.5 -53.5t-186.5 53t-69.5 150zM-614 1847v172h131v105h246v-105h133v-172h-133v-104h-246v104h-131zM-463 1436q0 -39 24.5 -61.5t67.5 -22.5q45 0 70 22.5t25 61.5t-25 61.5t-70 22.5 q-43 0 -67.5 -22.5t-24.5 -61.5z" />
<glyph d="M-471 -628q0 76 43 116.5t121 40.5q76 0 119 -41t43 -116q0 -76 -43 -117t-119 -41q-78 0 -121 41t-43 117z" />
<glyph d="M-504 -514q29 10 78 20.5t102 10.5q100 0 141 -40t41 -110v-254h-262v183q0 51 -45 51q-10 0 -20.5 -3t-20.5 -5z" />
<glyph d="M-858 -527q27 12 72.5 16.5t74.5 4.5q88 0 129 -33t41 -92v-47q0 -35 15.5 -54.5t56.5 -19.5q43 0 59 19.5t16 54.5v166h250v-199q0 -102 -75.5 -154.5t-241.5 -52.5q-164 0 -240 49.5t-76 128.5v35q0 35 -18 42t-49 -1z" />
<glyph d="M-1081 1421v178h143v144h246v-144h141v-178h-141v-143h-246v143h-143z" />
<glyph d="M-1057 1436q0 96 70 149t186 53q117 0 187.5 -53t70.5 -149t-70.5 -149.5t-187.5 -53.5t-186.5 53t-69.5 150zM-893 1436q0 -39 24.5 -61.5t67.5 -22.5q45 0 70 22.5t25 61.5t-25 61.5t-70 22.5q-43 0 -67.5 -22.5t-24.5 -61.5z" />
<glyph d="M-955 1436q0 96 70 149t186 53q117 0 187.5 -53t70.5 -149t-70.5 -149.5t-187.5 -53.5t-186.5 53t-69.5 150zM-815 1743v381h266v-381h-266zM-791 1436q0 -39 24.5 -61.5t67.5 -22.5q45 0 70 22.5t25 61.5t-25 61.5t-70 22.5q-43 0 -67.5 -22.5t-24.5 -61.5z" />
<glyph d="M-953 1436q0 96 70 149t186 53q117 0 187.5 -53t70.5 -149t-70.5 -149.5t-187.5 -53.5t-186.5 53t-69.5 150zM-952 2077q37 29 91 38t93 9q78 0 126 -32t48 -103q0 -18 -4 -38t-14 -36h241v-172h-563v84q20 6 50 18.5t52.5 31.5t22.5 52q0 23 -13.5 36t-33.5 13 q-35 0 -59 -20zM-789 1436q0 -39 24.5 -61.5t67.5 -22.5q45 0 70 22.5t25 61.5t-25 61.5t-70 22.5q-43 0 -67.5 -22.5t-24.5 -61.5z" />
<glyph d="M-1069 1925q0 82 55.5 140.5t171.5 58.5l95 -74l88 74q94 0 156.5 -36t62.5 -112q0 -45 -21 -78h154v-155h-371v112q23 4 39.5 22.5t16.5 45.5q0 25 -13.5 42t-34.5 20l-73 -50h-11l-75 50q-20 0 -33.5 -17.5t-13.5 -46.5q0 -59 59 -59q18 0 35 6l12 -113 q-14 -10 -42.5 -15t-59.5 -5q-104 0 -150.5 56t-46.5 134zM-955 1436q0 96 70 149t186 53q117 0 187.5 -53t70.5 -149t-70.5 -149.5t-187.5 -53.5t-186.5 53t-69.5 150zM-791 1436q0 -39 24.5 -61.5t67.5 -22.5q45 0 70 22.5t25 61.5t-25 61.5t-70 22.5q-43 0 -67.5 -22.5 t-24.5 -61.5z" />
<glyph d="M-953 1436q0 96 70 149t186 53q117 0 187.5 -53t70.5 -149t-70.5 -149.5t-187.5 -53.5t-186.5 53t-69.5 150zM-940 1847v172h131v105h246v-105h133v-172h-133v-104h-246v104h-131zM-789 1436q0 -39 24.5 -61.5t67.5 -22.5q45 0 70 22.5t25 61.5t-25 61.5t-70 22.5 q-43 0 -67.5 -22.5t-24.5 -61.5z" />
</font>
</defs>
</svg>
