<?xml version="1.0" standalone="no"?>
<!DOCTYPE svg PUBLIC "-//W3C//DTD SVG 1.1//EN" "http://www.w3.org/Graphics/SVG/1.1/DTD/svg11.dtd" >
<svg xmlns="http://www.w3.org/2000/svg" xmlns:xlink="http://www.w3.org/1999/xlink" version="1.1">
<metadata></metadata>
<defs>
<font id="noto_sans_thairegular" horiz-adv-x="0" >
<font-face units-per-em="2048" ascent="1638" descent="-410" />
<missing-glyph horiz-adv-x="532" />
<glyph unicode="&#xe24;&#xe45;" horiz-adv-x="1929" d="M135 750v67q0 84 55.5 159t160 121t251.5 46q150 0 244 -49.5t141 -139.5h6q39 90 136.5 139.5t234.5 49.5q193 0 296 -100.5t103 -286.5v-1168h-182v1147q0 143 -73.5 199.5t-180.5 56.5q-106 0 -183 -59.5t-77 -204.5v-1139h-182v1131q0 150 -84 211t-205 61 q-127 0 -200.5 -52t-73.5 -132l233 -111l-16 -98q-76 0 -130.5 -47t-54.5 -156v-180q0 -86 84 -86q45 0 78 12l27 -131q-39 -18 -76 -24t-70 -6q-57 0 -109 18t-84 65.5t-32 131.5v198q0 127 54.5 184.5t142.5 79.5l2 7z" />
<glyph unicode="&#xe26;&#xe45;" horiz-adv-x="1931" d="M39 10l20 127q14 -4 33 -8t35 -4q61 0 61 82v190q0 127 47.5 182.5t135.5 77.5l2 7l-236 86v67q0 84 55.5 159t161 121t250.5 46q147 0 241.5 -49.5t143.5 -139.5h6q41 90 137.5 139.5t233.5 49.5q193 0 296 -100.5t103 -286.5v-1168h-182v1147q0 143 -74.5 199.5 t-181.5 56.5q-106 0 -182 -59.5t-76 -204.5v-1139h-182v1131q0 100 -39 159.5t-104.5 86t-145.5 26.5q-127 0 -200.5 -52t-73.5 -132l233 -111l-16 -98q-78 0 -124 -49t-46 -158v-198q0 -127 -55.5 -170t-135.5 -43q-37 0 -71.5 7t-69.5 23z" />
<glyph />
<glyph />
<glyph unicode="&#xd;" horiz-adv-x="532" />
<glyph unicode=" "  horiz-adv-x="532" />
<glyph unicode="&#x09;" horiz-adv-x="532" />
<glyph unicode="&#xa0;" horiz-adv-x="532" />
<glyph unicode="-" horiz-adv-x="659" d="M82 469v160h496v-160h-496z" />
<glyph unicode="&#xad;" horiz-adv-x="659" d="M82 469v160h496v-160h-496z" />
<glyph unicode="&#x2bc;" horiz-adv-x="358" d="M23 961q18 76 36.5 166t35 177t24.5 158h186l14 -22q-27 -109 -72.5 -240t-92.5 -239h-131z" />
<glyph unicode="&#x2d7;" horiz-adv-x="446" d="M25 512v106h397v-106h-397z" />
<glyph unicode="&#x303;" d="M-958 1241q12 121 67 191.5t148 70.5q55 0 107 -29.5t98 -58.5t87 -29q43 0 67 30t38 89h100q-12 -121 -67.5 -191.5t-145.5 -70.5q-53 0 -104 28.5t-98.5 58.5t-90.5 30q-45 0 -68.5 -30t-35.5 -89h-102z" />
<glyph unicode="&#x331;" d="M-823 -156h577v-145h-577v145z" />
<glyph unicode="&#xe01;" horiz-adv-x="1228" d="M135 750v67q0 84 55.5 159t158 121t247.5 46q125 0 231.5 -40t171 -125t64.5 -222v-756h-182v737q0 137 -84 195.5t-203 58.5q-127 0 -199.5 -52t-72.5 -132l221 -111l-17 -98q-76 0 -132 -50t-56 -159v-389h-182v389q0 129 57 187.5t145 80.5l2 7z" />
<glyph unicode="&#xe02;" horiz-adv-x="1120" d="M111 1090q37 25 91 35t95 10q113 0 161 -58.5t48 -148.5q0 -76 -25.5 -125t-60.5 -96q-35 -51 -57.5 -98.5t-22.5 -123.5v-120q0 -94 30.5 -145.5t82 -71t108.5 -19.5q211 0 211 197v796h182v-807q0 -158 -100 -246.5t-293 -88.5t-298 93t-105 279v125q0 100 28.5 160.5 t61.5 103.5q35 45 60.5 81t25.5 85q0 43 -21.5 61.5t-54.5 18.5q-25 0 -52.5 -8t-53.5 -21z" />
<glyph unicode="&#xe03;" horiz-adv-x="1124" d="M90 1079v43h160q0 -117 65 -116q20 0 46 8t47 24l38 84h101v-92q0 -59 -4 -104t-22.5 -87t-61.5 -98q-33 -41 -58.5 -72.5t-42 -74.5t-16.5 -115v-114q0 -96 30.5 -147.5t80 -70t104.5 -18.5q106 0 163.5 48t57.5 149v796h180v-807q0 -158 -103 -246.5t-298 -88.5 q-193 0 -295 94t-102 280v129q0 80 20.5 135.5t53 97.5t67.5 81q33 35 56.5 64.5t25.5 60.5l-6 4q-23 -16 -52.5 -27.5t-66.5 -11.5q-74 0 -121 50t-47 142z" />
<glyph unicode="&#xe04;" horiz-adv-x="1257" d="M166 0v717q0 205 109.5 315.5t353.5 110.5t353.5 -110.5t109.5 -315.5v-717h-183v717q0 274 -282 274q-279 0 -279 -274v-228l6 -2q45 80 110.5 105.5t184.5 25.5h68v-149h-68q-125 0 -189.5 -35t-88 -91t-23.5 -126v-217h-182z" />
<glyph unicode="&#xe05;" horiz-adv-x="1271" d="M166 0v858q0 145 72.5 215t197.5 70q72 0 124 -24.5t71 -82.5h8q20 57 71.5 82t123.5 25q127 0 199.5 -69.5t72.5 -215.5v-858h-182v854q0 78 -34 107.5t-85 29.5q-102 0 -115 -123h-115q-12 123 -118 123q-47 0 -80 -29.5t-33 -107.5v-365l6 -2q47 80 114.5 105.5 t186.5 25.5h68v-149h-68q-127 0 -191.5 -35t-88 -91t-23.5 -126v-217h-182z" />
<glyph unicode="&#xe06;" horiz-adv-x="1224" d="M90 1079v43h160q0 -117 65 -116q20 0 46 8t47 24l38 84h103v-92q0 -59 -6 -102t-26.5 -86t-65.5 -101q-33 -43 -59.5 -76.5t-43 -76.5t-16.5 -115v-18q0 -150 81 -236t224 -86q240 0 240 250v739h182v-751q0 -203 -101.5 -297t-275.5 -94q-139 0 -233.5 52t-129.5 146h-8 l-10 -178h-149v475q0 119 42 188.5t101 133.5q45 47 65.5 71.5t22.5 53.5l-6 4q-23 -16 -52.5 -27.5t-66.5 -11.5q-74 0 -121 50t-47 142z" />
<glyph unicode="&#xe07;" horiz-adv-x="1099" d="M0 1122h184l303 -964h25q49 0 96 23.5t80 60.5q61 68 90 171t29 203q0 170 -77 267.5t-212 97.5q-55 0 -94 -14l-45 145q43 12 81 16.5t68 4.5q201 0 322 -117q72 -70 105.5 -174.5t33.5 -231.5q0 -160 -49 -283.5t-123 -197.5q-59 -59 -145 -94t-219 -35h-103z" />
<glyph unicode="&#xe08;" horiz-adv-x="1089" d="M78 887v170q61 37 161.5 61.5t217.5 24.5q186 0 297.5 -68.5t161 -197.5t49.5 -314q0 -178 -48.5 -304t-156 -192.5t-287.5 -66.5h-172v500h-156v143h330v-496h27q137 0 206.5 95.5t69.5 322.5t-77.5 326.5t-266.5 99.5q-96 0 -185 -25.5t-171 -78.5z" />
<glyph unicode="&#xe09;" horiz-adv-x="1236" d="M166 356v285h180v-270q0 -113 59.5 -175.5t178.5 -62.5q145 0 225 91t80 241v184q0 133 -40 208t-115 104.5t-177 29.5q-98 0 -191.5 -24.5t-181.5 -79.5v170q57 35 164 60.5t232 25.5q260 0 375.5 -123t115.5 -358v-662h-149l-11 166h-8q-35 -84 -129 -135t-231 -51 q-174 0 -275.5 91t-101.5 285z" />
<glyph unicode="&#xe0a;" horiz-adv-x="1126" d="M111 1090q37 25 91 35t95 10q113 0 161 -58.5t48 -148.5q0 -76 -25.5 -125t-60.5 -96q-35 -51 -57.5 -98.5t-22.5 -123.5v-120q0 -94 30.5 -145.5t82 -71t110.5 -19.5q209 0 209 197v286q0 76 -35 116t-112 40h-9v117h11q84 0 118.5 39t42 94t7.5 104h182 q0 -109 -26.5 -185.5t-121.5 -109.5v-8q55 -16 82 -49t35 -75t8 -81v-299q0 -158 -98 -246.5t-293 -88.5t-300 93t-105 279v125q0 100 28.5 160.5t61.5 103.5q35 45 60.5 81t25.5 85q0 43 -21.5 61.5t-54.5 18.5q-25 0 -52.5 -8t-53.5 -21z" />
<glyph unicode="&#xe0b;" horiz-adv-x="1138" d="M90 1079v43h160q0 -117 65 -116q20 0 46 8t47 24l38 84h101v-92q0 -59 -4 -104t-22.5 -87t-61.5 -98q-33 -41 -56.5 -71.5t-38 -69.5t-14.5 -102v-133q0 -98 31 -148.5t80 -69t104 -18.5q106 0 163.5 48t57.5 149v286q0 156 -149 156h-8v117h10q82 0 118 39t43 94t7 104 h182q0 -109 -28.5 -183.5t-118.5 -107.5v-8q76 -23 101.5 -82t25.5 -147v-279q0 -158 -104.5 -246.5t-299.5 -88.5q-193 0 -295 94t-102 280v129q0 119 41 186.5t92 127.5q31 35 55.5 64.5t26.5 60.5l-6 4q-23 -16 -52.5 -27.5t-66.5 -11.5q-74 0 -121 50t-47 142z" />
<glyph unicode="&#xe0c;" horiz-adv-x="1855" d="M135 750v67q0 88 54.5 162t153.5 119t237 45q115 0 217 -38t165.5 -123t63.5 -224v-291q0 -152 77 -243t197 -91q96 0 151.5 55.5t55.5 178.5v755h183v-768q0 -203 -97.5 -288.5t-253.5 -85.5q-111 0 -200.5 52t-126.5 146h-8l-9 -178h-151v737q0 98 -37 153.5t-98.5 78 t-130.5 22.5q-113 0 -183.5 -48t-72.5 -136l233 -111l-16 -98q-76 0 -130.5 -47t-54.5 -156v-180q0 -86 86 -86q43 0 76 12l27 -131q-39 -18 -76 -24t-70 -6q-57 0 -109 18t-84 65.5t-32 131.5v198q0 127 54.5 184.5t142.5 79.5l2 7z" />
<glyph unicode="&#xe0d;" horiz-adv-x="1861" d="M135 750v67q0 90 54.5 164t153.5 118t232 44q113 0 214.5 -37t165 -122t63.5 -226v-371q0 -121 56 -176t149 -55q125 0 200.5 90t75.5 241v635h182v-1020q0 -229 -117.5 -343.5t-338.5 -114.5q-84 0 -169 17t-161 52v176q63 -43 153.5 -64.5t172.5 -21.5t145.5 25 t100 89.5t36.5 180.5v54h-8q-41 -66 -121 -108t-194 -42q-98 0 -176 37t-123 119t-45 215v366q0 98 -37 152.5t-97.5 77t-128.5 22.5q-109 0 -179 -47t-72 -137l233 -111l-16 -98q-76 0 -130.5 -47t-54.5 -156v-180q0 -86 84 -86q45 0 78 12l27 -131q-39 -18 -76 -24t-70 -6 q-57 0 -109 18t-84 65.5t-32 131.5v198q0 127 54.5 184.5t142.5 79.5l2 7z" />
<glyph unicode="&#xe0e;" horiz-adv-x="1234" d="M39 10l20 129q14 -4 33 -8t35 -4q61 0 61 80v190q0 127 47.5 182.5t135.5 77.5l2 7l-236 86v67q0 84 54.5 159t159 121t249.5 46q125 0 232.5 -40t172 -125t64.5 -222v-1168h-143q-33 35 -90.5 69t-127 54.5t-139.5 20.5q-90 0 -131 -38t-41 -85v-21h-186v35 q0 119 83 189.5t241 70.5q111 0 201.5 -32.5t150.5 -77.5v964q0 137 -85 195.5t-204 58.5q-127 0 -200.5 -52t-73.5 -132l233 -111l-16 -98q-78 0 -124 -49t-46 -158v-198q0 -125 -55.5 -168t-135.5 -43q-76 0 -141 28z" />
<glyph unicode="&#xe0f;" horiz-adv-x="1234" d="M39 10l20 129q14 -4 33 -8t35 -4q61 0 61 80v190q0 127 47.5 182.5t135.5 77.5l2 7l-236 86v67q0 84 54.5 159t159 121t249.5 46q125 0 232.5 -40t172 -125t64.5 -222v-1168h-164l-151 115l-125 -115h-47q-27 55 -63 94t-91 39t-77.5 -37.5t-22.5 -76.5v-19h-172v52 q0 106 71.5 165.5t167.5 59.5q94 0 145.5 -35t77.5 -86l132 111l137 -103v985q0 137 -85 195.5t-204 58.5q-127 0 -200.5 -52t-73.5 -132l233 -111l-16 -98q-78 0 -124 -49t-46 -158v-198q0 -125 -55.5 -168t-135.5 -43q-76 0 -141 28z" />
<glyph unicode="&#xe10;" horiz-adv-x="1120" d="M70 887v170q61 37 161.5 61.5t217.5 24.5q193 0 292 -78q47 12 86 44t39 87h178q0 -92 -59 -149.5t-145 -77.5q63 -68 89.5 -170.5t26.5 -235.5q0 -178 -48 -304t-155.5 -192.5t-287.5 -66.5h-172v500h-156v143h330v-496h27q137 0 206.5 95.5t69.5 322.5t-78 326.5 t-266 99.5q-96 0 -185 -25.5t-171 -78.5zM84 -362q0 109 67.5 167t155.5 58q82 0 131 -35t76 -84l121 111l143 -109v148h164v-306h-172l-135 115l-117 -115h-39q-23 55 -57.5 94t-85.5 39q-53 0 -71.5 -37.5t-18.5 -76.5v-19h-162v50z" />
<glyph unicode="&#xe11;" horiz-adv-x="1282" d="M90 1079v43h160q0 -66 15.5 -91t51.5 -25q18 0 38 7t36 25l39 84h94v-149h8q63 100 138 135t153 35q160 0 226.5 -84t66.5 -215v-844h-182v809q0 92 -37 135t-104 43q-72 0 -139.5 -47t-149.5 -149q-47 -57 -74 -104.5t-37 -106t-10 -150.5v-430h-182v438q0 127 16 202 t68 134q43 49 62.5 73.5t26.5 39t9 35.5l-6 4q-23 -16 -52.5 -27.5t-66.5 -11.5q-74 0 -121 50t-47 142z" />
<glyph unicode="&#xe12;" horiz-adv-x="1849" d="M129 575q0 211 38 335t107.5 178.5t167.5 54.5q68 0 116 -24.5t69 -82.5h8q20 57 70.5 82t117.5 25q117 0 187.5 -72t70.5 -215v-389q0 -152 76 -243t201 -91q90 0 146.5 55.5t56.5 178.5v755h182v-768q0 -135 -44 -218t-121 -119.5t-173 -36.5q-131 0 -217 55t-121 143 h-8l-10 -178h-150v854q0 78 -29.5 107.5t-74.5 29.5q-98 0 -111 -123h-113q-8 72 -37.5 97.5t-68.5 25.5q-51 0 -85 -38t-51.5 -127t-17.5 -244q0 -145 21.5 -245.5t79 -153t166.5 -52.5q39 0 65.5 4t50.5 10l19 -139q-33 -14 -74 -20t-86 -6q-168 0 -259 74.5t-128 208.5 t-37 312z" />
<glyph unicode="&#xe13;" horiz-adv-x="1861" d="M135 750v67q0 90 54.5 164t153.5 118t232 44q113 0 214.5 -37t165 -122t63.5 -226v-391q0 -123 56 -178.5t151 -55.5q123 0 198.5 91t75.5 243v655h182v-1122h-149l-10 178h-11q-35 -94 -124 -146t-199 -52q-156 0 -254 86t-98 286v387q0 98 -37 152.5t-97.5 77 t-128.5 22.5q-109 0 -179 -47t-72 -137l233 -111l-16 -98q-76 0 -130.5 -47t-54.5 -156v-180q0 -86 86 -86q43 0 76 12l27 -131q-39 -18 -76 -24t-70 -6q-57 0 -109 18t-84 65.5t-32 131.5v198q0 127 54.5 184.5t142.5 79.5l2 7z" />
<glyph unicode="&#xe14;" horiz-adv-x="1261" d="M123 553q0 231 63.5 359t176 179.5t264.5 51.5q246 0 357.5 -106.5t111.5 -288.5v-748h-181v731q0 125 -63.5 192.5t-218.5 67.5q-96 0 -170 -34.5t-116 -129t-42 -276.5q0 -119 23.5 -214t83 -150.5t166.5 -55.5q31 0 57.5 4t50.5 12l19 -141q-33 -14 -75 -20t-81 -6 q-164 0 -257 76.5t-131 206.5t-38 290z" />
<glyph unicode="&#xe15;" horiz-adv-x="1302" d="M129 584q0 299 85 429t245 130q72 0 122 -24.5t70 -82.5h8q20 57 73.5 82t125.5 25q133 0 206 -72t73 -215v-856h-183v854q0 80 -34.5 108.5t-88.5 28.5q-59 0 -86.5 -28.5t-33.5 -94.5h-115q-8 72 -43 97.5t-78 25.5q-82 0 -123 -96t-41 -313q0 -141 21.5 -242.5 t81 -155t172.5 -53.5q41 0 67.5 4t51.5 10l18 -139q-31 -14 -74 -20t-86 -6q-172 0 -266 78.5t-131 215t-37 310.5z" />
<glyph unicode="&#xe16;" horiz-adv-x="1232" d="M135 750v67q0 84 55.5 159t159 121t248.5 46q127 0 233.5 -40t171 -125t64.5 -222v-756h-182v737q0 137 -84 195.5t-205 58.5q-127 0 -200.5 -52t-73.5 -132l233 -111l-16 -98q-76 -2 -130.5 -38t-54.5 -144v-201q0 -86 86 -86q43 0 76 12l27 -131q-39 -18 -76 -24 t-70 -6q-57 0 -109 18t-84 65.5t-32 131.5v198q0 127 54.5 184.5t142.5 79.5l2 7z" />
<glyph unicode="&#xe17;" horiz-adv-x="1247" d="M172 0v1122h127l33 -178h8q35 92 127 145.5t223 53.5q182 0 286.5 -94.5t104.5 -298.5v-750h-182v739q0 250 -244 250q-96 0 -163.5 -45t-102.5 -122t-35 -173v-649h-182z" />
<glyph unicode="&#xe18;" horiz-adv-x="1114" d="M129 868q0 131 102.5 203t327.5 72q141 0 238.5 -22.5t144.5 -45.5v-162q-53 29 -161.5 54.5t-239.5 25.5q-106 0 -168 -24.5t-62 -85.5q0 -63 77 -95t212 -69q82 -23 156.5 -49.5t133 -67.5t92.5 -105.5t34 -162.5q0 -162 -105.5 -258t-351.5 -96q-129 0 -226 22.5 t-167 50.5v467h170v-354q29 -14 91 -26.5t134 -12.5q70 0 132.5 15.5t102.5 60.5t40 129q0 78 -39 117.5t-115 65.5t-186 60q-127 39 -208 75t-120 86t-39 132z" />
<glyph unicode="&#xe19;" horiz-adv-x="1255" d="M166 373v749h182v-739q0 -250 244 -250q143 0 222 92t79 248v649h182v-1122h-151l-9 166h-10q-37 -84 -128 -135t-224 -51q-180 0 -283.5 94t-103.5 299z" />
<glyph unicode="&#xe1a;" horiz-adv-x="1236" d="M166 406v716h182v-719q0 -272 268 -272q139 0 206 67.5t67 204.5v719h182v-716q0 -205 -105.5 -315.5t-349.5 -110.5q-242 0 -346 110.5t-104 315.5z" />
<glyph unicode="&#xe1b;" horiz-adv-x="1239" d="M166 406v716h182v-719q0 -272 268 -272q139 0 206 67.5t67 204.5v1123h182v-1120q0 -205 -105.5 -315.5t-349.5 -110.5q-242 0 -346 110.5t-104 315.5z" />
<glyph unicode="&#xe1c;" horiz-adv-x="1327" d="M176 0v924q0 88 35 135t90 65.5t119 18.5q23 0 58.5 -6.5t62.5 -18.5l-23 -137q-20 6 -40.5 9t-33.5 3q-51 0 -70.5 -24.5t-19.5 -69.5v-317q0 -63 -1 -132t-7 -165h8q39 88 75 149.5t67 114.5l108 184h115l108 -184q47 -82 80 -141.5t62 -122.5h8q-6 96 -7 164.5 t-1 132.5v540h178v-1122h-162l-317 537h-9l-321 -537h-162z" />
<glyph unicode="&#xe1d;" horiz-adv-x="1335" d="M176 0v924q0 88 35 135t90 65.5t119 18.5q23 0 58.5 -6.5t62.5 -18.5l-23 -137q-20 6 -40.5 9t-33.5 3q-51 0 -70.5 -24.5t-19.5 -69.5v-317q0 -63 -1 -132t-7 -165h8q39 88 75 149.5t67 114.5l108 184h115l108 -184q47 -82 80 -141.5t62 -122.5h8q-6 96 -7 164.5 t-1 132.5v944h180v-1526h-164l-317 537h-9l-321 -537h-162z" />
<glyph unicode="&#xe1e;" horiz-adv-x="1423" d="M84 1122h186l80 -487q10 -59 20.5 -153.5t24.5 -223.5h6q27 131 52.5 225.5t44.5 157.5l137 481h149l140 -481q18 -63 42.5 -157.5t53.5 -225.5h8q12 129 22.5 223t20.5 154l82 487h186l-202 -1122h-179l-188 610q-16 51 -28.5 106.5t-24.5 145.5h-8 q-14 -90 -29.5 -146.5t-30.5 -105.5l-184 -610h-178z" />
<glyph unicode="&#xe1f;" horiz-adv-x="1396" d="M84 1122h186l72 -487q2 -20 9 -81.5t16.5 -141.5t17.5 -154h10q14 84 39 179t55 204l140 481h147l139 -481q31 -109 54.5 -204t40.5 -179h8q12 125 21.5 221t17.5 156l117 891h180l-226 -1526h-180l-186 610q-14 43 -26.5 102.5t-26.5 149.5h-9q-16 -90 -28.5 -146.5 t-28.5 -105.5l-186 -610h-178z" />
<glyph unicode="&#xe20;" horiz-adv-x="1234" d="M39 10l20 127q14 -4 33 -8t35 -4q61 0 61 82v190q0 127 47.5 182.5t135.5 77.5l2 7l-236 86v67q0 84 54.5 159t159 121t249.5 46q125 0 232.5 -40t172 -125t64.5 -222v-756h-182v737q0 137 -85 195.5t-204 58.5q-127 0 -200.5 -52t-73.5 -132l233 -111l-16 -98 q-78 0 -124 -49t-46 -158v-198q0 -127 -55.5 -170t-135.5 -43q-37 0 -71.5 7t-69.5 23z" />
<glyph unicode="&#xe21;" horiz-adv-x="1257" d="M182 0v1122h183v-649q0 -156 79.5 -248t225.5 -92q240 0 239 250v739h183v-751q0 -203 -101.5 -297t-283.5 -94q-133 0 -227.5 52t-129.5 146h-8l-10 -178h-150z" />
<glyph unicode="&#xe22;" horiz-adv-x="1216" d="M139 856q0 70 33 134.5t106.5 105.5t194.5 41q49 0 102.5 -7.5t81.5 -23.5l-32 -141q-23 8 -59 15t-74 7q-86 0 -127 -40t-41 -105q0 -72 35.5 -109t92 -50t117.5 -13h39v-133h-39q-123 0 -181 -45.5t-58 -145.5q0 -59 23.5 -108.5t82 -78t162.5 -28.5q156 0 213 63.5 t57 178.5v749h183v-737q0 -215 -110 -309t-343 -94q-250 0 -351.5 94t-101.5 254q0 94 28 150.5t70 83t87 34.5v8q-43 12 -87 41t-74 80t-30 129z" />
<glyph unicode="&#xe23;" horiz-adv-x="999" d="M82 59l53 148q66 -27 157 -51.5t193 -24.5q109 0 180.5 41t71.5 119q0 70 -57 115t-184 83q-131 41 -219.5 87.5t-134.5 110t-46 161.5q0 127 104.5 211t334.5 84q98 0 185 -17.5t136 -48.5v-153q-53 25 -142 47t-186 22q-139 0 -194 -42t-55 -95q0 -45 25.5 -75.5 t88 -59.5t168.5 -66q98 -33 180 -75.5t130.5 -107t48.5 -165.5q0 -86 -42 -160.5t-138.5 -120.5t-258.5 -46q-121 0 -224 23.5t-175 55.5z" />
<glyph unicode="&#xe24;" horiz-adv-x="1232" d="M135 750v67q0 84 55.5 159t159 121t248.5 46q127 0 233.5 -40t171 -125t64.5 -222v-1168h-182v1149q0 137 -84 195.5t-205 58.5q-127 0 -200.5 -52t-73.5 -132l233 -111l-16 -98q-76 -2 -130.5 -38t-54.5 -144v-201q0 -86 86 -86q43 0 76 12l27 -131q-39 -18 -76 -24 t-70 -6q-57 0 -109 18t-84 65.5t-32 131.5v198q0 127 54.5 184.5t142.5 79.5l2 7z" />
<glyph unicode="&#xe25;" horiz-adv-x="1169" d="M100 301q0 170 124 262t403 109l196 12v64q0 133 -60.5 189t-201.5 56q-102 0 -196.5 -27.5t-176.5 -76.5v170q57 31 160 57.5t230 26.5q215 0 320.5 -93.5t105.5 -291.5v-758h-181v532l-172 -12q-209 -14 -287.5 -65.5t-78.5 -149.5q0 -92 58 -135t163 -43q68 0 119 18 l28 -137q-39 -16 -85 -22t-97 -6q-180 0 -275.5 82.5t-95.5 238.5z" />
<glyph unicode="&#xe26;" horiz-adv-x="1234" d="M39 10l20 127q14 -4 33 -8t35 -4q61 0 61 82v190q0 127 47.5 182.5t135.5 77.5l2 7l-236 86v67q0 84 54.5 159t159 121t249.5 46q125 0 232.5 -40t172 -125t64.5 -222v-1168h-182v1149q0 137 -85 195.5t-204 58.5q-127 0 -200.5 -52t-73.5 -132l233 -111l-16 -98 q-78 0 -124 -49t-46 -158v-198q0 -127 -55.5 -170t-135.5 -43q-37 0 -71.5 7t-69.5 23z" />
<glyph unicode="&#xe27;" horiz-adv-x="1007" d="M78 57l57 140q45 -27 102.5 -46.5t133.5 -19.5q152 0 236.5 110.5t84.5 323.5q0 207 -87 316.5t-267 109.5q-66 0 -133.5 -14t-118.5 -43v153q57 31 129 43.5t143 12.5q184 0 299 -73t168.5 -203t53.5 -302q0 -270 -122 -427.5t-366 -157.5q-80 0 -154.5 16t-158.5 61z " />
<glyph unicode="&#xe28;" horiz-adv-x="1286" d="M166 0v717q0 205 109.5 315.5t353.5 110.5q88 0 156.5 -15.5t117.5 -52.5q39 14 67.5 44t28.5 77h179q0 -82 -47.5 -136t-118.5 -81q43 -43 61.5 -110.5t18.5 -151.5v-717h-183v717q0 274 -280 274q-281 0 -281 -274v-228l6 -2q47 80 111.5 105.5t183.5 25.5h68v-149h-68 q-125 0 -189.5 -35t-88 -91t-23.5 -126v-217h-182z" />
<glyph unicode="&#xe29;" horiz-adv-x="1310" d="M166 416v706h182v-708q0 -143 67.5 -213t217.5 -70t217.5 69.5t67.5 213.5v49h-160q-131 0 -179.5 55t-48.5 123q0 31 7.5 63.5t23.5 55.5l148 -27q-12 -25 -13 -59q0 -27 15.5 -49.5t54.5 -22.5h152v520h182v-520h131v-139h-131v-47q0 -209 -106.5 -322.5t-360.5 -113.5 t-360.5 113.5t-106.5 322.5z" />
<glyph unicode="&#xe2a;" horiz-adv-x="1171" d="M100 301q0 170 124 262t403 109l196 12v64q0 133 -60.5 189t-201.5 56q-102 0 -196.5 -27.5t-176.5 -76.5v170q57 31 160 57.5t230 26.5q82 0 146 -14.5t107 -49.5q35 16 59.5 45t24.5 72h179q0 -78 -44 -131t-112 -82q35 -37 50.5 -94.5t15.5 -130.5v-758h-181v532 l-172 -12q-209 -14 -287.5 -65.5t-78.5 -149.5q0 -92 58 -135t163 -43q68 0 119 18l28 -137q-39 -16 -85 -22t-97 -6q-180 0 -275.5 82.5t-95.5 238.5z" />
<glyph unicode="&#xe2b;" horiz-adv-x="1202" d="M182 0v1122h183v-485h6l467 485h213v-6l-330 -334q166 -14 253 -115.5t87 -267.5v-399h-182v395q0 115 -67 182.5t-222 73.5l-225 -229v-422h-183z" />
<glyph unicode="&#xe2c;" horiz-adv-x="1368" d="M84 1122h184l66 -530q8 -61 19.5 -150.5t13.5 -210.5h8q33 121 54.5 192t47.5 142l133 367h138l135 -367q25 -68 48 -140.5t54 -193.5h10q0 78 9.5 173.5t25.5 187.5l45 244q27 139 -29.5 201.5t-195.5 62.5h-94v133h166q143 0 195 58.5t52 160.5v10h185v-10 q0 -117 -50.5 -200t-173.5 -107v-6q61 -27 90 -75t35.5 -103.5t-2.5 -104.5l-151 -856h-178l-156 451q-31 88 -49.5 151.5t-36.5 157.5h-8q-18 -100 -35.5 -168t-44.5 -143l-160 -449h-176z" />
<glyph unicode="&#xe2d;" horiz-adv-x="1175" d="M123 459q0 41 3 89t7 95h430v-143h-258v-41q0 -131 28.5 -203t85 -100.5t140.5 -28.5q92 0 159.5 35t104.5 127t37 264q0 225 -76.5 331.5t-265.5 106.5q-98 0 -187 -25.5t-171 -72.5v170q61 33 161.5 56.5t219.5 23.5q180 0 291.5 -73t163 -205t51.5 -312t-47.5 -309 t-153 -196.5t-283.5 -67.5q-221 0 -330.5 114.5t-109.5 364.5z" />
<glyph unicode="&#xe2e;" horiz-adv-x="1146" d="M123 459q0 41 3 89t7 95h430v-143h-258v-41q0 -131 28.5 -203t85 -100.5t140.5 -28.5q92 0 159.5 35t104.5 127t37 264q0 225 -77.5 331.5t-264.5 106.5q-195 0 -358 -98v170q61 33 161.5 56.5t219.5 23.5q82 0 150.5 -16.5t121.5 -55.5q41 14 73 45t32 80h178 q0 -84 -50.5 -139.5t-123.5 -79.5q68 -66 96.5 -176.5t28.5 -249.5q0 -180 -47.5 -308t-153 -195.5t-283.5 -67.5q-221 0 -330.5 114.5t-109.5 364.5z" />
<glyph unicode="&#xe2f;" horiz-adv-x="1062" d="M37 817q0 150 84 238t229 88q29 0 65 -4t77 -21l-27 -137q-27 10 -47.5 12t-34.5 2q-68 0 -116 -45t-48 -141q0 -100 57.5 -153.5t163.5 -53.5q125 0 182.5 63.5t57.5 208.5v248h182v-1122h-182v545q-86 -90 -264 -90q-166 0 -272.5 91t-106.5 271z" />
<glyph unicode="&#xe30;" horiz-adv-x="692" d="M80 307q0 70 33 119l153 -25q-4 -10 -9 -28.5t-5 -36.5q0 -27 14.5 -44.5t52.5 -17.5h293v-143h-299q-127 0 -180 54.5t-53 121.5zM80 881q0 70 33 118l153 -24q-4 -10 -9 -28.5t-5 -37.5q0 -27 14.5 -44t52.5 -17h293v-143h-299q-127 0 -180 54t-53 122z" />
<glyph unicode="&#xe31;" d="M-678 1470q0 31 9.5 67t23.5 58l153 -26q-12 -25 -12 -64q0 -27 16.5 -46t55.5 -19h518v-140h-528q-129 0 -182.5 52.5t-53.5 117.5z" />
<glyph unicode="&#xe32;" horiz-adv-x="831" d="M20 918v163q41 20 117 41t180 21q160 0 254.5 -72t94.5 -248v-823h-183v797q0 100 -46 147t-154 47q-74 0 -138.5 -20.5t-124.5 -52.5z" />
<glyph unicode="&#xe33;" horiz-adv-x="831" d="M-549 1436q0 88 59.5 136t161.5 48t164 -48t62 -136t-62 -136.5t-164 -48.5t-161.5 48.5t-59.5 136.5zM-426 1436q0 -39 25.5 -63.5t72.5 -24.5q49 0 75 24.5t26 63.5t-26 63.5t-75 24.5q-47 0 -72.5 -24.5t-25.5 -63.5zM20 918v163q41 20 117 41t180 21q160 0 254.5 -72 t94.5 -248v-823h-183v797q0 100 -46 147t-154 47q-74 0 -138.5 -20.5t-124.5 -52.5z" />
<glyph unicode="&#xe34;" d="M-1053 1300v80l150 66h721v-146h-871z" />
<glyph unicode="&#xe35;" d="M-1053 1300v80l150 66h551v166h172v-232h-2v-80h-871z" />
<glyph unicode="&#xe36;" d="M-1053 1300v80l150 66h366q-2 10 -2 22q0 76 50.5 123t138.5 47q90 0 142 -48t52 -124q0 -70 -47 -118t-137 -48h-713zM-434 1470q0 -33 21.5 -57t66.5 -24q41 0 63.5 22.5t22.5 56.5q0 35 -23.5 57.5t-64.5 22.5t-63.5 -22.5t-22.5 -55.5z" />
<glyph unicode="&#xe37;" d="M-1053 1300v80l150 66h272v166h152v-166h147v166h150v-312h-871z" />
<glyph unicode="&#xe38;" d="M-449 -152q31 10 67 15.5t58 5.5q70 0 105 -35t35 -92v-277h-162v218q0 51 -45 51q-10 0 -21.5 -2t-21.5 -6z" />
<glyph unicode="&#xe39;" d="M-795 -143q29 8 56.5 10t42.5 2q74 0 105.5 -33t31.5 -92v-70q0 -39 24.5 -65.5t83.5 -26.5q61 0 85 26.5t24 65.5v189h160v-199q-1 -207 -267 -207q-133 0 -200.5 52.5t-67.5 148.5v35q0 33 -17.5 41t-47.5 0z" />
<glyph unicode="&#xe3a;" d="M-422 -268q0 133 139 133q66 0 103 -35t37 -98t-37 -98t-103 -35q-139 0 -139 133z" />
<glyph unicode="&#xe3f;" horiz-adv-x="1196" d="M162 74v1312h358v170h125v-172q203 -14 305.5 -89.5t102.5 -233.5q0 -117 -65.5 -193.5t-188.5 -97.5v-8q84 -14 151.5 -49t107.5 -99.5t40 -167.5q0 -178 -124 -275t-329 -97v-193h-125v193h-358zM338 229h182v451h-182v-451zM338 838h182v391h-182v-391zM645 231 q143 8 200.5 73t57.5 159q0 88 -57.5 146.5t-200.5 68.5v-447zM645 840q125 10 172 61t47 139q0 162 -219 185v-385z" />
<glyph unicode="&#xe40;" horiz-adv-x="604" d="M197 195v927h182v-905q0 -47 19.5 -67.5t66.5 -20.5q18 0 38.5 4t39.5 10l24 -133q-39 -18 -75.5 -24t-71.5 -6q-55 0 -106.5 18t-84 65.5t-32.5 131.5z" />
<glyph unicode="&#xe41;" horiz-adv-x="1163" d="M197 195v927h182v-905q0 -47 19.5 -67.5t66.5 -20.5q18 0 38.5 4t39.5 10l24 -133q-39 -18 -75.5 -24t-71.5 -6q-55 0 -106.5 18t-84 65.5t-32.5 131.5zM756 195v927h182v-905q0 -47 19.5 -67.5t66.5 -20.5q18 0 38.5 4t39.5 10l24 -133q-39 -18 -75.5 -24t-71.5 -6 q-55 0 -106.5 18t-84 65.5t-32.5 131.5z" />
<glyph unicode="&#xe42;" horiz-adv-x="630" d="M18 1548v78l152 66h547v-144h-416l-2 -8q45 -31 77 -93.5t32 -162.5v-1067q0 -47 19 -67.5t67 -20.5q18 0 38.5 4t38.5 10l25 -133q-39 -18 -75.5 -24t-71.5 -6q-55 0 -106.5 18t-84.5 65.5t-33 131.5v1124q0 123 -58 176t-149 53z" />
<glyph unicode="&#xe43;" horiz-adv-x="591" d="M39 1505v156q27 14 86 30.5t139 16.5q135 0 218 -60.5t83 -185.5q0 -82 -30.5 -143.5t-71.5 -110.5q-37 -45 -59.5 -74.5t-34 -61.5t-11.5 -81v-774q0 -47 20.5 -67.5t63.5 -20.5q23 0 43.5 4t36.5 10l25 -133q-39 -18 -76 -24t-70 -6q-57 0 -108 18t-84 65.5t-33 131.5 v800q0 57 10.5 93t34 71t66.5 88q51 63 75.5 104.5t24.5 90.5q0 119 -145 119q-66 0 -117 -18.5t-86 -37.5z" />
<glyph unicode="&#xe44;" horiz-adv-x="622" d="M-27 1548l47 144h578v-144q-78 0 -134 -49t-56 -180v-1102q0 -47 19 -67.5t67 -20.5q18 0 38.5 4t38.5 10l25 -133q-39 -18 -75.5 -24t-71.5 -6q-55 0 -106.5 18t-84.5 65.5t-33 131.5v1089q0 115 32 170t75 86l-2 8h-357z" />
<glyph unicode="&#xe45;" horiz-adv-x="831" d="M20 918v163q41 20 117 41t180 21q160 0 254.5 -72t94.5 -248v-1233h-183v1207q0 100 -46 147t-154 47q-74 0 -138.5 -20.5t-124.5 -52.5z" />
<glyph unicode="&#xe46;" horiz-adv-x="1218" d="M160 786q0 193 69.5 275t186.5 82q68 0 121 -25.5t75 -81.5h6q25 55 76 81t123 26q98 0 167 -53.5t69 -196.5v-1305h-179v1284q0 66 -23.5 93.5t-70.5 27.5t-70.5 -27.5t-23.5 -93.5v-88h-154v88q0 66 -24.5 93.5t-69.5 27.5q-53 0 -77.5 -46t-24.5 -156 q0 -127 30.5 -173.5t92.5 -46.5q37 0 82 17l34 -135q-35 -14 -68.5 -23.5t-74.5 -9.5q-141 0 -206.5 95t-65.5 271z" />
<glyph unicode="&#xe47;" d="M-915 1503q0 117 70.5 173.5t162.5 56.5h477v-123h-450q-47 0 -81 -29t-34 -86q0 -43 22.5 -70.5t75.5 -27.5l115 102h39q8 -45 33.5 -76.5t70.5 -31.5q39 0 58.5 22.5t19.5 59.5v26h133v-29q0 -102 -52 -151t-140 -49q-117 0 -162 94l-102 -88q-115 0 -185.5 58.5 t-70.5 168.5z" />
<glyph unicode="&#xe48;" d="M-365 1300v433h181v-433h-181z" />
<glyph unicode="&#xe49;" d="M-754 1300v91q41 8 84 23.5t72 40t29 63.5q0 25 -15.5 42t-48.5 17q-23 0 -43 -8t-37 -15l-41 113q41 33 91.5 43t80.5 10q82 0 128 -45t46 -114q0 -35 -12 -65t-31 -52h332v-144h-635z" />
<glyph unicode="&#xe4a;" d="M-862 1499q0 98 54 152.5t151 64.5l114 -74l113 74q115 -10 162 -62t47 -124q0 -55 -31 -96h176v-134h-368v86q27 12 51 38t24 71q0 49 -24.5 69.5t-44.5 24.5l-99 -59h-12l-98 59q-20 -4 -42 -22.5t-22 -69.5q0 -49 23.5 -74.5t62.5 -25.5q10 0 22.5 2t24.5 8l27 -96 q-34 -21 -100 -21q-102 0 -156.5 56.5t-54.5 152.5z" />
<glyph unicode="&#xe4b;" d="M-647 1448v131h155v154h156v-154h156v-131h-156v-148h-156v148h-155z" />
<glyph unicode="&#xe4c;" d="M-551 1370q0 43 18.5 81t64.5 62.5t132 24.5h281v-141h-234q-41 0 -65.5 -15.5t-24.5 -52.5q0 -14 5 -30.5t14 -32.5l-158 -25q-14 20 -23.5 57t-9.5 72z" />
<glyph unicode="&#xe4d;" d="M-549 1436q0 88 59.5 136t161.5 48t164 -48t62 -136t-62 -136.5t-164 -48.5t-161.5 48.5t-59.5 136.5zM-426 1436q0 -39 25.5 -63.5t72.5 -24.5q49 0 75 24.5t26 63.5t-26 63.5t-75 24.5q-47 0 -72.5 -24.5t-25.5 -63.5z" />
<glyph unicode="&#xe4e;" d="M-553 1350q0 70 45 104.5t109 34.5q33 0 57 -10q-4 18 -4 37q0 63 49 93.5t113 30.5q23 0 53.5 -5t56.5 -15v-107q-20 6 -39.5 8.5t-31.5 2.5q-47 0 -70 -19.5t-23 -52.5q0 -27 15 -55l-58 -41q-20 16 -40.5 20t-30.5 4q-39 0 -56.5 -19.5t-17.5 -43.5q0 -14 5 -27.5 t11 -27.5l-112 -21q-12 18 -21.5 49t-9.5 60z" />
<glyph unicode="&#xe4f;" horiz-adv-x="1218" d="M123 467q0 238 122 361.5t365 123.5q244 0 366 -123.5t122 -361.5q0 -227 -122 -357t-366 -130t-365.5 130t-121.5 357zM299 467q0 -168 77.5 -256t233.5 -88q154 0 232 88t78 256q0 178 -78 260t-232 82q-156 0 -233.5 -82t-77.5 -260zM416 467q0 217 194 217 q193 0 193 -217q0 -100 -47.5 -159.5t-145.5 -59.5q-100 0 -147 59.5t-47 159.5z" />
<glyph unicode="&#xe50;" horiz-adv-x="1167" d="M119 467q0 238 119.5 361.5t345.5 123.5q225 0 345 -123.5t120 -361.5q0 -227 -120 -357t-345 -130t-345 130t-120 357zM303 467q0 -164 72 -251t209 -87q135 0 207.5 87t72.5 251q0 176 -72.5 256t-207.5 80q-137 0 -209 -80t-72 -256z" />
<glyph unicode="&#xe51;" horiz-adv-x="1116" d="M109 584q0 182 113.5 275t318.5 93q242 0 350 -123.5t108 -343.5q0 -143 -44 -257.5t-139 -181t-249 -66.5q-47 0 -91 6t-70 16v145q20 -8 57 -14t78 -6q143 0 208.5 91t65.5 261q0 176 -67.5 250t-206.5 74q-123 0 -189.5 -55.5t-66.5 -161.5q0 -86 40 -133t103 -47 q10 0 26.5 2t30.5 6l29 -138q-45 -29 -119 -28q-141 0 -213.5 95t-72.5 241z" />
<glyph unicode="&#xe52;" horiz-adv-x="1255" d="M121 446v750h176v-739q0 -88 29.5 -163t104.5 -120t210 -45t202.5 45t91 120t23.5 165v233q0 61 -16 87t-47 26q-41 0 -54.5 -32t-17.5 -83h-110q-4 55 -19.5 85t-56.5 30q-66 0 -66 -133q0 -55 16.5 -94t71.5 -39q29 0 62 16l33 -125q-29 -16 -54.5 -23.5t-58.5 -7.5 q-88 0 -140 39t-75 103.5t-23 140.5q0 125 52.5 193.5t148.5 68.5q53 0 97 -23.5t67 -80.5h6q25 57 67 80.5t95 23.5q49 0 95 -20.5t76 -71.5t30 -143v-263q0 -147 -48.5 -251.5t-157 -159.5t-290.5 -55q-272 0 -396 123.5t-124 342.5z" />
<glyph unicode="&#xe53;" horiz-adv-x="1144" d="M119 487q0 236 73.5 350.5t210.5 114.5q59 0 106.5 -23.5t68.5 -80.5h8q20 57 69.5 80.5t112.5 23.5q111 0 178.5 -60.5t67.5 -205.5v-686h-178v686q0 76 -31 97.5t-66 21.5q-41 0 -68.5 -24.5t-35.5 -96.5h-113q-8 70 -33.5 95.5t-60.5 25.5q-129 0 -129 -313 q0 -180 41 -273.5t131 -93.5q16 0 36.5 3t41.5 11l20 -137q-27 -10 -64.5 -16t-76.5 -6q-113 0 -180.5 66.5t-98 182t-30.5 258.5z" />
<glyph unicode="&#xe54;" horiz-adv-x="1103" d="M119 455q0 131 38 241.5t126 178t239 67.5h82q84 0 126 16.5t56.5 57.5t14.5 110v70h172v-82q0 -160 -74 -240.5t-250 -80.5h-100q-139 0 -194.5 -90.5t-55.5 -247.5q0 -164 57.5 -236t186.5 -72h112q-51 61 -51 172q0 131 59.5 200t163.5 69q78 0 127 -27l-49 -121 q-10 4 -23.5 6.5t-23.5 2.5q-45 0 -67.5 -38t-22.5 -102q0 -168 141 -168h92v-141h-471q-207 0 -309 108.5t-102 346.5z" />
<glyph unicode="&#xe55;" horiz-adv-x="1105" d="M119 463q0 203 72.5 312.5t205.5 146.5q-25 18 -40 50t-15 75q0 74 50 120.5t138 46.5q92 0 140.5 -48t48.5 -119q0 -35 -10.5 -62t-24.5 -43q84 8 107.5 50t23.5 138v66h162v-82q0 -160 -75 -240.5t-251 -80.5h-94q-143 0 -200.5 -90.5t-57.5 -247.5q0 -164 57.5 -236 t186.5 -72h110q-47 68 -47 172q0 131 59.5 199t163.5 68q35 0 69 -7.5t58 -17.5l-49 -123q-10 4 -24.5 6t-24.5 2q-43 0 -66.5 -36.5t-23.5 -102.5q0 -166 143 -166h93v-141h-472q-213 0 -313 111.5t-100 351.5zM446 1040q0 -33 21.5 -57.5t62.5 -24.5q43 0 65.5 25t22.5 57 q0 33 -22.5 56.5t-65.5 23.5q-41 0 -62.5 -23.5t-21.5 -56.5z" />
<glyph unicode="&#xe56;" horiz-adv-x="1064" d="M31 1196h168l96 -338q43 49 106.5 71.5t141.5 22.5q209 0 306 -134t97 -355q0 -238 -110.5 -360.5t-329.5 -122.5q-113 0 -205 34.5t-158 118.5l113 111q47 -51 99.5 -84t144.5 -33q143 0 203.5 86t60.5 256q0 182 -61.5 259t-184.5 77q-90 0 -149.5 -40t-65.5 -120h-121 z" />
<glyph unicode="&#xe57;" horiz-adv-x="1474" d="M119 498q0 170 32.5 269t94 142t145.5 43q61 0 101 -23.5t63 -80.5h10q23 61 72 82.5t111 21.5q100 0 161.5 -51t61.5 -178v-573q90 0 138 52t48 177v817h176v-823q0 -143 -58 -224t-150.5 -115t-190.5 -34h-137v696q0 61 -23.5 85t-62.5 24q-49 0 -68.5 -27.5 t-28.5 -93.5h-110q-8 66 -28.5 93.5t-59.5 27.5q-70 0 -93.5 -76t-23.5 -223q0 -197 39 -289t131 -92q16 0 37.5 3t42.5 11l20 -137q-27 -10 -59.5 -16t-71.5 -6q-119 0 -188.5 65.5t-100 182t-30.5 270.5z" />
<glyph unicode="&#xe58;" horiz-adv-x="1157" d="M119 449q0 135 37 246.5t125 179t241 67.5h103q84 0 125 16.5t55 56.5t14 111v70h172v-82q0 -160 -72.5 -240.5t-250.5 -80.5h-125q-135 0 -190.5 -90.5t-55.5 -245.5q0 -158 41 -221.5t92 -73.5l121 133h98q0 -90 29 -128t86 -38q123 0 123 156q0 76 -29 112.5t-57 59.5 l106 125q80 -41 117 -115t37 -176q0 -143 -76 -227t-201 -84q-86 0 -143 35.5t-78 113.5l-112 -141q-150 -2 -241 111.5t-91 349.5z" />
<glyph unicode="&#xe59;" horiz-adv-x="1032" d="M119 487q0 252 78.5 358.5t228.5 106.5q63 0 101 -19.5t69 -62.5q45 82 152 82h14q43 0 63.5 23.5t20.5 83.5v137h168v-145q0 -109 -46 -168.5t-149 -59.5h-31q-59 0 -86.5 -35.5t3.5 -107.5l288 -680h-186l-291 715q-16 43 -34.5 66.5t-57.5 23.5q-35 0 -63.5 -26.5 t-45 -94.5t-16.5 -192q0 -178 40 -272.5t132 -94.5q16 0 36.5 3t41.5 11l20 -137q-27 -10 -64.5 -16t-70.5 -6q-115 0 -184.5 64.5t-100 179t-30.5 263.5z" />
<glyph unicode="&#xe5a;" horiz-adv-x="1570" d="M37 817q0 150 84 238t231 88q29 0 64 -4t76 -21l-27 -137q-27 10 -47.5 12t-30.5 2q-72 0 -120 -45t-48 -141q0 -100 56.5 -153.5t170.5 -53.5q121 0 177.5 63.5t56.5 190.5v266h182v-483q16 -6 38 -10t52 -4q113 0 174.5 64.5t61.5 189.5v243h182v-1124h-182v573 q-41 -49 -100.5 -73.5t-124.5 -24.5q-53 0 -101 16v-491h-182v555q-43 -51 -111.5 -74.5t-148.5 -23.5q-170 0 -276.5 91t-106.5 271z" />
<glyph unicode="&#xe5b;" horiz-adv-x="1785" d="M100 522q0 88 30 162t97.5 119t175.5 45q129 0 202 -60.5t73 -171.5q0 -53 -17.5 -101t-37.5 -77l-129 64q10 14 19 39.5t9 54.5q0 59 -35.5 85t-85.5 26q-70 0 -98.5 -51.5t-28.5 -123.5q0 -133 63.5 -188t160.5 -55q104 0 169.5 52t96.5 139t29 194h120l107 -242 l63 225h103l80 -206l61 188h88l12 -33q20 -53 36 -94t43.5 -65.5t86.5 -24.5q25 0 42.5 4t29.5 10v-123q-16 -10 -38.5 -16t-53.5 -6q-141 0 -209 151l-45 -170h-92l-86 222l-66 -242h-100l-86 209q-18 -70 -61.5 -143.5t-126.5 -124t-218 -50.5q-180 0 -281.5 100.5 t-101.5 278.5z" />
<glyph unicode="&#x2000;" horiz-adv-x="1033" />
<glyph unicode="&#x2001;" horiz-adv-x="2066" />
<glyph unicode="&#x2002;" horiz-adv-x="1033" />
<glyph unicode="&#x2003;" horiz-adv-x="2066" />
<glyph unicode="&#x2004;" horiz-adv-x="688" />
<glyph unicode="&#x2005;" horiz-adv-x="516" />
<glyph unicode="&#x2006;" horiz-adv-x="344" />
<glyph unicode="&#x2007;" horiz-adv-x="344" />
<glyph unicode="&#x2008;" horiz-adv-x="258" />
<glyph unicode="&#x2009;" horiz-adv-x="413" />
<glyph unicode="&#x200a;" horiz-adv-x="114" />
<glyph unicode="&#x200b;" />
<glyph unicode="&#x200c;" d="M-43 -272v1558h86v-1558h-86z" />
<glyph unicode="&#x200d;" d="M-223 1024l168 168l-168 166l53 55l170 -170l170 170l53 -55l-168 -166l168 -168l-53 -55l-127 127v-1368h-86v1368l-127 -127z" />
<glyph unicode="&#x2010;" horiz-adv-x="659" d="M82 469v160h496v-160h-496z" />
<glyph unicode="&#x2011;" horiz-adv-x="659" d="M82 469v160h496v-160h-496z" />
<glyph unicode="&#x2012;" horiz-adv-x="659" d="M82 469v160h496v-160h-496z" />
<glyph unicode="&#x2013;" horiz-adv-x="1187" d="M82 469v160h1024v-160h-1024z" />
<glyph unicode="&#x2014;" horiz-adv-x="2211" d="M82 469v160h2048v-160h-2048z" />
<glyph unicode="&#x202f;" horiz-adv-x="413" />
<glyph unicode="&#x205f;" horiz-adv-x="516" />
<glyph unicode="&#x25cc;" horiz-adv-x="1216" d="M98 596q0 23 16.5 38t37.5 15q20 0 36.5 -15.5t16.5 -37.5q0 -23 -16.5 -38t-36.5 -15t-37 15t-17 38zM135 424q0 23 16.5 38t36.5 15t37 -15.5t17 -37.5q0 -23 -17 -38t-37 -15t-36.5 15t-16.5 38zM135 768q0 23 16.5 38t36.5 15t37 -15t17 -38t-17 -38t-37 -15 t-36.5 15t-16.5 38zM231 272q0 23 15.5 38.5t38.5 15.5t38 -15.5t15 -38.5t-15 -38t-38 -15t-38.5 15.5t-15.5 37.5zM231 920q0 23 15.5 38t38.5 15t38 -15.5t15 -37.5q0 -23 -15 -38.5t-38 -15.5t-38.5 15.5t-15.5 38.5zM383 176q0 20 15.5 36.5t37.5 16.5q23 0 38 -16 t15 -37q0 -20 -15 -36.5t-38 -16.5t-38 16.5t-15 36.5zM383 1016q0 20 15.5 36.5t37.5 16.5q23 0 38 -16.5t15 -36.5t-15 -36.5t-38 -16.5t-38 16t-15 37zM555 139q0 20 15.5 37t37.5 17q23 0 38.5 -16.5t15.5 -37.5q0 -20 -15.5 -36.5t-38.5 -16.5t-38 16.5t-15 36.5z M555 1053q0 20 15.5 36.5t37.5 16.5q23 0 38.5 -16.5t15.5 -36.5t-15.5 -37t-38.5 -17t-38 16.5t-15 37.5zM727 176q0 20 15.5 36.5t37.5 16.5q23 0 38.5 -16t15.5 -37q0 -20 -15.5 -36.5t-38.5 -16.5t-38 16.5t-15 36.5zM727 1016q0 20 15.5 36.5t37.5 16.5 q23 0 38.5 -16.5t15.5 -36.5t-15.5 -36.5t-38.5 -16.5t-38 16t-15 37zM879 272q0 23 15 38.5t38 15.5t38 -15.5t15 -38.5t-15 -38t-38 -15t-38 15.5t-15 37.5zM879 920q0 23 15 38t38 15t38 -15.5t15 -37.5q0 -23 -15 -38.5t-38 -15.5t-38 15.5t-15 38.5zM975 424 q0 23 16.5 38t36.5 15t36.5 -15.5t16.5 -37.5q0 -23 -16.5 -38t-36.5 -15t-36.5 15t-16.5 38zM975 768q0 23 16.5 38t36.5 15t36.5 -15t16.5 -38t-16.5 -38t-36.5 -15t-36.5 15t-16.5 38zM1012 596q0 23 16 38t37 15q20 0 36.5 -15.5t16.5 -37.5q0 -23 -16.5 -38t-36.5 -15 t-36.5 15t-16.5 38z" />
<glyph unicode="&#x25fc;" horiz-adv-x="1024" d="M0 0z" />
<glyph horiz-adv-x="1232" d="M135 750v67q0 84 55.5 159t159 121t248.5 46q127 0 233.5 -40t171 -125t64.5 -222v-1112h-182v1093q0 137 -84 195.5t-205 58.5q-127 0 -200.5 -52t-73.5 -132l233 -111l-16 -98q-76 -2 -130.5 -38t-54.5 -144v-201q0 -86 86 -86q43 0 76 12l27 -131q-39 -18 -76 -24 t-70 -6q-57 0 -109 18t-84 65.5t-32 131.5v198q0 127 54.5 184.5t142.5 79.5l2 7z" />
<glyph horiz-adv-x="1234" d="M39 10l20 127q14 -4 33 -8t35 -4q61 0 61 82v190q0 127 47.5 182.5t135.5 77.5l2 7l-236 86v67q0 84 54.5 159t159 121t249.5 46q125 0 232.5 -40t172 -125t64.5 -222v-1112h-182v1093q0 137 -85 195.5t-204 58.5q-127 0 -200.5 -52t-73.5 -132l233 -111l-16 -98 q-78 0 -124 -49t-46 -158v-198q0 -127 -55.5 -170t-135.5 -43q-37 0 -71.5 7t-69.5 23z" />
<glyph horiz-adv-x="1234" d="M39 10l20 129q14 -4 33 -8t35 -4q61 0 61 80v190q0 127 47.5 182.5t135.5 77.5l2 7l-236 86v67q0 84 54.5 159t159 121t249.5 46q125 0 232.5 -40t172 -125t64.5 -222v-1116h-143q-33 37 -90.5 69.5t-127 54t-139.5 21.5q-90 0 -131 -38t-41 -87v-20h-186v34 q0 119 83 189.5t241 70.5q111 0 201.5 -33.5t150.5 -78.5v915q0 137 -85 195.5t-204 58.5q-127 0 -200.5 -52t-73.5 -132l233 -111l-16 -98q-78 0 -124 -49t-46 -158v-198q0 -125 -55.5 -168t-135.5 -43q-76 0 -141 28z" />
<glyph horiz-adv-x="1234" d="M39 10l20 129q14 -4 33 -8t35 -4q61 0 61 80v190q0 127 47.5 182.5t135.5 77.5l2 7l-236 86v67q0 84 54.5 159t159 121t249.5 46q125 0 232.5 -40t172 -125t64.5 -222v-1116h-164l-151 116l-125 -116h-47q-27 55 -63 94t-91 39t-77.5 -37t-22.5 -76v-20h-172v51 q0 109 71.5 166t167.5 57q94 0 145.5 -35t77.5 -86l132 111l137 -101v934q0 137 -85 195.5t-204 58.5q-127 0 -200.5 -52t-73.5 -132l233 -111l-16 -98q-78 0 -124 -49t-46 -158v-198q0 -125 -55.5 -168t-135.5 -43q-76 0 -141 28z" />
<glyph horiz-adv-x="1824" d="M135 750v67q0 90 53.5 164t151.5 118t231 44q113 0 212.5 -37t162 -121t62.5 -227v-371q0 -137 61 -196.5t174 -59.5q111 0 172.5 59.5t61.5 196.5v735h182v-733q0 -209 -100.5 -309t-315.5 -100t-315.5 100t-100.5 309v350q0 98 -36.5 152.5t-95 77t-126.5 22.5 q-109 0 -177 -47t-70 -137l233 -111l-16 -98q-76 0 -130.5 -47t-54.5 -156v-180q0 -86 86 -86q43 0 76 12l27 -131q-39 -18 -76 -24t-70 -6q-57 0 -109 18t-84 65.5t-32 131.5v198q0 127 54.5 184.5t142.5 79.5l2 7z" />
<glyph horiz-adv-x="1120" d="M70 887v170q61 37 161.5 61.5t217.5 24.5q193 0 292 -78q47 12 86 44t39 87h178q0 -92 -59 -149.5t-145 -77.5q63 -68 89.5 -170.5t26.5 -235.5q0 -178 -48 -304t-155.5 -192.5t-287.5 -66.5h-172v500h-156v143h330v-496h27q137 0 206.5 95.5t69.5 322.5t-78 326.5 t-266 99.5q-96 0 -185 -25.5t-171 -78.5z" />
<glyph horiz-adv-x="1329" d="M84 1122h184l62 -489q14 -109 21 -197t14 -200h8q16 63 44.5 147t76.5 209l94 256h139l102 -256q23 -59 62 -158.5t74 -218.5h10q12 137 25.5 228.5t27.5 181.5l19 123q14 88 -11.5 139t-122.5 51h-114v131h188q78 0 97.5 34t25.5 93h182q2 -78 -39 -139.5t-141 -75.5v-8 q74 -23 94.5 -82.5t7.5 -132.5l-129 -758h-178l-155 408q-29 76 -50.5 148.5t-35.5 137.5h-9q-14 -66 -35.5 -138.5t-50.5 -147.5l-155 -408h-180z" />
<glyph d="M-1415 -156h1169v-145h-1169v145z" />
<glyph d="M-1018 1470q0 31 8.5 67t22.5 58l153 -26q-4 -8 -7 -27.5t-3 -36.5q0 -27 16.5 -46t55.5 -19h309v-140h-321q-127 0 -180.5 52.5t-53.5 117.5z" />
<glyph d="M-354 1733v333h174v-333h-174z" />
<glyph d="M-705 1300v433h181v-433h-181z" />
<glyph d="M-547 2025q37 25 83 33t73 8q53 0 96 -27.5t43 -92.5q0 -16 -4 -37t-14 -39h258v-137h-516v71q41 10 87 33t46 68q0 47 -47 47q-33 0 -68 -21z" />
<glyph d="M-1022 1667q43 33 92 43t84 10q80 0 127 -45t47 -119q0 -31 -10 -60.5t-35 -51.5h250v-144h-545v91q37 8 78 23.5t68.5 40t27.5 61.5q0 61 -59 61q-23 0 -44.5 -8t-37.5 -15z" />
<glyph d="M-594 1894q0 72 47 122t139 50l105 -69l94 69q70 0 128 -32.5t58 -102.5q0 -53 -24 -84h137v-114h-311v79q33 4 54.5 25t21.5 53q0 61 -66 72l-88 -57h-10l-92 57q-68 -6 -68 -70q0 -29 16.5 -48t51.5 -19q8 0 20 1t21 5l16 -88q-14 -8 -35.5 -13.5t-48.5 -5.5 q-82 0 -124 49.5t-42 120.5z" />
<glyph d="M-1141 1499q0 98 52.5 152.5t148.5 64.5l94 -74l94 74q109 -10 157 -62t48 -124q0 -53 -24 -94h147v-136h-342v86q35 12 58.5 38t23.5 71q0 49 -24.5 73.5t-53.5 28.5l-78 -61h-12l-78 61q-29 -4 -53.5 -29.5t-24.5 -70.5q0 -39 22.5 -69.5t70.5 -30.5q10 0 26.5 2 t30.5 8l24 -96q-35 -21 -98 -21q-100 0 -154.5 56.5t-54.5 152.5z" />
<glyph d="M-463 1837v125h119v104h154v-104h118v-125h-118v-104h-154v104h-119z" />
<glyph d="M-489 1802q0 45 18 83t66.5 62.5t134.5 24.5h256v-139h-211q-92 0 -92 -68q0 -33 16 -65l-156 -27q-14 23 -23 59.5t-9 69.5z" />
<glyph d="M-954 1370q0 63 45 115.5t170 52.5h276v-141h-229q-90 0 -90 -68q0 -31 16 -63l-156 -25q-14 20 -23 57t-9 72z" />
<glyph d="M-1133 1503q0 117 69 173.5t159 56.5h438v-123h-412q-47 0 -78.5 -27t-31.5 -86q0 -43 22.5 -71.5t75.5 -28.5l82 102h51q4 -109 84 -108q35 0 56.5 23.5t21.5 60.5v24h131v-29q0 -102 -50 -151t-134 -49q-111 0 -160 94l-70 -88q-119 0 -186.5 58.5t-67.5 168.5z" />
<glyph d="M-1176 1300v80l148 66h561v-146h-709z" />
<glyph d="M-1176 1300v80l148 64h391v162h170v-306h-709z" />
<glyph d="M-1176 1300v80l148 64h235q-2 12 -2 26q0 80 51.5 128.5t141.5 48.5t142 -49.5t52 -127.5q0 -74 -48 -122t-136 -48h-584zM-690 1473q0 -35 21.5 -59.5t68.5 -24.5q41 0 63.5 23.5t22.5 60.5q0 39 -23.5 61t-64.5 22q-43 0 -65.5 -22.5t-22.5 -60.5z" />
<glyph d="M-1176 1300v80l148 64h143v162h148v-162h125v162h147v-162h2v-144h-713z" />
<glyph d="M-549 1436q0 88 59.5 136t161.5 48t164 -48t62 -136t-62 -136.5t-164 -48.5t-161.5 48.5t-59.5 136.5zM-426 1436q0 -39 25.5 -63.5t72.5 -24.5q49 0 75 24.5t26 63.5t-26 63.5t-75 24.5q-47 0 -72.5 -24.5t-25.5 -63.5zM-413 1733v333h174v-333h-174z" />
<glyph d="M-606 2025q37 25 83 33t73 8q53 0 96 -27.5t43 -92.5q0 -16 -4 -37t-14 -39h258v-137h-516v71q41 10 87 33t46 68q0 47 -47 47q-33 0 -68 -21zM-549 1436q0 88 59.5 136t161.5 48t164 -48t62 -136t-62 -136.5t-164 -48.5t-161.5 48.5t-59.5 136.5zM-426 1436 q0 -39 25.5 -63.5t72.5 -24.5q49 0 75 24.5t26 63.5t-26 63.5t-75 24.5q-47 0 -72.5 -24.5t-25.5 -63.5z" />
<glyph d="M-653 1894q0 72 47 122t139 50l105 -69l94 69q70 0 128 -32.5t58 -102.5q0 -53 -24 -84h137v-114h-311v79q33 4 54.5 25t21.5 53q0 61 -66 72l-88 -57h-10l-92 57q-68 -6 -68 -70q0 -29 16.5 -48t51.5 -19q8 0 20 1t21 5l16 -88q-14 -8 -35.5 -13.5t-48.5 -5.5 q-82 0 -124 49.5t-42 120.5zM-549 1436q0 88 59.5 136t161.5 48t164 -48t62 -136t-62 -136.5t-164 -48.5t-161.5 48.5t-59.5 136.5zM-426 1436q0 -39 25.5 -63.5t72.5 -24.5q49 0 75 24.5t26 63.5t-26 63.5t-75 24.5q-47 0 -72.5 -24.5t-25.5 -63.5z" />
<glyph d="M-549 1436q0 88 59.5 136t161.5 48t164 -48t62 -136t-62 -136.5t-164 -48.5t-161.5 48.5t-59.5 136.5zM-522 1837v125h119v104h154v-104h118v-125h-118v-104h-154v104h-119zM-426 1436q0 -39 25.5 -63.5t72.5 -24.5q49 0 75 24.5t26 63.5t-26 63.5t-75 24.5 q-47 0 -72.5 -24.5t-25.5 -63.5z" />
<glyph d="M-399 -604q0 133 139 133q66 0 103 -35t37 -98t-37 -98t-103 -35q-139 0 -139 133z" />
<glyph d="M-431 -494q31 10 67 15.5t58 5.5q70 0 105 -35t35 -92v-277h-162v218q0 51 -45 51q-10 0 -21.5 -2t-21.5 -6z" />
<glyph d="M-779 -487q29 8 56.5 10t42.5 2q74 0 105.5 -33t31.5 -92v-70q0 -39 24.5 -65.5t83.5 -26.5q61 0 85 26.5t24 65.5v189h160v-199q-1 -207 -267 -207q-133 0 -200.5 52.5t-67.5 148.5v35q0 33 -17.5 41t-47.5 0z" />
<glyph d="M-940 1448v131h156v154h153v-154h158v-131h-158v-148h-153v148h-156z" />
<glyph d="M-911 1436q0 88 59.5 136t161.5 48t164 -48t62 -136t-62 -136.5t-164 -48.5t-161.5 48.5t-59.5 136.5zM-788 1436q0 -39 25.5 -63.5t72.5 -24.5q49 0 75 24.5t26 63.5t-26 63.5t-75 24.5q-47 0 -72.5 -24.5t-25.5 -63.5z" />
<glyph d="M-877 1436q0 88 59.5 136t161.5 48t164 -48t62 -136t-62 -136.5t-164 -48.5t-161.5 48.5t-59.5 136.5zM-754 1436q0 -39 25.5 -63.5t72.5 -24.5q49 0 75 24.5t26 63.5t-26 63.5t-75 24.5q-47 0 -72.5 -24.5t-25.5 -63.5zM-741 1733v333h174v-333h-174z" />
<glyph d="M-932 2025q37 25 83 33t73 8q53 0 96 -27.5t43 -92.5q0 -16 -4 -37t-14 -39h258v-137h-516v71q41 10 87 33t46 68q0 47 -47 47q-33 0 -68 -21zM-875 1436q0 88 59.5 136t161.5 48t164 -48t62 -136t-62 -136.5t-164 -48.5t-161.5 48.5t-59.5 136.5zM-752 1436 q0 -39 25.5 -63.5t72.5 -24.5q49 0 75 24.5t26 63.5t-26 63.5t-75 24.5q-47 0 -72.5 -24.5t-25.5 -63.5z" />
<glyph d="M-981 1894q0 72 47 122t139 50l105 -69l94 69q70 0 128 -32.5t58 -102.5q0 -53 -24 -84h137v-114h-311v79q33 4 54.5 25t21.5 53q0 61 -66 72l-88 -57h-10l-92 57q-68 -6 -68 -70q0 -29 16.5 -48t51.5 -19q8 0 20 1t21 5l16 -88q-14 -8 -35.5 -13.5t-48.5 -5.5 q-82 0 -124 49.5t-42 120.5zM-877 1436q0 88 59.5 136t161.5 48t164 -48t62 -136t-62 -136.5t-164 -48.5t-161.5 48.5t-59.5 136.5zM-754 1436q0 -39 25.5 -63.5t72.5 -24.5q49 0 75 24.5t26 63.5t-26 63.5t-75 24.5q-47 0 -72.5 -24.5t-25.5 -63.5z" />
<glyph d="M-875 1436q0 88 59.5 136t161.5 48t164 -48t62 -136t-62 -136.5t-164 -48.5t-161.5 48.5t-59.5 136.5zM-848 1837v125h119v104h154v-104h118v-125h-118v-104h-154v104h-119zM-752 1436q0 -39 25.5 -63.5t72.5 -24.5q49 0 75 24.5t26 63.5t-26 63.5t-75 24.5 q-47 0 -72.5 -24.5t-25.5 -63.5z" />
</font>
</defs>
</svg>
