<?xml version="1.0" standalone="no"?>
<!DOCTYPE svg PUBLIC "-//W3C//DTD SVG 1.1//EN" "http://www.w3.org/Graphics/SVG/1.1/DTD/svg11.dtd" >
<svg xmlns="http://www.w3.org/2000/svg" xmlns:xlink="http://www.w3.org/1999/xlink" version="1.1">
<metadata></metadata>
<defs>
<font id="psl_chocolate_favor_w1_proRg" horiz-adv-x="0" >
<font-face units-per-em="2048" ascent="1638" descent="-410" />
<missing-glyph horiz-adv-x="552" />
<glyph unicode=" "  horiz-adv-x="552" />
<glyph unicode="&#x09;" horiz-adv-x="552" />
<glyph unicode="&#xa0;" horiz-adv-x="552" />
<glyph unicode="!" horiz-adv-x="385" d="M68 94q0 50 34.5 83.5t90.5 33.5t90 -33t34 -84q0 -48 -34 -81t-90 -33t-90.5 33t-34.5 81zM80 844q-4 79 25.5 111t87.5 32t87 -31.5t25 -111.5l-20 -361q-5 -74 -23 -102.5t-69 -28.5t-69.5 28.5t-23.5 102.5z" />
<glyph unicode="&#x22;" horiz-adv-x="655" d="M82 672v200q0 44 25.5 72.5t76.5 28.5q54 0 78.5 -28t24.5 -73v-200q0 -45 -24.5 -73t-78.5 -28q-51 0 -76.5 28.5t-25.5 72.5zM369 672v200q0 44 25.5 72.5t76.5 28.5q53 0 77.5 -28t24.5 -73v-200q0 -45 -24.5 -73t-77.5 -28q-51 0 -76.5 28.5t-25.5 72.5z" />
<glyph unicode="#" horiz-adv-x="1019" d="M20 338q0 28 16.5 48t49.5 20h141l45 151h-106q-32 0 -49 20.5t-17 49.5q0 27 17 46t49 19h141l62 215q18 64 77 64q52 0 76.5 -31t9.5 -84l-45 -164h166l62 215q10 37 29 50.5t49 13.5q52 0 76.5 -30.5t9.5 -84.5l-45 -164h100q32 0 48.5 -19t16.5 -46q0 -29 -16 -49.5 t-49 -20.5h-137l-43 -151h100q33 0 49.5 -20t16.5 -48q0 -29 -16.5 -48.5t-49.5 -19.5h-137l-64 -227q-17 -63 -78 -63q-47 0 -74.5 29.5t-11.5 84.5l52 176h-170l-64 -227q-15 -63 -78 -63q-47 0 -74.5 29.5t-11.5 84.5l50 176h-107q-32 0 -49 20t-17 48zM408 406h165 l48 151h-168z" />
<glyph unicode="$" horiz-adv-x="759" d="M37 133q0 49 29.5 82t80.5 33q43 0 78 -18.5t73.5 -37t90.5 -18.5q51 0 80 26t29 64q0 25 -12 47t-27.5 36t-44 28.5t-47.5 21.5t-52 19q-59 21 -100.5 41t-83.5 52.5t-64 79t-22 105.5q0 105 58.5 177t162.5 100v59q0 49 29.5 70.5t71.5 21.5t71 -21.5t29 -70.5v-47 q92 -10 142 -45t50 -88q0 -44 -24.5 -75.5t-69.5 -31.5q-33 0 -91 28t-97 28q-49 0 -76 -23.5t-27 -60.5q0 -47 47 -78.5t140 -63.5q51 -18 86.5 -34t71.5 -40t57.5 -51.5t35 -67.5t13.5 -89q0 -124 -66.5 -203t-191.5 -104v-76q0 -49 -29 -70.5t-71 -21.5t-71.5 21.5 t-29.5 70.5v69q-105 11 -167 51t-62 105z" />
<glyph unicode="%" horiz-adv-x="1054" d="M2 745q0 94 66.5 161t160.5 67t161 -67t67 -161t-67 -160.5t-161 -66.5t-160.5 66.5t-66.5 160.5zM141 68.5q-3 38.5 25 81.5l551 772q33 46 77 52.5t80 -24.5q32 -24 35.5 -62t-24.5 -83l-549 -768q-34 -48 -79 -55t-81 24q-32 24 -35 62.5zM160 750q0 -29 20 -49.5 t49 -20.5t49.5 20.5t20.5 49.5t-20.5 49t-49.5 20t-49 -20t-20 -49zM598 215q0 94 66.5 160.5t160.5 66.5t161 -66.5t67 -160.5t-67 -160.5t-161 -66.5t-160.5 66.5t-66.5 160.5zM756 219q0 -29 20 -49t49 -20t49.5 20t20.5 49t-20.5 49.5t-49.5 20.5t-49 -20.5t-20 -49.5z " />
<glyph unicode="&#x26;" horiz-adv-x="976" d="M37 268q0 197 244 285q-109 104 -109 203q0 100 76.5 168.5t204.5 68.5t205 -69.5t77 -171.5q0 -72 -32 -132t-119 -120l129 -146q51 69 85 96t64 27q33 0 57.5 -24t24.5 -60q0 -33 -26 -73.5t-87 -102.5l50 -57q71 -82 8 -148q-37 -38 -82.5 -36.5t-77.5 42.5l-51 66 q-75 -63 -151 -88t-165 -25q-140 0 -232.5 83.5t-92.5 213.5zM244 270q0 -58 41 -90.5t106 -32.5q87 0 172 74l-174 199q-65 -23 -105 -61.5t-40 -88.5zM379 756q0 -31 21.5 -59t64.5 -64q92 53 92 115q0 35 -24.5 62.5t-67.5 27.5q-37 0 -61.5 -23t-24.5 -59z" />
<glyph unicode="'" horiz-adv-x="368" d="M72 662v200q0 49 28 80t84 31q59 0 86 -30.5t27 -80.5v-200q0 -50 -27 -80.5t-86 -30.5q-56 0 -84 31t-28 80z" />
<glyph unicode="(" horiz-adv-x="505" d="M123 432q0 178 40.5 331t98.5 243q20 31 49.5 44t56 9.5t48.5 -17.5q38 -25 41 -69t-25 -86q-42 -70 -73 -193t-31 -262q0 -142 30.5 -264.5t73.5 -192.5q26 -41 22 -87t-38 -68q-22 -14 -48.5 -17.5t-56 10t-49.5 44.5q-58 91 -98.5 243.5t-40.5 331.5z" />
<glyph unicode=")" horiz-adv-x="505" d="M49 973q3 44 41 69q22 14 48.5 17.5t56 -9.5t49.5 -44q58 -90 98.5 -243t40.5 -331q0 -179 -40.5 -331.5t-98.5 -243.5q-20 -31 -49.5 -44.5t-56 -10t-48.5 17.5q-34 22 -38 68t22 87q43 70 73.5 192.5t30.5 264.5q0 139 -31 262t-73 193q-28 42 -25 86z" />
<glyph unicode="*" horiz-adv-x="704" d="M50.5 831q1.5 17 6.5 33q14 38 41.5 60.5t67.5 3.5l108 -47l-18 114q-5 42 25 62t69 20q41 0 70 -19t24 -63l-14 -118l107 53q39 20 65 -1.5t39 -62.5q6 -19 7.5 -36t-1.5 -34.5t-16 -29t-35 -14.5l-123 -17l86 -86q16 -17 19 -35.5t-4.5 -35t-18.5 -29t-25 -23.5 q-20 -14 -42 -21t-45.5 -0.5t-36.5 32.5l-52 108l-63 -110q-13 -26 -36.5 -33t-44.5 0.5t-40 21.5q-88 68 -31 123l92 84l-127 19q-22 4 -35.5 16.5t-16.5 30t-1.5 34.5z" />
<glyph unicode="+" horiz-adv-x="778" d="M31 414q0 41 26.5 66.5t69.5 25.5h170v170q0 43 25.5 69.5t66.5 26.5t66.5 -26.5t25.5 -69.5v-170h170q43 0 70 -25.5t27 -66.5t-27 -66.5t-70 -25.5h-170v-170q0 -43 -25.5 -70t-66.5 -27t-66.5 27t-25.5 70v170h-170q-43 0 -69.5 25.5t-26.5 66.5z" />
<glyph unicode="," horiz-adv-x="458" d="M19 -69q-6 32 18 69l113 178q21 33 43 51.5t43.5 22t39.5 0t39 -13.5q37 -18 46.5 -55t-19.5 -85l-113 -178q-71 -112 -170 -45q-34 24 -40 56z" />
<glyph unicode="-" horiz-adv-x="626" d="M51 395q0 53 30.5 80t84.5 27h299q110 0 110 -107q0 -106 -112 -106h-299q-53 0 -83 27t-30 79z" />
<glyph unicode="." horiz-adv-x="458" d="M92 106q0 53 38 88t99 35t99.5 -35t38.5 -88t-38.5 -87.5t-99.5 -34.5t-99 34.5t-38 87.5z" />
<glyph unicode="/" horiz-adv-x="647" d="M-1.5 42.5q-8.5 40.5 15.5 82.5l437 805q23 42 58.5 57t86.5 -6q41 -19 49 -63t-14 -80l-436 -805q-24 -41 -59.5 -56t-86.5 5q-42 20 -50.5 60.5z" />
<glyph unicode="0" horiz-adv-x="778" d="M41 479q0 251 98 379.5t250 128.5t250 -128.5t98 -379.5t-98 -379.5t-250 -128.5t-250 128.5t-98 379.5zM254 479q0 -158 37.5 -239.5t97.5 -81.5t97.5 81.5t37.5 239.5t-37.5 240t-97.5 82t-97.5 -82t-37.5 -240z" />
<glyph unicode="1" horiz-adv-x="778" d="M94 866q0 44 33 69.5t86 25.5h162q81 0 114 -32.5t33 -103.5v-743q0 -102 -104 -102q-105 0 -105 102v694h-100q-54 0 -86.5 22.5t-32.5 67.5z" />
<glyph unicode="2" horiz-adv-x="778" d="M51 92q0 41 49 98q21 26 91 101t130 140.5t110 142t50 122.5q0 107 -106 107q-98 0 -117 -107q-10 -51 -29 -71.5t-71 -20.5q-47 0 -77 27.5t-30 77.5q0 108 87.5 193t238.5 85q160 0 241.5 -76.5t81.5 -203.5q0 -98 -77 -217t-256 -306h262q116 0 116 -92t-116 -92h-453 q-58 0 -91.5 23.5t-33.5 68.5z" />
<glyph unicode="3" horiz-adv-x="778" d="M43 195q0 45 29.5 70.5t72.5 25.5q14 0 26 -2.5t18.5 -4.5t15 -9t11.5 -10.5t11 -14t11 -14.5q61 -76 151 -76q57 0 94 33.5t37 89.5q0 64 -40 97.5t-113 33.5q-36 0 -60 27t-24 71q0 41 24 66.5t60 25.5q55 0 85.5 27.5t30.5 75.5q0 43 -29.5 71.5t-78.5 28.5 q-79 0 -117 -59q-15 -21 -20.5 -28.5t-24.5 -16.5t-47 -9q-44 0 -71 24.5t-27 63.5q0 80 84 142.5t225 62.5q144 0 225.5 -70t81.5 -182q0 -137 -125 -207q67 -22 108 -67t53.5 -88.5t12.5 -93.5q0 -135 -93.5 -221.5t-258.5 -86.5q-156 0 -247 69.5t-91 154.5z" />
<glyph unicode="4" horiz-adv-x="778" d="M0 289q0 58 49 123l330 471q34 49 69 76.5t84 27.5q123 0 123 -156v-444q123 0 123 -90q0 -35 -29 -60.5t-94 -25.5v-125q0 -57 -25 -81.5t-73 -24.5q-102 0 -102 106v125h-328q-66 0 -96.5 17t-30.5 61zM248 387h207v303z" />
<glyph unicode="5" horiz-adv-x="778" d="M41 158q0 42 26 70t72 28q34 0 62 -15t45.5 -33t47.5 -33t68 -15q67 0 107.5 40.5t40.5 108.5q0 66 -43 107t-109 41q-29 0 -89.5 -10.5t-86.5 -10.5q-50 0 -83 27t-25 90l37 297q6 60 37.5 85.5t99.5 25.5h332q54 0 84 -25t30 -68q0 -92 -114 -92h-289l-15 -168 q64 13 132 13q145 0 232 -81.5t87 -230.5q0 -161 -95.5 -249.5t-273.5 -88.5q-137 0 -227 55.5t-90 131.5z" />
<glyph unicode="6" horiz-adv-x="778" d="M39 317q0 104 57.5 229.5t133 224t155.5 169.5q90 80 160 31q37 -32 37 -74q0 -28 -30 -67t-83.5 -98.5t-85.5 -106.5q167 -7 258.5 -92.5t91.5 -223.5q0 -147 -99.5 -242.5t-258.5 -95.5q-144 0 -240 97t-96 249zM248 301q0 -62 40.5 -103.5t96.5 -41.5q58 0 97.5 40.5 t39.5 104.5q0 63 -40.5 105.5t-96.5 42.5q-57 0 -97 -41.5t-40 -106.5z" />
<glyph unicode="7" horiz-adv-x="778" d="M35 868q0 43 30.5 68t84.5 25h415q104 0 143 -54t-1 -137l-324 -698q-54 -116 -162 -92q-51 11 -62 54.5t21 108.5l309 633h-339q-115 0 -115 92z" />
<glyph unicode="8" horiz-adv-x="778" d="M41 287q0 169 143 241q-108 65 -108 195q0 114 90 189t221 75q134 0 223.5 -74.5t89.5 -189.5q0 -130 -108 -195q143 -72 143 -241q0 -142 -95.5 -229t-252.5 -87q-154 0 -250 87t-96 229zM248 291q0 -64 40.5 -100.5t98.5 -36.5q59 0 101 37t42 100q0 65 -41.5 101 t-101.5 36q-58 0 -98.5 -36.5t-40.5 -100.5zM272 715q0 -53 33.5 -83t81.5 -30t81.5 30t33.5 83q0 51 -33.5 80.5t-81.5 29.5t-81.5 -29.5t-33.5 -80.5z" />
<glyph unicode="9" horiz-adv-x="778" d="M41 649q0 147 99.5 242.5t258.5 95.5q144 0 240 -97t96 -249q0 -104 -57.5 -229.5t-133 -224t-155.5 -169.5q-89 -80 -160 -30q-36 31 -36 73q0 28 29.5 67t83 99t85.5 107q-167 7 -258.5 92t-91.5 223zM252 657q0 -63 40 -105t97 -42t97 41t40 106q0 62 -40.5 104 t-96.5 42q-58 0 -97.5 -41t-39.5 -105z" />
<glyph unicode=":" horiz-adv-x="458" d="M92 106q0 53 38 88t99 35t99.5 -35t38.5 -88t-38.5 -87.5t-99.5 -34.5t-99 34.5t-38 87.5zM92 588q0 54 38 88.5t99 34.5t99.5 -34.5t38.5 -88.5t-38.5 -88.5t-99.5 -34.5t-99 34.5t-38 88.5z" />
<glyph unicode=";" horiz-adv-x="458" d="M19 -69q-6 32 18 69l113 178q21 33 43 51.5t43.5 22t39.5 0t39 -13.5q37 -18 46.5 -55t-19.5 -85l-113 -178q-71 -112 -170 -45q-34 24 -40 56zM92 588q0 54 38 88.5t99 34.5t99.5 -34.5t38.5 -88.5t-38.5 -88.5t-99.5 -34.5t-99 34.5t-38 88.5z" />
<glyph unicode="&#x3c;" horiz-adv-x="778" d="M33 406q0 46 63 81l510 291q39 19 73 7.5t50 -42.5q39 -83 -39 -129l-360 -206l360 -211q40 -25 48.5 -61.5t-9.5 -65.5q-19 -32 -50.5 -43.5t-72.5 6.5l-510 291q-63 35 -63 82z" />
<glyph unicode="=" horiz-adv-x="778" d="M31 240q0 41 26.5 66.5t69.5 25.5h524q43 0 70 -25.5t27 -66.5t-27 -67t-70 -26h-524q-43 0 -69.5 26t-26.5 67zM31 567q0 41 26.5 66.5t69.5 25.5h524q43 0 70 -25.5t27 -66.5t-27 -66.5t-70 -25.5h-524q-43 0 -69.5 25.5t-26.5 66.5z" />
<glyph unicode="&#x3e;" horiz-adv-x="778" d="M49 70q-39 80 37 127l365 209l-365 208q-76 45 -37 129q16 31 50 42.5t73 -7.5l510 -291q63 -35 63 -81q0 -47 -63 -82l-510 -291q-41 -18 -72.5 -6.5t-50.5 43.5z" />
<glyph unicode="?" horiz-adv-x="739" d="M31 756q0 87 85 159t228 72q155 0 244.5 -83t89.5 -210q0 -183 -219 -241v-82q0 -78 -99 -78q-100 0 -100 88v100q0 36 10 54t37 30q29 9 50.5 19t46.5 26.5t39 41.5t14 55q0 40 -28.5 68t-78.5 28q-87 0 -117 -78q-12 -34 -31 -50t-61 -16q-110 0 -110 97zM236 94 q0 51 34 84t90 33t90.5 -33.5t34.5 -83.5q0 -48 -34.5 -81t-90.5 -33t-90 33t-34 81z" />
<glyph unicode="@" horiz-adv-x="1400" d="M61 385q0 120 47 233.5t133.5 204.5t222 146t298.5 55q164 0 295 -59.5t206.5 -169t75.5 -250.5q0 -113 -48.5 -219t-138 -175t-194.5 -69q-120 0 -149 94q-83 -92 -205 -92q-107 0 -181.5 67.5t-74.5 186.5q0 172 104 286.5t253 114.5q81 0 145 -51q19 32 50 45t63 8 q45 -9 64.5 -39t8.5 -69l-80 -307q-23 -93 50 -93q72 0 130 95t58 219q0 151 -122.5 251.5t-313.5 100.5q-128 0 -234.5 -43.5t-175.5 -115.5t-107 -164t-38 -191q0 -197 138 -315.5t366 -118.5q202 0 393 121q58 38 92 0q15 -16 8.5 -45.5t-35.5 -51.5 q-74 -56 -194.5 -100.5t-261.5 -44.5q-130 0 -246.5 37t-206.5 105t-142.5 175t-52.5 238zM541 342q0 -40 24.5 -61t59.5 -21q53 0 92.5 30t54.5 85l21 78q11 51 -14 77.5t-70 26.5q-69 0 -117.5 -63.5t-50.5 -151.5z" />
<glyph unicode="A" horiz-adv-x="880" d="M18 40q-7 18 -7 39q0 28 12 62l256 693q28 74 63.5 107.5t97.5 33.5t98 -33.5t64 -107.5l256 -693q12 -33 12 -62q0 -21 -7 -39q-16 -42 -60 -52q-21 -5 -38 -5q-30 1 -50 15q-32 22 -53 86l-39 119h-365l-39 -119q-21 -64 -53 -86q-20 -14 -50 -15q-17 0 -38 5 q-44 10 -60 52zM305 348h270l-135 412z" />
<glyph unicode="B" horiz-adv-x="837" d="M92 131v684q0 77 30.5 111.5t115.5 34.5h188q145 0 220.5 -63.5t80.5 -178.5v-8q0 -51 -22 -105q-24 -58 -78 -84q176 -34 176 -235q0 -137 -86.5 -212t-251.5 -75h-229q-79 0 -111.5 28.5t-32.5 102.5zM301 176h141q142 0 142 113q0 112 -142 112h-141v-225zM301 573 h105q52 0 84 30.5t32 76.5q0 104 -121 104h-100v-211z" />
<glyph unicode="C" horiz-adv-x="835" d="M41 479q0 228 135.5 368t341.5 140q128 0 209.5 -43t81.5 -104q0 -40 -26 -69.5t-64 -29.5q-27 0 -91 22.5t-108 22.5q-113 0 -180.5 -83.5t-67.5 -227.5q0 -138 68.5 -220.5t185.5 -82.5q52 0 117 28.5t88 28.5q39 0 64.5 -27.5t25.5 -72.5q0 -65 -84 -111.5t-221 -46.5 q-211 0 -343 138.5t-132 369.5z" />
<glyph unicode="D" horiz-adv-x="948" d="M92 131v684q0 77 30.5 111.5t115.5 34.5h194q232 0 357.5 -124t125.5 -345q0 -227 -123.5 -359.5t-342.5 -132.5h-213q-84 0 -114 27.5t-30 103.5zM301 176h111q274 0 274 316q0 292 -278 292h-107v-608z" />
<glyph unicode="E" horiz-adv-x="681" d="M92 131v684q0 77 30.5 111.5t115.5 34.5h301q108 0 108 -89q0 -48 -27 -68t-81 -20h-238v-215h223q99 0 99 -90q0 -86 -99 -86h-223v-217h238q108 0 108 -88q0 -48 -27 -68t-81 -20h-303q-84 0 -114 27.5t-30 103.5z" />
<glyph unicode="F" horiz-adv-x="659" d="M92 82v733q0 77 30.5 111.5t115.5 34.5h301q108 0 108 -89q0 -48 -27 -68t-81 -20h-238v-235h223q46 0 72.5 -23t26.5 -67q0 -86 -99 -86h-223v-291q0 -102 -104 -102q-105 0 -105 102z" />
<glyph unicode="G" horiz-adv-x="983" d="M41 481q0 232 133.5 370t355.5 138q156 0 256.5 -60t100.5 -136q0 -38 -26 -67.5t-64 -29.5q-24 0 -55 15.5t-58.5 34t-70.5 34t-89 15.5q-117 0 -185.5 -83t-68.5 -227q0 -147 68.5 -233t183.5 -86q82 0 138.5 52.5t70.5 164.5h-141q-49 0 -77 23t-28 69q0 45 28.5 70.5 t76.5 25.5h217q75 0 112 -32.5t37 -108.5q0 -201 -123.5 -330t-326.5 -129t-334 141.5t-131 368.5z" />
<glyph unicode="H" horiz-adv-x="1007" d="M92 82v788q0 103 105 103q104 0 104 -103v-295h406v295q0 103 104 103t104 -103v-788q0 -102 -104 -102t-104 102v317h-406v-317q0 -102 -104 -102q-105 0 -105 102z" />
<glyph unicode="I" horiz-adv-x="395" d="M96 82v788q0 103 105 103q104 0 104 -103v-788q0 -102 -104 -102q-105 0 -105 102z" />
<glyph unicode="J" horiz-adv-x="612" d="M0 125q0 43 26.5 71.5t71.5 28.5q43 0 81 -26.5t61 -26.5q82 0 82 166v532q0 103 104 103t104 -103v-583q0 -153 -71 -233.5t-211 -80.5q-109 0 -178.5 45t-69.5 107z" />
<glyph unicode="K" horiz-adv-x="849" d="M92 78v792q0 103 105 103q104 0 104 -103v-299l326 357q31 34 70 40q6 1 12 0q32 0 61 -24q33 -34 33 -72q0 -42 -35 -79l-264 -283l295 -346q40 -45 40 -85q0 -38 -36 -71q-31 -29 -68 -29q-5 1 -10 1q-43 4 -78 47l-346 426v-375q0 -103 -104 -103q-105 0 -105 103z " />
<glyph unicode="L" horiz-adv-x="661" d="M92 131v739q0 103 105 103q104 0 104 -103v-680h234q116 0 116 -98q0 -92 -116 -92h-299q-79 0 -111.5 28.5t-32.5 102.5z" />
<glyph unicode="M" horiz-adv-x="1196" d="M19 68q1 33 6 71l122 690q25 144 148 144q58 0 91.5 -31.5t53.5 -95.5l156 -529h4l156 529q20 64 53.5 95.5t91.5 31.5q123 0 148 -144l122 -690q5 -38 6 -71t-19.5 -57.5t-63.5 -30.5q-35 -4 -59.5 3.5t-38 29t-20.5 43.5t-13 59l-82 503l-154 -534q-17 -57 -48 -83 t-81 -26q-53 0 -82 25.5t-47 83.5l-154 534l-82 -503q-6 -37 -13 -59t-20.5 -43.5t-38 -29t-59.5 -3.5q-43 6 -63.5 30.5t-19.5 57.5z" />
<glyph unicode="N" horiz-adv-x="1028" d="M92 82v756q0 135 96 135q64 0 115 -70l422 -557v524q0 103 104 103q107 0 107 -103v-757q0 -66 -22 -98.5t-74 -32.5q-35 0 -63.5 18.5t-59.5 60.5l-416 547v-526q0 -102 -104 -102q-105 0 -105 102z" />
<glyph unicode="O" horiz-adv-x="1028" d="M43 479q0 228 131 368t344 140q208 0 340.5 -140.5t132.5 -367.5q0 -228 -130 -368t-343 -140q-215 0 -345 140t-130 368zM258 477q0 -142 71.5 -227.5t188.5 -85.5q112 0 185 86.5t73 226.5q0 147 -72 233.5t-186 86.5q-116 0 -188 -86.5t-72 -233.5z" />
<glyph unicode="P" horiz-adv-x="823" d="M92 82v733q0 75 32 110.5t118 35.5h200q164 0 257.5 -87.5t93.5 -240.5q0 -164 -85 -248t-243 -84h-164v-219q-3 -102 -104 -102q-105 0 -105 102zM301 477h119q79 0 117 44t38 112q0 74 -36 112.5t-119 38.5h-119v-307z" />
<glyph unicode="Q" horiz-adv-x="1028" d="M43 479q0 228 131 368t344 140q208 0 340.5 -140.5t132.5 -367.5q0 -184 -90 -317l94 -84q22 -20 28 -44.5t-0.5 -44t-21.5 -36.5q-33 -36 -70 -39h-7q-33 0 -62 27l-100 92q-108 -62 -244 -62q-215 0 -345 140t-130 368zM258 477q0 -142 71.5 -227.5t188.5 -85.5 q48 0 86 14l-69 62q-21 18 -27 42t1 44.5t21 38.5q27 32 69 35h8q36 0 61 -23l73 -68q35 72 35 168q0 147 -72 233.5t-186 86.5q-116 0 -188 -86.5t-72 -233.5z" />
<glyph unicode="R" horiz-adv-x="811" d="M92 80v735q0 78 31.5 112t118.5 34h172q172 0 269 -81.5t97 -217.5q0 -118 -51 -194t-180 -106l194 -190q52 -51 52 -96q0 -33 -27 -62q-38 -37 -79 -37q-7 -1 -15 1q-48 8 -90 55l-283 313v-266q-3 -105 -104 -105q-105 0 -105 105zM301 498h119q75 0 109 41.5t34 103.5 q0 63 -34.5 102t-106.5 39h-121v-286z" />
<glyph unicode="S" horiz-adv-x="759" d="M37 133q0 49 29.5 82t80.5 33q43 0 78 -18.5t73.5 -37t90.5 -18.5q51 0 80 26t29 64q0 25 -12 47t-27.5 36t-44 28.5t-47.5 21.5t-52 19q-59 21 -100.5 41t-83.5 52.5t-64 79t-22 105.5q0 136 95.5 214.5t254.5 78.5q123 0 193.5 -37.5t70.5 -99.5q0 -44 -24.5 -75.5 t-69.5 -31.5q-33 0 -91 28t-97 28q-49 0 -76 -23.5t-27 -60.5q0 -47 47 -78.5t140 -63.5q51 -18 86.5 -34t71.5 -40t57.5 -51.5t35 -67.5t13.5 -89q0 -151 -97.5 -234.5t-275.5 -83.5q-140 0 -227.5 40.5t-87.5 119.5z" />
<glyph unicode="T" horiz-adv-x="712" d="M10 872q0 89 109 89h475q108 0 108 -89q0 -48 -27 -68t-81 -20h-133v-702q0 -102 -105 -102q-104 0 -104 102v702h-133q-54 0 -81.5 20.5t-27.5 67.5z" />
<glyph unicode="U" horiz-adv-x="1005" d="M92 379v491q0 103 105 103q104 0 104 -103v-462q0 -134 50.5 -193t152.5 -59t152.5 59t50.5 193v462q0 103 104 103t104 -103v-491q0 -408 -411 -408q-412 0 -412 408z" />
<glyph unicode="V" horiz-adv-x="884" d="M18 912q14 44 68 59q22 7 41 7q68 0 100 -85l215 -563l215 563q32 85 100 85q19 0 42 -7q53 -15 67 -59q5 -17 6 -34q0 -27 -14 -55l-305 -764q-31 -77 -111 -77q-79 0 -110 77l-305 764q-14 28 -14 55q0 17 5 34z" />
<glyph unicode="W" horiz-adv-x="1257" d="M16 838q-5 20 -5 37q1 33 17 60q24 40 93 40q81 0 100 -90l127 -553h2l162 551q26 90 117 90q90 0 116 -90l162 -551h2l127 553q19 90 101 90q69 0 93 -40q16 -26 16 -60q0 -18 -5 -37l-164 -707q-19 -78 -53 -113.5t-92 -35.5q-59 0 -95 34t-57 105l-149 504h-4 l-150 -504q-21 -71 -56.5 -105t-94.5 -34q-58 0 -92.5 35.5t-53.5 113.5z" />
<glyph unicode="X" horiz-adv-x="862" d="M8 68v7q0 29 23 64l270 365q1 0 -57 78l-116 156l-58 77q-22 33 -22 62v11q4 34 32 60q29 30 75 30t78 -42l195 -262l197 262q32 42 78 42t75 -30q28 -26 32 -60q1 -5 0 -11q0 -29 -22 -62q-231 -311 -233 -311l272 -365q23 -34 23 -64v-7q-4 -32 -31 -60 q-33 -32 -78 -32t-77 42l-234 314q0 1 -59 -77.5t-117 -157.5l-59 -79q-32 -42 -77.5 -42t-78.5 32q-27 28 -31 60z" />
<glyph unicode="Y" horiz-adv-x="772" d="M13.5 860.5q-7.5 27.5 1 54.5t36.5 46q27 16 53 16q14 0 28 -5q41 -13 71 -57l182 -274l182 274q29 44 70 57q14 5 29 5l53 -16q28 -19 36.5 -46t1 -54.5t-27.5 -55.5l-240 -352v-371q0 -102 -104 -102t-104 102v371l-240 352q-20 28 -27.5 55.5z" />
<glyph unicode="Z" horiz-adv-x="763" d="M20 113q0 57 76 155l379 516h-352q-50 0 -75 24t-25 64t25 64.5t75 24.5h444q85 0 120.5 -28t35.5 -85q0 -14 -2.5 -27.5t-8.5 -28.5t-10.5 -24.5t-15.5 -26t-14.5 -22t-17.5 -23.5t-15 -20l-367 -500h369q50 0 75 -24t25 -64t-25 -64t-75 -24h-465q-83 0 -119.5 28.5 t-36.5 84.5z" />
<glyph unicode="[" horiz-adv-x="520" d="M123 -45v950q0 83 37.5 113.5t124.5 30.5h94q60 0 90.5 -25.5t30.5 -67.5q0 -43 -30 -68.5t-91 -25.5h-55v-864h55q61 0 91 -25.5t30 -68.5q0 -42 -30.5 -67t-90.5 -25h-94q-87 0 -124.5 30t-37.5 113z" />
<glyph unicode="\" horiz-adv-x="647" d="M-2 918q8 44 49 63q51 21 87 6t59 -57l436 -805q24 -42 15.5 -82.5t-50.5 -60.5q-51 -20 -86 -5.5t-59 56.5l-437 805q-22 36 -14 80z" />
<glyph unicode="]" horiz-adv-x="520" d="M20 -96q0 43 30 68.5t91 25.5h56v864h-56q-61 0 -91 25.5t-30 68.5q0 42 30.5 67.5t90.5 25.5h95q87 0 124 -30.5t37 -113.5v-950q0 -83 -37 -113t-124 -30h-95q-60 0 -90.5 25t-30.5 67z" />
<glyph unicode="^" horiz-adv-x="778" d="M27.5 431q-11.5 34 9.5 75l270 465q40 65 82 65q44 0 82 -67l270 -463q21 -41 10 -75t-44 -50q-27 -18 -66.5 -9t-62.5 50l-187 336l-190 -336q-23 -41 -62.5 -50t-66.5 9q-33 16 -44.5 50z" />
<glyph unicode="_" horiz-adv-x="778" d="M-86 -236q0 42 22.5 67.5t63.5 25.5h778q43 0 64.5 -25t21.5 -68t-21.5 -67.5t-64.5 -24.5h-778q-41 0 -63.5 25t-22.5 67z" />
<glyph unicode="`" horiz-adv-x="708" d="M147.5 1022.5q-4.5 38.5 12.5 68.5t49 50q56 35 106.5 24.5t87.5 -63.5l115 -164q22 -32 26 -63t-7 -53t-33 -40q-35 -31 -87 -26.5t-93 47.5l-140 147q-32 34 -36.5 72.5z" />
<glyph unicode="a" horiz-adv-x="823" d="M41 360q0 164 86.5 270.5t226.5 106.5q124 0 189 -82q14 82 106 82q53 0 78 -25t25 -81v-541q0 -56 -25 -81t-78 -25q-97 0 -104 106q-62 -106 -209 -106q-131 0 -213 104t-82 272zM254 362q0 -100 41 -156t106 -56t105.5 56.5t40.5 155.5q0 98 -40.5 153.5t-105.5 55.5 t-106 -56t-41 -153z" />
<glyph unicode="b" horiz-adv-x="827" d="M80 90v848q0 106 102 106q103 0 103 -106v-283q65 82 192 82q141 0 227.5 -106.5t86.5 -270.5q0 -168 -82 -272t-213 -104q-147 0 -209 106q-7 -106 -105 -106q-53 0 -77.5 25t-24.5 81zM285 362q0 -99 40 -155.5t105 -56.5t106.5 56t41.5 156q0 97 -41.5 153t-106.5 56 t-105 -55.5t-40 -153.5z" />
<glyph unicode="c" horiz-adv-x="690" d="M41 360q0 167 102 272t271 105q108 0 171.5 -35t63.5 -94q0 -39 -26 -66.5t-62 -27.5q-31 0 -76 27.5t-75 27.5q-73 0 -115.5 -57t-42.5 -147q0 -92 43.5 -150.5t122.5 -58.5q31 0 75 26.5t72 26.5q36 0 60 -24t24 -64q0 -58 -70.5 -98.5t-183.5 -40.5q-157 0 -255.5 104 t-98.5 274z" />
<glyph unicode="d" horiz-adv-x="823" d="M37 360q0 164 86.5 270.5t226.5 106.5q128 0 193 -82v283q0 106 102 106q103 0 103 -106v-848q0 -56 -25 -81t-78 -25q-97 0 -104 106q-62 -106 -209 -106q-131 0 -213 104t-82 272zM250 362q0 -100 41 -156t106 -56t105.5 56.5t40.5 155.5q0 98 -40.5 153.5t-105.5 55.5 t-106 -56t-41 -153z" />
<glyph unicode="e" horiz-adv-x="790" d="M41 358q0 165 99 273t261 108q156 0 252.5 -100.5t96.5 -239.5q0 -94 -105 -94h-385q17 -78 62.5 -113.5t101.5 -35.5q60 0 123 29.5t106 29.5q37 0 58.5 -27.5t21.5 -68.5q0 -66 -83.5 -102.5t-233.5 -36.5q-175 0 -275 96t-100 282zM260 440h291q-28 127 -148 127 q-54 0 -94 -35t-49 -92z" />
<glyph unicode="f" horiz-adv-x="487" d="M0 627q0 41 32.5 65.5t98.5 24.5v86q0 107 59 174t164 67q64 0 98.5 -27t34.5 -73q0 -41 -22.5 -60t-73.5 -30q-29 -5 -41 -32.5t-12 -59.5v-45q76 0 113.5 -21t37.5 -69t-38 -68t-115 -20v-449q0 -106 -103 -106q-102 0 -102 106v449q-131 0 -131 88z" />
<glyph unicode="g" horiz-adv-x="823" d="M41 360q0 164 86.5 270.5t226.5 106.5q124 0 189 -82q14 82 106 82q53 0 78 -25t25 -81v-600q0 -184 -102.5 -281.5t-282.5 -97.5q-141 0 -225.5 42t-84.5 113q0 39 29.5 67t69.5 28q26 0 50.5 -12t43 -26t53 -26t76.5 -12q79 0 122.5 59.5t43.5 204.5 q-62 -106 -209 -106q-131 0 -213 104t-82 272zM254 362q0 -100 41 -156t106 -56t105.5 56.5t40.5 155.5q0 98 -40.5 153.5t-105.5 55.5t-106 -56t-41 -153z" />
<glyph unicode="h" horiz-adv-x="798" d="M80 90v848q0 106 102 106q103 0 103 -106v-272q84 71 204 71q112 0 178 -65.5t66 -190.5v-391q0 -106 -102 -106q-103 0 -103 106v336q0 152 -104 152q-58 0 -98.5 -46.5t-40.5 -128.5v-313q0 -106 -103 -106q-102 0 -102 106z" />
<glyph unicode="i" horiz-adv-x="364" d="M63 1001q0 47 35 81t84 34q47 0 82 -34t35 -81q0 -49 -34.5 -83.5t-82.5 -34.5q-53 0 -86 33t-33 85zM80 90v541q0 106 102 106q103 0 103 -106v-541q0 -106 -103 -106q-102 0 -102 106z" />
<glyph unicode="j" horiz-adv-x="364" d="M63 1001q0 47 35 81t84 34q47 0 82 -34t35 -81q0 -49 -34.5 -82.5t-82.5 -33.5q-53 0 -86 32t-33 84zM80 -193v826q0 104 102 104q103 0 103 -104v-826q0 -50 -26 -77t-77 -27q-102 0 -102 104z" />
<glyph unicode="k" horiz-adv-x="745" d="M86 90v848q0 106 102 106q103 0 103 -106v-471l209 215q24 25 48.5 38t52.5 10.5t50 -25.5q24 -28 24 -59q-1 -4 -1 -10q-4 -38 -39 -73l-152 -153l199 -240q42 -52 42 -95q0 -41 -40 -73q-29 -20 -58 -20q-12 0 -26 4q-42 13 -82 65l-227 303v-264q0 -106 -103 -106 q-102 0 -102 106z" />
<glyph unicode="l" horiz-adv-x="374" d="M86 90v848q0 106 102 106q103 0 103 -106v-848q0 -106 -103 -106q-102 0 -102 106z" />
<glyph unicode="m" horiz-adv-x="1204" d="M82 94v535q0 108 102 108q92 0 103 -88q38 39 94 63.5t113 24.5q68 0 117.5 -26.5t70.5 -63.5q84 90 217 90q108 0 174 -63t66 -193v-387q0 -110 -103 -110q-102 0 -102 110v348q0 129 -94 129q-53 0 -90 -43.5t-37 -107.5v-326q0 -110 -103 -110q-102 0 -102 110v348 q0 129 -94 129q-53 0 -90 -43.5t-37 -107.5v-326q0 -110 -103 -110q-102 0 -102 110z" />
<glyph unicode="n" horiz-adv-x="800" d="M82 94v535q0 108 102 108q96 0 103 -96q41 48 98 72t115 24q114 0 175.5 -68t61.5 -202v-373q0 -110 -102 -110q-103 0 -103 110v305q0 83 -22.5 127.5t-83.5 44.5q-57 0 -98 -51.5t-41 -126.5v-299q0 -110 -103 -110q-102 0 -102 110z" />
<glyph unicode="o" horiz-adv-x="802" d="M41 360q0 179 100 280t260 101q161 0 260 -101t99 -280q0 -180 -99 -281.5t-260 -101.5t-260.5 101.5t-99.5 281.5zM254 362q0 -92 40.5 -144t106.5 -52q67 0 107.5 52.5t40.5 143.5q0 89 -41 140t-107 51q-65 0 -106 -50.5t-41 -140.5z" />
<glyph unicode="p" horiz-adv-x="829" d="M82 -190v821q0 56 24.5 81t77.5 25q98 0 105 -106q62 106 209 106q131 0 213 -104.5t82 -272.5q0 -163 -86.5 -269.5t-227.5 -106.5q-127 0 -192 82v-256q0 -51 -26 -79t-77 -28q-102 0 -102 107zM287 358q0 -98 40 -153t105 -55t106.5 55.5t41.5 152.5 q0 100 -41.5 156.5t-106.5 56.5q-64 0 -104.5 -57t-40.5 -156z" />
<glyph unicode="q" horiz-adv-x="829" d="M37 360q0 168 82 272.5t213 104.5q147 0 209 -106q7 106 104 106q53 0 78 -25t25 -81v-821q0 -51 -26 -79t-77 -28q-102 0 -102 107v256q-65 -82 -193 -82q-141 0 -227 106t-86 270zM250 358q0 -97 41 -152.5t106 -55.5t105.5 55.5t40.5 152.5q0 99 -40.5 156t-105.5 57 t-106 -56.5t-41 -156.5z" />
<glyph unicode="r" horiz-adv-x="552" d="M80 94v537q0 56 25 81t77 25q103 0 103 -108q27 57 70.5 83.5t88.5 25.5q95 0 95 -99q0 -30 -8.5 -51.5t-26 -34t-33 -19t-39.5 -12.5q-58 -15 -102.5 -71.5t-44.5 -133.5v-223q0 -110 -103 -110q-102 0 -102 110z" />
<glyph unicode="s" horiz-adv-x="616" d="M33 121q0 34 24 58t56 24q36 0 87.5 -33t92.5 -33q36 0 55 16.5t19 43.5q0 35 -33.5 59t-97.5 51q-94 39 -139.5 86.5t-45.5 132.5q0 100 72.5 157.5t193.5 57.5q112 0 180 -32.5t68 -83.5q0 -37 -19 -59.5t-48 -22.5q-25 0 -78 25.5t-92 25.5q-31 0 -49.5 -15t-18.5 -38 q0 -8 3 -16t10 -16t12.5 -14t18 -13.5t19.5 -12t23 -12t22 -10t23.5 -10t20.5 -9.5q87 -38 128.5 -85t41.5 -134q0 -229 -287 -229q-121 0 -191.5 37t-70.5 104z" />
<glyph unicode="t" horiz-adv-x="487" d="M10 629q0 88 131 88v160q0 106 103 106q102 0 102 -106v-160q131 0 131 -88q0 -90 -131 -90v-449q0 -106 -102 -106q-103 0 -103 106v449q-131 0 -131 90z" />
<glyph unicode="u" horiz-adv-x="798" d="M76 289v340q0 108 102 108q103 0 103 -108v-348q0 -142 118 -142q119 0 119 142v348q0 108 103 108q102 0 102 -108v-340q0 -153 -83.5 -232.5t-240.5 -79.5q-158 0 -240.5 79t-82.5 233z" />
<glyph unicode="v" horiz-adv-x="686" d="M13 668q13 42 59 55q21 5 39 5q27 0 47 -14q32 -22 55 -83l131 -363l127 363q23 61 55 84q19 14 46 14q17 0 38 -6q48 -13 62 -55q5 -15 4 -32q0 -29 -14 -63l-189 -481q-23 -59 -51.5 -84.5t-79.5 -25.5t-79.5 25.5t-51.5 84.5l-188 481q-15 34 -15 64q0 16 5 31z" />
<glyph unicode="w" horiz-adv-x="1056" d="M12 670q12 40 58 53q22 7 41 7q29 0 47 -16q32 -26 51 -83l117 -332l104 334q14 47 36.5 68.5t61.5 21.5t62 -21.5t37 -68.5l104 -334l117 332q20 57 52 83q19 15 46 16q18 0 41 -7q45 -13 57 -53q4 -15 4 -33q0 -28 -12 -62l-172 -483q-21 -57 -47 -83.5t-76 -26.5 q-85 0 -116 100l-97 307l-96 -307q-31 -100 -117 -100q-50 0 -75 26.5t-47 83.5l-173 483q-12 33 -12 61q-1 18 4 34z" />
<glyph unicode="x" horiz-adv-x="704" d="M41 156l182 217l-153 182q-38 46 -38 83q0 33 29 60q30 30 70 30h10q46 -4 84 -52l125 -152l127 152q40 48 85 52h9q39 0 70 -30q28 -27 28 -61v-6q-3 -37 -36 -76l-154 -182l183 -217q32 -39 34 -77q0 -2 1 -3q0 -36 -31 -66q-29 -27 -64 -27q-8 0 -14 1q-44 6 -78 49 l-158 188l-159 -188q-35 -43 -79 -49q-7 -1 -13 -1q-35 0 -64 27q-31 30 -31 66q0 39 35 80z" />
<glyph unicode="y" horiz-adv-x="688" d="M15 663q13 41 57 58q23 7 42 7q25 0 43 -12q31 -23 56 -79l133 -318l131 318q23 56 55 79q18 12 44 12q19 0 42 -7q44 -17 57 -59q5 -15 5 -32q0 -28 -14 -61l-334 -784q-36 -86 -102 -86q-21 0 -44 8q-24 9 -38 25t-18 46q-1 5 -1 11q0 26 16 59l95 218l-215 503 q-15 34 -15 63q0 16 5 31z" />
<glyph unicode="z" horiz-adv-x="638" d="M31 82q0 51 59 127l258 332h-215q-48 0 -75 24t-27 66q0 41 27.5 64.5t74.5 23.5h350q115 0 115 -82q0 -51 -59 -127l-254 -332h235q48 0 75.5 -24t27.5 -66q0 -41 -27.5 -64.5t-75.5 -23.5h-375q-114 0 -114 82z" />
<glyph unicode="{" horiz-adv-x="561" d="M84 432q0 21 10.5 39t25 32t29 30t25 41.5t10.5 58.5v256q0 83 44 121.5t132 38.5h95q38 0 62 -24t24 -58t-24.5 -57t-65.5 -23h-66v-287q0 -117 -94 -168q94 -55 94 -170v-289h66q41 0 65.5 -22.5t24.5 -56.5t-24 -58t-62 -24h-95q-88 0 -132 38t-44 121v258 q0 33 -10.5 59t-25 41.5t-29 29.5t-25 32.5t-10.5 40.5z" />
<glyph unicode="|" horiz-adv-x="569" d="M184 -248v1342h201v-1342h-201z" />
<glyph unicode="}" horiz-adv-x="561" d="M20 -106q0 33 25 56t66 23h65v289q0 115 94 170q-94 51 -94 168v287h-65q-41 0 -66 23t-25 57t24 58t62 24h95q88 0 132 -38.5t44 -121.5v-256q0 -33 10.5 -58.5t25 -41.5t29 -30t25 -32t10.5 -39q0 -22 -10.5 -40.5t-25 -32.5t-29 -29.5t-25 -41.5t-10.5 -59v-258 q0 -83 -44 -121t-132 -38h-95q-38 0 -62 24t-24 58z" />
<glyph unicode="~" horiz-adv-x="800" d="M49 319q1 38 29 78q76 95 203 95q42 0 80 -12.5t61 -27.5t47 -27.5t41 -12.5t31 6.5t21 13t20 21.5q34 35 74.5 35.5t68.5 -27.5q26 -23 25 -62t-29 -77q-74 -95 -203 -95q-47 0 -91.5 19t-78.5 38t-55 19q-44 0 -78 -39q-32 -35 -72.5 -35.5t-68.5 27.5q-26 25 -25 63z " />
<glyph unicode="&#xa2;" horiz-adv-x="690" d="M41 475q0 133 66 229t182 130v114q0 92 90 92t90 -92v-98q85 -9 132.5 -42.5t47.5 -84.5q0 -39 -26 -66.5t-62 -27.5q-31 0 -76 27.5t-75 27.5q-73 0 -115.5 -57.5t-42.5 -147.5q0 -92 43.5 -150.5t122.5 -58.5q31 0 75 27t72 27q36 0 60 -24t24 -64q0 -48 -49 -85 t-131 -49v-112q0 -92 -90 -92t-90 92v121q-114 33 -181 129t-67 235z" />
<glyph unicode="&#xa3;" horiz-adv-x="843" d="M20 88q0 45 30 68.5t85 23.5h72v226h-74q-42 0 -67 25t-25 63q0 36 25 61t65 25h76v110q0 136 88.5 216.5t245.5 80.5q134 0 207 -39t73 -106q0 -49 -29.5 -78t-72.5 -29q-34 0 -57.5 15.5t-51 31t-71.5 15.5q-55 0 -89 -29t-34 -92v-96h147q40 0 65 -25t25 -61 q0 -38 -25 -63t-67 -25h-145v-226h291q55 0 84.5 -23.5t29.5 -68.5q0 -42 -30 -65t-84 -23h-572q-54 0 -84.5 23t-30.5 65z" />
<glyph unicode="&#xa4;" horiz-adv-x="839" d="M8 164l148 145q-62 83 -62 193q0 114 62 188l-148 150l76 71l145 -145q80 59 193 59q119 0 188 -59l150 145l71 -71l-145 -150q59 -80 59 -188q0 -113 -59 -193l145 -145l-71 -76l-150 148q-31 -25 -84 -43q-55 -19 -104 -19q-110 0 -193 62l-145 -148zM197 502 q0 -95 63 -164q65 -68 162 -68q93 0 158 68q63 63 63 164q0 94 -63 160.5t-158 66.5q-96 0 -160 -67q-65 -74 -65 -160z" />
<glyph unicode="&#xa5;" horiz-adv-x="772" d="M0 303q0 36 25 61t65 25h191v64l-27 39h-162q-42 0 -67 25t-25 63q0 36 25 61t65 25h45l-94 139q-20 28 -27.5 55.5t1 54.5t36.5 46q41 25 81.5 11.5t70.5 -57.5l182 -274l182 274q29 44 70 57.5t82 -11.5q28 -19 36.5 -46t1 -54.5t-27.5 -55.5l-94 -139h47q40 0 65 -25 t25 -61q0 -38 -25 -63t-67 -25h-164l-27 -39v-64h193q40 0 65 -25t25 -61q0 -38 -25 -63t-67 -25h-191v-133q0 -102 -104 -102t-104 102v133h-189q-42 0 -67 25t-25 63z" />
<glyph unicode="&#xa9;" horiz-adv-x="1167" d="M61 502q0 142 70 262.5t190.5 190t262.5 69.5q106 0 203 -41t167 -111t111 -167t41 -203t-41 -203t-111 -167t-167 -111t-203 -41q-142 0 -262.5 69.5t-190.5 190t-70 262.5zM182 502q0 -166 118 -284t284 -118t283.5 118t117.5 284t-117.5 283.5t-283.5 117.5 t-284 -117.5t-118 -283.5zM301 502q0 138 85.5 221.5t217.5 83.5q84 0 137.5 -29.5t53.5 -68.5q0 -32 -20.5 -52t-51.5 -20q-16 0 -54.5 11t-64.5 11q-60 0 -95.5 -43t-35.5 -116q0 -71 36 -113.5t99 -42.5q32 0 71 15.5t52 15.5q31 0 50.5 -19.5t19.5 -54.5 q0 -42 -54.5 -73t-144.5 -31q-134 0 -217.5 83.5t-83.5 221.5z" />
<glyph unicode="&#xab;" horiz-adv-x="856" d="M51 354q0 32 33 62l174 168q26 25 55.5 34.5t53 4t39.5 -22.5q28 -29 24.5 -67t-37.5 -72l-106 -109l106 -108q34 -34 37.5 -72.5t-24.5 -67.5q-16 -17 -39.5 -22.5t-53 4.5t-55.5 35l-174 168q-33 33 -33 65zM420 354q0 32 33 62l174 168q26 25 55 34.5t52.5 4 t39.5 -22.5q28 -29 25 -67t-37 -72l-107 -109l107 -108q34 -34 37 -72.5t-25 -67.5q-16 -17 -39.5 -22.5t-52.5 4.5t-55 35l-174 168q-33 33 -33 65z" />
<glyph unicode="&#xac;" horiz-adv-x="778" d="M61 297v90h637v-268h-82v178h-555z" />
<glyph unicode="&#xad;" horiz-adv-x="778" d="M31 414q0 41 26.5 66.5t69.5 25.5h524q43 0 70 -25.5t27 -66.5t-27 -66.5t-70 -25.5h-524q-43 0 -69.5 25.5t-26.5 66.5z" />
<glyph unicode="&#xae;" horiz-adv-x="1167" d="M61 502q0 142 70 262.5t190.5 190t262.5 69.5q106 0 203 -41t167 -111t111 -167t41 -203t-41 -203t-111 -167t-167 -111t-203 -41q-142 0 -262.5 69.5t-190.5 190t-70 262.5zM182 502q0 -166 118 -284t284 -118t283.5 118t117.5 284t-117.5 283.5t-283.5 117.5 t-284 -117.5t-118 -283.5zM375 279v419q0 50 23 73.5t83 23.5h103q112 0 174.5 -50t62.5 -135q0 -66 -27 -110t-96 -66l95 -90q67 -60 16 -111q-34 -33 -69 -28t-66 39l-142 147v-112q0 -74 -77 -74q-80 0 -80 74zM532 518h56q36 0 52.5 24t16.5 58q0 80 -69 80h-56v-162z " />
<glyph unicode="&#xb0;" horiz-adv-x="540" d="M66 713q0 83 58 142.5t142 59.5q86 0 145.5 -58.5t59.5 -143.5t-59.5 -144t-145.5 -59q-82 0 -141 59t-59 144zM121 713q0 -60 42.5 -104t102.5 -44q62 0 105 43q45 45 45 105t-44 102.5t-106 42.5q-63 0 -104 -41t-41 -104z" />
<glyph unicode="&#xb6;" horiz-adv-x="727" d="M0 858q0 153 94 229q91 66 248 66h389v-41h-102v-1356h-62v1356h-145v-1356h-55v805q-168 0 -263 62q-104 73 -104 235z" />
<glyph unicode="&#xb7;" horiz-adv-x="337" d="M96 449q0 31 21 51t53 20q30 0 51 -21.5t21 -49.5q0 -31 -21.5 -52.5t-50.5 -21.5q-32 0 -53 21t-21 53z" />
<glyph unicode="&#xbb;" horiz-adv-x="856" d="M53 171.5q3 38.5 37 72.5l107 108l-107 109q-34 34 -37 72t25 67q16 17 39.5 22.5t52.5 -4t55 -34.5l174 -168q33 -30 33 -62t-33 -65l-174 -168q-26 -25 -55 -35t-52.5 -4.5t-39.5 22.5q-28 29 -25 67.5zM421.5 171.5q3.5 38.5 37.5 72.5l106 108l-106 109 q-34 34 -37.5 72t24.5 67q16 17 39.5 22.5t53 -4t55.5 -34.5l174 -168q33 -30 33 -62t-33 -65l-174 -168q-26 -25 -55.5 -35t-53 -4.5t-39.5 22.5q-28 29 -24.5 67.5z" />
<glyph unicode="&#xbc;" horiz-adv-x="1253" d="M53 899q0 72 99 72h90q60 0 83 -23t23 -74v-409q0 -74 -80 -74q-82 0 -82 74v366h-34q-99 0 -99 68zM194.5 42q-2.5 37 22.5 64l678 820q66 82 129 49q33 -20 35.5 -55.5t-23.5 -65.5l-678 -819q-65 -83 -129 -49q-32 19 -34.5 56zM694 174q0 26 31 74l199 270 q51 66 100 66q84 0 84 -99v-249q74 -5 74 -56q0 -22 -18 -40t-56 -25v-58q0 -37 -16.5 -53t-49.5 -16q-65 0 -65 69v64h-197q-86 0 -86 53zM850 248h127v174z" />
<glyph unicode="&#xbd;" horiz-adv-x="1253" d="M53 899q0 72 99 72h90q60 0 83 -23t23 -74v-409q0 -74 -80 -74q-82 0 -82 74v366h-34q-99 0 -99 68zM143.5 42q-2.5 37 22.5 64l678 820q66 82 129 49q33 -20 35.5 -55.5t-23.5 -65.5l-678 -819q-65 -83 -129 -49q-32 19 -34.5 56zM743 72q0 19 35 63q9 11 74.5 73 t108.5 114t43 81q0 19 -13 31t-33 12q-43 0 -53 -47q-6 -32 -25 -46.5t-57 -14.5q-35 0 -57.5 19t-22.5 53q0 66 61 120t154 54q105 0 160.5 -48.5t55.5 -125.5q0 -52 -43.5 -114.5t-139.5 -156.5h119q90 0 90 -65q0 -74 -90 -74h-272q-95 0 -95 72z" />
<glyph unicode="&#xbe;" horiz-adv-x="1253" d="M53 512q0 33 21.5 51.5t54.5 18.5q44 0 76 -35q26 -37 76 -37q28 0 44.5 13t16.5 38q0 28 -21 42.5t-55 14.5q-29 0 -47 19t-18 51q0 29 18 47.5t47 18.5q53 0 53 43q0 14 -14 26.5t-33 12.5q-33 0 -55 -27q-15 -20 -29.5 -28.5t-42.5 -8.5q-35 0 -56 19t-21 47 q0 50 56 91.5t148 41.5q96 0 150.5 -44.5t54.5 -115.5q0 -56 -59 -109q90 -54 90 -143q0 -84 -61 -136t-171 -52q-105 0 -164 44.5t-59 96.5zM264.5 42q-2.5 37 22.5 64l678 820q66 82 129 49q33 -20 35.5 -55.5t-23.5 -65.5l-678 -819q-65 -83 -129 -49q-32 19 -34.5 56z M715 174q0 27 30 74l199 270q51 66 100 66q84 0 84 -99v-249q74 -5 74 -56q0 -22 -18 -40t-56 -25v-58q0 -37 -16 -53t-49 -16q-66 0 -66 69v64h-196q-86 0 -86 53zM870 248h127v174z" />
<glyph unicode="&#xd7;" horiz-adv-x="778" d="M56 176.5q1 36.5 32 67.5l170 170l-170 170q-31 31 -32 67.5t30 65.5q29 31 65.5 30t67.5 -32l170 -170l170 170q31 31 67.5 32t65.5 -30q31 -29 30 -65.5t-32 -67.5l-170 -170l170 -170q31 -31 32 -67.5t-30 -65.5q-29 -31 -65.5 -30t-67.5 32l-170 170l-170 -170 q-31 -31 -67.5 -32t-65.5 30q-31 29 -30 65.5z" />
<glyph unicode="&#xf7;" horiz-adv-x="778" d="M31 414q0 41 26.5 66.5t69.5 25.5h524q43 0 70 -25.5t27 -66.5t-27 -66.5t-70 -25.5h-524q-43 0 -69.5 25.5t-26.5 66.5zM268 123q0 49 33.5 83t87.5 34t87.5 -34t33.5 -83t-33.5 -83t-87.5 -34t-87.5 34t-33.5 83zM268 705q0 49 33.5 82.5t87.5 33.5t87.5 -33.5 t33.5 -82.5t-33.5 -83t-87.5 -34t-87.5 34t-33.5 83z" />
<glyph unicode="&#xe00;" horiz-adv-x="204" />
<glyph unicode="&#xe01;" horiz-adv-x="823" d="M72 63v531q0 119 89 184.5t251 65.5t251 -65.5t89 -184.5v-531q0 -44 -28.5 -66t-74.5 -22q-45 0 -73.5 22t-28.5 66v504q0 109 -135 109q-67 0 -101.5 -28.5t-34.5 -80.5v-504q0 -44 -28.5 -66t-73.5 -22t-73.5 22t-28.5 66z" />
<glyph unicode="&#xe02;" horiz-adv-x="761" d="M66.5 770q4.5 30 36 52t77.5 22q75 0 107 -58l69 -118q52 -87 -22 -150l-58 -49v-242q0 -43 29 -63.5t76 -20.5q46 0 75 20.5t29 63.5v529q0 44 28.5 66t74.5 22q45 0 73.5 -22t28.5 -66v-541q0 -240 -309 -240t-309 240v246q0 41 23 72.5t46 42.5l23 12l-84 121 q-18 31 -13.5 61z" />
<glyph unicode="&#xe03;" horiz-adv-x="786" d="M2.5 723q-6.5 30 5 56.5t40 45.5t63.5 19q34 0 65 -23l27 -22l28 22q26 23 70 23q47 0 78 -30t30 -72t-38 -74l-37 -31q-37 -30 -37 -72v-338q0 -43 29 -63.5t75 -20.5q47 0 76 20.5t29 63.5v529q0 44 28.5 66t73.5 22q46 0 74.5 -22t28.5 -66v-541q0 -240 -310 -240 q-309 0 -309 240v313q0 21 10 41t20 29l9 10l-94 66q-28 19 -34.5 49z" />
<glyph unicode="&#xe04;" horiz-adv-x="823" d="M72 63v531q0 119 89 184.5t251 65.5t251 -65.5t89 -184.5v-531q0 -44 -28.5 -66t-74.5 -22q-45 0 -73.5 22t-28.5 66v504q0 109 -135 109q-67 0 -101.5 -28.5t-34.5 -80.5v-78h82q46 0 70.5 -29t24.5 -67t-24.5 -67t-70.5 -29h-82v-234q0 -44 -28.5 -66t-73.5 -22 t-73.5 22t-28.5 66z" />
<glyph unicode="&#xe05;" horiz-adv-x="823" d="M72 63v615q0 82 47.5 124t128.5 42q102 0 164 -66q62 66 163 66q81 0 129 -42t48 -124v-615q0 -44 -28.5 -66t-74.5 -22q-45 0 -73.5 22t-28.5 66v607q-2 -3 -5.5 -7.5t-16.5 -16t-27.5 -20.5t-37.5 -16.5t-48 -7.5q-39 0 -73 17t-49 34l-14 17v-181h82q46 0 70.5 -29 t24.5 -67t-24.5 -67t-70.5 -29h-82v-234q0 -44 -28.5 -66t-73.5 -22t-73.5 22t-28.5 66z" />
<glyph unicode="&#xe06;" horiz-adv-x="843" d="M2.5 723q-6.5 30 5 56.5t40 45.5t63.5 19q39 0 65 -23l27 -22l28 22q26 23 70 23q47 0 78 -30.5t30 -73t-38 -72.5l-37 -31q-37 -30 -37 -72v-268q0 -54 58 -99.5t116 -45.5q96 0 96 104v500q0 44 28.5 66t74.5 22q45 0 73.5 -22t28.5 -66v-545q0 -113 -59.5 -172 t-157.5 -59q-161 0 -258 100v-17q0 -44 -28.5 -66t-73.5 -22q-46 0 -74.5 22t-28.5 66v472q0 21 10 39t20 26l9 8l-94 66q-28 19 -34.5 49z" />
<glyph unicode="&#xe07;" horiz-adv-x="694" d="M23 240q-9 45 21.5 77.5t86.5 32.5q77 0 90 -65l29 -133h168v503h-41q-41 0 -66.5 26.5t-25.5 63.5t25.5 64t66.5 27h135q54 0 82.5 -28t28.5 -75v-596q0 -153 -183 -153h-192q-93 0 -136.5 23t-60.5 102z" />
<glyph unicode="&#xe08;" horiz-adv-x="737" d="M31 645q0 78 82 138.5t227 60.5q163 0 244.5 -62t81.5 -182v-537q0 -44 -28.5 -66t-74.5 -22q-45 0 -73.5 22t-28.5 66v230h-103q-46 0 -70 29t-24 67t24 67t70 29h103v93q0 98 -117 98q-86 0 -115 -66q-6 -16 -13 -26t-26 -19.5t-47 -9.5q-50 0 -81 22.5t-31 67.5z" />
<glyph unicode="&#xe09;" horiz-adv-x="802" d="M61 643q0 77 83 139t243 62q169 0 256.5 -63.5t87.5 -184.5v-533q0 -44 -28.5 -66t-73.5 -22q-46 0 -74.5 22t-28.5 66v13q-96 -96 -233 -96q-105 0 -163 62t-58 181v150q0 44 28.5 66t73.5 22t73.5 -22t28.5 -66v-137q0 -84 91 -84q59 0 109 50.5t50 112.5v248 q0 58 -31.5 85.5t-101.5 27.5q-103 0 -131 -70q-19 -51 -92 -51q-49 0 -79 22t-30 66z" />
<glyph unicode="&#xe0a;" horiz-adv-x="761" d="M72 215v541q0 44 28.5 66t73.5 22t73.5 -22t28.5 -66v-529q0 -43 29 -63.5t76 -20.5q46 0 75 20.5t29 63.5v236l-65 43q-39 25 -44 67t21 82l76 127q34 62 105 62q77 0 108 -43t-4 -92l-84 -121q4 -1 10 -4t22 -13.5t28 -23.5t22 -36t10 -50v-246q0 -240 -309 -240 t-309 240z" />
<glyph unicode="&#xe0b;" horiz-adv-x="782" d="M2.5 723q-6.5 30 5 56.5t40 45.5t63.5 19q34 0 65 -23l27 -22l28 22q26 23 70 23q47 0 78 -30t30 -72t-38 -74l-37 -31q-37 -30 -37 -72v-338q0 -43 29 -63.5t75 -20.5q47 0 76 20.5t29 63.5v236l-66 43q-38 25 -43 67t21 82l76 127q34 62 104 62q77 0 108 -43t-4 -92 l-84 -121q4 -1 10 -4t22 -13.5t28.5 -23.5t22.5 -36t10 -50v-246q0 -240 -310 -240q-309 0 -309 240v313q0 21 10 41t20 29l9 10l-94 66q-28 19 -34.5 49z" />
<glyph unicode="&#xe0c;" horiz-adv-x="1277" d="M51 627q0 88 97.5 152.5t252.5 64.5q167 0 259 -70t92 -190v-287q0 -60 56.5 -102.5t113.5 -42.5q39 0 59 18.5t20 65.5v520q0 44 28.5 66t74.5 22q45 0 73.5 -22t28.5 -66v-539q0 -119 -58 -178t-163 -59q-137 0 -233 96v-13q0 -44 -28.5 -66t-74.5 -22q-45 0 -73.5 22 t-28.5 66v496q0 53 -44.5 85t-113.5 32q-94 0 -135 -45q10 -5 25 -14.5t40 -35.5t25 -49q0 -25 -34 -67t-34 -72v-229h62q41 0 66.5 -26.5t25.5 -63.5t-25.5 -63.5t-66.5 -26.5h-152q-55 0 -84.5 28t-29.5 78v316q0 35 19 67t50 47q-90 37 -90 107z" />
<glyph unicode="&#xe0d;" horiz-adv-x="1277" d="M51 627q0 88 97.5 152.5t252.5 64.5q167 0 259 -70t92 -190v-328q0 -113 125 -113q124 0 124 113v500q0 44 28.5 66t74.5 22q45 0 73.5 -22t28.5 -66v-525q0 -256 -329 -256q-171 0 -250.5 68t-79.5 188v328q0 53 -44.5 85t-113.5 32q-94 0 -135 -45q10 -5 25 -14.5 t40 -35.5t25 -49q0 -25 -34 -67t-34 -72v-229h62q41 0 66.5 -26.5t25.5 -63.5t-25.5 -63.5t-66.5 -26.5h-152q-55 0 -84.5 28t-29.5 78v316q0 35 19 67t50 47q-90 37 -90 107zM588 -127q0 44 28.5 66t73.5 22q46 0 74.5 -22t28.5 -66v-8h280q47 0 69.5 -26t22.5 -60 t-22.5 -60t-69.5 -26h-381q-104 0 -104 94v86z" />
<glyph unicode="&#xe0e;" horiz-adv-x="884" d="M10 74q0 37 25.5 63.5t66.5 26.5h31v430q0 119 89 184.5t251 65.5t251 -65.5t89 -184.5v-803q0 -143 -192 -143q-49 0 -76 2.5t-60 17.5t-53 45q-32 -65 -135 -65h-111q-47 0 -70.5 27t-23.5 61q0 36 23.5 62t70.5 26h123q1 3 3.5 7.5t12.5 16t23 20.5t35.5 16t48.5 7 q27 0 49.5 -7t35.5 -16.5t22 -19.5t13 -17l3 -7h53v743q0 109 -135 109q-66 0 -100.5 -28.5t-34.5 -80.5v-477q0 -50 -30 -78t-85 -28h-121q-41 0 -66.5 26.5t-25.5 63.5z" />
<glyph unicode="&#xe0f;" horiz-adv-x="884" d="M10 74q0 37 25.5 63.5t66.5 26.5h31v430q0 119 89 184.5t251 65.5t251 -65.5t89 -184.5v-801q0 -79 -46.5 -112t-135.5 -33q-49 0 -77 2.5t-61 17.5t-51 45q-36 -65 -143 -65h-92q-135 0 -135 112v72q0 44 28.5 66t73.5 22t73.5 -22t28.5 -66v-10h43q1 3 3.5 7.5t12 16.5 t22 21t35.5 16.5t50 7.5t50 -7t36 -16.5t22 -19.5t12 -17l3 -7h43v743q0 109 -135 109q-66 0 -100.5 -28.5t-34.5 -80.5v-477q0 -50 -30 -78t-85 -28h-121q-41 0 -66.5 26.5t-25.5 63.5z" />
<glyph unicode="&#xe10;" horiz-adv-x="747" d="M0 -264q0 36 23.5 62t70.5 26h88q1 3 3.5 7.5t12.5 16t23 20.5t35.5 16t48.5 7t48.5 -7t35.5 -16.5t22.5 -19.5t12.5 -17l4 -7h33v22q0 44 28.5 66t73.5 22q46 0 74.5 -22t28.5 -66v-75q0 -68 -40.5 -95.5t-144.5 -27.5q-37 0 -56.5 1.5t-45 7.5t-43 20t-31.5 38 q-13 -39 -46 -53t-89 -14h-76q-47 0 -70.5 27t-23.5 61zM31 645q0 78 82 138.5t227 60.5q76 0 135 -15q4 5 12 16.5t11.5 16t11.5 13.5t14.5 13t16.5 8.5t22 6.5t27 2q47 0 79.5 -24t36 -55t-19.5 -62l-45 -49q25 -52 25 -115v-537q0 -44 -28.5 -66t-74.5 -22 q-45 0 -73.5 22t-28.5 66v230h-103q-46 0 -70 29t-24 67t24 67t70 29h103v93q0 98 -117 98q-86 0 -115 -66q-6 -16 -13 -26t-26 -19.5t-47 -9.5q-50 0 -81 22.5t-31 67.5z" />
<glyph unicode="&#xe11;" horiz-adv-x="878" d="M-5 735q-2 43 29 76t78 33q39 0 66 -23l33 -26l18 18q31 31 80 31q57 0 79.5 -24.5t22.5 -59.5q83 80 193 80q97 0 155 -59.5t58 -172.5v-545q0 -44 -28.5 -66t-73.5 -22q-46 0 -74.5 22t-28.5 66v498q0 88 -63 88q-68 0 -137.5 -66t-69.5 -124v-396q0 -44 -28.5 -66 t-74.5 -22q-45 0 -73.5 22t-28.5 66v406q0 27 12.5 53.5t24.5 39.5l12 13l-141 93q-38 24 -40 67z" />
<glyph unicode="&#xe12;" horiz-adv-x="1376" d="M72 145v490q0 94 58 151.5t169 57.5q115 0 162 -76q47 76 162 76q111 0 169 -57.5t58 -151.5v-342q0 -60 56.5 -103t113.5 -43q92 0 92 84v525q0 44 25.5 66t70.5 22t71 -22t26 -66v-539q0 -119 -58 -178t-164 -59q-137 0 -233 96v-13q0 -44 -25.5 -66t-68.5 -22 t-68.5 22t-25.5 66v562q0 23 -14.5 37t-35.5 14h-6q-2 -3 -5 -8t-15.5 -18.5t-27.5 -23.5t-41 -18t-56 -8t-56 8t-41.5 19t-27 22t-16.5 19l-5 8h-6q-21 0 -35 -14t-14 -37v-443l141 201q-39 0 -63.5 23t-24.5 59q0 40 27 65t74 25h75q121 0 121 -96q0 -49 -39 -107 l-149 -231q-43 -66 -88 -101.5t-111 -35.5q-151 0 -151 161z" />
<glyph unicode="&#xe13;" horiz-adv-x="1277" d="M51 627q0 88 97.5 152.5t252.5 64.5q167 0 259 -70t92 -190v-348q0 -48 19.5 -66t59.5 -18q56 0 113 43t57 102v459q0 44 28.5 66t74.5 22q45 0 73.5 -22t28.5 -66v-693q0 -44 -28.5 -66t-73.5 -22q-46 0 -74.5 22t-28.5 66v13q-96 -96 -233 -96q-105 0 -163 59t-58 178 v342q0 53 -44.5 85t-113.5 32q-94 0 -135 -45q10 -5 25 -14.5t40 -35.5t25 -49q0 -25 -34 -67t-34 -72v-229h62q41 0 66.5 -26.5t25.5 -63.5t-25.5 -63.5t-66.5 -26.5h-152q-55 0 -84.5 28t-29.5 78v316q0 35 19 67t50 47q-90 37 -90 107z" />
<glyph unicode="&#xe14;" horiz-adv-x="921" d="M72 145v428q0 136 103.5 203.5t285.5 67.5t285.5 -67.5t103.5 -203.5v-510q0 -44 -25.5 -66t-68.5 -22t-68.5 22t-25.5 66v488q0 48 -32 78.5t-74 40.5t-95 10q-51 0 -93 -10t-75 -40.5t-33 -78.5v-369l141 201q-39 0 -63.5 23t-24.5 59q0 40 27 65t74 25h75 q121 0 121 -96q0 -49 -39 -107l-149 -231q-43 -66 -88 -101.5t-111 -35.5q-151 0 -151 161z" />
<glyph unicode="&#xe15;" horiz-adv-x="921" d="M72 145v490q0 94 58 151.5t169 57.5q115 0 162 -76q47 76 162 76q111 0 169 -57.5t58 -151.5v-572q0 -44 -25.5 -66t-68.5 -22t-68.5 22t-25.5 66v562q0 23 -14.5 37t-35.5 14h-6q-2 -3 -5 -8t-15.5 -18.5t-27.5 -23.5t-41 -18t-56 -8t-56 8t-41.5 19t-27 22t-16.5 19 l-5 8h-6q-21 0 -35 -14t-14 -37v-443l141 201q-39 0 -63.5 23t-24.5 59q0 40 27 65t74 25h75q121 0 121 -96q0 -49 -39 -107l-149 -231q-43 -66 -88 -101.5t-111 -35.5q-151 0 -151 161z" />
<glyph unicode="&#xe16;" horiz-adv-x="823" d="M51 627q0 88 97.5 152.5t252.5 64.5q167 0 259 -70t92 -190v-521q0 -44 -28.5 -66t-74.5 -22q-45 0 -73.5 22t-28.5 66v496q0 53 -44.5 85t-113.5 32q-94 0 -135 -45q10 -5 25 -14.5t40 -35.5t25 -49q0 -25 -34 -67t-34 -72v-229h62q41 0 66.5 -26.5t25.5 -63.5 t-25.5 -63.5t-66.5 -26.5h-152q-55 0 -84.5 28t-29.5 78v316q0 35 19 67t50 47q-90 37 -90 107z" />
<glyph unicode="&#xe17;" horiz-adv-x="823" d="M72 63v693q0 44 28.5 66t73.5 22t73.5 -22t28.5 -66v-17q95 101 248 101q99 0 163.5 -60t64.5 -172v-545q0 -44 -28.5 -66t-74.5 -22q-45 0 -73.5 22t-28.5 66v500q0 105 -96 105q-57 0 -116 -55.5t-59 -110.5v-439q0 -44 -28.5 -66t-73.5 -22t-73.5 22t-28.5 66z" />
<glyph unicode="&#xe18;" horiz-adv-x="700" d="M41 621q0 104 84 162.5t221 58.5q140 0 213.5 -41t73.5 -99q0 -38 -29 -65t-72 -27q-42 0 -77 31q-40 31 -109 31q-40 0 -67 -13.5t-27 -35.5q0 -16 22.5 -29t58.5 -25l79.5 -26.5t86.5 -38t79 -55.5t58.5 -83t22.5 -116q0 -275 -243 -275h-146q-116 0 -167.5 35 t-51.5 133v140q0 44 28.5 66t74.5 22q45 0 73.5 -22t28.5 -66v-144h94q48 0 74.5 23.5t26.5 79.5q0 46 -30.5 78.5t-76 49t-98.5 37t-98.5 42t-76 66t-30.5 106.5z" />
<glyph unicode="&#xe19;" horiz-adv-x="823" d="M72 211v545q0 44 28.5 66t73.5 22t73.5 -22t28.5 -66v-500q0 -104 97 -104q58 0 116 47.5t58 97.5v459q0 44 28.5 66t73.5 22q46 0 74.5 -22t28.5 -66v-693q0 -44 -28.5 -66t-74.5 -22q-45 0 -73.5 22t-28.5 66v17q-94 -100 -248 -100q-102 0 -164.5 59t-62.5 172z" />
<glyph unicode="&#xe1a;" horiz-adv-x="823" d="M72 229v527q0 44 28.5 66t73.5 22t73.5 -22t28.5 -66v-496q0 -53 34 -85t102 -32q69 0 102 31.5t33 85.5v496q0 44 28.5 66t73.5 22q46 0 74.5 -22t28.5 -66v-527q0 -119 -89 -186.5t-251 -67.5t-251 67.5t-89 186.5z" />
<glyph unicode="&#xe1b;" horiz-adv-x="823" d="M72 229v527q0 44 28.5 66t73.5 22t73.5 -22t28.5 -66v-496q0 -53 34 -85t102 -32q69 0 102 31.5t33 85.5v655q0 44 28.5 66.5t73.5 22.5t74 -22.5t29 -66.5v-686q0 -119 -89 -186.5t-251 -67.5t-251 67.5t-89 186.5z" />
<glyph unicode="&#xe1c;" horiz-adv-x="1126" d="M72 217v512q0 49 29.5 78t84.5 29h131q46 0 69.5 -26t23.5 -65t-23 -64.5t-70 -25.5h-41v-422q0 -90 93 -90q92 0 92 90v523q0 44 28.5 66t73.5 22q46 0 74.5 -22t28.5 -66v-523q0 -90 92 -90t92 90v523q0 44 28.5 66t73.5 22q46 0 74.5 -22t28.5 -66v-539 q0 -116 -64.5 -179t-191.5 -63q-167 0 -236 91q-69 -91 -235 -91q-127 0 -191.5 63t-64.5 179z" />
<glyph unicode="&#xe1d;" horiz-adv-x="1126" d="M72 217v512q0 49 29.5 78t84.5 29h131q46 0 69.5 -26t23.5 -65t-23 -64.5t-70 -25.5h-41v-422q0 -90 93 -90q92 0 92 90v523q0 44 28.5 66t73.5 22q46 0 74.5 -22t28.5 -66v-523q0 -90 92 -90t92 90v682q0 44 28.5 66.5t73.5 22.5t74 -22.5t29 -66.5v-698 q0 -116 -64.5 -179t-191.5 -63q-167 0 -236 91q-69 -91 -235 -91q-127 0 -191.5 63t-64.5 179z" />
<glyph unicode="&#xe1e;" horiz-adv-x="1126" d="M72 217v539q0 44 28.5 66t73.5 22t73.5 -22t28.5 -66v-523q0 -90 93 -90q92 0 92 90v523q0 44 28.5 66t73.5 22q46 0 74.5 -22t28.5 -66v-523q0 -90 92 -90t92 90v523q0 44 28.5 66t73.5 22q46 0 74.5 -22t28.5 -66v-539q0 -116 -64.5 -179t-191.5 -63q-167 0 -236 91 q-69 -91 -235 -91q-127 0 -191.5 63t-64.5 179z" />
<glyph unicode="&#xe1f;" horiz-adv-x="1126" d="M72 217v539q0 44 28.5 66t73.5 22t73.5 -22t28.5 -66v-523q0 -90 93 -90q92 0 92 90v523q0 44 28.5 66t73.5 22q46 0 74.5 -22t28.5 -66v-523q0 -90 92 -90t92 90v682q0 44 28.5 66.5t73.5 22.5t74 -22.5t29 -66.5v-698q0 -116 -64.5 -179t-191.5 -63q-167 0 -236 91 q-69 -91 -235 -91q-127 0 -191.5 63t-64.5 179z" />
<glyph unicode="&#xe20;" horiz-adv-x="884" d="M10 74q0 37 25.5 63.5t66.5 26.5h31v430q0 119 89 184.5t251 65.5t251 -65.5t89 -184.5v-531q0 -44 -28.5 -66t-73.5 -22q-46 0 -74.5 22t-28.5 66v504q0 109 -135 109q-66 0 -100.5 -28.5t-34.5 -80.5v-477q0 -50 -30 -78t-85 -28h-121q-41 0 -66.5 26.5t-25.5 63.5z " />
<glyph unicode="&#xe21;" horiz-adv-x="823" d="M72 63v693q0 44 28.5 66t73.5 22t73.5 -22t28.5 -66v-459q0 -50 58.5 -97.5t116.5 -47.5q96 0 96 104v500q0 44 28.5 66t73.5 22q46 0 74.5 -22t28.5 -66v-545q0 -113 -62.5 -172t-165.5 -59q-154 0 -248 100v-17q0 -44 -28.5 -66t-73.5 -22t-73.5 22t-28.5 66z" />
<glyph unicode="&#xe22;" horiz-adv-x="817" d="M66 217v127q0 42 26.5 71.5t63.5 35.5v4q-90 22 -90 102v172q0 49 27.5 78t78.5 29h150q46 0 69 -26t23 -65t-23 -64.5t-69 -25.5h-52v-120h113q46 0 69 -26t23 -65t-23 -64.5t-69 -25.5h-113v-112q0 -99 136 -99q135 0 135 99v514q0 44 28.5 66t73.5 22t73.5 -22 t28.5 -66v-539q0 -118 -87.5 -180t-251.5 -62t-252 62t-88 180z" />
<glyph unicode="&#xe23;" horiz-adv-x="647" d="M47 94q0 36 25 61t67 25q25 0 76.5 -14t87.5 -14q37 0 63.5 16.5t26.5 44.5q0 30 -25.5 58t-64 49t-83.5 50t-83.5 59.5t-64 79t-25.5 107.5q0 97 78 161.5t211 64.5q124 0 183 -31t59 -84q0 -38 -22 -61t-58 -23q-19 0 -71.5 14.5t-90.5 14.5q-35 0 -56.5 -15t-21.5 -39 q0 -23 25.5 -47t64 -44.5t83.5 -49.5t83.5 -60.5t64 -80.5t25.5 -107q0 -123 -83 -188.5t-230 -65.5q-244 0 -244 119z" />
<glyph unicode="&#xe24;" horiz-adv-x="823" d="M51 627q0 88 97.5 152.5t252.5 64.5q167 0 259 -70t92 -190v-803q0 -44 -28.5 -66t-74.5 -22q-45 0 -73.5 22t-28.5 66v778q0 53 -44.5 85t-113.5 32q-94 0 -135 -45q10 -5 25 -14.5t40 -35.5t25 -49q0 -25 -34 -67t-34 -72v-229h62q41 0 66.5 -26.5t25.5 -63.5 t-25.5 -63.5t-66.5 -26.5h-152q-55 0 -84.5 28t-29.5 78v316q0 35 19 67t50 47q-90 37 -90 107z" />
<glyph unicode="&#xe25;" horiz-adv-x="813" d="M61 63v185q0 55 35.5 99t88 69.5t114.5 49t114.5 38.5t88 35.5t35.5 42.5v16q0 78 -129 78q-61 0 -94 -21t-42 -49q-16 -53 -84 -53q-53 0 -84.5 24.5t-31.5 69.5q0 75 86 136t243 61q170 0 255 -62t85 -180v-539q0 -44 -28.5 -66t-73.5 -22t-73.5 22t-28.5 66v297 q-12 -9 -84 -32.5t-129.5 -55t-57.5 -67.5v-142q0 -44 -28.5 -66t-73.5 -22q-46 0 -74.5 22t-28.5 66z" />
<glyph unicode="&#xe26;" horiz-adv-x="884" d="M10 74q0 37 25.5 63.5t66.5 26.5h31v430q0 119 89 184.5t251 65.5t251 -65.5t89 -184.5v-813q0 -44 -28.5 -66t-73.5 -22q-46 0 -74.5 22t-28.5 66v786q0 109 -135 109q-66 0 -100.5 -28.5t-34.5 -80.5v-477q0 -50 -30 -78t-85 -28h-121q-41 0 -66.5 26.5t-25.5 63.5z " />
<glyph unicode="&#xe27;" horiz-adv-x="626" d="M20 80q0 84 146 84q36 0 72 14.5t69 42.5t53.5 77.5t20.5 111.5t-20.5 111t-53.5 77t-69 42.5t-72 14.5q-146 0 -146 84q0 44 40 74.5t118 30.5q80 0 153 -28.5t130 -81t91 -137t34 -187.5t-34 -187.5t-91 -137.5t-130 -81.5t-153 -28.5q-78 0 -118 30.5t-40 74.5z" />
<glyph unicode="&#xe28;" horiz-adv-x="833" d="M72 63v531q0 119 89 184.5t251 65.5q72 0 145 -17l4 7q1 2 7.5 11t8 11.5t7.5 10t8.5 9.5t8.5 8t10.5 7.5t12 5t14.5 5t16.5 2.5t19.5 1q74 0 107.5 -47t-11.5 -94l-49 -51q31 -51 31 -119v-531q0 -44 -28.5 -66t-74.5 -22q-45 0 -73.5 22t-28.5 66v504q0 109 -135 109 q-67 0 -101.5 -28.5t-34.5 -80.5v-78h82q46 0 70.5 -29t24.5 -67t-24.5 -67t-70.5 -29h-82v-234q0 -44 -28.5 -66t-73.5 -22t-73.5 22t-28.5 66z" />
<glyph unicode="&#xe29;" horiz-adv-x="843" d="M72 229v527q0 44 28.5 66t73.5 22t73.5 -22t28.5 -66v-496q0 -53 34 -85t102 -32q69 0 102 31.5t33 85.5v94h-76q-51 0 -75.5 27t-24.5 65t24.5 65.5t75.5 27.5h76v217q0 44 28.5 66t73.5 22q46 0 74.5 -22t28.5 -66v-217q46 0 69 -27t23 -66t-23 -65.5t-69 -26.5v-125 q0 -119 -89 -186.5t-251 -67.5t-251 67.5t-89 186.5z" />
<glyph unicode="&#xe2a;" horiz-adv-x="823" d="M61 63v185q0 55 35.5 99t88 69.5t114.5 49t114.5 38.5t88 35.5t35.5 42.5v16q0 78 -129 78q-61 0 -94 -21t-42 -49q-16 -53 -84 -53q-53 0 -84.5 24.5t-31.5 69.5q0 75 86 136t243 61q81 0 142 -15l2 5q20 38 42 54.5t70 16.5q74 0 107.5 -47.5t-10.5 -93.5l-41 -43 q28 -51 28 -119v-539q0 -44 -28.5 -66t-73.5 -22t-73.5 22t-28.5 66v297q-12 -9 -84 -32.5t-129.5 -55t-57.5 -67.5v-142q0 -44 -28.5 -66t-73.5 -22q-46 0 -74.5 22t-28.5 66z" />
<glyph unicode="&#xe2b;" horiz-adv-x="823" d="M72 63v693q0 44 28.5 66t73.5 22t73.5 -22t28.5 -66v-250q99 72 222 72q106 0 180 -60.5t74 -171.5v-283q0 -44 -28.5 -66t-74.5 -22q-45 0 -73.5 22t-28.5 66v244q0 46 -27 73.5t-78 27.5q-44 0 -90 -21t-76 -51v-273q0 -44 -28.5 -66t-73.5 -22t-73.5 22t-28.5 66z M436 713q0 64 44.5 97.5t113.5 33.5t113.5 -33.5t44.5 -97.5t-44.5 -97.5t-113.5 -33.5t-113.5 33.5t-44.5 97.5z" />
<glyph unicode="&#xe2c;" horiz-adv-x="1126" d="M72 217v539q0 44 28.5 66t73.5 22t73.5 -22t28.5 -66v-523q0 -90 93 -90q92 0 92 90v308q0 44 28.5 66t73.5 22q46 0 74.5 -22t28.5 -66v-308q0 -90 92 -90t92 90v431h-203q-46 0 -69 25.5t-23 64.5t23 64.5t69 25.5h203v108q0 44 28.5 66t73.5 22q46 0 74.5 -22 t28.5 -66v-90q0 -81 -72 -104v-4q72 -34 72 -119v-418q0 -116 -64.5 -179t-191.5 -63q-167 0 -236 91q-69 -91 -235 -91q-127 0 -191.5 63t-64.5 179z" />
<glyph unicode="&#xe2d;" horiz-adv-x="823" d="M61 647q0 75 89 136t251 61q175 0 263 -62t88 -180v-385q0 -118 -88 -180t-252 -62t-252 62t-88 180v191q0 49 29 77.5t85 28.5h152q46 0 69 -25.5t23 -64.5t-23 -64.5t-69 -25.5h-62v-92q0 -99 136 -99q135 0 135 99v331q0 46 -38 74.5t-106 28.5q-64 0 -98 -21t-43 -49 q-16 -53 -84 -53q-54 0 -85.5 24.5t-31.5 69.5z" />
<glyph unicode="&#xe2e;" horiz-adv-x="833" d="M61 647q0 75 89 136t251 61q71 0 152 -15l2 5q3 3 11.5 15.5t11.5 16t11 12.5t14.5 12t16.5 7.5t21.5 6t26.5 1.5q74 0 107 -47.5t-11 -93.5l-41 -43q29 -53 29 -119v-385q0 -118 -88 -180t-252 -62t-252 62t-88 180v191q0 49 29 77.5t85 28.5h152q46 0 69 -25.5 t23 -64.5t-23 -64.5t-69 -25.5h-62v-92q0 -99 136 -99q135 0 135 99v331q0 46 -38 74.5t-106 28.5q-64 0 -98 -21t-43 -49q-16 -53 -84 -53q-54 0 -85.5 24.5t-31.5 69.5z" />
<glyph unicode="&#xe2f;" horiz-adv-x="802" d="M51 573v156q0 49 29.5 78t85.5 29h131q46 0 69 -26t23 -65t-23 -64.5t-69 -25.5h-41v-30q0 -45 20 -66.5t82 -21.5q72 0 120 41.5t48 105.5v80q0 80 103 80q102 0 102 -80v-701q0 -44 -28.5 -66t-73.5 -22q-46 0 -74.5 22t-28.5 66v394q-86 -86 -245 -86q-110 0 -170 53 t-60 149z" />
<glyph unicode="&#xe30;" horiz-adv-x="493" d="M51 166v78q0 48 29 70t74 22q44 0 73 -19t29 -57v-22h100q41 0 63.5 -25.5t22.5 -62.5t-22.5 -63t-63.5 -26h-174q-64 0 -97.5 22t-33.5 83zM51 616v78q0 48 29 70t74 22t73.5 -18.5t28.5 -56.5v-23h100q41 0 63.5 -25.5t22.5 -62.5t-22.5 -62.5t-63.5 -25.5h-174 q-65 0 -98 21.5t-33 82.5z" />
<glyph unicode="&#xe31;" d="M-492 1036v103q0 44 28.5 66t74.5 22q45 0 73.5 -22t28.5 -66v-39h342q45 0 68.5 -23.5t23.5 -60.5t-23.5 -60.5t-68.5 -23.5h-413q-64 0 -99 21.5t-35 82.5z" />
<glyph unicode="&#xe32;" horiz-adv-x="538" d="M20 745q0 37 24 60.5t69 23.5h106q131 0 189.5 -58.5t58.5 -176.5v-531q0 -44 -28.5 -66t-73.5 -22q-46 0 -74.5 22t-28.5 66v515q0 84 -84 84h-65q-45 0 -69 23t-24 60z" />
<glyph unicode="&#xe33;" horiz-adv-x="538" d="M-334 1081q0 67 45 102.5t115 35.5t115 -35.5t45 -102.5t-45 -102t-115 -35t-115 35t-45 102zM20 745q0 37 24 60.5t69 23.5h106q131 0 189.5 -58.5t58.5 -176.5v-531q0 -44 -28.5 -66t-73.5 -22q-46 0 -74.5 22t-28.5 66v515q0 84 -84 84h-65q-45 0 -69 23t-24 60z" />
<glyph unicode="&#xe34;" d="M-752 1016q0 37 24 60.5t69 23.5h495q45 0 68.5 -23.5t23.5 -60.5t-23.5 -60.5t-68.5 -23.5h-495q-45 0 -69 23.5t-24 60.5z" />
<glyph unicode="&#xe35;" d="M-752 1016q0 37 24 60.5t69 23.5h383v39q0 44 28.5 66t73.5 22t73.5 -22t28.5 -66v-103q0 -61 -34.5 -82.5t-98.5 -21.5h-454q-45 0 -69 23.5t-24 60.5z" />
<glyph unicode="&#xe36;" d="M-752 1016q0 37 24 60.5t69 23.5h340q8 55 48 91t97 36q61 0 104 -43t43 -105t-42 -104.5t-105 -42.5h-485q-45 0 -69 23.5t-24 60.5z" />
<glyph unicode="&#xe37;" d="M-752 1016q0 37 24 60.5t69 23.5h137v39q0 44 28.5 66t73.5 22q46 0 74.5 -22t28.5 -66v-39h41v39q0 44 28.5 66t73.5 22t73.5 -22t28.5 -66v-103q0 -61 -34.5 -82.5t-98.5 -21.5h-454q-45 0 -69 23.5t-24 60.5z" />
<glyph unicode="&#xe38;" d="M-395 -166q0 37 23.5 60.5t68.5 23.5h98q64 0 98.5 -21.5t34.5 -82.5v-164q0 -44 -28.5 -66t-73.5 -22t-73.5 22t-28.5 66v100h-27q-45 0 -68.5 23.5t-23.5 60.5z" />
<glyph unicode="&#xe39;" d="M-657 -166q0 37 23.5 60.5t68.5 23.5h84q110 0 110 -88v-88q0 -22 12.5 -28.5t34.5 -6.5q15 0 23.5 1.5t16.5 10t8 23.5v98q0 44 28.5 66t73.5 22t73.5 -22t28.5 -66v-119q0 -25 -4.5 -45t-10.5 -34.5t-19 -26t-24 -19t-31 -13t-34 -8t-40.5 -4t-43 -1.5h-47.5 q-52 0 -80 1.5t-62.5 8.5t-51 20.5t-28 39t-11.5 63.5v47h-6q-45 0 -68.5 23.5t-23.5 60.5z" />
<glyph unicode="&#xe3a;" d="M-317 -201q0 53 37.5 91t105.5 38t105.5 -38t37.5 -91q0 -56 -37 -92.5t-106 -36.5t-106 36.5t-37 92.5z" />
<glyph unicode="&#xe3f;" horiz-adv-x="837" d="M92 131v684q0 77 30.5 111.5t115.5 34.5h69v69q0 49 29.5 70.5t71.5 21.5t71 -21.5t29 -70.5v-76q104 -17 159 -77.5t60 -157.5q2 -55 -22 -113.5t-78 -83.5q176 -34 176 -235q0 -128 -75 -202t-220 -83v-94q0 -49 -29 -70.5t-71 -21.5t-71.5 21.5t-29.5 70.5v92h-71 q-79 0 -111.5 28.5t-32.5 102.5zM301 176h141q142 0 142 113q0 112 -142 112h-141v-225zM301 573h105q52 0 84 30.5t32 76.5q0 104 -121 104h-100v-211z" />
<glyph unicode="&#xe40;" horiz-adv-x="389" d="M92 63v693q0 44 28.5 66t74.5 22q45 0 73.5 -22t28.5 -66v-693q0 -44 -28.5 -66t-73.5 -22q-46 0 -74.5 22t-28.5 66z" />
<glyph unicode="&#xe41;" horiz-adv-x="716" d="M92 63v693q0 44 28.5 66t74.5 22q45 0 73.5 -22t28.5 -66v-693q0 -44 -28.5 -66t-73.5 -22q-46 0 -74.5 22t-28.5 66zM420 63v693q0 44 28.5 66t73.5 22q46 0 74.5 -22t28.5 -66v-693q0 -44 -28.5 -66t-74.5 -22q-45 0 -73.5 22t-28.5 66z" />
<glyph unicode="&#xe42;" horiz-adv-x="430" d="M-18 1143q0 61 43.5 94t113.5 33h281q44 0 70 -24t26 -60q0 -38 -25.5 -61t-70.5 -23h-184v-4q81 -40 81 -160v-875q0 -44 -28.5 -66t-73.5 -22t-73.5 22t-28.5 66v842q0 34 -13.5 59.5t-32.5 42t-38.5 33.5t-33 43t-13.5 60z" />
<glyph unicode="&#xe43;" horiz-adv-x="430" d="M-121 1133q0 66 63.5 111.5t198.5 45.5q154 0 220.5 -49.5t66.5 -144.5q0 -43 -17.5 -78.5t-38 -56t-38 -56t-17.5 -78.5v-764q0 -44 -28.5 -66t-73.5 -22t-73.5 22t-28.5 66v791q0 39 17 72t38 52t38 42.5t17 44.5q0 28 -20.5 45.5t-61.5 17.5q-64 0 -84 -53 q-16 -37 -71 -37q-53 0 -80 25.5t-27 69.5z" />
<glyph unicode="&#xe44;" horiz-adv-x="430" d="M-106 1186q0 36 26 60t70 24h266q152 0 152 -117q0 -30 -14 -57t-31.5 -45t-31.5 -48t-14 -65v-875q0 -44 -28.5 -66t-73.5 -22t-73.5 22t-28.5 66v879q0 103 82 156v4h-205q-45 0 -70.5 23t-25.5 61z" />
<glyph unicode="&#xe45;" horiz-adv-x="538" d="M20 745q0 37 24 60.5t69 23.5h106q131 0 189.5 -58.5t58.5 -176.5v-813q0 -44 -28.5 -66t-73.5 -22q-46 0 -74.5 22t-28.5 66v797q0 84 -84 84h-65q-45 0 -69 23t-24 60z" />
<glyph unicode="&#xe46;" horiz-adv-x="782" d="M51 578v114q0 71 42.5 111.5t125.5 40.5q113 0 162 -68q49 68 162 68q83 0 125.5 -40.5t42.5 -111.5v-911q0 -44 -28.5 -66t-74.5 -22q-45 0 -73.5 22t-28.5 66v885h-19q-3 -6 -10.5 -15.5t-34.5 -25t-61 -15.5t-60.5 14t-36.5 28l-10 14h-18v-88q0 -44 -28.5 -66.5 t-73.5 -22.5t-74 22.5t-29 66.5z" />
<glyph unicode="&#xe47;" d="M-680 1053v102q0 120 129 150l275 65q39 9 67.5 -5.5t36.5 -45.5q8 -33 -9.5 -62t-54.5 -38l-239 -58v-65h8q1 2 2 5.5t7 11.5t14 14.5t22 12t31 5.5q27 0 46 -12.5t25 -24.5l5 -12h8v8q0 44 28.5 66t73.5 22q46 0 74.5 -22t28.5 -66v-51q0 -61 -38.5 -91t-105.5 -30 q-58 0 -90 14.5t-55 42.5q-23 -28 -55.5 -42.5t-90.5 -14.5q-67 0 -105 30t-38 91z" />
<glyph unicode="&#xe48;" d="M-276 1356v131q0 44 28.5 66t73.5 22t73.5 -22t28.5 -66v-131q0 -44 -28.5 -66t-73.5 -22t-73.5 22t-28.5 66z" />
<glyph unicode="&#xe49;" d="M-465 1483q0 34 21.5 55t62.5 21h115q51 0 77.5 -22t26.5 -62v-45h170q41 0 61.5 -21t20.5 -55q0 -33 -20.5 -54.5t-61.5 -21.5h-268q-96 0 -96 82v47h-25q-41 0 -62.5 21.5t-21.5 54.5z" />
<glyph unicode="&#xe4a;" d="M-483 1339v101q0 108 129 108q52 0 80.5 -13t50.5 -38q22 25 50.5 38t80.5 13q129 0 129 -108v-21h33q36 0 56.5 -20t20.5 -56q0 -35 -22 -55t-62 -20h-114q-45 0 -70.5 15t-25.5 56v62h-9q0 -2 -1.5 -5t-6.5 -10t-11.5 -13t-19.5 -10.5t-28 -4.5q-24 0 -41 11t-22 21 l-5 11h-8v-62q0 -39 -25.5 -59t-66.5 -20t-66.5 20t-25.5 59z" />
<glyph unicode="&#xe4b;" d="M-383 1442q0 31 17.5 48t48.5 17h51v35q0 37 25.5 55.5t66.5 18.5t66.5 -18.5t25.5 -55.5v-35h51q31 0 48.5 -17t17.5 -48t-17.5 -48.5t-48.5 -17.5h-51v-35q0 -36 -25.5 -54.5t-66.5 -18.5t-66.5 18.5t-25.5 54.5v35h-51q-31 0 -48.5 17.5t-17.5 48.5z" />
<glyph unicode="&#xe4c;" d="M-358 1317q-16 41 2 77t69 54l113 43q36 14 62.5 9.5t41.5 -17.5t23 -33q25 -77 -64 -113l-43 -16l9 -21q31 -79 -60 -112q-38 -16 -75.5 -3t-51.5 54z" />
<glyph unicode="&#xe4d;" d="M-334 1081q0 67 45 102.5t115 35.5t115 -35.5t45 -102.5t-45 -102t-115 -35t-115 35t-45 102z" />
<glyph unicode="&#xe4e;" d="M-573 1087q0 74 58 122.5t150 64.5q-43 37 -46 92t38 98q82 84 260 84q95 0 153 -24t58 -68q0 -37 -21.5 -56t-56.5 -14q-92 15 -168.5 3t-76.5 -46q0 -29 102 -28h10q17 0 28 -14t11 -33q0 -34 -22 -61t-56 -23q-47 4 -95.5 1t-85 -20t-36.5 -45q0 -24 32 -32t72.5 -3 t71.5 17q34 13 57 2t34 -43q19 -55 -51.5 -97t-188.5 -42q-39 0 -76 7.5t-73.5 24.5t-59 51.5t-22.5 81.5z" />
<glyph unicode="&#xe4f;" horiz-adv-x="962" d="M61 410q0 173 123.5 296t296.5 123t296.5 -123t123.5 -296t-123.5 -296.5t-296.5 -123.5t-296.5 123.5t-123.5 296.5zM166 410q0 -131 92.5 -223.5t222.5 -92.5q131 0 223.5 93t92.5 223t-92.5 222.5t-223.5 92.5t-223 -92.5t-92 -222.5zM256 410q0 92 66.5 158.5 t158.5 66.5t159 -66.5t67 -158.5t-67 -159t-159 -67t-158.5 67t-66.5 159z" />
<glyph unicode="&#xe50;" horiz-adv-x="798" d="M61 188v306q0 113 87 163t251 50q165 0 251.5 -50t86.5 -163v-306q0 -113 -85.5 -163t-252.5 -50q-164 0 -251 50t-87 163zM262 231q0 -51 28 -71.5t109 -20.5t109.5 20.5t28.5 71.5v220q0 51 -28.5 71.5t-109.5 20.5t-109 -20.5t-28 -71.5v-220z" />
<glyph unicode="&#xe51;" horiz-adv-x="798" d="M61 262v232q0 113 86.5 163t251.5 50t251.5 -50t86.5 -163v-336q0 -78 -33.5 -121.5t-109.5 -83.5l-205 -109q-38 -21 -80.5 -11.5t-66.5 48.5q-20 28 -15 66.5t43 58.5l172 90q4 2 16.5 8.5t16.5 9t14 8t14 9.5t11 10.5t10 12.5t6.5 14t5 17t1.5 20v246q0 51 -28.5 71.5 t-109.5 20.5t-109 -20.5t-28 -71.5v-148h84q42 0 66 -25.5t24 -66.5q0 -37 -29.5 -65.5t-78.5 -28.5h-119q-148 0 -148 145z" />
<glyph unicode="&#xe52;" horiz-adv-x="1081" d="M61 150v663q0 43 28 65.5t73 22.5t72.5 -22.5t27.5 -65.5v-641h557v358q-2 -3 -6 -7.5t-17.5 -16.5t-28 -21t-38 -16.5t-47.5 -7.5q-38 0 -72.5 17.5t-49.5 34.5l-15 17v-110h63q42 0 66 -25.5t24 -66.5q0 -38 -29.5 -66.5t-78.5 -28.5h-98q-148 0 -148 146v168 q0 73 46.5 116.5t123.5 43.5q111 0 168 -72q57 72 168 72q77 0 123.5 -43.5t46.5 -116.5v-397q0 -70 -43.5 -110t-124.5 -40h-623q-81 0 -124.5 40t-43.5 110z" />
<glyph unicode="&#xe53;" horiz-adv-x="798" d="M61 129v418q0 73 46.5 116.5t123.5 43.5q111 0 168 -72q57 72 168 72q77 0 123.5 -43.5t46.5 -116.5v-484q0 -43 -27.5 -65.5t-72.5 -22.5t-72.5 22.5t-27.5 65.5v467q-6 -8 -17 -19.5t-47 -30.5t-74 -19t-72.5 17.5t-49.5 34.5l-15 17v-360h64q42 0 66 -25.5t24 -66.5 q0 -37 -30 -65.5t-79 -28.5h-98q-148 0 -148 145z" />
<glyph unicode="&#xe54;" horiz-adv-x="815" d="M61 160v303q0 119 63.5 171t201.5 52h211l53 139q14 39 40.5 57.5t78.5 18.5q60 0 89.5 -31t14.5 -75l-63 -174q-13 -35 -28 -56t-47.5 -35t-82.5 -14h-211q-62 0 -90.5 -20t-28.5 -70v-254h180v137q0 43 28 65.5t73 22.5t72.5 -22.5t27.5 -65.5v-137h68q42 0 63 -25 t21 -59q0 -37 -23.5 -62.5t-79.5 -25.5h-440q-95 0 -143 37t-48 123z" />
<glyph unicode="&#xe55;" horiz-adv-x="835" d="M61 160v303q0 94 38 145t120 68q-26 33 -26 78q0 63 45 98t112 35q69 0 113.5 -34.5t44.5 -98.5q0 -36 -14 -68h63l53 139q14 39 40.5 57.5t78.5 18.5q61 0 90.5 -31.5t14.5 -74.5l-64 -174q-13 -35 -28 -56t-47.5 -35t-82.5 -14h-231q-62 0 -90.5 -20t-28.5 -70v-254 h201v137q0 43 27.5 65.5t72.5 22.5t73 -22.5t28 -65.5v-137h67q42 0 63 -25t21 -59q0 -37 -23 -62.5t-79 -25.5h-461q-95 0 -143 37t-48 123z" />
<glyph unicode="&#xe56;" horiz-adv-x="808" d="M10 795q-14 47 15 76.5t90 29.5q52 0 79.5 -18.5t38.5 -57.5l39 -139h197q143 0 211 -55t68 -176v-267q0 -113 -85.5 -163t-252.5 -50q-164 0 -251 50t-87 163v80q0 43 27.5 65.5t72.5 22.5t72.5 -22.5t27.5 -65.5v-37q0 -51 28.5 -71.5t109.5 -20.5t109 20.5t28 71.5 v195q0 50 -28.5 70t-90.5 20h-211q-77 0 -109.5 23.5t-48.5 81.5z" />
<glyph unicode="&#xe57;" horiz-adv-x="1122" d="M61 129v418q0 73 46.5 116.5t123.5 43.5q111 0 168 -72q57 72 168 72q77 0 123.5 -43.5t46.5 -116.5v-365l123 37v584q0 43 28 65.5t73 22.5t72.5 -22.5t27.5 -65.5v-578q0 -81 -32 -116.5t-126 -63.5l-168 -51q-35 -11 -69 -11t-63.5 11t-47.5 40t-18 72v424 q-6 -8 -17 -19.5t-47 -30.5t-74 -19t-72.5 17.5t-49.5 34.5l-15 17v-360h64q42 0 66 -25.5t24 -66.5q0 -37 -30 -65.5t-79 -28.5h-98q-148 0 -148 145z" />
<glyph unicode="&#xe58;" horiz-adv-x="798" d="M61 135v320q0 121 68 176t211 55h186l39 139q21 76 119 76q61 0 89.5 -29t14.5 -77l-49 -174q-16 -58 -48 -81.5t-109 -23.5h-201q-62 0 -90.5 -20t-28.5 -70v-274q2 3 6 7.5t17.5 16.5t28 21t38 16.5t47.5 7.5q38 0 72.5 -17t50.5 -34l15 -18v135q0 43 27.5 65.5 t72.5 22.5t72.5 -22.5t27.5 -65.5v-152q0 -73 -46.5 -116.5t-123.5 -43.5q-111 0 -168 72q-57 -72 -168 -72q-77 0 -123.5 43.5t-46.5 116.5z" />
<glyph unicode="&#xe59;" horiz-adv-x="1003" d="M61 129v391q0 74 53.5 120t149.5 46h115q75 0 122 -19.5t74 -78.5q19 -39 23 -49l49 92q17 33 41 44t62 11h34l23 139q12 76 113 76q59 0 88 -27.5t22 -78.5l-29 -185q-14 -98 -110 -98h-84l-100 -205l90 -190q21 -54 6 -84t-58 -45q-42 -15 -81 -1.5t-58 56.5l-217 469 h-127v-342h64q42 0 66 -25.5t24 -66.5q0 -37 -30 -65.5t-79 -28.5h-98q-148 0 -148 145z" />
<glyph unicode="&#xe5a;" horiz-adv-x="1110" d="M51 573v156q0 49 29.5 78t85.5 29h131q46 0 69 -26t23 -65t-23 -64.5t-69 -25.5h-41v-30q0 -45 20 -66.5t82 -21.5q72 0 120 41.5t48 105.5v80q0 80 103 80q102 0 102 -80v-217q47 15 75 51.5t28 85.5v80q0 80 102 80t102 -80v-701q0 -44 -28.5 -66t-73.5 -22t-73.5 22 t-28.5 66v394q-42 -42 -103 -64v-330q0 -44 -28.5 -66t-73.5 -22q-46 0 -74.5 22t-28.5 66v394q-86 -86 -245 -86q-110 0 -170 53t-60 149z" />
<glyph unicode="&#xe5b;" horiz-adv-x="1482" d="M61 418q0 152 86.5 253t208.5 101q104 0 171 -71t67 -181q0 -84 -46 -133t-104 -49q-51 0 -89 32.5t-38 90.5q0 33 22.5 65.5t59.5 38.5q-4 17 -18 33t-37 16q-36 0 -71 -56.5t-35 -131.5q0 -98 51 -153.5t114 -55.5q83 0 154 79t92 218q7 61 26 81.5t54 20.5 q25 0 45.5 -23t52.5 -79q15 84 56 84q25 0 46.5 -25t49.5 -81q28 69 51 69q38 0 86 -84q27 58 51 58q7 0 13.5 -4t15 -13.5t14 -16.5t16.5 -22.5t15 -21.5q31 50 51 45l80 -17q41 -8 57.5 -18.5t16.5 -34.5q0 -45 -72 -55l-69 -4q-27 -60 -62 -60q-10 0 -20 14t-28 48 q-1 2 -1.5 3.5t-1.5 3t-2 3.5q-38 -94 -68 -94q-6 0 -10.5 4t-10 13t-9.5 18.5t-12 26t-15 30.5q-24 -61 -40.5 -88t-37.5 -27q-10 0 -17 5.5t-15.5 25t-13 33t-15.5 51.5q-30 -74 -54 -105.5t-53 -31.5q-47 0 -78 104q-52 -138 -142 -214.5t-212 -76.5q-135 0 -230.5 98 t-95.5 261z" />
<glyph unicode="&#x2000;" horiz-adv-x="864" />
<glyph unicode="&#x2001;" horiz-adv-x="1729" />
<glyph unicode="&#x2002;" horiz-adv-x="864" />
<glyph unicode="&#x2003;" horiz-adv-x="1729" />
<glyph unicode="&#x2004;" horiz-adv-x="576" />
<glyph unicode="&#x2005;" horiz-adv-x="432" />
<glyph unicode="&#x2006;" horiz-adv-x="288" />
<glyph unicode="&#x2007;" horiz-adv-x="288" />
<glyph unicode="&#x2008;" horiz-adv-x="216" />
<glyph unicode="&#x2009;" horiz-adv-x="345" />
<glyph unicode="&#x200a;" horiz-adv-x="96" />
<glyph unicode="&#x200c;" />
<glyph unicode="&#x200d;" />
<glyph unicode="&#x2010;" horiz-adv-x="626" d="M51 395q0 53 30.5 80t84.5 27h299q110 0 110 -107q0 -106 -112 -106h-299q-53 0 -83 27t-30 79z" />
<glyph unicode="&#x2011;" horiz-adv-x="626" d="M51 395q0 53 30.5 80t84.5 27h299q110 0 110 -107q0 -106 -112 -106h-299q-53 0 -83 27t-30 79z" />
<glyph unicode="&#x2012;" horiz-adv-x="626" d="M51 395q0 53 30.5 80t84.5 27h299q110 0 110 -107q0 -106 -112 -106h-299q-53 0 -83 27t-30 79z" />
<glyph unicode="&#x2013;" horiz-adv-x="778" d="M31 414q0 41 26.5 66.5t69.5 25.5h524q43 0 70 -25.5t27 -66.5t-27 -66.5t-70 -25.5h-524q-43 0 -69.5 25.5t-26.5 66.5z" />
<glyph unicode="&#x2014;" horiz-adv-x="1556" d="M31 414q0 41 26.5 66.5t69.5 25.5h1303q43 0 69.5 -25.5t26.5 -66.5t-26.5 -66.5t-69.5 -25.5h-1303q-43 0 -69.5 25.5t-26.5 66.5z" />
<glyph unicode="&#x2018;" horiz-adv-x="401" d="M61 752q0 95 67.5 169t139.5 74q33 0 51.5 -16.5t18.5 -46.5q0 -12 -8 -23t-17 -17t-27.5 -17t-27.5 -17q-3 -3 -16.5 -15t-18.5 -18q52 0 84.5 -31t32.5 -81q0 -52 -36.5 -86.5t-94.5 -34.5q-65 0 -106.5 45t-41.5 115z" />
<glyph unicode="&#x2019;" horiz-adv-x="401" d="M61 872q0 52 37 86.5t95 34.5q65 0 106 -44.5t41 -114.5q0 -95 -68 -169.5t-139 -74.5q-33 0 -51.5 16.5t-18.5 46.5q0 12 8 23t17 17t27.5 17t27.5 17q3 3 16.5 15t18.5 18q-52 0 -84.5 31t-32.5 81z" />
<glyph unicode="&#x201c;" horiz-adv-x="739" d="M61 752q0 95 67.5 169t139.5 74q33 0 51.5 -16.5t18.5 -46.5q0 -12 -8 -23t-17 -17t-27.5 -17t-27.5 -17q-3 -3 -16.5 -15t-18.5 -18q52 0 84.5 -31t32.5 -81q0 -52 -36.5 -86.5t-94.5 -34.5q-65 0 -106.5 45t-41.5 115zM395 752q0 95 67.5 169t139.5 74q33 0 51.5 -16.5 t18.5 -46.5q0 -12 -8 -23t-17 -17t-27.5 -17t-27.5 -17q-3 -3 -16.5 -15t-18.5 -18q52 0 84.5 -31t32.5 -81q0 -52 -36.5 -86.5t-94.5 -34.5q-65 0 -106.5 45t-41.5 115z" />
<glyph unicode="&#x201d;" horiz-adv-x="739" d="M61 872q0 52 37 86.5t95 34.5q65 0 106 -44.5t41 -114.5q0 -95 -68 -169.5t-139 -74.5q-33 0 -51.5 16.5t-18.5 46.5q0 12 8 23t17 17t27.5 17t27.5 17q3 3 16.5 15t18.5 18q-52 0 -84.5 31t-32.5 81zM395 872q0 52 36.5 86.5t94.5 34.5q65 0 106.5 -44.5t41.5 -114.5 q0 -95 -68 -169.5t-139 -74.5q-33 0 -51.5 16.5t-18.5 46.5q0 12 8 23t17 17t27.5 17t27.5 17q3 3 16.5 15t18.5 18q-52 0 -84.5 31t-32.5 81z" />
<glyph unicode="&#x2022;" horiz-adv-x="737" d="M61 410q0 127 90 217t218 90q127 0 217 -89.5t90 -217.5t-90 -218t-217 -90t-217.5 90t-90.5 218z" />
<glyph unicode="&#x2026;" horiz-adv-x="1376" d="M92 106q0 53 38 88t99 35t99.5 -35t38.5 -88t-38.5 -87.5t-99.5 -34.5t-99 34.5t-38 87.5zM551 106q0 53 38 88t99 35t99 -35t38 -88t-38 -87.5t-99 -34.5t-99 34.5t-38 87.5zM1010 106q0 53 38 88t99 35t99 -35t38 -88t-38 -87.5t-99 -34.5t-99 34.5t-38 87.5z" />
<glyph unicode="&#x202f;" horiz-adv-x="345" />
<glyph unicode="&#x205f;" horiz-adv-x="432" />
<glyph unicode="&#x2122;" horiz-adv-x="1245" d="M39 891q0 32 20.5 51t57.5 19h272q37 0 57.5 -19t20.5 -51q0 -68 -78 -68h-59v-350q0 -72 -76 -72q-78 0 -78 72v350h-59q-78 0 -78 68zM475 504l70 364q18 93 100 93q80 0 100 -80l74 -234l74 234q24 80 100 80q83 0 101 -93l69 -364q9 -43 -2.5 -70.5t-56.5 -34.5 q-47 -6 -67 16.5t-27 67.5l-37 213l-64 -227q-21 -72 -90 -72t-90 72l-63 227l-37 -213q-7 -45 -27 -67.5t-67 -16.5q-79 12 -60 105z" />
<glyph unicode="&#x25fc;" horiz-adv-x="727" d="M0 0v727h727v-727h-727z" />
<glyph unicode="&#xf700;" horiz-adv-x="747" d="M31 645q0 78 82 138.5t227 60.5q76 0 135 -15q4 5 12 16.5t11.5 16t11.5 13.5t14.5 13t16.5 8.5t22 6.5t27 2q47 0 79.5 -24t36 -55t-19.5 -62l-45 -49q25 -52 25 -115v-537q0 -44 -28.5 -66t-74.5 -22q-45 0 -73.5 22t-28.5 66v230h-103q-46 0 -70 29t-24 67t24 67 t70 29h103v93q0 98 -117 98q-86 0 -115 -66q-6 -16 -13 -26t-26 -19.5t-47 -9.5q-50 0 -81 22.5t-31 67.5z" />
<glyph unicode="&#xf701;" d="M-752 1128q0 37 24 60.5t69 23.5h495q45 0 68.5 -23.5t23.5 -60.5t-23.5 -60.5t-68.5 -23.5h-495q-45 0 -69 23.5t-24 60.5z" />
<glyph unicode="&#xf702;" d="M-752 1128q0 37 24 60.5t69 23.5h383v39q0 44 28.5 66t73.5 22t73.5 -22t28.5 -66v-102q0 -61 -34.5 -83t-98.5 -22h-454q-45 0 -69 23.5t-24 60.5z" />
<glyph unicode="&#xf703;" d="M-752 1128q0 37 24 60.5t69 23.5h340q8 55 48 91t97 36q62 0 104.5 -42.5t42.5 -104.5t-42 -105t-105 -43h-485q-45 0 -69 23.5t-24 60.5z" />
<glyph unicode="&#xf704;" d="M-752 1128q0 37 24 60.5t69 23.5h137v39q0 44 28.5 66t73.5 22q46 0 74.5 -22t28.5 -66v-39h41v39q0 44 28.5 66t73.5 22t73.5 -22t28.5 -66v-102q0 -61 -34.5 -83t-98.5 -22h-454q-45 0 -69 23.5t-24 60.5z" />
<glyph unicode="&#xf705;" d="M-526 1020v172q0 44 28.5 66t73.5 22t73.5 -22t28.5 -66v-172q0 -44 -28.5 -66t-73.5 -22t-73.5 22t-28.5 66z" />
<glyph unicode="&#xf706;" d="M-496 1272q0 37 24 60.5t69 23.5h127q56 0 86 -24.5t30 -69.5v-50h189q45 0 68.5 -23.5t23.5 -60.5t-23.5 -60.5t-68.5 -23.5h-297q-107 0 -107 91v53h-28q-45 0 -69 23.5t-24 60.5z" />
<glyph unicode="&#xf707;" d="M-717 1122v113q0 61 38.5 91t105.5 30q58 0 90 -15t55 -43q23 28 55 43t90 15q67 0 105.5 -30t38.5 -91v-23h37q40 0 63 -22t23 -62q0 -39 -25 -61.5t-68 -22.5h-129q-51 0 -78.5 16t-27.5 62v70h-8q-1 -2 -2 -5.5t-7 -11.5t-14 -14.5t-22 -12t-31 -5.5q-27 0 -46 12.5 t-24 24.5l-6 12h-8v-70q0 -44 -28.5 -66t-73.5 -22q-46 0 -74.5 22t-28.5 66z" />
<glyph unicode="&#xf708;" d="M-645 1124q0 34 19 54t53 20h57v37q0 41 28.5 61.5t73.5 20.5q46 0 74.5 -20.5t28.5 -61.5v-37h57q34 0 53 -20t19 -54t-19 -53.5t-53 -19.5h-57v-37q0 -41 -28.5 -61.5t-74.5 -20.5q-45 0 -73.5 20.5t-28.5 61.5v37h-57q-34 0 -53 19.5t-19 53.5z" />
<glyph unicode="&#xf709;" d="M-565 1081q-18 47 2.5 87t77.5 61l127 47q61 18 94 4t45 -49q29 -85 -70 -125l-47 -19l8 -22q33 -89 -65 -125q-42 -17 -84 -3.5t-58 58.5z" />
<glyph unicode="&#xf70a;" d="M-276 1010v172q0 44 28.5 66t73.5 22t73.5 -22t28.5 -66v-172q0 -44 -28.5 -66t-73.5 -22t-73.5 22t-28.5 66z" />
<glyph unicode="&#xf70b;" d="M-559 1159q0 37 23.5 60.5t68.5 23.5h127q57 0 87 -24.5t30 -69.5v-49h188q45 0 68.5 -23.5t23.5 -60.5t-23.5 -60.5t-68.5 -23.5h-297q-106 0 -106 90v53h-29q-45 0 -68.5 23.5t-23.5 60.5z" />
<glyph unicode="&#xf70c;" d="M-696 999v113q0 61 38 91t105 30q58 0 90 -14.5t55 -42.5q23 28 55.5 42.5t90.5 14.5q67 0 105 -30t38 -91v-22h37q40 0 63 -22t23 -62t-24.5 -62t-67.5 -22h-129q-51 0 -79 16t-28 61v70h-8q-1 -2 -2 -5.5t-7 -11.5t-14 -14.5t-22 -12t-31 -5.5t-31 5t-22 12t-13 14.5 t-7 12.5l-2 5h-9v-70q0 -44 -28.5 -66t-73.5 -22t-73.5 22t-28.5 66z" />
<glyph unicode="&#xf70d;" d="M-535 1114q0 34 19 54t53 20h57v37q0 41 28.5 61.5t74.5 20.5q45 0 73.5 -20.5t28.5 -61.5v-37h58q33 0 52 -20t19 -54t-19 -54t-52 -20h-58v-36q0 -41 -28.5 -61.5t-73.5 -20.5q-46 0 -74.5 20.5t-28.5 61.5v36h-57q-34 0 -53 20t-19 54z" />
<glyph unicode="&#xf70e;" d="M-365 1069q-18 47 2.5 87t77.5 61l127 47q61 18 94.5 4t45.5 -49q29 -85 -70 -125l-47 -19l8 -22q33 -89 -66 -125q-42 -17 -83.5 -3.5t-57.5 58.5z" />
<glyph unicode="&#xf70f;" horiz-adv-x="1277" d="M51 627q0 88 97.5 152.5t252.5 64.5q167 0 259 -70t92 -190v-328q0 -113 125 -113q124 0 124 113v500q0 44 28.5 66t74.5 22q45 0 73.5 -22t28.5 -66v-525q0 -256 -329 -256q-171 0 -250.5 68t-79.5 188v328q0 53 -44.5 85t-113.5 32q-94 0 -135 -45q10 -5 25 -14.5 t40 -35.5t25 -49q0 -25 -34 -67t-34 -72v-229h62q41 0 66.5 -26.5t25.5 -63.5t-25.5 -63.5t-66.5 -26.5h-152q-55 0 -84.5 28t-29.5 78v316q0 35 19 67t50 47q-90 37 -90 107z" />
<glyph unicode="&#xf710;" d="M-504 1149v102q0 44 28.5 66t74.5 22q45 0 73.5 -22t28.5 -66v-39h342q45 0 68.5 -23.5t23.5 -60.5t-23.5 -60.5t-68.5 -23.5h-414q-64 0 -98.5 22t-34.5 83z" />
<glyph unicode="&#xf711;" d="M-334 1194q0 67 45 102t115 35t115 -35t45 -102t-45 -102t-115 -35t-115 35t-45 102z" />
<glyph unicode="&#xf712;" d="M-856 1053v102q0 120 129 150l274 65q39 9 68 -5.5t37 -45.5q8 -33 -9.5 -62t-54.5 -38l-239 -58v-65h8q1 2 2 5.5t7 11.5t14 14.5t22 12t31 5.5q27 0 46 -12.5t24 -24.5l5 -12h9v8q0 44 28.5 66t73.5 22t73.5 -22t28.5 -66v-51q0 -61 -38 -91t-105 -30q-58 0 -90 14.5 t-55 42.5q-23 -28 -55.5 -42.5t-90.5 -14.5q-67 0 -105 30t-38 91z" />
<glyph unicode="&#xf713;" d="M-276 1468v131q0 44 28.5 66.5t73.5 22.5t73.5 -22.5t28.5 -66.5v-131q0 -44 -28.5 -66t-73.5 -22t-73.5 22t-28.5 66z" />
<glyph unicode="&#xf714;" d="M-465 1595q0 34 21.5 55t62.5 21h115q51 0 77.5 -22t26.5 -62v-45h170q41 0 61.5 -21t20.5 -55q0 -33 -20.5 -54t-61.5 -21h-268q-96 0 -96 82v47h-25q-41 0 -62.5 21t-21.5 54z" />
<glyph unicode="&#xf715;" d="M-498 1452v100q0 109 129 109q52 0 80.5 -13t50.5 -38q22 25 51 38t81 13q129 0 129 -109v-20h32q36 0 57 -20t21 -56q0 -35 -22 -55.5t-62 -20.5h-115q-45 0 -70.5 15.5t-25.5 56.5v61h-8q-1 -2 -2 -5t-6 -10t-12 -13t-20 -10.5t-28 -4.5q-24 0 -41 11t-21 21l-5 11h-8 v-61q0 -39 -26 -59.5t-67 -20.5t-66.5 20.5t-25.5 59.5z" />
<glyph unicode="&#xf716;" d="M-383 1554q0 31 17.5 48.5t48.5 17.5h51v35q0 37 25.5 55.5t66.5 18.5t66.5 -18.5t25.5 -55.5v-35h51q31 0 48.5 -17.5t17.5 -48.5t-17.5 -48t-48.5 -17h-51v-35q0 -37 -25.5 -55.5t-66.5 -18.5t-66.5 18.5t-25.5 55.5v35h-51q-31 0 -48.5 17t-17.5 48z" />
<glyph unicode="&#xf717;" d="M-360 1430q-16 41 2 77t69 54l113 43q36 14 62.5 9.5t41.5 -17.5t23 -33q25 -77 -64 -113l-43 -16l9 -21q31 -80 -60 -113q-38 -15 -75.5 -2t-51.5 54z" />
<glyph unicode="&#xf718;" d="M-395 -487q0 37 23.5 60.5t68.5 23.5h98q64 0 98.5 -22t34.5 -83v-164q0 -44 -28.5 -66t-73.5 -22t-73.5 22t-28.5 66v101h-27q-45 0 -68.5 23.5t-23.5 60.5z" />
<glyph unicode="&#xf719;" d="M-657 -487q0 37 23.5 60.5t68.5 23.5h84q110 0 110 -89v-88q0 -15 8 -23t16 -9.5t23 -1.5t23.5 1.5t16.5 9.5t8 23v99q0 44 28.5 66t73.5 22t73.5 -22t28.5 -66v-119q0 -28 -4.5 -49.5t-15.5 -37.5t-22 -27t-31.5 -18t-36 -11.5t-44 -6t-47.5 -2t-53 -0.5 q-52 0 -80.5 1.5t-62.5 8.5t-50.5 21t-28 39.5t-11.5 63.5v47h-6q-45 0 -68.5 23.5t-23.5 60.5z" />
<glyph unicode="&#xf71a;" d="M-317 -532q0 53 37.5 91t105.5 38t105.5 -38t37.5 -91q0 -56 -37 -93t-106 -37t-106 37t-37 93z" />
<glyph unicode="&#xf71d;" horiz-adv-x="1021" />
<glyph unicode="&#xf880;" />
<glyph horiz-adv-x="552" />
<glyph horiz-adv-x="538" d="M-334 1194q0 67 45 102t115 35t115 -35t45 -102t-45 -102t-115 -35t-115 35t-45 102zM20 745q0 37 24 60.5t69 23.5h106q131 0 189.5 -58.5t58.5 -176.5v-531q0 -44 -28.5 -66t-73.5 -22q-46 0 -74.5 22t-28.5 66v515q0 84 -84 84h-65q-45 0 -69 23t-24 60z" />
<glyph d="M-743 1087q0 74 58 122.5t150 64.5q-43 37 -46 92t38 98q82 84 260 84q95 0 153 -24t58 -68q0 -37 -21.5 -56t-56.5 -14q-92 15 -168.5 3t-76.5 -46q0 -29 102 -28h10q17 0 28 -14t11 -33q0 -34 -22 -61t-56 -23q-47 4 -95.5 1t-85 -20t-36.5 -45q0 -24 32.5 -32t73 -3 t71.5 17q67 27 90 -41q19 -55 -51.5 -97t-188.5 -42q-39 0 -76 7.5t-73.5 24.5t-59 51.5t-22.5 81.5z" />
<glyph />
<glyph d="M-551 1020v172q0 44 28.5 66t73.5 22q46 0 74.5 -22t28.5 -66v-172q0 -44 -28.5 -66t-74.5 -22q-45 0 -73.5 22t-28.5 66z" />
<glyph d="M-401 1346v131q0 44 28.5 66t73.5 22t73.5 -22t28.5 -66v-131q0 -44 -28.5 -66.5t-73.5 -22.5t-73.5 22.5t-28.5 66.5z" />
<glyph d="M-401 1458v131q0 44 28.5 66t73.5 22t73.5 -22t28.5 -66v-131q0 -44 -28.5 -66t-73.5 -22t-73.5 22t-28.5 66z" />
<glyph d="M-1055 1016q0 37 23.5 60.5t68.5 23.5h537q45 0 68.5 -23.5t23.5 -60.5t-23.5 -60.5t-68.5 -23.5h-537q-45 0 -68.5 23.5t-23.5 60.5z" />
<glyph d="M-1055 1016q0 37 23.5 60.5t68.5 23.5h424v39q0 44 28.5 66t74.5 22q45 0 73.5 -22t28.5 -66v-103q0 -61 -34.5 -82.5t-98.5 -21.5h-496q-45 0 -68.5 23.5t-23.5 60.5z" />
<glyph d="M-967 1016q0 37 24 60.5t69 23.5h475q45 0 68.5 -23.5t23.5 -60.5t-23.5 -60.5t-68.5 -23.5h-475q-45 0 -69 23.5t-24 60.5z" />
<glyph d="M-967 1016q0 37 24 60.5t69 23.5h362v39q0 44 28.5 66t73.5 22q46 0 74.5 -22t28.5 -66v-103q0 -61 -34.5 -82.5t-98.5 -21.5h-434q-45 0 -69 23.5t-24 60.5z" />
<glyph d="M-967 1016q0 37 24 60.5t69 23.5h116v39q0 44 28.5 66t74.5 22q45 0 73.5 -22t28.5 -66v-39h41v39q0 44 28.5 66t73.5 22q46 0 74.5 -22t28.5 -66v-103q0 -61 -34.5 -82.5t-98.5 -21.5h-434q-45 0 -69 23.5t-24 60.5z" />
<glyph d="M-512 1356v131q0 44 28.5 66t73.5 22q46 0 74.5 -22t28.5 -66v-131q0 -44 -28.5 -66t-74.5 -22q-45 0 -73.5 22t-28.5 66z" />
<glyph d="M-700 1483q0 34 21.5 55t62.5 21h114q51 0 78 -22t27 -62v-45h170q41 0 61.5 -21t20.5 -55q0 -33 -20.5 -54.5t-61.5 -21.5h-269q-96 0 -96 82v47h-24q-41 0 -62.5 21.5t-21.5 54.5z" />
<glyph d="M-733 1339v101q0 108 129 108q52 0 80.5 -13t50.5 -38q22 25 50.5 38t80.5 13q129 0 129 -108v-21h33q36 0 57 -20t21 -56q0 -35 -22 -55t-62 -20h-115q-45 0 -70.5 15t-25.5 56v62h-9q0 -2 -1.5 -5t-6.5 -10t-11.5 -13t-19.5 -10.5t-28 -4.5q-24 0 -41 11t-22 21l-5 11 h-8v-62q0 -39 -25.5 -59t-66.5 -20t-66.5 20t-25.5 59z" />
<glyph d="M-618 1442q0 31 17 48t48 17h51v35q0 37 25.5 55.5t66.5 18.5t67 -19t26 -55v-35h51q31 0 48 -17t17 -48t-17 -48.5t-48 -17.5h-51v-35q0 -36 -26 -54.5t-67 -18.5t-66.5 18.5t-25.5 54.5v35h-51q-31 0 -48 17.5t-17 48.5z" />
<glyph d="M-604 1317q-16 41 2.5 77t69.5 54l112 43q36 14 62.5 9.5t41.5 -17.5t23 -33q25 -77 -63 -113l-43 -16l8 -21q31 -79 -60 -112q-38 -16 -75.5 -3t-51.5 54z" />
<glyph d="M-649 1016q0 37 23.5 60.5t68.5 23.5h393q45 0 68.5 -23.5t23.5 -60.5t-23.5 -60.5t-68.5 -23.5h-393q-45 0 -68.5 23.5t-23.5 60.5z" />
<glyph d="M-649 1016q0 37 23.5 60.5t68.5 23.5h281v39q0 44 28.5 66t73.5 22t73.5 -22t28.5 -66v-103q0 -61 -34.5 -82.5t-98.5 -21.5h-352q-45 0 -68.5 23.5t-23.5 60.5z" />
</font>
</defs>
</svg>
