<?xml version="1.0" standalone="no"?>
<!DOCTYPE svg PUBLIC "-//W3C//DTD SVG 1.1//EN" "http://www.w3.org/Graphics/SVG/1.1/DTD/svg11.dtd" >
<svg xmlns="http://www.w3.org/2000/svg" xmlns:xlink="http://www.w3.org/1999/xlink" version="1.1">
<metadata></metadata>
<defs>
<font id="psl_chocolate_favor_w1_proIt" horiz-adv-x="0" >
<font-face units-per-em="2048" ascent="1638" descent="-410" />
<missing-glyph horiz-adv-x="552" />
<glyph unicode=" "  horiz-adv-x="552" />
<glyph unicode="&#x09;" horiz-adv-x="552" />
<glyph unicode="&#xa0;" horiz-adv-x="552" />
<glyph unicode="!" horiz-adv-x="385" d="M18 94q6 50 46 83.5t96 33.5t85 -33t23 -84q-6 -48 -45.5 -81t-95.5 -33t-85.5 32.5t-23.5 81.5zM106 483l29 361q7 79 41 111t92 32t83 -32t9 -111l-69 -361q-16 -74 -38.5 -102.5t-72.5 -28.5q-51 0 -65.5 29t-8.5 102z" />
<glyph unicode="&#x22;" horiz-adv-x="655" d="M115 672l26 200q6 44 36 72.5t81 28.5q54 0 74.5 -28t13.5 -73l-27 -200q-15 -101 -116 -101q-51 0 -72.5 28.5t-15.5 72.5zM401 672l27 200q6 44 36 72.5t81 28.5q54 0 74.5 -28t13.5 -73l-27 -200q-15 -101 -117 -101q-51 0 -72.5 28.5t-15.5 72.5z" />
<glyph unicode="#" horiz-adv-x="1019" d="M6 338q3 28 22 48t52 20h141l68 151h-107q-32 0 -46 20.5t-9 49.5q3 27 22.5 46t51.5 19h141l92 215q26 64 86 64q52 0 72 -30.5t-2 -84.5l-68 -164h166l92 215q24 64 86 64q52 0 72 -29.5t-2 -85.5l-68 -164h101q32 0 46 -19t11 -46q-5 -29 -24 -49.5t-52 -20.5h-137 l-65 -151h100q33 0 46.5 -20t10.5 -48q-5 -29 -24 -48.5t-52 -19.5h-137l-96 -227q-25 -63 -86 -63q-47 0 -70 29.5t0 84.5l76 176h-170l-96 -227q-23 -63 -86 -63q-47 0 -70 29.5t0 84.5l74 176h-107q-32 0 -46 20t-9 48zM401 406h166l70 151h-168z" />
<glyph unicode="$" horiz-adv-x="759" d="M-6 133q6 49 41 82t86 33q34 0 62 -11.5t45 -25.5t49 -25.5t73 -11.5q51 0 84 26t39 64q3 25 -5.5 47t-22 36t-40.5 28.5t-44.5 21.5t-49.5 19q-56 21 -95 41t-76.5 52.5t-52.5 79t-7 105.5q15 104 84 176.5t176 100.5l8 59q7 49 40 70.5t75 21.5q41 0 67 -21.5t19 -70.5 l-6 -47q91 -10 136.5 -45t37.5 -88q-6 -44 -35 -75.5t-74 -31.5q-33 0 -88 28t-94 28q-49 0 -78.5 -23.5t-34.5 -60.5q-7 -47 35.5 -78.5t130.5 -63.5q29 -11 51.5 -20.5t47 -22.5t41.5 -25.5t34.5 -29.5t26.5 -35t18 -41.5t7.5 -49.5t-3.5 -58q-17 -124 -94.5 -203 t-206.5 -104l-10 -76q-7 -49 -38.5 -70.5t-73.5 -21.5t-69 21.5t-20 70.5l11 69q-104 11 -160.5 51t-46.5 105z" />
<glyph unicode="%" horiz-adv-x="1054" d="M45 745q12 94 88 161t170 67t151.5 -67t45.5 -161q-13 -94 -89.5 -160.5t-170.5 -66.5t-151 66.5t-44 160.5zM88.5 68q1.5 40 36.5 82l659 772q39 46 84 52.5t78 -24.5q28 -22 26.5 -62t-36.5 -83l-657 -768q-40 -48 -86.5 -55t-77.5 24q-28 22 -26.5 62zM203 750 q-5 -29 12.5 -49.5t46.5 -20.5t52 20.5t28 49.5q4 29 -13 49t-46 20t-52.5 -20t-27.5 -49zM565 215q13 94 89.5 160.5t170.5 66.5t151 -66.5t44 -160.5q-12 -94 -88 -160.5t-170 -66.5t-151.5 66.5t-45.5 160.5zM725 219q-4 -29 13 -49t46 -20t52.5 20t27.5 49 q3 29 -14.5 49.5t-46.5 20.5t-52 -20.5t-26 -49.5z" />
<glyph unicode="&#x26;" horiz-adv-x="976" d="M12 268q26 196 283 285q-93 104 -80 203q14 100 100.5 168.5t214.5 68.5t195 -69.5t53 -171.5q-10 -72 -50 -132t-136 -120l108 -146q59 68 97.5 95.5t68.5 27.5q33 0 54.5 -24t15.5 -60q-4 -33 -35.5 -73.5t-101.5 -102.5l41 -57q60 -82 -13 -148q-41 -38 -86 -36.5 t-71 42.5l-43 66q-84 -64 -162.5 -88.5t-167.5 -24.5q-141 0 -222.5 83.5t-62.5 213.5zM219 270q-7 -58 29.5 -90.5t101.5 -32.5q87 0 182 74l-147 199q-68 -23 -113.5 -61.5t-52.5 -88.5zM422 756q-4 -31 14 -59t56 -64q99 53 108 115q5 35 -16 62.5t-64 27.5 q-37 0 -64.5 -23t-33.5 -59z" />
<glyph unicode="'" horiz-adv-x="368" d="M102 662l29 200q6 49 38.5 80t88.5 31q59 0 82 -30.5t16 -80.5l-28 -200q-7 -50 -38.5 -80.5t-90.5 -30.5q-56 0 -79.5 31t-17.5 80z" />
<glyph unicode="(" horiz-adv-x="505" d="M108.5 193.5q-5.5 112.5 12.5 238.5q26 179 88 331.5t133 242.5q24 31 55 44t57 9.5t46 -17.5q35 -29 31.5 -69.5t-37.5 -85.5q-51 -71 -99.5 -193.5t-68.5 -261.5q-18 -160 -5 -273t46 -184q20 -41 9 -87t-48 -68q-24 -14 -51 -17.5t-54 10t-43 44.5q-29 58 -47.5 141 t-24 195.5z" />
<glyph unicode=")" horiz-adv-x="505" d="M-26.5 -112.5q2.5 45.5 34.5 87.5q52 70 100 192.5t68 264.5q19 156 6 270.5t-47 184.5q-22 42 -12 86t51 69q24 14 51 17.5t54.5 -9.5t44.5 -44q28 -58 46.5 -140.5t24 -196t-13.5 -237.5q-24 -178 -86 -330.5t-133 -244.5q-25 -31 -56.5 -44.5t-57.5 -10t-46 17.5 q-31 22 -28.5 67.5z" />
<glyph unicode="*" horiz-adv-x="704" d="M102.5 796.5q-0.5 17.5 3 34.5t11.5 33q17 38 48 60.5t68 3.5l103 -47l-2 114q0 42 32.5 62t71.5 20q41 0 68 -19t16 -63l-30 -118l112 53q42 20 65.5 -1.5t30.5 -62.5q3 -24 2 -48t-17.5 -43t-45.5 -23l-125 -17l74 -86q14 -17 14.5 -35.5t-9.5 -35t-22.5 -29 t-27.5 -23.5q-22 -14 -45.5 -21t-47 -0.5t-32.5 32.5l-35 108l-80 -110q-16 -26 -40.5 -33t-44.5 0.5t-38 21.5q-77 67 -12 123l104 84l-125 19q-22 4 -33 16.5t-11.5 30z" />
<glyph unicode="+" horiz-adv-x="778" d="M27 414q6 41 35.5 66.5t72.5 25.5h170l25 170q6 43 34.5 69.5t69.5 26.5t63.5 -26.5t16.5 -69.5l-25 -170h170q43 0 66.5 -25.5t17.5 -66.5t-35.5 -66.5t-72.5 -25.5h-170l-25 -170q-6 -43 -35.5 -70t-70.5 -27t-62.5 27t-15.5 70l25 170h-170q-43 0 -66.5 25.5 t-17.5 66.5z" />
<glyph unicode="," horiz-adv-x="458" d="M-25 0l138 178q34 43 67 60.5t56.5 15t50.5 -15.5q34 -18 38 -55t-32 -85l-137 -178q-88 -112 -176 -45q-65 49 -5 125z" />
<glyph unicode="-" horiz-adv-x="626" d="M45 395q7 53 41 80t88 27h299q108 0 96 -107q-15 -106 -129 -106h-299q-53 0 -78 27t-18 79z" />
<glyph unicode="." horiz-adv-x="458" d="M45 106q8 53 50.5 88t103.5 35t94.5 -35t25.5 -88t-51 -87.5t-104 -34.5t-94 34.5t-25 87.5z" />
<glyph unicode="/" horiz-adv-x="647" d="M-56.5 42.5q-3.5 40.5 25.5 82.5l549 805q30 42 68 57t86 -6q38 -19 39.5 -63t-25.5 -80l-549 -805q-30 -42 -67.5 -56.5t-85.5 5.5q-37 20 -40.5 60.5z" />
<glyph unicode="0" horiz-adv-x="778" d="M41 251q-13 96 4 228q19 128 60.5 227t98 159.5t122.5 91t139 30.5q152 0 232 -128.5t44 -379.5q-35 -251 -150 -379.5t-267 -128.5q-73 0 -130.5 30t-98.5 92t-54 158zM258 479q-22 -157 4 -239t86 -82t109 81.5t71 239.5t-4 240t-86 82t-109 -82t-71 -240z" />
<glyph unicode="1" horiz-adv-x="778" d="M154 866q6 44 42 69.5t89 25.5h161q81 0 109.5 -32.5t19.5 -103.5l-104 -743q-13 -102 -119 -102q-103 0 -90 102l98 694h-100q-54 0 -83 22.5t-23 67.5z" />
<glyph unicode="2" horiz-adv-x="778" d="M2 92q4 38 64 98q24 27 104 101.5t149.5 140.5t130 142t66.5 122q17 107 -90 107q-96 0 -133 -107q-17 -51 -39 -71.5t-74 -20.5q-47 0 -73 27.5t-19 77.5q15 108 114.5 193t250.5 85q160 0 231 -76.5t53 -203.5q-13 -98 -107 -216.5t-300 -306.5h262q62 0 85.5 -24.5 t18.5 -67.5q-14 -92 -129 -92h-452q-58 0 -88.5 23.5t-24.5 68.5z" />
<glyph unicode="3" horiz-adv-x="778" d="M8 195q6 45 38.5 70.5t76.5 25.5q12 0 22 -1t17.5 -4.5t12.5 -6t10.5 -9t7.5 -9.5t8 -12.5t8 -12.5q50 -76 139 -76q57 0 100 33.5t50 89.5q9 64 -27 97.5t-109 33.5q-36 0 -55.5 27t-13.5 71q4 40 32 66t64 26q55 0 90 27.5t41 75.5q6 43 -19.5 71.5t-74.5 28.5 q-77 0 -125 -59q-1 -1 -8 -9t-8.5 -9.5t-7.5 -8t-9 -8t-9 -6t-11.5 -6t-13 -4t-15.5 -3t-18 -0.5q-44 0 -67.5 24.5t-18.5 63.5q11 80 104 142.5t234 62.5q144 0 215.5 -70t56.5 -182q-19 -136 -154 -207q49 -17 81.5 -47t44.5 -63t16.5 -70.5t-2.5 -68.5 q-19 -135 -125 -221.5t-271 -86.5q-156 0 -237.5 69.5t-69.5 154.5z" />
<glyph unicode="4" horiz-adv-x="778" d="M-23 289q9 57 68 123l395 471q42 49 80.5 76.5t87.5 27.5q122 0 103 -156l-64 -444q67 0 91.5 -25t19.5 -65q-5 -35 -37.5 -60.5t-97.5 -25.5l-19 -125q-13 -106 -112 -106q-102 0 -89 106l19 125h-328q-66 0 -94.5 17t-22.5 61zM240 387h206l43 303z" />
<glyph unicode="5" horiz-adv-x="778" d="M0 158q6 42 36.5 70t76.5 28q28 0 49.5 -10t36 -24t30 -28t39 -24t54.5 -10q68 0 114.5 41t55.5 108q9 66 -28.5 107t-103.5 41q-29 0 -91.5 -10.5t-88.5 -10.5q-50 0 -79.5 27t-12.5 90l80 297q13 60 48 85.5t103 25.5h332q54 0 81.5 -25t21.5 -68q-12 -92 -127 -92 h-289l-39 -168q65 13 133 13q145 0 221.5 -81.5t55.5 -230.5q-23 -161 -131 -249.5t-285 -88.5q-137 0 -219.5 55.5t-73.5 131.5z" />
<glyph unicode="6" horiz-adv-x="778" d="M20 317q15 104 90 229.5t165 224t180 169.5q101 78 163 31q33 -33 27 -74q-4 -28 -38.5 -67t-97 -98.5t-101.5 -106.5q167 -7 246.5 -92.5t60.5 -223.5q-22 -148 -135 -243t-271 -95q-144 0 -227 97t-62 249zM227 301q-9 -62 25.5 -103.5t91.5 -41.5q58 0 103.5 41 t54.5 104t-25.5 105.5t-91.5 42.5t-103 -41.5t-55 -106.5z" />
<glyph unicode="7" horiz-adv-x="778" d="M94 868q6 43 39.5 68t87.5 25h416q105 0 136 -54t-21 -137l-422 -698q-68 -116 -174 -92q-50 11 -55 54.5t36 108.5l400 633h-340q-56 0 -82.5 23.5t-20.5 68.5z" />
<glyph unicode="8" horiz-adv-x="778" d="M18 287q22 169 179 241q-99 65 -82 195q17 114 117.5 189t230.5 75q135 0 214 -74.5t62 -189.5q-16 -130 -135 -195q131 -72 109 -241q-20 -143 -127 -229.5t-264 -86.5q-155 0 -239.5 87t-64.5 229zM225 291q-9 -64 27 -100.5t94 -36.5q59 0 106 37t56 100 q10 64 -26 100.5t-97 36.5q-58 0 -104 -36.5t-56 -100.5zM311 715q-9 -53 20.5 -83t78.5 -30q48 0 85 30t46 83q6 51 -23.5 80.5t-77.5 29.5t-85.5 -30t-43.5 -80z" />
<glyph unicode="9" horiz-adv-x="778" d="M70 649q20 147 133 242.5t272 95.5q144 0 227 -97t60 -249q-15 -104 -89 -229.5t-164 -224t-179 -169.5q-103 -79 -164 -30q-34 31 -27 73q4 28 39 67t97 99t100 107q-166 7 -245 92t-60 223zM283 657q-9 -64 24.5 -105.5t89.5 -41.5q57 0 104 41.5t56 105.5 q7 62 -27 104t-90 42q-58 0 -103 -41t-54 -105z" />
<glyph unicode=":" horiz-adv-x="458" d="M45 106q8 53 50.5 88t103.5 35t94.5 -35t25.5 -88t-51 -87.5t-104 -34.5t-94 34.5t-25 87.5zM113 588q8 54 50 88.5t103 34.5t95 -34.5t26 -88.5t-51.5 -88.5t-104.5 -34.5t-93.5 34.5t-24.5 88.5z" />
<glyph unicode=";" horiz-adv-x="458" d="M-25 0l138 178q34 43 67 60.5t56.5 15t50.5 -15.5q34 -18 38 -55t-32 -85l-137 -178q-88 -112 -176 -45q-65 49 -5 125zM113 588q8 54 50 88.5t103 34.5t95 -34.5t26 -88.5t-51.5 -88.5t-104.5 -34.5t-93.5 34.5t-24.5 88.5z" />
<glyph unicode="&#x3c;" horiz-adv-x="778" d="M27 406q6 46 75 81l551 291q42 18 74 7t45 -42q27 -82 -57 -129l-391 -206l331 -211q37 -25 40.5 -61.5t-19.5 -65.5q-22 -32 -55.5 -43.5t-71.5 6.5l-469 291q-59 35 -53 82z" />
<glyph unicode="=" horiz-adv-x="778" d="M2 240q6 41 36 66.5t73 25.5h524q43 0 66.5 -25.5t17.5 -66.5t-36 -67t-73 -26h-524q-43 0 -66.5 26t-17.5 67zM47 567q6 41 37 66.5t74 25.5h524q43 0 65.5 -25.5t16.5 -66.5q-4 -41 -35 -66.5t-74 -25.5h-524q-43 0 -66 25.5t-18 66.5z" />
<glyph unicode="&#x3e;" horiz-adv-x="778" d="M-4 70q-27 80 55 127l393 209l-333 208q-71 45 -19 129q20 31 55.5 42.5t71.5 -7.5l469 -291q57 -35 51 -81t-73 -82l-551 -291q-44 -18 -74 -6.5t-45 43.5z" />
<glyph unicode="?" horiz-adv-x="739" d="M74 756q13 87 108 159t238 72q155 0 233 -83t60 -210q-25 -183 -252 -241l-12 -82q-11 -78 -109 -78q-101 0 -88 88l14 100q5 36 17 54t41 30q157 48 170 142q6 40 -18.5 68t-74.5 28q-88 0 -129 -78q-15 -33 -36.5 -49.5t-63.5 -16.5q-52 0 -78 23.5t-20 73.5zM186 94 q6 50 46 83.5t96 33.5t85 -33t23 -84q-6 -48 -45.5 -81t-95.5 -33t-85.5 32.5t-23.5 81.5z" />
<glyph unicode="@" horiz-adv-x="1400" d="M53 385q17 121 80 234t162 204t242.5 146t306.5 55q250 0 395 -133t115 -346q-17 -113 -80.5 -219t-162.5 -175t-204 -69q-120 0 -135 94q-99 -92 -219 -92q-107 0 -172 67.5t-47 186.5q25 172 143.5 286.5t267.5 114.5q80 0 140 -51q23 32 56 45t63 8q44 -9 59.5 -39.5 t-0.5 -68.5l-123 -307q-18 -50 -7.5 -71.5t44.5 -21.5q72 0 143 95t88 219q22 151 -86.5 251.5t-300.5 100.5q-128 0 -240.5 -43.5t-191.5 -115.5t-129.5 -164t-64.5 -191q-28 -198 93 -316t349 -118q204 0 410 121q35 19 58 17.5t34 -17.5q14 -16 3.5 -45.5t-42.5 -51.5 q-81 -56 -208.5 -100.5t-268.5 -44.5q-130 0 -241.5 37t-191.5 105t-118 175t-19 238zM526 342q-6 -40 15.5 -61t56.5 -21q53 0 97 30t67 85l33 78q18 51 -3.5 77.5t-66.5 26.5q-69 0 -127 -63.5t-72 -151.5z" />
<glyph unicode="A" horiz-adv-x="880" d="M-38 40q-3 11 -3 23q0 34 21 78l354 693q37 74 77.5 107.5t102.5 33.5t93.5 -33.5t49.5 -107.5l158 -693q5 -22 5 -41q0 -33 -14 -60q-22 -43 -67 -52q-22 -5 -39 -5q-30 1 -49 15q-29 22 -41 86l-22 119h-365l-55 -119q-28 -64 -64 -86q-23 -14 -53 -15q-17 0 -37 5 q-42 10 -52 52zM291 348h270l-76 412z" />
<glyph unicode="B" horiz-adv-x="837" d="M47 131l96 684q11 77 46 111.5t120 34.5h189q145 1 212 -63q58 -55 57 -148q0 -15 -1 -31q-6 -55 -38.5 -113.5t-90.5 -83.5q147 -29 147 -183q0 -24 -4 -52q-19 -137 -115.5 -212t-261.5 -75h-229q-80 0 -108 28q-22 22 -21 70q0 15 2 33zM264 176h142q141 0 155 113 q2 13 2 24q0 39 -24 61q-31 28 -103 27h-141zM319 573h105q52 0 88.5 30.5t42.5 76.5q1 11 1 20q0 37 -22 58q-28 26 -85 26h-101z" />
<glyph unicode="C" horiz-adv-x="835" d="M45 479q33 228 188 368t361 140q128 0 204 -43q67 -38 67 -91q0 -6 -1 -13q-6 -40 -36 -69.5t-68 -29.5q-27 0 -88 22.5t-105 22.5q-113 0 -192 -83.5t-99 -227.5q-5 -36 -5 -68q0 -91 42 -153q57 -82 174 -82q52 0 121 28.5t92 28.5q39 1 61 -27q17 -21 17 -52 q0 -10 -2 -21q-8 -65 -98 -111.5t-227 -46.5q-212 1 -325 139q-88 108 -88 272q0 46 7 97z" />
<glyph unicode="D" horiz-adv-x="948" d="M47 131l96 684q11 77 46 111.5t120 34.5h195q232 0 340 -124q84 -96 85 -252q0 -44 -7 -93q-31 -226 -173.5 -359t-361.5 -133h-213q-84 0 -110 28q-19 20 -19 67q0 16 2 36zM264 176h111q273 0 317 316q6 39 6 73q0 219 -243 219h-107z" />
<glyph unicode="E" horiz-adv-x="681" d="M47 131l96 684q11 77 46 111.5t120 34.5h301q52 0 78 -22q20 -17 21 -49q0 -9 -2 -18q-11 -88 -121 -88h-238l-29 -215h224q86 0 86 -69q0 -10 -2 -21q-11 -86 -111 -86h-223l-29 -217h238q54 0 78 -21q20 -17 19 -50q0 -8 -1 -17q-13 -88 -121 -88h-303q-84 0 -110 28 q-19 20 -19 67q0 16 2 36z" />
<glyph unicode="F" horiz-adv-x="659" d="M41 82l102 733q11 77 46 111.5t120 34.5h301q52 0 78 -22q20 -17 21 -49q0 -9 -2 -18q-11 -88 -121 -88h-238l-33 -235h224q46 -1 69 -23q18 -18 18 -49q0 -8 -1 -18q-11 -86 -111 -86h-223l-41 -291q-13 -102 -119 -102q-91 0 -91 80q0 11 1 22z" />
<glyph unicode="G" horiz-adv-x="983" d="M47 481q32 232 184.5 370t374.5 138q156 0 248 -60q83 -54 83 -121q0 -8 -1 -15q-5 -38 -35.5 -67.5t-69.5 -29.5q-24 0 -52.5 15.5t-53 34t-65.5 34t-87 15.5q-117 0 -197 -83t-100 -227q-6 -41 -6 -77q0 -94 41 -156q57 -86 172 -86q82 0 145.5 52.5t94.5 164.5h-141 q-49 0 -74 23q-20 19 -20 52q0 8 1 17q6 45 38.5 70.5t80.5 25.5h217q75 0 107 -33q24 -24 24 -74q0 -16 -2 -34q-28 -201 -169.5 -330t-344.5 -129t-314 141q-86 110 -86 272q0 46 7 97z" />
<glyph unicode="H" horiz-adv-x="1007" d="M41 82l111 788q15 103 118 103q92 0 92 -79q0 -11 -2 -24l-41 -295h406l41 295q15 103 119 103q92 0 92 -79q0 -11 -2 -24l-111 -788q-13 -102 -119 -102q-91 0 -91 80q0 10 1 22l45 317h-405l-45 -317q-13 -102 -119 -102q-91 0 -91 80q0 11 1 22z" />
<glyph unicode="I" horiz-adv-x="395" d="M45 82l111 788q15 103 118 103q93 0 93 -79q0 -11 -2 -24l-111 -788q-13 -102 -119 -102q-91 0 -91 80q0 11 1 22z" />
<glyph unicode="J" horiz-adv-x="612" d="M-45 125q6 43 37 71.5t76 28.5q34 0 56 -13.5t39 -26.5t38 -13q82 0 106 166l74 532q15 103 119 103q92 0 92 -79q0 -11 -2 -24l-82 -583q-22 -154 -104 -234t-222 -80q-109 0 -172 45q-56 40 -56 93q0 7 1 14z" />
<glyph unicode="K" horiz-adv-x="849" d="M41 78l111 792q15 103 118 103q92 0 92 -79q0 -11 -2 -24l-41 -299l375 357q35 34 76 40q7 1 13 0q33 0 57 -24q23 -28 23 -59q0 -7 -1 -15q-7 -40 -45 -77l-305 -283l248 -346q28 -38 28 -73q0 -45 -47 -83q-34 -29 -71 -29q-4 1 -10 1q-42 4 -72 47l-285 426l-53 -375 q-15 -103 -119 -103q-92 0 -92 79q0 11 2 24z" />
<glyph unicode="L" horiz-adv-x="661" d="M47 131l105 739q15 103 118 103q92 0 92 -79q0 -11 -2 -24l-94 -680h234q60 0 84 -24q19 -20 19 -55q0 -9 -1 -19q-12 -92 -129 -92h-299q-80 0 -108 28q-22 22 -21 70q0 15 2 33z" />
<glyph unicode="M" horiz-adv-x="1196" d="M-32.5 37q-2.5 24 1 47t13.5 55l219 690q47 144 168 144q58 0 88 -31.5t41 -95.5l80 -529h4l231 529q27 64 65.5 95.5t96.5 31.5q124 0 127 -144l26 -690q1 -32 -1.5 -55t-12 -47t-31 -38.5t-55.5 -18.5q-36 -4 -59 3.5t-34 29t-14.5 43t-5.5 59.5l-10 503l-229 -534 q-47 -109 -144 -109q-53 0 -79 25.5t-35 83.5l-78 534l-154 -503q-22 -75 -52 -109q-25 -28 -73 -28q-11 0 -24 2q-32 4 -49.5 18.5t-20 38.5z" />
<glyph unicode="N" horiz-adv-x="1028" d="M41 82l106 756q17 135 115 135q65 0 105 -70l344 -557l73 524q15 103 119 103q94 0 94 -79q0 -11 -2 -24l-106 -757q-9 -66 -36 -98.5t-79 -32.5q-35 0 -60 18.5t-50 60.5l-340 547l-74 -526q-13 -102 -119 -102q-91 0 -91 80q0 11 1 22z" />
<glyph unicode="O" horiz-adv-x="1028" d="M47 479q32 228 183 368t364 140q208 -1 320 -141q88 -109 88 -271q0 -46 -7 -96q-31 -228 -180 -368t-362 -140q-215 0 -326 140q-87 109 -87 273q0 45 7 95zM262 477q-5 -36 -5 -67q0 -96 45 -160q60 -86 177 -86q112 0 196.5 86t104.5 227q5 38 5 73q1 96 -43 160 q-60 86 -175 87q-116 0 -200 -86.5t-105 -233.5z" />
<glyph unicode="P" horiz-adv-x="823" d="M41 82l102 733q11 76 47.5 111t122.5 35h201q164 0 246 -88q64 -69 64 -178q0 -29 -5 -62q-23 -164 -119.5 -248t-255.5 -84h-163l-31 -219q-15 -102 -119 -102q-91 0 -91 80q0 11 1 22zM305 477h119q79 0 123.5 44t54.5 112q2 17 2 32q0 51 -24 81q-30 38 -113 38h-119z " />
<glyph unicode="Q" horiz-adv-x="1028" d="M47 479q32 228 183 368t364 140q208 0 320 -141q88 -109 88 -271q0 -46 -7 -96q-23 -181 -133 -317l82 -84q19 -20 21.5 -44.5t-7 -44t-26.5 -36.5q-38 -36 -75 -39h-7q-33 0 -59 27l-86 92q-118 -62 -252 -62q-215 0 -326 140q-87 109 -87 273q0 45 7 95zM262 477 q-5 -35 -5 -67q0 -96 45 -160q60 -86 177 -86q47 0 88 14l-61 62q-21 26 -21 52q0 6 1 12q6 33 34 61q30 32 72 35h7q37 0 58 -23l66 -68q46 74 57 168q5 38 5 73q0 97 -43 160q-60 87 -175 87q-116 0 -200 -86.5t-105 -233.5z" />
<glyph unicode="R" horiz-adv-x="811" d="M41 80l102 735q11 78 47 112t123 34h172q173 1 259 -81q71 -67 71 -171q0 -23 -4 -47q-17 -118 -78.5 -194t-195.5 -106l168 -190q39 -42 39 -83q0 -38 -37 -75q-44 -37 -85 -37q-8 -1 -14 1q-46 8 -82 55l-239 313l-37 -266q-16 -105 -119 -105q-91 0 -91 83q0 10 1 22z M309 498h119q76 0 115.5 41.5t48.5 103.5q2 13 2 26q0 46 -24 76q-30 39 -101 39h-121z" />
<glyph unicode="S" horiz-adv-x="759" d="M-6 133q6 49 41 82t86 33q34 0 62 -11.5t45 -25.5t49 -25.5t73 -11.5q51 0 84 26t39 64q3 25 -5.5 47t-22 36t-40.5 28.5t-44.5 21.5t-49.5 19q-56 21 -95 41t-76.5 52.5t-52.5 78.5q-10 30 -10 66q0 19 3 40q20 136 126 214.5t265 78.5q123 1 189 -37q58 -33 58 -87 q0 -6 -1 -13q-6 -44 -35 -75.5t-74 -31.5q-33 0 -88 28t-94 28q-49 0 -78.5 -23.5t-34.5 -60.5q-1 -7 -1 -13q0 -38 36 -66q42 -32 131 -63q29 -11 51.5 -20.5t47 -22.5t41.5 -25.5t34.5 -29.5t26.5 -35t18 -41.5t7.5 -49.5t-3.5 -58q-20 -151 -128.5 -234.5t-286.5 -83.5 q-141 0 -223 41q-72 36 -72 100q0 9 2 19z" />
<glyph unicode="T" horiz-adv-x="712" d="M70 872q15 89 120 89h476q52 0 78 -22q20 -17 20 -49q0 -9 -2 -18q-11 -88 -121 -88h-133l-98 -702q-13 -102 -119 -102q-91 0 -91 80q0 10 1 22l98 702h-133q-54 0 -78 20q-20 16 -19 50q0 9 1 18z" />
<glyph unicode="U" horiz-adv-x="1005" d="M84 379l68 491q15 103 118 103q92 0 92 -79q0 -11 -2 -24l-65 -462q-5 -40 -5 -74q0 -78 29 -119q42 -59 144 -59t160.5 59t76.5 193l66 462q15 103 119 103q92 0 92 -79q0 -11 -2 -24l-68 -491q-57 -408 -469 -408q-361 0 -361 315q0 43 7 93z" />
<glyph unicode="V" horiz-adv-x="884" d="M80 823q-5 20 -5 39q0 28 11 52q19 41 74 57q22 7 41 7q68 0 90 -85l135 -563l295 563q43 85 110 85q19 0 41 -7q52 -15 60 -59q2 -9 1 -19q0 -35 -22 -70l-411 -764q-46 -77 -123 -77q-79 0 -98 77z" />
<glyph unicode="W" horiz-adv-x="1257" d="M72 838q-1 8 -1 16q0 47 26 81q30 40 98 40q82 0 88 -90l49 -553h2l239 551q41 90 129 90q92 0 105 -90l84 -551h2l205 553q32 90 112 90q47 -1 72 -21q26 -21 26 -53q0 -29 -12 -63l-264 -707q-29 -78 -68.5 -113.5t-97.5 -35.5q-59 0 -90.5 34.5t-40.5 104.5l-80 504 h-4l-219 -504q-32 -71 -72.5 -105t-99.5 -34q-58 0 -87.5 35.5t-37.5 113.5z" />
<glyph unicode="X" horiz-adv-x="862" d="M-12 139l321 365q1 0 -46 78t-95 156l-47 77q-13 26 -13 50q0 13 3 23q10 34 41 60q32 30 78.5 30t72.5 -42l158 -262l233 262q25 28 55.5 37t56 1.5t44.5 -26.5q22 -22 22 -60.5t-32 -72.5q-275 -311 -277 -311l221 -365q15 -28 15 -52q-1 -9 -3 -19q-8 -32 -38 -60 q-38 -32 -83 -32t-71 42l-190 314q0 1 -70 -77.5t-140 -157.5l-69 -79q-38 -42 -84 -42t-74 32q-22 22 -22 55q0 39 33 76z" />
<glyph unicode="Y" horiz-adv-x="772" d="M72 888q6 45 51 73q29 16 55 16q15 0 28 -5q38 -13 62 -57l144 -274l221 274q35 44 79 57q15 5 29 5q27 0 50 -16q26 -19 30.5 -46.5t-7 -54t-34.5 -55.5l-288 -352l-54 -371q-13 -102 -119 -102q-91 0 -91 80q0 11 1 22l54 371l-191 352q-21 31 -21 66q0 9 1 17z" />
<glyph unicode="Z" horiz-adv-x="763" d="M-27 113q8 56 99 155l450 516h-352q-89 0 -89 72q0 7 1 16q6 41 34.5 65t78.5 24h444q85 -1 117 -29q26 -23 26 -63q0 -10 -2 -21q-2 -16 -9.5 -34t-13 -29.5t-21 -31.5t-19.5 -25.5t-25 -28.5l-20 -23l-436 -500h368q89 0 89 -72q0 -7 -1 -16q-14 -88 -112 -88h-465 q-84 0 -117 28q-27 23 -27 64q0 10 2 21z" />
<glyph unicode="[" horiz-adv-x="520" d="M53 -45l135 950q10 83 52 113.5t129 30.5h94q60 0 87 -25.5t21 -67.5q-14 -94 -133 -94h-55l-123 -864h55q61 0 88 -25.5t21 -68.5q-6 -42 -39.5 -67t-93.5 -25h-94q-87 0 -120.5 30t-23.5 113z" />
<glyph unicode="\" horiz-adv-x="647" d="M65.5 918q14.5 44 57.5 63q53 21 87 6t50 -57l324 -805q18 -42 3.5 -82.5t-59.5 -60.5q-54 -20 -87.5 -5t-49.5 56l-323 805q-17 36 -2.5 80z" />
<glyph unicode="]" horiz-adv-x="520" d="M-55 -96q14 94 133 94h55l123 864h-55q-61 0 -88 25.5t-21 68.5q6 42 39.5 67.5t93.5 25.5h94q87 0 120.5 -30.5t23.5 -113.5l-135 -950q-10 -83 -51.5 -113t-129.5 -30h-94q-60 0 -86.5 25t-21.5 67z" />
<glyph unicode="^" horiz-adv-x="778" d="M25.5 431q-6.5 34 19.5 75l336 465q49 65 92 65q46 0 72 -67l205 -463q18 -37 0.5 -73t-52.5 -52q-31 -18 -69.5 -9t-55.5 50l-137 336l-239 -336q-28 -41 -69 -50t-65 9q-31 16 -37.5 50z" />
<glyph unicode="_" horiz-adv-x="778" d="M-180 -236q6 42 32.5 67.5t67.5 25.5h776q43 0 60.5 -25t11.5 -68q-5 -43 -30 -67.5t-68 -24.5h-776q-40 0 -59.5 25t-14.5 67z" />
<glyph unicode="`" horiz-adv-x="708" d="M234.5 1057.5q17.5 51.5 72.5 83.5q60 35 110 24.5t79 -63.5l92 -164q24 -54 12.5 -91t-49.5 -65q-39 -31 -89.5 -26.5t-86.5 47.5l-119 147q-39 56 -21.5 107.5z" />
<glyph unicode="a" horiz-adv-x="823" d="M29 360q24 164 125 270.5t241 106.5q124 0 176 -82q28 82 119 82q53 0 74 -25q16 -19 16 -55q0 -12 -2 -26l-76 -541q-9 -56 -37 -81t-81 -25q-88 0 -88 92v14q-77 -106 -226 -106q-132 0 -198 104q-49 77 -49 190q0 39 6 82zM242 362q-4 -28 -4 -53q0 -63 24 -103 q33 -56 98 -56t113.5 56.5t61.5 155.5q5 31 5 57q0 58 -22 96q-32 56 -97.5 56t-114.5 -56t-64 -153z" />
<glyph unicode="b" horiz-adv-x="827" d="M31 90l119 848q16 106 116 106q52 0 74 -28q17 -20 16 -53q0 -12 -2 -25l-41 -283q79 82 205 82q140 -1 212 -107q54 -80 54 -191q0 -38 -6 -79q-23 -168 -120 -272t-228 -104q-145 0 -192 106q-21 -106 -121 -106q-53 0 -74 25q-15 18 -15 50q0 14 3 31zM272 362 q-4 -28 -4 -53q0 -63 24 -103q32 -56 97 -56t114 56t62 156q5 30 5 57q0 58 -23 96q-33 56 -98 56t-113.5 -55.5t-63.5 -153.5z" />
<glyph unicode="c" horiz-adv-x="690" d="M29 360q23 167 140 272t286 105q108 0 167 -35q51 -30 51 -79q0 -7 -1 -15q-4 -39 -34.5 -66.5t-66.5 -27.5q-31 0 -72 27.5t-71 27.5q-73 0 -123.5 -57t-62.5 -147q-4 -25 -4 -48q0 -61 26 -103q34 -58 113 -58q31 0 79 26.5t76 26.5q36 0 57 -24q16 -19 16 -47 q0 -8 -1 -17q-8 -58 -84.5 -98.5t-189.5 -40.5q-158 0 -242 104q-65 80 -65 200q0 35 6 74z" />
<glyph unicode="d" horiz-adv-x="823" d="M25 360q24 164 125 270.5t241 106.5q128 0 180 -82l41 283q16 106 117 106q51 0 73 -28q17 -20 17 -53q0 -12 -2 -25l-119 -848q-9 -56 -37 -81t-81 -25q-88 0 -88 92v14q-77 -106 -226 -106q-132 0 -198 104q-49 77 -49 190q0 39 6 82zM238 362q-4 -28 -4 -53 q0 -63 24 -103q33 -56 98 -56t113 56.5t61 155.5q5 31 5 58q0 58 -22 96q-32 56 -97 55.5t-114 -56.5t-64 -153z" />
<glyph unicode="e" horiz-adv-x="790" d="M29 358q24 166 137.5 273.5t275.5 107.5q104 0 178 -48t105 -125q22 -54 22 -115q0 -25 -4 -52q-14 -94 -118 -94h-385q7 -79 47 -114t96 -35q60 0 127.5 29.5t110.5 29.5q37 0 55 -27q14 -21 13 -51q0 -9 -1 -18q-9 -66 -98.5 -102.5t-239.5 -36.5q-175 0 -261 96 q-66 74 -66 200q0 39 6 82zM260 440h291q-6 62 -39.5 94.5t-91.5 32.5q-54 0 -98.5 -35t-61.5 -92z" />
<glyph unicode="f" horiz-adv-x="487" d="M27 627q5 40 41 65t102 25l12 86q14 107 82.5 174t173.5 67q64 0 94 -27q26 -23 26 -58q0 -7 -1 -15q-6 -41 -30.5 -60t-77.5 -30q-29 -5 -45.5 -33t-20.5 -59l-6 -45q76 0 111 -21q29 -18 29 -55q0 -7 -1 -14q-7 -48 -49 -68t-119 -20l-61 -449q-16 -106 -119 -106 q-88 0 -88 79q0 13 2 27l61 449q-117 0 -117 73q0 7 1 15z" />
<glyph unicode="g" horiz-adv-x="823" d="M-33 -193q6 39 39.5 67t73.5 28q26 0 49 -12t39.5 -26t49.5 -26t75 -12q79 0 131 59.5t72 204.5q-77 -106 -226 -106q-131 0 -198 104q-49 77 -49 190q0 39 6 82q24 164 125 270.5t241 106.5q124 0 176 -82q28 82 119 82q53 0 74 -25q16 -19 16 -55q0 -12 -2 -26 l-84 -600q-27 -185 -142.5 -282t-295.5 -97q-140 0 -219 42q-71 37 -71 99q0 7 1 14zM242 362q-4 -28 -4 -53q0 -63 24 -103q33 -56 98 -56t113.5 56.5t61.5 155.5q5 31 5 57q0 58 -22 96q-33 56 -98 56t-114 -56t-64 -153z" />
<glyph unicode="h" horiz-adv-x="798" d="M31 90l119 848q16 106 116 106q52 0 74 -28q17 -20 16 -53q0 -12 -2 -25l-39 -272q94 71 215 71q112 0 169 -65q44 -50 44 -136q0 -26 -4 -55l-55 -391q-16 -106 -119 -106q-88 0 -88 79q0 12 2 27l47 336q3 23 3 42q0 110 -87 110q-58 0 -105 -46.5t-58 -128.5l-43 -313 q-16 -106 -119 -106q-88 0 -88 79q0 13 2 27z" />
<glyph unicode="i" horiz-adv-x="364" d="M31 90l75 541q6 51 36 78.5t81 27.5q89 0 89 -85q0 -10 -1 -21l-75 -541q-16 -106 -119 -106q-88 0 -88 79q0 13 2 27zM141 1001q8 48 47 81.5t88 33.5q48 0 78 -34q24 -28 25 -64q0 -8 -2 -17q-6 -49 -45.5 -83.5t-87.5 -34.5q-54 0 -82 33q-23 26 -22 65q0 10 1 20z " />
<glyph unicode="j" horiz-adv-x="364" d="M-10 -193l116 826q15 104 117 104q90 0 90 -79q0 -12 -2 -25l-116 -826q-6 -50 -36 -77t-81 -27q-89 0 -89 82q0 10 1 22zM141 1001q8 48 47 81.5t88 33.5q48 0 78 -34q24 -28 24 -64q0 -8 -1 -17q-6 -49 -45.5 -82.5t-87.5 -33.5q-53 0 -82 32q-22 26 -22 64q0 10 1 20z " />
<glyph unicode="k" horiz-adv-x="745" d="M37 90l119 848q16 106 116 106q52 0 74 -28q17 -20 16 -53q0 -12 -2 -25l-65 -471l237 215q58 51 101 51q32 0 55 -28q16 -22 17 -46q0 -11 -4 -23q-11 -38 -50 -73l-172 -153l164 -240q31 -45 31 -82q0 -49 -51 -86q-32 -20 -61 -20q-12 0 -26 4q-42 13 -73 65l-184 303 l-37 -264q-16 -106 -119 -106q-88 0 -88 79q0 13 2 27z" />
<glyph unicode="l" horiz-adv-x="374" d="M37 90l119 848q16 106 116 106q52 0 74 -28q17 -20 16 -53q0 -12 -2 -25l-118 -848q-16 -106 -119 -106q-88 0 -88 79q0 13 2 27z" />
<glyph unicode="m" horiz-adv-x="1204" d="M33 94l76 535q12 108 116 108q90 0 90 -88q44 39 103.5 63.5t116.5 24.5q68 0 114.5 -26.5t61.5 -63.5q96 90 229 90q108 0 166 -63q44 -48 44 -135q0 -27 -5 -58l-55 -387q-15 -110 -119 -110q-88 0 -88 83q0 12 2 27l49 348q3 20 3 37q0 92 -79 92q-53 0 -96.5 -43.5 t-52.5 -107.5l-45 -326q-15 -110 -119 -110q-88 0 -88 83q0 12 2 27l49 348q3 20 3 37q0 92 -79 92q-53 0 -96.5 -43.5t-52.5 -107.5l-45 -326q-15 -110 -119 -110q-88 0 -88 83q0 13 2 27z" />
<glyph unicode="n" horiz-adv-x="800" d="M33 94l76 535q12 108 116 108q88 0 88 -83v-13q99 96 228 96q114 0 166 -68q39 -51 39 -137q0 -30 -5 -65l-53 -373q-15 -110 -119 -110q-88 0 -88 83q0 12 2 27l43 305q5 35 5 63q1 38 -9 64q-16 44 -78 45q-57 0 -106 -52t-59 -126l-41 -299q-15 -110 -119 -110 q-88 0 -88 83q0 13 2 27z" />
<glyph unicode="o" horiz-adv-x="802" d="M29 360q26 179 140 280t273 101q160 0 246 -101q66 -77 66 -201q0 -37 -6 -79q-26 -181 -138.5 -282t-273.5 -101q-161 -1 -247 101q-66 78 -66 203q0 37 6 79zM242 362q-3 -25 -3 -46q0 -60 24 -98q33 -52 99 -52q67 0 115 52.5t60 143.5q4 25 4 46q0 57 -25 94 q-34 51 -100 51q-65 0 -113 -50.5t-61 -140.5z" />
<glyph unicode="p" horiz-adv-x="829" d="M-8 -190l117 821q7 56 35 81t81 25q90 0 90 -92v-14q77 106 224 106q131 0 199 -105q49 -76 49 -186q0 -41 -7 -86q-24 -164 -125 -270t-241 -106q-126 0 -181 82l-36 -256q-6 -51 -36 -79t-81 -28q-89 0 -89 84q0 11 1 23zM274 358q-4 -28 -4 -52q0 -62 24 -101 q32 -55 97 -55t114 55.5t62 152.5q5 31 5 58q0 60 -23 98q-33 57 -98 57t-114.5 -57t-62.5 -156z" />
<glyph unicode="q" horiz-adv-x="829" d="M25 360q25 169 121 273t227 104q147 0 194 -106q21 106 119 106q53 0 74 -25q16 -19 16 -55q0 -12 -2 -26l-117 -821q-13 -107 -116 -107q-89 0 -89 84q0 11 1 23l36 256q-75 -82 -204 -82q-141 0 -213 106q-53 80 -53 192q0 37 6 78zM238 358q-4 -27 -4 -52 q0 -61 24 -100q33 -56 98 -56t113 55.5t61 152.5q4 29 4 55q0 62 -22 101q-32 57 -96 57q-65 0 -114 -56.5t-64 -156.5z" />
<glyph unicode="r" horiz-adv-x="552" d="M31 94l75 537q7 56 36 81t81 25q90 0 90 -84q0 -11 -2 -24q34 57 81.5 83.5t92.5 26.5q47 0 67 -24q14 -18 15 -50q0 -12 -2 -26q-4 -30 -15 -51.5t-30.5 -34t-35.5 -18.5t-42 -13q-60 -15 -112.5 -71.5t-63.5 -133.5l-30 -223q-15 -110 -119 -110q-88 0 -88 83 q0 13 2 27z" />
<glyph unicode="s" horiz-adv-x="616" d="M-12 121q4 34 31 58t59 24q36 0 83.5 -33t88.5 -33q36 0 57.5 16.5t24.5 43.5q1 5 1 10q0 29 -26 49q-30 24 -90 51q-89 39 -128 87q-29 36 -29 92q0 19 3 40q13 100 93.5 157.5t201.5 57.5q112 -1 176 -33q57 -29 57 -72q0 -5 -1 -11q-4 -37 -26.5 -59.5t-51.5 -22.5 q-25 0 -75 25.5t-89 25.5q-31 0 -51 -15t-23 -38q-1 -8 0.5 -16t7 -16t11 -14t16.5 -13.5t18 -12t21 -11.5t20.5 -10.5t22 -10.5t19.5 -9q82 -38 116 -85q26 -36 26 -94q0 -19 -3 -40q-33 -229 -320 -229q-121 0 -185 37q-57 32 -57 88q0 8 1 16z" />
<glyph unicode="t" horiz-adv-x="487" d="M37 629q10 88 143 88l23 160q6 51 35.5 78.5t80.5 27.5q90 0 90 -85q0 -10 -1 -21l-23 -160q71 0 97 -23q22 -19 23 -52q0 -6 -1 -13q-14 -90 -146 -90l-61 -449q-16 -106 -119 -106q-88 0 -88 79q0 12 2 27l62 449q-69 0 -96 24q-22 20 -22 51q0 7 1 15z" />
<glyph unicode="u" horiz-adv-x="798" d="M53 289l49 340q6 53 36 80.5t81 27.5q89 0 89 -86q0 -10 -1 -22l-49 -348q-3 -21 -3 -38q0 -104 101 -104q120 0 140 142l49 348q6 53 36 80.5t81 27.5q89 0 89 -86q0 -10 -1 -22l-50 -340q-22 -153 -115.5 -232.5t-250.5 -79.5q-159 -1 -231 79q-55 61 -55 165 q0 32 5 68z" />
<glyph unicode="v" horiz-adv-x="686" d="M41 573q-6 24 -6 46q0 29 10 51q18 40 66 53q22 5 40 5q29 0 47 -14q28 -22 42 -83l79 -363l179 363q30 61 66 84q21 14 48 14q17 0 37 -6q45 -13 53 -55q2 -8 2 -17q0 -35 -24 -78l-256 -481q-30 -59 -63.5 -84.5t-84.5 -25.5t-75.5 25.5t-38.5 84.5z" />
<glyph unicode="w" horiz-adv-x="1056" d="M39 575q-4 22 -4 41q1 30 11 54q18 40 63 53q24 7 42 7q28 0 45 -16q28 -26 40 -83l69 -332l152 334q21 47 46 68.5t64 21.5t58.5 -21.5t27.5 -68.5l58 -334l163 332q26 57 62 83q21 16 50 16q18 0 40 -7q44 -13 50 -53q1 -8 1 -17q0 -35 -22 -78l-240 -483 q-30 -57 -59.5 -83.5t-79.5 -26.5q-86 0 -103 100l-53 307l-139 -307q-46 -100 -131 -100q-50 0 -72.5 27t-34.5 83z" />
<glyph unicode="x" horiz-adv-x="704" d="M-45 80q7 38 45 76l213 217l-127 182q-27 36 -27 72q0 41 37 71q34 30 74 30h10q46 -4 78 -52l102 -152l150 152q45 48 91 52h9q40 0 66 -30q23 -23 23 -50q0 -41 -50 -93l-180 -182l152 -217q24 -33 24 -66q-1 -4 -1 -10q-4 -38 -40 -70q-32 -27 -67 -27q-7 0 -13 1 q-42 6 -71 49l-131 188l-187 -188q-41 -43 -86 -49q-7 -1 -14 -1q-36 0 -60 27q-21 25 -21 54q0 8 1 16z" />
<glyph unicode="y" horiz-adv-x="688" d="M36.5 -222q1.5 31 24.5 70l125 218l-143 503q-8 25 -8 47q0 25 9 46q19 42 67 59q25 7 44 7q25 0 41 -12q29 -23 44 -79l88 -318l176 318q31 56 66 79q20 12 45 12q20 0 42 -7q41 -17 48 -59q1 -8 1 -17q0 -34 -22 -76l-444 -784q-48 -86 -115 -86q-21 0 -43 8 q-22 9 -34.5 24.5t-11 46.5z" />
<glyph unicode="z" horiz-adv-x="638" d="M-20 82q6 52 77 127l305 332h-215q-48 0 -72 24q-19 19 -19 50q0 8 1 16q6 41 37 64.5t78 23.5h350q57 1 83 -21q21 -17 21 -47q0 -7 -1 -14q-6 -51 -78 -127l-299 -332h235q47 0 71 -24q20 -19 20 -52q0 -7 -1 -14q-6 -41 -36.5 -64.5t-77.5 -23.5h-375q-57 0 -83 22 q-22 18 -22 48q0 6 1 12z" />
<glyph unicode="{" horiz-adv-x="561" d="M82 432q3 26 22 48t40 37t41.5 45.5t25.5 70.5l35 256q12 83 61 121.5t137 38.5h95q38 0 59 -24t16 -58t-33 -57t-69 -23h-66l-38 -287q-17 -116 -119 -168q86 -54 69 -170l-39 -289h66q41 0 62 -22.5t16 -56.5t-31.5 -58t-64.5 -24h-95q-88 0 -126.5 38t-26.5 121 l35 258q5 33 -1.5 59t-19 41.5t-25.5 29.5t-21 32.5t-5 40.5z" />
<glyph unicode="|" horiz-adv-x="569" d="M184 -248v1342h201v-1342h-201z" />
<glyph unicode="}" horiz-adv-x="561" d="M-57 -106q5 33 33 56t69 23h66l39 289q16 115 118 170q-86 50 -69 168l39 287h-66q-41 0 -62 23t-16 57t31.5 58t64.5 24h95q88 0 126.5 -38.5t26.5 -121.5l-35 -256q-5 -40 6 -70.5t27.5 -45.5t29 -37t9.5 -48q-3 -22 -15.5 -40.5t-29 -32.5t-34 -29.5t-31.5 -41.5 t-19 -59l-35 -258q-12 -83 -61 -121t-137 -38h-95q-38 0 -58 24t-17 58z" />
<glyph unicode="~" horiz-adv-x="800" d="M31 319q7 38 41 78q89 95 215 95q42 0 78.5 -12.5t57.5 -27.5t43.5 -27.5t39.5 -12.5t32.5 7t21 11.5t24.5 22.5q38 35 79 35.5t64 -27.5q23 -24 16.5 -62t-38.5 -77q-89 -95 -218 -95q-47 0 -89 19t-73.5 38t-52.5 19q-43 0 -82 -39q-38 -35 -78.5 -35.5t-64.5 27.5 q-23 25 -16 63z" />
<glyph unicode="&#xa2;" horiz-adv-x="690" d="M45 475q19 133 99 229t200 130l16 114q10 92 103 92q88 0 78 -92l-15 -98q83 -9 126 -42.5t36 -84.5q-6 -39 -35.5 -66.5t-64.5 -27.5q-30 0 -73 27.5t-73 27.5q-73 0 -123.5 -57.5t-62.5 -147.5q-13 -92 22.5 -150.5t114.5 -58.5q31 0 79.5 27t76.5 27q36 0 56 -24 t16 -64q-8 -48 -62 -85t-137 -49l-16 -112q-13 -92 -105 -92q-89 0 -76 92l17 121q-109 33 -163 129t-34 235z" />
<glyph unicode="&#xa3;" horiz-adv-x="843" d="M-29 88q6 45 39 68.5t88 23.5h72l31 226h-74q-42 0 -63.5 25t-16.5 63q6 36 34.5 61t68.5 25h75q11 75 17 110q19 137 118 217t256 80q134 0 202 -39t59 -106q-6 -49 -40 -78t-77 -29q-34 0 -55.5 15.5t-47 31t-69.5 15.5q-55 0 -93 -29t-46 -92l-15 -96h148 q40 0 61.5 -25t15.5 -61q-5 -38 -33.5 -63t-70.5 -25h-145l-31 -226h291q55 0 81.5 -23.5t20.5 -68.5q-6 -42 -39.5 -65t-87.5 -23h-571q-55 0 -82 23t-21 65z" />
<glyph unicode="&#xa4;" horiz-adv-x="839" d="M-31 164l168 145q-50 83 -35 193q15 115 88 188l-127 150l87 71l124 -145q89 59 201 59q121 0 180 -59l170 145l62 -71l-166 -150q47 -81 33 -188q-14 -109 -86 -193l125 -145l-82 -76l-129 148q-37 -26 -90 -43q-59 -19 -109 -19q-108 0 -182 62l-166 -148zM205 502 q-12 -96 41 -164q56 -68 151 -68q94 0 168 68q71 62 86 164q12 94 -40.5 160.5t-147.5 66.5q-97 0 -170 -67q-76 -76 -88 -160z" />
<glyph unicode="&#xa5;" horiz-adv-x="772" d="M-20 303q6 37 34 61.5t68 24.5h190l11 64l-23 39h-162q-42 0 -63.5 25t-16.5 63q6 36 34.5 61t68.5 25h45l-74 139q-26 38 -20 83t51 73q45 25 83 11.5t62 -57.5l144 -274l221 274q35 44 78.5 57.5t79.5 -11.5q26 -19 30.5 -46.5t-7 -54t-34.5 -55.5l-114 -139h47 q40 0 62 -25t16 -61q-5 -38 -34 -63t-71 -25h-164l-30 -39l-11 -64h193q40 0 62 -25t16 -61q-5 -38 -34 -63t-71 -25h-190l-19 -133q-13 -102 -119 -102q-103 0 -90 102l19 133h-189q-42 0 -63 25t-16 63z" />
<glyph unicode="&#xa9;" horiz-adv-x="1167" d="M70 502q20 142 107 262.5t217 190t272 69.5q106 0 197 -41t151 -111t87.5 -167t12.5 -203q-20 -142 -107 -262.5t-217 -190t-272 -69.5q-106 0 -197 41t-151 111t-87.5 167t-12.5 203zM190 502q-23 -166 78 -284t267 -118q109 0 209 54t167 146.5t82 201.5 q23 166 -78.5 283.5t-267.5 117.5q-109 0 -208.5 -54t-166.5 -146t-82 -201zM309 502q20 138 117 221.5t229 83.5q84 0 133 -29.5t43 -68.5q-4 -32 -27 -52t-54 -20q-16 0 -52.5 11t-62.5 11q-60 0 -102 -43t-52 -116q-11 -71 19.5 -113.5t93.5 -42.5q32 0 73 15.5t54 15.5 q31 0 47 -19.5t12 -54.5q-5 -42 -64 -73t-149 -31q-135 0 -206.5 83.5t-51.5 221.5z" />
<glyph unicode="&#xab;" horiz-adv-x="856" d="M39 354q4 33 41 62l199 168q29 25 59.5 34.5t53 4t36.5 -22.5q23 -29 14 -67t-47 -72l-121 -109l91 -108q29 -34 26.5 -72t-33.5 -68q-26 -27 -68.5 -24t-76.5 41l-152 168q-28 35 -22 65zM408 354q4 33 41 62l198 168q29 25 59.5 34.5t53.5 4t37 -22.5q23 -29 14 -67 t-47 -72l-121 -109l90 -108q29 -34 27 -72t-33 -68q-26 -27 -68.5 -24t-76.5 41l-152 168q-28 35 -22 65z" />
<glyph unicode="&#xac;" horiz-adv-x="778" d="M41 297l12 90h637l-37 -268h-82l25 178h-555z" />
<glyph unicode="&#xad;" horiz-adv-x="778" d="M27 414q6 41 35.5 66.5t72.5 25.5h524q43 0 66.5 -25.5t17.5 -66.5t-35.5 -66.5t-72.5 -25.5h-524q-43 0 -66.5 25.5t-17.5 66.5z" />
<glyph unicode="&#xae;" horiz-adv-x="1167" d="M70 502q20 142 107 262.5t217 190t272 69.5q106 0 197 -41t151 -111t87.5 -167t12.5 -203q-20 -142 -107 -262.5t-217 -190t-272 -69.5q-106 0 -197 41t-151 111t-87.5 167t-12.5 203zM190 502q-23 -166 78 -284t267 -118q109 0 209 54t167 146.5t82 201.5 q23 166 -78.5 283.5t-267.5 117.5q-109 0 -208.5 -54t-166.5 -146t-82 -201zM352 279l58 419q8 50 34 73.5t86 23.5h103q112 0 167.5 -50t43.5 -135q-8 -65 -42 -109.5t-106 -66.5l82 -90q58 -61 2 -111q-40 -33 -74.5 -28t-60.5 39l-121 147l-14 -112q-11 -74 -88 -74 q-81 0 -70 74zM543 518h55q36 0 56.5 24t25.5 58q10 80 -59 80h-56z" />
<glyph unicode="&#xb0;" horiz-adv-x="540" d="M102 713q12 83 79 142.5t151 59.5q86 0 137 -58.5t39 -143.5q-10 -85 -79 -144t-155 -59q-82 0 -132 58.5t-40 144.5zM158 713q-8 -60 28.5 -104t96.5 -44q61 0 110 43q54 48 60 105q9 60 -29 102.5t-100 42.5q-63 0 -110 -41t-56 -104z" />
<glyph unicode="&#xb6;" horiz-adv-x="727" d="M57 858q21 152 127 229q101 66 258 66h389l-6 -41h-102l-191 -1356h-61l191 1356h-146l-190 -1356h-56l113 805q-168 0 -254 62q-93 75 -72 235z" />
<glyph unicode="&#xb7;" horiz-adv-x="337" d="M96 449q9 31 35.5 51t58.5 20q30 0 45.5 -21.5t6.5 -49.5q-9 -31 -36 -52.5t-56 -21.5q-32 0 -47.5 21t-6.5 53z" />
<glyph unicode="&#xbb;" horiz-adv-x="856" d="M14.5 171.5q8.5 38.5 46.5 72.5l123 108l-92 109q-29 34 -26.5 72t34.5 67q18 17 42 22.5t52.5 -4t51.5 -34.5l149 -168q29 -29 25 -62q-7 -36 -43 -65l-197 -168q-30 -25 -60.5 -35t-53 -4.5t-35.5 22.5q-25 29 -16.5 67.5zM383 171.5q9 38.5 47 72.5l123 108l-92 109 q-29 34 -26.5 72t34.5 67q18 17 42 22.5t52 -4t51 -34.5l150 -168q28 -28 24 -62q-7 -36 -43 -65l-196 -168q-30 -25 -61 -35t-53.5 -4.5t-35.5 22.5q-25 29 -16 67.5z" />
<glyph unicode="&#xbc;" horiz-adv-x="1253" d="M117 899q10 72 108 72h90q60 0 80.5 -23t14.5 -74l-60 -409q-10 -74 -90 -74q-82 0 -72 74l54 366h-35q-99 0 -90 68zM138 42.5q3 34.5 32 63.5l793 820q78 82 135 49q31 -21 28.5 -55t-32.5 -66l-793 -819q-76 -83 -135 -49q-31 22 -28 56.5zM655 174q5 26 43 74 l236 270q58 66 110 66q43 0 59.5 -24t10.5 -75l-35 -249q38 -3 53.5 -17.5t12.5 -38.5q-8 -52 -84 -65l-8 -58q-8 -69 -74 -69q-65 0 -57 69l10 64h-197q-44 0 -63.5 12.5t-16.5 40.5zM823 248h127l23 174z" />
<glyph unicode="&#xbd;" horiz-adv-x="1253" d="M87 42.5q3 34.5 32 63.5l792 820q78 82 136 49q31 -22 28.5 -55.5t-33.5 -65.5l-792 -819q-76 -83 -135 -49q-31 22 -28 56.5zM117 899q10 72 108 72h90q60 0 80.5 -23t14.5 -74l-60 -409q-10 -74 -90 -74q-82 0 -72 74l54 366h-35q-99 0 -90 68zM690 72q5 23 45 63 q12 12 84.5 73t123 113.5t54.5 81.5q3 19 -8 31t-31 12q-42 0 -59 -47q-11 -33 -31.5 -47t-58.5 -14q-35 0 -55.5 19t-14.5 53q8 65 77 119.5t163 54.5q104 0 151.5 -48t38.5 -126q-7 -52 -59.5 -114t-161.5 -157h119q89 0 82 -65q-6 -36 -29 -55t-71 -19h-273 q-46 0 -68 18.5t-18 53.5z" />
<glyph unicode="&#xbe;" horiz-adv-x="1253" d="M63 512q4 33 27.5 51.5t56.5 18.5q46 0 72 -35q19 -37 70 -37q28 0 47 13t22 38q4 28 -14.5 42.5t-52.5 14.5q-29 0 -44 19t-11 51q3 29 23.5 47.5t49.5 18.5q54 0 60 43q2 14 -10 26.5t-31 12.5q-33 0 -60 -27q-19 -21 -35 -29t-43 -8q-35 0 -53.5 19t-13.5 47 q7 50 69 91.5t154 41.5q96 0 143.5 -44.5t38.5 -115.5q-8 -56 -73 -109q80 -54 69 -143q-12 -84 -80 -136t-178 -52q-105 0 -158.5 44.5t-44.5 96.5zM208 42.5q3 34.5 32 63.5l792 820q78 82 135 49q31 -21 28.5 -55t-32.5 -66l-792 -819q-76 -83 -135 -49q-31 22 -28 56.5z M676 174q4 26 43 74l235 270q58 66 111 66q43 0 59.5 -24t10.5 -75l-35 -249q38 -3 53 -17t12 -39q-8 -52 -84 -65l-8 -58q-8 -69 -74 -69q-65 0 -57 69l10 64h-196q-44 0 -63.5 12.5t-16.5 40.5zM844 248h127l22 174z" />
<glyph unicode="&#xd7;" horiz-adv-x="778" d="M18.5 176.5q5.5 36.5 40.5 67.5l195 170l-145 170q-28 31 -23.5 67.5t39.5 65.5q34 31 69.5 30t63.5 -32l145 -170l195 170q34 31 71 32t62 -30q26 -30 20 -66t-40 -67l-195 -170l146 -170q27 -30 22.5 -67t-39.5 -66q-34 -31 -70.5 -30t-62.5 32l-145 170l-195 -170 q-36 -31 -72 -32t-61 30q-26 29 -20.5 65.5z" />
<glyph unicode="&#xf7;" horiz-adv-x="778" d="M27 414q6 41 35.5 66.5t72.5 25.5h524q43 0 66.5 -25.5t17.5 -66.5t-35.5 -66.5t-72.5 -25.5h-524q-43 0 -66.5 25.5t-17.5 66.5zM223 123q6 49 44.5 83t92.5 34t82.5 -34t22.5 -83t-44.5 -83t-92.5 -34t-82.5 34t-22.5 83zM305 705q6 49 44.5 82.5t92.5 33.5t82.5 -33.5 t22.5 -82.5q-8 -49 -45.5 -83t-91.5 -34t-83.5 34t-21.5 83z" />
<glyph unicode="&#xe00;" horiz-adv-x="204" />
<glyph unicode="&#xe01;" horiz-adv-x="823" d="M18 63l74 531q17 119 115 184.5t260 65.5q163 0 242.5 -65.5t62.5 -184.5l-74 -531q-6 -44 -37.5 -66t-76.5 -22t-70.5 22t-19.5 66l69 504q8 53 -21 81t-98 28q-66 0 -104.5 -28.5t-46.5 -80.5l-70 -504q-6 -44 -37.5 -66t-76.5 -22t-71 22t-20 66z" />
<glyph unicode="&#xe02;" horiz-adv-x="761" d="M39 215l35 246q5 41 32.5 72.5t52.5 42.5l25 12l-67 121q-25 46 12 90.5t107 44.5q77 0 98 -58l53 -118q42 -86 -43 -150l-63 -49l-35 -242q-6 -43 20 -63.5t72 -20.5q47 0 79 20.5t38 63.5l73 529q7 44 38.5 66t76.5 22q46 0 71.5 -22t18.5 -66l-76 -541 q-31 -240 -342 -240q-155 0 -223 61t-53 179z" />
<glyph unicode="&#xe03;" horiz-adv-x="786" d="M41 723q-3 30 12.5 56.5t46.5 45.5t66 19q36 0 63 -23l23 -22l33 22q30 23 71 23q47 0 74 -30t20 -72t-49 -74l-41 -31q-41 -29 -47 -72l-47 -338q-6 -43 20 -63.5t72 -20.5q47 0 79 20.5t38 63.5l74 529q7 44 38.5 66t76.5 22q46 0 71.5 -22t18.5 -66l-76 -541 q-31 -240 -342 -240q-155 0 -223.5 61t-53.5 179l45 313q3 21 15.5 41t23.5 29l11 10l-84 66q-26 19 -29 49z" />
<glyph unicode="&#xe04;" horiz-adv-x="823" d="M18 63l74 531q17 119 115 184.5t260 65.5q163 0 242.5 -65.5t62.5 -184.5l-74 -531q-6 -44 -37.5 -66t-76.5 -22t-70.5 22t-19.5 66l69 504q8 53 -21 81t-98 28q-66 0 -104.5 -28.5t-46.5 -80.5l-10 -78h82q46 0 66 -29t13 -67q-5 -38 -32.5 -67t-73.5 -29h-82l-33 -234 q-6 -44 -37.5 -66t-76.5 -22t-71 22t-20 66z" />
<glyph unicode="&#xe05;" horiz-adv-x="823" d="M18 63l86 615q12 82 65 124t134 42q102 0 156 -66q70 66 172 66q81 0 123 -42t30 -124l-86 -615q-6 -44 -37.5 -66t-76.5 -22t-70.5 22t-19.5 66l84 607q-6 -8 -18 -19t-49.5 -30t-76.5 -19q-25 0 -47 7t-36 17t-24.5 20t-14.5 17l-5 7l-24 -181h82q46 0 66 -29t13 -67 q-5 -38 -32.5 -67t-73.5 -29h-82l-33 -234q-6 -44 -37.5 -66t-76.5 -22t-71 22t-20 66z" />
<glyph unicode="&#xe06;" horiz-adv-x="843" d="M39 63l65 472q3 21 15.5 39t23.5 26l11 8l-84 66q-26 19 -29 49t12.5 56.5t46.5 45.5t66 19q40 0 63 -23l23 -22l33 22q30 23 71 23q47 0 74 -30.5t20 -73t-49 -72.5l-41 -31q-41 -29 -47 -72l-37 -268q-7 -54 44.5 -99.5t109.5 -45.5q97 0 111 104l69 500q7 44 38.5 66 t76.5 22q46 0 71.5 -22t18.5 -66l-76 -545q-17 -113 -84.5 -172t-165.5 -59q-79 0 -137.5 22t-105.5 78l-2 -17q-6 -44 -37.5 -66t-77.5 -22q-45 0 -70.5 22t-19.5 66z" />
<glyph unicode="&#xe07;" horiz-adv-x="694" d="M-6 240q-3 45 33 77.5t92 32.5q77 0 80 -65l10 -133h168l69 503h-40q-41 0 -62.5 26.5t-15.5 63.5q5 37 34 64t70 27h135q54 0 78.5 -28t18.5 -75l-84 -596q-22 -153 -205 -153h-193q-93 0 -132.5 23t-45.5 102z" />
<glyph unicode="&#xe08;" horiz-adv-x="737" d="M59 645q10 78 100.5 138.5t235.5 60.5q163 0 236.5 -62.5t56.5 -181.5l-76 -537q-6 -44 -37.5 -66t-76.5 -22t-70.5 22t-19.5 66l32 230h-102q-46 0 -66.5 29t-15.5 67t34 67t75 29h102l12 93q13 98 -102 98q-84 0 -125 -66q-26 -55 -92 -55q-51 0 -79.5 22.5t-21.5 67.5 z" />
<glyph unicode="&#xe09;" horiz-adv-x="802" d="M41 223l20 150q6 44 37.5 66t77.5 22q45 0 70.5 -22t19.5 -66l-18 -137q-7 -47 13.5 -65.5t64.5 -18.5q59 0 116 50.5t66 112.5l35 248q8 58 -19.5 85.5t-97.5 27.5q-102 0 -141 -70q-25 -51 -99 -51q-49 0 -76 22t-20 66q10 77 101 139t251 62q170 0 248.5 -63.5 t61.5 -184.5l-74 -533q-6 -44 -37.5 -66t-77.5 -22q-45 0 -70.5 22t-19.5 66l2 13q-111 -96 -248 -96q-105 0 -154 61.5t-32 181.5z" />
<glyph unicode="&#xe0a;" horiz-adv-x="761" d="M39 215l76 541q7 44 38 66t76 22q46 0 71.5 -22t18.5 -66l-73 -529q-6 -43 20 -63.5t72 -20.5q47 0 79 20.5t38 63.5l32 236l-59 43q-34 28 -33.5 67t31.5 82l94 127q43 62 113 62q77 0 102.5 -43t-16.5 -92l-101 -121q4 -1 9.5 -4t20 -13.5t25 -23.5t17 -36t2.5 -50 l-35 -246q-31 -240 -342 -240q-155 0 -223 61t-53 179z" />
<glyph unicode="&#xe0b;" horiz-adv-x="782" d="M41 723q-3 30 12.5 56.5t46.5 45.5t66 19q36 0 63 -23l23 -22l33 22q30 23 71 23q47 0 74 -30t20 -72t-49 -74l-41 -31q-41 -29 -47 -72l-47 -338q-6 -43 20 -63.5t72 -20.5q47 0 79 20.5t38 63.5l33 236l-59 43q-34 28 -33.5 67t30.5 82l95 127q43 62 112 62 q77 0 102.5 -43t-16.5 -92l-100 -121q4 -1 9.5 -4t20 -13.5t25 -23.5t17 -36t2.5 -50l-35 -246q-31 -240 -342 -240q-155 0 -223.5 61t-53.5 179l45 313q3 21 15.5 41t23.5 29l11 10l-84 66q-26 19 -29 49z" />
<glyph unicode="&#xe0c;" horiz-adv-x="1277" d="M23 90l43 316q5 34 29 66.5t57 47.5q-84 37 -74 107q11 88 117.5 152.5t261.5 64.5q166 0 248 -70t67 -190l-41 -287q-8 -60 42.5 -102.5t107.5 -42.5q39 0 62 18.5t30 65.5l71 520q7 44 38.5 66t76.5 22q46 0 71.5 -22t18.5 -66l-75 -539q-17 -119 -83 -178t-171 -59 q-140 0 -220 96l-2 -13q-6 -44 -37.5 -66t-76.5 -22t-70.5 22t-19.5 66l69 496q7 53 -32.5 85t-108.5 32q-96 0 -141 -45q9 -5 22.5 -14.5t35 -35.5t17.5 -49q-3 -25 -43 -67t-45 -72l-30 -229h61q41 0 63 -26.5t17 -63.5q-6 -37 -36 -63.5t-71 -26.5h-151q-55 0 -80.5 28 t-17.5 78z" />
<glyph unicode="&#xe0d;" horiz-adv-x="1277" d="M23 90l43 316q5 34 29 66.5t57 47.5q-84 37 -74 107q11 88 117.5 152.5t261.5 64.5q166 0 248 -70t67 -190l-47 -328q-9 -58 21 -85.5t88 -27.5q124 0 141 113l69 500q7 44 38.5 66t76.5 22q46 0 71.5 -22t18.5 -66l-73 -525q-34 -256 -365 -256q-171 0 -241 67.5 t-54 188.5l47 328q7 53 -32.5 85t-108.5 32q-96 0 -141 -45q9 -5 22.5 -14.5t35 -35.5t17.5 -49q-3 -25 -43 -67t-45 -72l-30 -229h61q41 0 63 -26.5t17 -63.5q-6 -37 -36 -63.5t-71 -26.5h-151q-55 0 -80.5 28t-17.5 78zM496 -213l12 86q6 44 37.5 66t77.5 22 q45 0 70.5 -22t19.5 -66l-2 -8h280q47 0 66 -26t14 -60q-3 -34 -30 -60t-74 -26h-381q-103 0 -90 94z" />
<glyph unicode="&#xe0e;" horiz-adv-x="884" d="M-41 74q5 37 34 63.5t70 26.5h31l60 430q17 119 114.5 184.5t259.5 65.5q163 0 243 -65.5t63 -184.5l-113 -803q-20 -143 -213 -143q-36 0 -57 1.5t-47.5 7.5t-44 19.5t-29.5 36.5q-43 -65 -146 -65h-110q-47 0 -66.5 26.5t-15.5 61.5q5 36 32 62t74 26h123l5 7.5t15 16 t26 20.5t37.5 16t49.5 7q27 0 48.5 -7t33 -16.5t19 -19.5t9.5 -17l3 -7h53l105 743q8 53 -21 81t-98 28q-67 0 -105.5 -28.5t-46.5 -80.5l-65 -477q-8 -50 -42 -78t-89 -28h-121q-41 0 -62.5 26.5t-15.5 63.5z" />
<glyph unicode="&#xe0f;" horiz-adv-x="884" d="M-41 74q5 37 34 63.5t70 26.5h31l60 430q17 119 114.5 184.5t259.5 65.5q163 0 243 -65.5t63 -184.5l-113 -801q-10 -79 -62 -112t-141 -33q-29 0 -46.5 0.5t-41 4t-38.5 10t-29.5 19.5t-22.5 31q-46 -65 -154 -65h-92q-67 0 -96.5 27.5t-22.5 84.5l11 72q6 44 37.5 66 t76.5 22t70.5 -22t19.5 -66l-2 -10h43q1 3 4 7.5t14.5 16.5t25.5 21t38.5 16.5t51.5 7.5t49 -7t33 -16.5t18.5 -19.5t9.5 -17l2 -7h43l105 743q8 53 -21 81t-98 28q-67 0 -105.5 -28.5t-46.5 -80.5l-65 -477q-8 -50 -42 -78t-89 -28h-121q-41 0 -62.5 26.5t-15.5 63.5z" />
<glyph unicode="&#xe10;" horiz-adv-x="747" d="M-98 -264q5 37 31 62.5t73 25.5h88l5 7.5t15 16t26 20.5t37.5 16t49.5 7t47.5 -7t33 -16.5t19.5 -19.5t11 -17l2 -7h33l4 22q6 44 37.5 66t77.5 22q45 0 70.5 -22t19.5 -66l-11 -75q-9 -68 -53.5 -95.5t-148.5 -27.5q-37 0 -56 1.5t-44 7.5t-40.5 20t-25.5 38 q-19 -39 -54.5 -53t-91.5 -14h-75q-45 0 -64.5 27t-15.5 61zM59 645q10 78 100.5 138.5t235.5 60.5q77 0 133 -15q3 3 16.5 18.5t17 19t16 14t21.5 14t24 7t32 3.5q47 0 76.5 -24t28 -55t-28.5 -62l-51 -49q16 -54 8 -115l-76 -537q-6 -44 -37.5 -66t-76.5 -22t-70.5 22 t-19.5 66l32 230h-102q-46 0 -66.5 29t-15.5 67t34 67t75 29h102l12 93q13 98 -102 98q-84 0 -125 -66q-26 -55 -92 -55q-51 0 -79.5 22.5t-21.5 67.5z" />
<glyph unicode="&#xe11;" horiz-adv-x="878" d="M36.5 716.5q-3.5 30.5 11 58.5t45 48.5t65.5 20.5q40 0 63 -23l29 -26l20 18q35 31 84 31q57 0 76.5 -24.5t15.5 -59.5q94 80 203 80q97 0 147 -59.5t33 -172.5l-75 -545q-6 -44 -37.5 -66t-77.5 -22q-45 0 -70.5 22t-19.5 66l69 498q13 88 -51 88q-68 0 -146.5 -66 t-86.5 -124l-55 -396q-6 -44 -37.5 -66t-77.5 -22q-45 0 -70.5 22t-19.5 66l57 406q4 27 20 53.5t30 39.5l14 13l-129 93q-26 18 -29.5 48.5z" />
<glyph unicode="&#xe12;" horiz-adv-x="1376" d="M29 145l69 490q13 93 79 151t177 58q119 0 152 -76q60 76 172 76q111 0 161.5 -57.5t37.5 -151.5l-48 -342q-8 -60 42.5 -103t107.5 -43q92 0 102 84l74 525q14 88 109 88q45 0 68 -22t16 -66l-76 -539q-17 -119 -83 -178t-171 -59q-139 0 -219 96l-2 -13q-6 -44 -35 -66 t-72 -22t-65.5 22t-16.5 66l78 562q3 23 -8.5 37t-32.5 14h-6q-2 -3 -6 -8t-18.5 -18.5t-31 -23.5t-43.5 -18t-57 -8t-54.5 8t-39 19t-24.5 22t-13 19l-4 8h-6q-21 0 -37.5 -14t-19.5 -37l-62 -443l170 201q-39 0 -61 23t-17 59q6 40 37 65t78 25h76q65 0 89 -26t17 -70 q-8 -54 -53 -107l-182 -231q-51 -66 -102 -101.5t-117 -35.5q-149 0 -129 161z" />
<glyph unicode="&#xe13;" horiz-adv-x="1277" d="M23 90l43 316q5 34 29 66.5t57 47.5q-84 37 -74 107q11 88 117.5 152.5t261.5 64.5q166 0 248 -70t67 -190l-49 -348q-7 -48 10.5 -66t57.5 -18q56 0 119 43t71 102l63 459q7 44 38.5 66t76.5 22q46 0 71.5 -22t18.5 -66l-96 -693q-6 -44 -37.5 -66t-77.5 -22 q-45 0 -70.5 22t-19.5 66l2 13q-113 -96 -248 -96q-106 0 -155.5 59t-32.5 178l49 342q7 53 -32.5 85t-108.5 32q-96 0 -141 -45q9 -5 22.5 -14.5t35 -35.5t17.5 -49q-3 -25 -43 -67t-45 -72l-30 -229h61q41 0 63 -26.5t17 -63.5q-6 -37 -36 -63.5t-71 -26.5h-151 q-55 0 -80.5 28t-17.5 78z" />
<glyph unicode="&#xe14;" horiz-adv-x="921" d="M29 145l61 428q20 137 132 204t294 67t277 -67.5t75 -203.5l-71 -510q-6 -44 -35 -66t-72 -22t-65.5 22t-16.5 66l68 488q7 48 -21 78.5t-68 40.5t-93 10q-82 0 -146 -30t-74 -99l-51 -369l170 201q-39 0 -61 23t-17 59q6 40 37 65t78 25h76q65 0 89 -26t17 -70 q-8 -54 -53 -107l-182 -231q-51 -66 -102 -101.5t-117 -35.5q-149 0 -129 161z" />
<glyph unicode="&#xe15;" horiz-adv-x="921" d="M29 145l69 490q13 93 79 151t177 58q119 0 152 -76q60 76 172 76q111 0 161.5 -57.5t37.5 -151.5l-80 -572q-6 -44 -35 -66t-72 -22t-65.5 22t-16.5 66l78 562q3 23 -8.5 37t-32.5 14h-6q-2 -3 -6 -8t-18.5 -18.5t-31 -23.5t-43.5 -18t-57 -8t-54.5 8t-39 19t-24.5 22 t-13 19l-4 8h-6q-21 0 -37.5 -14t-19.5 -37l-62 -443l170 201q-39 0 -61 23t-17 59q6 40 37 65t78 25h76q65 0 89 -26t17 -70q-8 -54 -53 -107l-182 -231q-51 -66 -102 -101.5t-117 -35.5q-149 0 -129 161z" />
<glyph unicode="&#xe16;" horiz-adv-x="823" d="M23 90l43 316q5 34 29 66.5t57 47.5q-84 37 -74 107q11 88 117.5 152.5t261.5 64.5q166 0 248 -70t67 -190l-74 -521q-6 -44 -37.5 -66t-76.5 -22t-70.5 22t-19.5 66l69 496q7 53 -32.5 85t-108.5 32q-96 0 -141 -45q9 -5 22.5 -14.5t35 -35.5t17.5 -49q-3 -25 -43 -67 t-45 -72l-30 -229h61q41 0 63 -26.5t17 -63.5q-6 -37 -36 -63.5t-71 -26.5h-151q-55 0 -80.5 28t-17.5 78z" />
<glyph unicode="&#xe17;" horiz-adv-x="823" d="M18 63l97 693q7 44 38 66t76 22q46 0 71.5 -22t18.5 -66l-2 -17q110 101 263 101q99 0 155 -60t39 -172l-76 -545q-6 -44 -37.5 -66t-76.5 -22t-70.5 22t-19.5 66l69 500q14 105 -82 105q-57 0 -123 -55.5t-73 -110.5l-62 -439q-6 -44 -37.5 -66t-76.5 -22t-71 22t-20 66 z" />
<glyph unicode="&#xe18;" horiz-adv-x="700" d="M8 143l21 140q6 44 37.5 66t76.5 22t70.5 -22t19.5 -66l-20 -144h94q102 0 115 103q6 40 -12.5 69t-52 47t-75 33t-83 32.5t-74 40.5t-50 63t-9.5 94q15 104 107 162.5t228 58.5q140 0 208 -41t61 -99q-6 -38 -39 -65t-76 -27t-74 31t-102 31q-40 0 -70 -13.5t-33 -35.5 q-2 -16 19 -29t55 -25t75.5 -26.5t82 -38t72 -55.5t47 -83t6.5 -116q-41 -275 -283 -275h-145q-116 0 -163 35t-34 133z" />
<glyph unicode="&#xe19;" horiz-adv-x="823" d="M39 211l76 545q7 44 38 66t76 22q46 0 71.5 -22t18.5 -66l-69 -500q-14 -104 82 -104q58 0 122.5 47.5t71.5 97.5l64 459q7 44 38.5 66t76.5 22q46 0 71.5 -22t18.5 -66l-97 -693q-6 -44 -37.5 -66t-76.5 -22t-70.5 22t-19.5 66l2 17q-109 -100 -263 -100q-103 0 -157 59 t-37 172z" />
<glyph unicode="&#xe1a;" horiz-adv-x="823" d="M41 229l74 527q7 44 38 66t76 22q46 0 71.5 -22t18.5 -66l-69 -496q-6 -54 22.5 -85.5t96.5 -31.5q69 0 107 31.5t44 85.5l70 496q7 44 38.5 66t76.5 22q46 0 71.5 -22t18.5 -66l-74 -527q-17 -119 -115 -186.5t-260 -67.5t-242 67.5t-63 186.5z" />
<glyph unicode="&#xe1b;" horiz-adv-x="823" d="M41 229l74 527q7 44 38 66t76 22q46 0 71.5 -22t18.5 -66l-69 -496q-6 -54 22.5 -85.5t96.5 -31.5q69 0 107 31.5t44 85.5l92 655q7 44 38.5 66.5t76.5 22.5q46 0 71.5 -22.5t18.5 -66.5l-96 -686q-17 -119 -115 -186.5t-260 -67.5t-242 67.5t-63 186.5z" />
<glyph unicode="&#xe1c;" horiz-adv-x="1126" d="M39 217l74 512q6 49 39.5 78t89.5 29h131q46 0 65.5 -26t14.5 -65q-7 -39 -34 -64.5t-73 -25.5h-41l-57 -422q-14 -90 78 -90t106 90l72 523q7 44 38 66t76 22q46 0 72 -22.5t19 -65.5l-72 -523q-14 -90 78 -90t106 90l72 523q7 44 38.5 66t76.5 22q46 0 71.5 -22 t18.5 -66l-76 -539q-15 -116 -88.5 -179t-200.5 -63q-167 0 -223 91q-81 -91 -248 -91q-127 0 -182.5 63t-40.5 179z" />
<glyph unicode="&#xe1d;" horiz-adv-x="1126" d="M39 217l74 512q6 49 39.5 78t89.5 29h131q46 0 65.5 -26t14.5 -65q-7 -39 -34 -64.5t-73 -25.5h-41l-57 -422q-14 -90 78 -90t106 90l72 523q7 44 38 66t76 22q46 0 72 -22.5t19 -65.5l-72 -523q-14 -90 78 -90t106 90l94 682q7 44 38.5 66.5t76.5 22.5q46 0 71.5 -22.5 t18.5 -66.5l-98 -698q-15 -116 -88.5 -179t-200.5 -63q-167 0 -223 91q-81 -91 -248 -91q-127 0 -182.5 63t-40.5 179z" />
<glyph unicode="&#xe1e;" horiz-adv-x="1126" d="M39 217l76 539q7 44 38 66t76 22q46 0 71.5 -22t18.5 -66l-71 -523q-14 -90 78 -90t106 90l72 523q7 44 38 66t76 22q46 0 72 -22.5t19 -65.5l-72 -523q-14 -90 78 -90t106 90l72 523q7 44 38.5 66t76.5 22q46 0 71.5 -22t18.5 -66l-76 -539q-15 -116 -88.5 -179 t-200.5 -63q-167 0 -223 91q-81 -91 -248 -91q-127 0 -182.5 63t-40.5 179z" />
<glyph unicode="&#xe1f;" horiz-adv-x="1126" d="M39 217l76 539q7 44 38 66t76 22q46 0 71.5 -22t18.5 -66l-71 -523q-14 -90 78 -90t106 90l72 523q7 44 38 66t76 22q46 0 72 -22.5t19 -65.5l-72 -523q-14 -90 78 -90t106 90l94 682q7 44 38.5 66.5t76.5 22.5q46 0 71.5 -22.5t18.5 -66.5l-98 -698q-15 -116 -88.5 -179 t-200.5 -63q-167 0 -223 91q-81 -91 -248 -91q-127 0 -182.5 63t-40.5 179z" />
<glyph unicode="&#xe20;" horiz-adv-x="884" d="M-41 74q5 37 34 63.5t70 26.5h31l60 430q17 119 114.5 184.5t259.5 65.5q163 0 243 -65.5t63 -184.5l-74 -531q-6 -44 -37.5 -66t-77.5 -22q-45 0 -70.5 22t-19.5 66l70 504q8 53 -21 81t-98 28q-67 0 -105.5 -28.5t-46.5 -80.5l-65 -477q-8 -50 -42 -78t-89 -28h-121 q-41 0 -62.5 26.5t-15.5 63.5z" />
<glyph unicode="&#xe21;" horiz-adv-x="823" d="M18 63l97 693q7 44 38 66t76 22q46 0 71.5 -22t18.5 -66l-63 -459q-7 -50 44.5 -97.5t109.5 -47.5q96 0 110 104l70 500q7 44 38.5 66t76.5 22q46 0 71.5 -22t18.5 -66l-76 -545q-17 -113 -87.5 -172t-172.5 -59q-155 0 -234 100l-2 -17q-6 -44 -37.5 -66t-76.5 -22 t-71 22t-20 66z" />
<glyph unicode="&#xe22;" horiz-adv-x="817" d="M33 217l18 127q6 42 36.5 71.5t68.5 35.5l2 4q-88 21 -76 102l24 172q6 48 38 77.5t83 29.5h150q46 0 65.5 -26t14.5 -65q-7 -39 -34 -64.5t-73 -25.5h-51l-16 -120h112q46 0 65.5 -26t14.5 -65t-31 -64.5t-73 -25.5h-113l-16 -112q-7 -50 24 -74.5t96 -24.5 q135 0 150 99l72 514q7 44 38 66t76 22q46 0 71.5 -22t18.5 -66l-75 -539q-15 -118 -112 -180t-261 -62q-163 0 -242.5 62t-64.5 180z" />
<glyph unicode="&#xe23;" horiz-adv-x="647" d="M-2 94q5 36 33.5 61t70.5 25q25 0 74.5 -14t85.5 -14q37 0 65.5 16.5t32.5 44.5q4 30 -17.5 58t-57 49t-76 50t-74.5 59.5t-52.5 79t-10.5 107.5q12 97 99 161.5t220 64.5q124 0 178.5 -31t46.5 -84q-4 -38 -29 -61t-61 -23q-19 0 -69 14.5t-88 14.5q-35 0 -59 -15.5 t-27 -38.5q-3 -20 13.5 -40t44 -39t61.5 -39.5t67 -46.5t59 -56.5t39 -74t6 -93.5q-17 -123 -109 -188.5t-239 -65.5q-243 0 -227 119z" />
<glyph unicode="&#xe24;" horiz-adv-x="823" d="M23 90l43 316q5 34 29 66.5t57 47.5q-84 37 -74 107q11 88 117.5 152.5t261.5 64.5q166 0 248 -70t67 -190l-115 -803q-6 -44 -37.5 -66t-76.5 -22t-70.5 22t-19.5 66l110 778q7 53 -32.5 85t-108.5 32q-96 0 -141 -45q9 -5 22.5 -14.5t35 -35.5t17.5 -49q-3 -25 -43 -67 t-45 -72l-30 -229h61q41 0 63 -26.5t17 -63.5q-6 -37 -36 -63.5t-71 -26.5h-151q-55 0 -80.5 28t-17.5 78z" />
<glyph unicode="&#xe25;" horiz-adv-x="813" d="M8 63l27 185q9 65 65 114t129.5 77t146 49.5t124.5 44.5t55 49l4 16q4 38 -26.5 58t-92.5 20q-61 0 -96.5 -21t-48.5 -49q-24 -53 -92 -53q-53 0 -81 24.5t-22 69.5q10 75 105 136t252 61q170 0 247 -62t60 -180l-76 -539q-6 -44 -37.5 -66t-77.5 -22q-45 0 -70.5 22 t-19.5 66l41 297q-13 -9 -88 -32.5t-137 -55t-66 -67.5l-20 -142q-6 -44 -37.5 -66t-77.5 -22q-45 0 -70.5 22t-19.5 66z" />
<glyph unicode="&#xe26;" horiz-adv-x="884" d="M-41 74q5 37 34 63.5t70 26.5h31l60 430q17 119 114.5 184.5t259.5 65.5q163 0 243 -65.5t63 -184.5l-115 -813q-6 -44 -37.5 -66t-77.5 -22q-45 0 -70.5 22t-19.5 66l111 786q8 53 -21 81t-98 28q-67 0 -105.5 -28.5t-46.5 -80.5l-65 -477q-8 -50 -42 -78t-89 -28h-121 q-41 0 -62.5 26.5t-15.5 63.5z" />
<glyph unicode="&#xe27;" horiz-adv-x="626" d="M-31 80q11 84 158 84q79 0 156 63.5t94 182.5q9 62 -5 111t-43 77t-63.5 42.5t-70.5 14.5q-71 0 -105.5 20t-28.5 64q7 44 50.5 74.5t121.5 30.5q80 0 149 -28.5t119 -81t72.5 -137t8.5 -187.5q-15 -103 -60.5 -187.5t-110.5 -137.5t-141.5 -81.5t-156.5 -28.5 q-78 0 -114.5 30.5t-29.5 74.5z" />
<glyph unicode="&#xe28;" horiz-adv-x="833" d="M18 63l74 531q17 119 115 184.5t260 65.5q73 0 143 -17l6 7q22 27 31.5 37.5t34 22t57.5 11.5q74 0 101 -47t-25 -94l-57 -51q23 -48 14 -119l-74 -531q-6 -44 -37.5 -66t-76.5 -22t-70.5 22t-19.5 66l69 504q8 53 -21 81t-98 28q-66 0 -104.5 -28.5t-46.5 -80.5l-10 -78 h82q46 0 66 -29t13 -67q-5 -38 -32.5 -67t-73.5 -29h-82l-33 -234q-6 -44 -37.5 -66t-76.5 -22t-71 22t-20 66z" />
<glyph unicode="&#xe29;" horiz-adv-x="843" d="M41 229l74 527q7 44 38 66t76 22q46 0 71.5 -22t18.5 -66l-69 -496q-6 -54 22.5 -85.5t96.5 -31.5q69 0 107 31.5t44 85.5l15 94h-76q-51 0 -72 27t-16 65q5 39 33 66t79 27h76l31 217q7 44 38.5 66t76.5 22q46 0 71.5 -22t18.5 -66l-31 -217q46 0 65.5 -27t14.5 -66 t-32 -65.5t-73 -26.5l-18 -125q-17 -119 -115 -186.5t-260 -67.5t-242 67.5t-63 186.5z" />
<glyph unicode="&#xe2a;" horiz-adv-x="823" d="M8 63l27 185q9 65 65 114t129.5 77t146 49.5t124.5 44.5t55 49l4 16q4 38 -26.5 58t-92.5 20q-61 0 -96.5 -21t-48.5 -49q-24 -53 -92 -53q-53 0 -81 24.5t-22 69.5q10 75 105 136t252 61q81 0 139 -15l4 5q25 38 50 54.5t73 16.5q74 0 100.5 -47.5t-24.5 -93.5l-47 -43 q21 -50 12 -119l-76 -539q-6 -44 -37.5 -66t-77.5 -22q-45 0 -70.5 22t-19.5 66l41 297q-13 -9 -88 -32.5t-137 -55t-66 -67.5l-20 -142q-6 -44 -37.5 -66t-77.5 -22q-45 0 -70.5 22t-19.5 66z" />
<glyph unicode="&#xe2b;" horiz-adv-x="823" d="M18 63l97 693q7 44 38 66t76 22q46 0 71.5 -22t18.5 -66l-34 -250q111 72 231 72q106 0 171.5 -60.5t49.5 -171.5l-39 -283q-6 -44 -37.5 -66t-76.5 -22t-70.5 22t-19.5 66l34 244q6 46 -17.5 73.5t-74.5 27.5q-44 0 -92.5 -21t-81.5 -51l-39 -273q-6 -44 -37.5 -66 t-76.5 -22t-71 22t-20 66zM473 713q10 64 59 97.5t117 33.5q69 0 109 -33.5t30 -97.5q-9 -64 -58 -97.5t-118 -33.5t-108.5 33.5t-30.5 97.5z" />
<glyph unicode="&#xe2c;" horiz-adv-x="1126" d="M39 217l76 539q7 44 38 66t76 22q46 0 71.5 -22t18.5 -66l-71 -523q-14 -90 78 -90t106 90l43 308q6 44 37.5 66t77.5 22q45 0 70.5 -22t19.5 -66l-43 -308q-14 -90 78 -90t106 90l60 431h-203q-46 0 -65.5 25.5t-14.5 64.5t31 64.5t73 25.5h203l17 108q6 44 37.5 66 t76.5 22t70.5 -22t19.5 -66l-12 -90q-11 -80 -86 -104l-2 -4q68 -33 55 -119l-59 -418q-15 -116 -88.5 -179t-200.5 -63q-167 0 -223 91q-81 -91 -248 -91q-127 0 -182.5 63t-40.5 179z" />
<glyph unicode="&#xe2d;" horiz-adv-x="823" d="M47 217l27 191q8 49 41 77.5t88 28.5h151q47 0 66.5 -26t13.5 -64q-5 -39 -31 -64.5t-73 -25.5h-62l-12 -92q-7 -50 24.5 -74.5t96.5 -24.5q134 0 149 99l45 331q6 46 -27.5 74.5t-101.5 28.5q-117 0 -149 -70q-24 -53 -90 -53q-54 0 -83 24.5t-22 69.5q8 74 107.5 135.5 t261.5 61.5q175 0 252.5 -61.5t62.5 -180.5l-55 -385q-17 -118 -114 -180t-261 -62t-243 62t-62 180z" />
<glyph unicode="&#xe2e;" horiz-adv-x="833" d="M49 217l25 191q8 49 41 77.5t88 28.5h151q47 0 66.5 -26t13.5 -64q-5 -39 -30.5 -64.5t-71.5 -25.5h-62l-14 -92q-7 -50 24.5 -74.5t96.5 -24.5q134 0 149 99l45 331q6 46 -26.5 74.5t-100.5 28.5q-64 0 -101 -21t-50 -49q-24 -53 -90 -53q-54 0 -83 24.5t-22 69.5 q10 75 108.5 136t260.5 61q70 0 147 -15l4 5q2 3 10.5 12.5t10.5 12t9.5 11t11.5 10.5t11.5 8t14 7.5t15.5 4.5t19 4t21 1q74 0 100.5 -47.5t-24.5 -93.5l-47 -43q21 -50 12 -119l-53 -385q-19 -118 -115.5 -180t-259.5 -62q-164 0 -244 62t-61 180z" />
<glyph unicode="&#xe2f;" horiz-adv-x="802" d="M70 573l22 156q6 49 39.5 78t89.5 29h131q46 0 65.5 -26t14.5 -65q-7 -39 -33.5 -64.5t-72.5 -25.5h-41l-4 -30q-5 -46 11.5 -67t78.5 -21q73 0 127 41.5t61 105.5l12 80q11 80 113 80q47 0 72.5 -19.5t19.5 -60.5l-98 -701q-6 -44 -37.5 -66t-77.5 -22q-45 0 -70.5 22 t-19.5 66l55 394q-99 -86 -258 -86q-110 0 -162 53t-38 149z" />
<glyph unicode="&#xe30;" horiz-adv-x="493" d="M12 166l11 78q14 92 116 92q44 0 70 -19t20 -57l-2 -22h101q41 0 59.5 -25t13.5 -63q-5 -37 -31 -63t-67 -26h-174q-64 0 -94.5 22t-22.5 83zM76 616l10 78q14 92 115 92q45 0 71.5 -18.5t20.5 -56.5l-2 -23h100q41 0 60 -25.5t14 -62.5q-6 -38 -31.5 -63t-66.5 -25h-174 q-65 0 -95 21.5t-22 82.5z" />
<glyph unicode="&#xe31;" d="M-406 1036l15 103q6 44 37.5 66t77.5 22q45 0 70.5 -22t19.5 -66l-7 -39h340q45 0 65 -23.5t15 -60.5t-32 -60.5t-72 -23.5h-412q-64 0 -94.5 21.5t-22.5 82.5z" />
<glyph unicode="&#xe32;" horiz-adv-x="538" d="M63 745q5 37 32.5 60.5t72.5 23.5h106q130 0 180 -58t35 -177l-75 -531q-6 -44 -37.5 -66t-77.5 -22q-45 0 -70.5 22t-19.5 66l74 515q9 84 -74 84h-66q-45 0 -65 23t-15 60z" />
<glyph unicode="&#xe33;" horiz-adv-x="538" d="M-244 1081q10 67 60.5 102.5t120.5 35.5t109.5 -35.5t29.5 -102.5q-9 -67 -58.5 -102t-119.5 -35t-110.5 35t-31.5 102zM63 745q5 37 32.5 60.5t72.5 23.5h106q130 0 180 -58t35 -177l-75 -531q-6 -44 -37.5 -66t-77.5 -22q-45 0 -70.5 22t-19.5 66l74 515q9 84 -74 84 h-66q-45 0 -65 23t-15 60z" />
<glyph unicode="&#xe34;" d="M-670 1016q5 37 32.5 60.5t72.5 23.5h495q44 0 63.5 -23.5t14.5 -60.5t-31.5 -60.5t-70.5 -23.5h-496q-45 0 -65 23.5t-15 60.5z" />
<glyph unicode="&#xe35;" d="M-670 1016q5 37 32.5 60.5t72.5 23.5h383l6 39q6 44 37.5 66t77.5 22q44 0 69 -22t19 -66l-15 -103q-8 -61 -45.5 -82.5t-101.5 -21.5h-455q-45 0 -65 23.5t-15 60.5z" />
<glyph unicode="&#xe36;" d="M-670 1016q5 37 32.5 60.5t72.5 23.5h340q15 55 60.5 91t103.5 36q60 0 96 -43t28 -105q-9 -62 -57.5 -104.5t-109.5 -42.5h-486q-45 0 -65 23.5t-15 60.5z" />
<glyph unicode="&#xe37;" d="M-670 1016q5 37 32.5 60.5t72.5 23.5h137l6 39q6 44 37.5 66t77.5 22q45 0 70.5 -22t19.5 -66l-6 -39h41l6 39q6 44 37.5 66t77.5 22q44 0 69 -22t19 -66l-15 -103q-8 -61 -45.5 -82.5t-101.5 -21.5h-455q-45 0 -65 23.5t-15 60.5z" />
<glyph unicode="&#xe38;" d="M-479 -166q5 37 32 60.5t72 23.5h99q64 0 95 -21.5t23 -82.5l-24 -164q-6 -44 -37.5 -66t-77.5 -22q-45 0 -70.5 22t-19.5 66l14 100h-26q-45 0 -65 23.5t-15 60.5z" />
<glyph unicode="&#xe39;" d="M-741 -166q5 37 32 60.5t72 23.5h84q55 0 79.5 -22t18.5 -66l-12 -88q-3 -22 8 -28.5t33 -6.5q49 0 53 35l15 98q6 44 37.5 66t76.5 22t70.5 -22t19.5 -66l-18 -119q-4 -28 -11 -49.5t-20 -37t-25.5 -27t-34 -18.5t-37.5 -11t-45.5 -5.5t-47.5 -2t-53 -0.5q-52 0 -80 1.5 t-61.5 8.5t-48.5 20.5t-23 39t-3 63.5l7 47h-7q-45 0 -64.5 23t-14.5 61z" />
<glyph unicode="&#xe3a;" d="M-406 -201q6 53 50 91t112 38t100 -37.5t25 -91.5q-8 -56 -50.5 -92.5t-111.5 -36.5t-101 36.5t-24 92.5z" />
<glyph unicode="&#xe3f;" horiz-adv-x="837" d="M47 131l96 684q11 77 46 111.5t120 34.5h70l10 69q7 49 40 70.5t75 21.5q41 0 67 -21.5t19 -70.5l-10 -76q101 -17 148 -77.5t38 -157.5q-6 -55 -38.5 -113.5t-90.5 -83.5q170 -34 143 -235q-17 -127 -103 -201.5t-231 -83.5l-14 -94q-7 -49 -39 -70.5t-74 -21.5 t-68.5 21.5t-19.5 70.5l15 92h-72q-79 0 -107.5 28.5t-19.5 102.5zM264 176h142q141 0 155 113q9 57 -22 84.5t-103 27.5h-141zM319 573h105q52 0 88.5 30.5t42.5 76.5q7 52 -20.5 78t-85.5 26h-101z" />
<glyph unicode="&#xe40;" horiz-adv-x="389" d="M39 63l96 693q7 44 38.5 66t76.5 22q46 0 71.5 -22t18.5 -66l-96 -693q-6 -44 -37.5 -66t-77.5 -22q-45 0 -70.5 22t-19.5 66z" />
<glyph unicode="&#xe41;" horiz-adv-x="716" d="M39 63l96 693q7 44 38.5 66t76.5 22q46 0 71.5 -22t18.5 -66l-96 -693q-6 -44 -37.5 -66t-77.5 -22q-45 0 -70.5 22t-19.5 66zM367 63l96 693q7 44 38.5 66t76.5 22q46 0 71.5 -22t18.5 -66l-97 -693q-6 -44 -37.5 -66t-76.5 -22t-70.5 22t-19.5 66z" />
<glyph unicode="&#xe42;" horiz-adv-x="430" d="M59 63l119 842q4 34 -6 59.5t-27 42t-33.5 33.5t-26.5 43t-5 60q9 61 57.5 94t118.5 33h281q44 0 66.5 -23.5t17.5 -60.5t-34.5 -60.5t-74.5 -23.5h-184v-4q37 -20 52 -62t7 -98l-123 -875q-6 -44 -37.5 -66t-76.5 -22t-71 22t-20 66z" />
<glyph unicode="&#xe43;" horiz-adv-x="430" d="M-25 1133q10 66 80 111.5t205 45.5q153 0 213 -49.5t47 -144.5q-6 -43 -28.5 -78.5t-46 -56t-46 -56t-28.5 -78.5l-107 -764q-6 -44 -37.5 -66t-76.5 -22t-71 22t-20 66l111 791q5 39 27 72t45.5 52t44.5 42.5t24 44.5q3 28 -14.5 45.5t-58.5 17.5q-66 0 -93 -53 q-21 -37 -75 -37q-53 0 -77 25.5t-18 69.5z" />
<glyph unicode="&#xe44;" horiz-adv-x="430" d="M-2 1186q5 36 34 60t74 24h267q74 0 108 -28t27 -89q-5 -30 -23 -57t-37.5 -45t-37.5 -48t-23 -65l-123 -875q-6 -44 -37.5 -66t-76.5 -22t-71 22t-20 66l123 879q15 102 105 156v4h-205q-45 0 -67 23t-17 61z" />
<glyph unicode="&#xe45;" horiz-adv-x="538" d="M66 745q5 37 32 60.5t72 23.5h106q130 0 179 -58t34 -177l-112 -813q-6 -44 -37.5 -66t-77.5 -22t-71.5 22t-18.5 66l111 797q12 84 -72 84h-66q-45 0 -64.5 23t-14.5 60z" />
<glyph unicode="&#xe46;" horiz-adv-x="782" d="M70 578l16 114q9 71 57 111.5t131 40.5q114 0 154 -68q59 68 170 68q83 0 119.5 -40.5t27.5 -111.5l-129 -911q-6 -44 -37.5 -66t-76.5 -22t-70.5 22t-19.5 66l125 885h-19q-4 -6 -13 -15.5t-38.5 -25t-63.5 -15.5q-21 0 -39 6t-28.5 14t-18 16t-9.5 14l-3 6h-18l-13 -88 q-6 -44 -37.5 -66.5t-76.5 -22.5t-70.5 22.5t-19.5 66.5z" />
<glyph unicode="&#xe47;" d="M-592 1053l14 102q17 120 150 150l285 65q39 9 65 -5.5t29 -45.5q3 -34 -17.5 -62.5t-58.5 -37.5l-248 -58l-8 -65h8q2 5 7.5 13.5t26.5 22t48 13.5t44.5 -12.5t21.5 -24.5l4 -12h8v8q6 44 37.5 66t77.5 22q44 0 69 -22t19 -66l-6 -51q-9 -61 -51 -91t-109 -30 q-58 0 -87.5 14.5t-49.5 42.5q-54 -57 -154 -57q-67 0 -100.5 30t-24.5 91z" />
<glyph unicode="&#xe48;" d="M-145 1356l18 131q6 43 37.5 65.5t75.5 22.5q45 0 70.5 -22t19.5 -66l-19 -131q-7 -44 -39 -66t-77 -22q-44 0 -68.5 22t-17.5 66z" />
<glyph unicode="&#xe49;" d="M-317 1483q5 34 29 55t65 21h114q49 0 73.5 -22t19.5 -62l-7 -45h170q41 0 58 -21t12 -55q-3 -33 -27 -54.5t-65 -21.5h-266q-45 0 -68 19t-16 63l6 47h-25q-41 0 -59.5 21.5t-13.5 54.5z" />
<glyph unicode="&#xe4a;" d="M-356 1339l14 101q17 108 145 108q52 0 79 -13t44 -38q47 51 137 51q61 0 91.5 -26.5t21.5 -81.5l-2 -21h33q36 0 53.5 -20t13.5 -56q-6 -35 -31 -55t-65 -20h-115q-45 0 -68.5 15t-17.5 56l11 62h-8q-2 -5 -6.5 -12t-23 -19t-42.5 -12t-39.5 11t-18.5 21l-4 11h-8 l-10 -62q-4 -39 -32.5 -59t-69.5 -20t-63.5 20t-18.5 59z" />
<glyph unicode="&#xe4b;" d="M-242 1442q4 31 24.5 48t51.5 17h51l4 35q6 37 33.5 55.5t67.5 18.5q41 0 64.5 -19t17.5 -55l-4 -35h51q31 0 45.5 -17t9.5 -48q-3 -31 -23 -48.5t-51 -17.5h-51l-4 -35q-6 -36 -34.5 -54.5t-69.5 -18.5q-39 0 -61.5 18.5t-16.5 54.5l4 35h-51q-31 0 -46 17.5t-12 48.5z " />
<glyph unicode="&#xe4c;" d="M-236 1317q-9 41 14.5 77t76.5 54l118 43q59 16 86.5 3.5t34.5 -44.5q18 -76 -78 -113l-45 -16l4 -21q19 -80 -73 -112q-41 -16 -76.5 -3t-44.5 54z" />
<glyph unicode="&#xe4d;" d="M-242 1081q9 67 59 102.5t120 35.5q68 0 108 -35.5t31 -102.5q-10 -67 -59.5 -102t-118.5 -35q-70 0 -110 35t-30 102z" />
<glyph unicode="&#xe4e;" d="M-481 1087q10 74 75.5 122.5t159.5 64.5q-39 37 -33.5 92t52.5 98q94 84 270 84q96 0 150 -24t47 -68q-4 -36 -28 -55.5t-58 -14.5q-91 15 -168.5 3t-81.5 -46q-1 -10 7 -16.5t26 -8.5t29.5 -2.5t33.5 -0.5h10q17 0 25.5 -14t5.5 -33q-3 -33 -29 -60.5t-59 -23.5 q-75 9 -147 -7t-78 -57q-3 -24 28.5 -32t72.5 -3t73 17q34 13 55 1.5t27 -42.5q11 -55 -63.5 -97t-192.5 -42q-30 0 -59 4t-59.5 16t-51.5 29.5t-32.5 47.5t-6.5 68z" />
<glyph unicode="&#xe4f;" horiz-adv-x="962" d="M57 410q15 113 85 210t174.5 153t218.5 56q173 0 279 -123t83 -296q-25 -173 -165.5 -296.5t-313.5 -123.5t-279.5 123.5t-81.5 296.5zM162 410q-19 -131 60.5 -223.5t209.5 -92.5t236 92.5t125 223.5q19 130 -61.5 222.5t-211.5 92.5q-130 0 -234.5 -92t-123.5 -223z M252 410q12 92 88 158.5t168 66.5t149 -66.5t45 -158.5q-14 -92 -90 -159t-168 -67t-149 67t-43 159z" />
<glyph unicode="&#xe50;" horiz-adv-x="798" d="M25 188l43 306q17 113 110.5 163t257.5 50q166 0 245 -50t62 -163l-43 -306q-14 -113 -106.5 -163t-259.5 -50q-164 0 -243.5 50t-65.5 163zM231 231q-6 -51 19 -71.5t106 -20.5t112.5 20.5t37.5 71.5l31 220q8 51 -17 71.5t-106 20.5t-112.5 -20.5t-39.5 -71.5z" />
<glyph unicode="&#xe51;" horiz-adv-x="798" d="M35 262l33 232q17 113 110 163t258 50q166 0 245 -50t62 -163l-47 -336q-10 -78 -49.5 -121.5t-122.5 -83.5l-219 -109q-41 -21 -82 -11.5t-61 48.5q-15 28 -4.5 66.5t51.5 58.5l184 90q4 2 17.5 8.5t18 8.5t15.5 8t15 10t12.5 10.5t12 12t8.5 14t7.5 17.5t4.5 20l33 246 q8 51 -17 71.5t-106 20.5t-112.5 -20.5t-39.5 -71.5l-20 -148h84q42 0 62.5 -25.5t14.5 -66.5q-5 -37 -38 -65.5t-82 -28.5h-119q-147 0 -129 145z" />
<glyph unicode="&#xe52;" horiz-adv-x="1081" d="M20 150l93 663q6 43 36.5 65.5t75.5 22.5t69.5 -22.5t18.5 -65.5l-90 -641h557l51 358q-7 -8 -19.5 -19.5t-51 -30.5t-76.5 -19t-70 17.5t-44 34.5l-13 17l-16 -110h63q42 0 63 -26t15 -66q-5 -37 -38.5 -66t-82.5 -29h-98q-148 0 -127 146l22 168q10 73 63 116.5 t130 43.5q112 0 158 -72q68 72 178 72q77 0 117 -43.5t30 -116.5l-55 -397q-11 -70 -59.5 -110t-128.5 -40h-623q-81 0 -120 40t-28 110z" />
<glyph unicode="&#xe53;" horiz-adv-x="798" d="M16 129l60 418q10 73 62.5 116.5t129.5 43.5q112 0 158 -72q68 72 178 72q77 0 117.5 -43.5t30.5 -116.5l-68 -484q-6 -43 -37 -65.5t-76 -22.5t-69.5 22.5t-18.5 65.5l66 467l-7.5 -7.5t-20 -16.5t-31.5 -21t-40.5 -16.5t-48.5 -7.5q-38 0 -70 17.5t-45 34.5l-12 17 l-51 -360h64q42 0 62.5 -25.5t15.5 -66.5q-5 -37 -39.5 -65.5t-83.5 -28.5h-99q-145 0 -127 145z" />
<glyph unicode="&#xe54;" horiz-adv-x="815" d="M20 160l43 303q17 119 88 171t209 52h211l72 139q22 40 50 58t79 18q61 0 86.5 -31.5t3.5 -74.5l-88 -174q-26 -53 -63 -79t-109 -26h-211q-62 0 -93.5 -20.5t-37.5 -69.5l-37 -254h180l21 137q6 43 37 65.5t76 22.5t69.5 -22.5t18.5 -65.5l-21 -137h68q42 0 59 -25 t14 -59q-13 -88 -114 -88h-441q-95 0 -138.5 37t-31.5 123z" />
<glyph unicode="&#xe55;" horiz-adv-x="835" d="M20 160l43 303q13 94 58.5 145t130.5 68q-22 33 -16 78q9 63 59 98t117 35q69 0 108.5 -34.5t30.5 -98.5q-4 -35 -23 -68h64l72 139q22 40 50 58t79 18q61 0 86.5 -31.5t3.5 -74.5l-88 -174q-26 -53 -63 -79t-109 -26h-232q-62 0 -93.5 -20.5t-37.5 -69.5l-37 -254h201 l20 137q6 43 37 65.5t76 22.5t69.5 -22.5t18.5 -65.5l-20 -137h67q42 0 59.5 -25t14.5 -59q-13 -88 -115 -88h-461q-95 0 -138.5 37t-31.5 123z" />
<glyph unicode="&#xe56;" horiz-adv-x="808" d="M35 188l12 80q6 43 37 65.5t76 22.5t69.5 -22.5t18.5 -65.5l-6 -37q-6 -51 19 -71.5t106 -20.5t112 20.5t37 71.5l29 195q6 50 -19.5 70t-87.5 20h-211q-77 0 -106 23.5t-37 81.5l-25 174q-8 47 25 76.5t94 29.5q100 0 109 -76l20 -139h197q143 0 203 -55t43 -176 l-39 -267q-14 -113 -107 -163t-260 -50q-164 0 -243.5 50t-65.5 163z" />
<glyph unicode="&#xe57;" horiz-adv-x="1122" d="M16 129l60 418q10 73 62.5 116.5t129.5 43.5q112 0 158 -72q68 72 178 72q77 0 117.5 -43.5t30.5 -116.5l-52 -365l129 37l82 584q6 43 37 65.5t76 22.5t69.5 -22.5t18.5 -65.5l-82 -578q-10 -80 -47.5 -116t-134.5 -64l-176 -51q-37 -11 -71 -11t-61.5 11t-42 40 t-8.5 72l60 424l-7.5 -7.5t-20 -16.5t-31.5 -21t-40.5 -16.5t-48.5 -7.5q-38 0 -70 17.5t-45 34.5l-12 17l-51 -360h64q42 0 62.5 -25.5t15.5 -66.5q-5 -37 -39.5 -65.5t-83.5 -28.5h-99q-145 0 -127 145z" />
<glyph unicode="&#xe58;" horiz-adv-x="798" d="M18 135l45 320q17 121 93 176t219 55h186l57 139q34 76 130 76q61 0 85.5 -29.5t4.5 -76.5l-74 -174q-24 -58 -60 -81.5t-112 -23.5h-201q-62 0 -93.5 -20.5t-37.5 -69.5l-39 -274l7.5 7.5t20 16.5t31.5 21t40.5 16.5t48.5 7.5t46 -7t36 -17.5t25 -20.5t16 -17l4 -7 l18 135q6 43 37 65.5t76 22.5t69.5 -22.5t18.5 -65.5l-21 -152q-10 -73 -62.5 -116.5t-129.5 -43.5q-112 0 -158 72q-68 -72 -178 -72q-77 0 -117.5 43.5t-30.5 116.5z" />
<glyph unicode="&#xe59;" horiz-adv-x="1003" d="M16 129l56 391q11 74 71 120t156 46h115q75 0 119 -19.5t63 -78.5q12 -39 14 -49l64 92q22 33 47 44t63 11h35l41 139q25 76 123 76q59 0 85 -28t11 -78l-55 -185q-25 -98 -123 -98h-84l-129 -205l64 -190q16 -49 -4.5 -81.5t-65.5 -47.5t-82.5 -1.5t-50.5 56.5l-150 469 h-127l-49 -342h64q42 0 62.5 -25.5t15.5 -66.5q-5 -37 -39.5 -65.5t-83.5 -28.5h-99q-145 0 -127 145z" />
<glyph unicode="&#xe5a;" horiz-adv-x="1110" d="M70 573l22 156q6 49 39.5 78t89.5 29h131q46 0 65.5 -26t14.5 -65q-7 -39 -33.5 -64.5t-72.5 -25.5h-41l-4 -30q-5 -46 11.5 -67t78.5 -21q73 0 127 41.5t61 105.5l12 80q11 80 113 80q47 0 72.5 -19.5t19.5 -60.5l-31 -217q49 15 82 52t39 85l13 80q11 80 112 80 q47 0 72.5 -19.5t19.5 -60.5l-98 -701q-6 -44 -37.5 -66t-77.5 -22q-45 0 -70.5 22t-19.5 66l56 394q-47 -42 -113 -64l-45 -330q-6 -44 -37.5 -66t-77.5 -22q-45 0 -70.5 22t-19.5 66l55 394q-99 -86 -258 -86q-110 0 -162 53t-38 149z" />
<glyph unicode="&#xe5b;" horiz-adv-x="1482" d="M57 418q21 152 121.5 253t222.5 101q104 0 161 -71t42 -181q-11 -84 -63.5 -133t-110.5 -49q-51 0 -84.5 32.5t-26.5 90.5q5 33 32.5 65.5t64.5 38.5q-2 18 -13 33.5t-34 15.5q-37 0 -80 -56.5t-53 -131.5q-14 -98 29.5 -153.5t105.5 -55.5q83 0 165 79t123 218 q16 61 38 81.5t57 20.5q24 0 41 -22.5t43 -79.5q26 84 67 84q25 0 42.5 -25t37.5 -81q38 69 62 69q40 0 73 -84q37 58 60 58q7 0 13 -4t12.5 -13t11.5 -17t13 -22t13 -22q14 18 21.5 26t17 14.5t18.5 4.5l78 -17q39 -8 54 -18.5t12 -34.5q-6 -45 -80 -55l-70 -4 q-34 -60 -69 -60q-11 0 -19 15t-24 57q-51 -94 -82 -94q-6 0 -10 4t-8 13t-7 18.5t-8 26t-10 30.5q-23 -42 -35 -62t-28 -36.5t-31 -16.5q-19 0 -26.5 24t-18.5 91q-41 -74 -69.5 -105.5t-57.5 -31.5q-46 0 -62 104q-72 -139 -172.5 -215t-222.5 -76q-135 0 -217 98t-60 261 z" />
<glyph unicode="&#x2000;" horiz-adv-x="864" />
<glyph unicode="&#x2001;" horiz-adv-x="1729" />
<glyph unicode="&#x2002;" horiz-adv-x="864" />
<glyph unicode="&#x2003;" horiz-adv-x="1729" />
<glyph unicode="&#x2004;" horiz-adv-x="576" />
<glyph unicode="&#x2005;" horiz-adv-x="432" />
<glyph unicode="&#x2006;" horiz-adv-x="288" />
<glyph unicode="&#x2007;" horiz-adv-x="288" />
<glyph unicode="&#x2008;" horiz-adv-x="216" />
<glyph unicode="&#x2009;" horiz-adv-x="345" />
<glyph unicode="&#x200a;" horiz-adv-x="96" />
<glyph unicode="&#x200c;" />
<glyph unicode="&#x200d;" />
<glyph unicode="&#x2010;" horiz-adv-x="626" d="M45 395q7 53 41 80t88 27h299q108 0 96 -107q-15 -106 -129 -106h-299q-53 0 -78 27t-18 79z" />
<glyph unicode="&#x2011;" horiz-adv-x="626" d="M45 395q7 53 41 80t88 27h299q108 0 96 -107q-15 -106 -129 -106h-299q-53 0 -78 27t-18 79z" />
<glyph unicode="&#x2012;" horiz-adv-x="626" d="M45 395q7 53 41 80t88 27h299q108 0 96 -107q-15 -106 -129 -106h-299q-53 0 -78 27t-18 79z" />
<glyph unicode="&#x2013;" horiz-adv-x="778" d="M27 414q6 41 35.5 66.5t72.5 25.5h524q43 0 66.5 -25.5t17.5 -66.5t-35.5 -66.5t-72.5 -25.5h-524q-43 0 -66.5 25.5t-17.5 66.5z" />
<glyph unicode="&#x2014;" horiz-adv-x="1556" d="M27 414q6 41 35.5 66.5t72.5 25.5h1303q43 0 66.5 -25.5t17.5 -66.5t-36 -66.5t-73 -25.5h-1302q-43 0 -66.5 25.5t-17.5 66.5z" />
<glyph unicode="&#x2018;" horiz-adv-x="401" d="M104 752q13 95 91.5 169t150.5 74q33 0 49 -16.5t11 -46.5q-1 -12 -11 -23t-20 -17t-30 -17t-30 -17q-5 -5 -19.5 -16.5t-19.5 -16.5q52 0 80 -31t21 -81q-6 -51 -48 -86t-100 -35q-64 0 -99 44.5t-26 115.5z" />
<glyph unicode="&#x2019;" horiz-adv-x="401" d="M92 653q3 16 14 27t40 27t36 20q3 3 19 15t22 18q-51 0 -79.5 30.5t-22.5 81.5q8 52 49.5 86.5t99.5 34.5q64 0 99 -44t26 -115q-13 -95 -91 -169.5t-150 -74.5q-68 0 -62 63z" />
<glyph unicode="&#x201c;" horiz-adv-x="739" d="M104 752q13 95 91.5 169t150.5 74q33 0 49 -16.5t11 -46.5q-1 -12 -11 -23t-20 -17t-30 -17t-30 -17q-5 -5 -19.5 -16.5t-19.5 -16.5q52 0 80 -31t21 -81q-6 -51 -48 -86t-100 -35q-64 0 -99 44.5t-26 115.5zM438 752q13 95 91.5 169t150.5 74q33 0 48.5 -16.5 t10.5 -46.5q-1 -12 -10.5 -23t-19.5 -17t-30 -17t-30 -17q-5 -5 -19.5 -16.5t-19.5 -16.5q52 0 80 -31t21 -81q-6 -51 -48 -86t-100 -35q-64 0 -99 44.5t-26 115.5z" />
<glyph unicode="&#x201d;" horiz-adv-x="739" d="M92 653q3 16 14 27t40 27t36 20q3 3 19 15t22 18q-51 0 -79.5 30.5t-22.5 81.5q8 52 49.5 86.5t99.5 34.5q64 0 99 -44t26 -115q-13 -95 -91 -169.5t-150 -74.5q-68 0 -62 63zM426 653q3 16 14 27t40 27t36 20q3 3 19 15t22 18q-51 0 -79.5 30.5t-22.5 81.5 q8 52 49.5 86.5t99.5 34.5q64 0 99 -44t26 -115q-13 -95 -91.5 -169.5t-150.5 -74.5q-67 0 -61 63z" />
<glyph unicode="&#x2022;" horiz-adv-x="737" d="M57 410q17 127 120 217t231 90q127 0 204 -89.5t60 -217.5q-19 -128 -121 -218t-229 -90q-128 0 -206 90.5t-59 217.5z" />
<glyph unicode="&#x2026;" horiz-adv-x="1376" d="M45 106q8 53 50.5 88t103.5 35t94.5 -35t25.5 -88t-51 -87.5t-104 -34.5t-94 34.5t-25 87.5zM504 106q8 53 50 88t103 35t95 -35t26 -88t-51 -87.5t-104 -34.5t-94 34.5t-25 87.5zM963 106q8 53 50 88t103 35t95 -35t26 -88t-51.5 -87.5t-104.5 -34.5t-93.5 34.5 t-24.5 87.5z" />
<glyph unicode="&#x202f;" horiz-adv-x="345" />
<glyph unicode="&#x205f;" horiz-adv-x="432" />
<glyph unicode="&#x2122;" horiz-adv-x="1245" d="M102 891q5 33 27.5 51.5t58.5 18.5h273q37 0 55.5 -19t13.5 -51q-9 -68 -88 -68h-59l-49 -350q-10 -72 -86 -72q-78 0 -68 72l49 350h-59q-77 0 -68 68zM483 504l121 364q30 93 113 93q81 0 90 -80l41 -234l106 234q38 80 111 80q82 0 88 -93l18 -364q8 -93 -73 -105 q-48 -6 -65 16.5t-17 67.5l-8 213l-95 -227q-34 -72 -100 -72q-71 0 -80 72l-33 227l-65 -213q-14 -44 -38 -67t-69 -17q-75 12 -45 105z" />
<glyph unicode="&#x25fc;" horiz-adv-x="727" d="M0 0v727h727v-727h-727z" />
<glyph unicode="&#xf700;" horiz-adv-x="747" d="M59 645q10 78 100.5 138.5t235.5 60.5q77 0 133 -15q3 3 16.5 18.5t17 19t16 14t21.5 14t24 7t32 3.5q47 0 76.5 -24t28 -55t-28.5 -62l-51 -49q16 -54 8 -115l-76 -537q-6 -44 -37.5 -66t-76.5 -22t-70.5 22t-19.5 66l32 230h-102q-46 0 -66.5 29t-15.5 67t34 67t75 29 h102l12 93q13 98 -102 98q-84 0 -125 -66q-26 -55 -92 -55q-51 0 -79.5 22.5t-21.5 67.5z" />
<glyph unicode="&#xf701;" d="M-653 1128q5 37 32 60.5t72 23.5h494q45 0 65 -23.5t15 -60.5t-32 -60.5t-71 -23.5h-495q-45 0 -65 23.5t-15 60.5z" />
<glyph unicode="&#xf702;" d="M-653 1128q5 37 32 60.5t72 23.5h383l4 39q7 44 38 66t75 22q46 0 71.5 -22t18.5 -66l-14 -102q-8 -61 -46 -83t-100 -22h-454q-45 0 -65 23.5t-15 60.5z" />
<glyph unicode="&#xf703;" d="M-653 1128q5 37 32 60.5t72 23.5h340q15 55 59.5 91t100.5 36q62 0 99 -43t28 -104q-8 -62 -56.5 -105t-109.5 -43h-485q-45 0 -65 23.5t-15 60.5z" />
<glyph unicode="&#xf704;" d="M-653 1128q5 37 32 60.5t72 23.5h137l4 39q7 44 38.5 66t76.5 22q46 0 71.5 -22t18.5 -66l-4 -39h41l4 39q7 44 38 66t75 22q46 0 71.5 -22t18.5 -66l-14 -102q-8 -61 -46 -83t-100 -22h-454q-45 0 -65 23.5t-15 60.5z" />
<glyph unicode="&#xf705;" d="M-444 1020l24 172q7 44 38.5 66t76.5 22q46 0 71.5 -22t18.5 -66l-25 -172q-6 -44 -37.5 -66t-76.5 -22t-70.5 22t-19.5 66z" />
<glyph unicode="&#xf706;" d="M-377 1272q5 37 32.5 60.5t72.5 23.5h127q56 0 81 -24.5t19 -69.5l-6 -50h188q45 0 65 -23.5t15 -60.5t-32 -60.5t-72 -23.5h-295q-50 0 -75 20.5t-19 70.5l8 53h-29q-45 0 -65 23.5t-15 60.5z" />
<glyph unicode="&#xf707;" d="M-618 1122l14 113q9 61 52 91t110 30q58 0 87.5 -14.5t49.5 -43.5q54 58 153 58q67 0 99.5 -30t23.5 -91l-2 -23h37q40 0 60 -22.5t14 -61.5q-6 -40 -34 -62t-71 -22h-127q-51 0 -76 16t-18 62l8 70h-8q-2 -5 -7.5 -13.5t-26.5 -22t-48 -13.5t-44.5 12.5t-21.5 24.5 l-3 12h-9l-8 -70q-7 -44 -39 -66t-77 -22t-70 22t-18 66z" />
<glyph unicode="&#xf708;" d="M-547 1124q5 34 26.5 54t55.5 20h57l5 37q6 41 37.5 61.5t76.5 20.5t70.5 -20.5t19.5 -61.5l-4 -37h58q33 0 49.5 -20t11.5 -54t-26.5 -53.5t-55.5 -19.5h-57l-6 -37q-6 -41 -37.5 -61.5t-77.5 -20.5q-45 0 -70.5 20.5t-19.5 61.5l6 37h-57q-34 0 -50.5 19.5t-11.5 53.5z " />
<glyph unicode="&#xf709;" d="M-475 1081q-11 47 14.5 87t85.5 61l135 47q64 18 94 4t37 -49q18 -85 -86 -125l-49 -19l4 -22q18 -90 -82 -125q-45 -17 -85 -3.5t-50 58.5z" />
<glyph unicode="&#xf70a;" d="M-195 1010l25 172q6 43 37.5 65.5t75.5 22.5q45 0 70.5 -22t19.5 -66l-25 -172q-6 -44 -37 -66t-75 -22q-45 0 -71 22t-20 66z" />
<glyph unicode="&#xf70b;" d="M-457 1159q5 37 32.5 60.5t72.5 23.5h127q56 0 82 -24.5t20 -69.5l-6 -49h186q45 0 65 -23.5t15 -60.5t-32 -60.5t-72 -23.5h-295q-50 0 -74.5 20.5t-17.5 69.5l6 53h-29q-45 0 -65 23.5t-15 60.5z" />
<glyph unicode="&#xf70c;" d="M-616 999l16 113q9 61 51 91t109 30q58 0 87.5 -14.5t49.5 -42.5q26 28 60.5 42.5t92.5 14.5q67 0 100.5 -30t24.5 -91l-4 -22h37q40 0 60 -22t16 -62q-6 -40 -33.5 -62t-70.5 -22h-127q-51 0 -77 16t-20 61l11 70h-9q-3 -5 -8.5 -13.5t-27 -22t-48.5 -13.5q-17 0 -30 5 t-20 12t-11 14.5t-5 12.5l-1 5h-8l-11 -70q-6 -44 -37.5 -66t-76.5 -22t-70.5 22t-19.5 66z" />
<glyph unicode="&#xf70d;" d="M-438 1114q5 34 26.5 54t55.5 20h57l6 37q4 41 35.5 61.5t77.5 20.5q45 0 70.5 -20.5t21.5 -61.5l-6 -37h55q34 0 50.5 -20t11.5 -54t-26.5 -54t-55.5 -20h-56l-6 -36q-6 -41 -36.5 -61.5t-75.5 -20.5q-46 0 -72.5 20.5t-20.5 61.5l7 36h-58q-33 0 -49.5 20t-11.5 54z " />
<glyph unicode="&#xf70e;" d="M-276 1069q-9 47 16.5 87t83.5 61l135 47q41 15 69.5 10t43.5 -19t20 -36q15 -86 -88 -125l-49 -19l4 -22q21 -89 -82 -125q-45 -17 -85 -3.5t-50 58.5z" />
<glyph unicode="&#xf70f;" horiz-adv-x="1277" d="M23 90l43 316q5 34 29 66.5t57 47.5q-84 37 -74 107q11 88 117.5 152.5t261.5 64.5q166 0 248 -70t67 -190l-47 -328q-9 -58 21 -85.5t88 -27.5q124 0 141 113l69 500q7 44 38.5 66t76.5 22q46 0 71.5 -22t18.5 -66l-73 -525q-34 -256 -365 -256q-171 0 -241 67.5 t-54 188.5l47 328q7 53 -32.5 85t-108.5 32q-96 0 -141 -45q9 -5 22.5 -14.5t35 -35.5t17.5 -49q-3 -25 -43 -67t-45 -72l-30 -229h61q41 0 63 -26.5t17 -63.5q-6 -37 -36 -63.5t-71 -26.5h-151q-55 0 -80.5 28t-17.5 78z" />
<glyph unicode="&#xf710;" d="M-403 1149l14 102q7 44 38.5 66t76.5 22q46 0 71.5 -22t18.5 -66l-4 -39h340q45 0 64.5 -23t14.5 -61q-5 -37 -32 -60.5t-72 -23.5h-412q-63 0 -94.5 22t-23.5 83z" />
<glyph unicode="&#xf711;" d="M-227 1194q10 67 59.5 102t118.5 35q70 0 109.5 -35t29.5 -102q-9 -67 -58 -102t-118 -35q-70 0 -110 35t-31 102z" />
<glyph unicode="&#xf712;" d="M-768 1053l14 102q17 120 150 150l285 65q39 9 66 -5.5t30 -45.5q3 -34 -18.5 -62.5t-59.5 -37.5l-248 -58l-8 -65h8q2 5 7.5 13.5t26.5 22t48 13.5t44.5 -12.5t21.5 -24.5l4 -12h8v8q6 44 37.5 66t77.5 22q45 0 70.5 -22t19.5 -66l-6 -51q-9 -61 -52 -91t-110 -30 q-58 0 -87.5 14.5t-49.5 42.5q-54 -57 -154 -57q-67 0 -100.5 30t-24.5 91z" />
<glyph unicode="&#xf713;" d="M-131 1468l18 131q6 44 37 66.5t76 22.5t70.5 -22.5t19.5 -66.5l-18 -131q-6 -44 -37.5 -66t-77.5 -22q-44 0 -69 22t-19 66z" />
<glyph unicode="&#xf714;" d="M-301 1595q5 34 29 55t65 21h115q49 0 72.5 -22t17.5 -62l-6 -45h170q41 0 58.5 -21t12.5 -55q-5 -33 -28 -54t-64 -21h-266q-45 0 -68 19t-16 63l6 47h-24q-41 0 -60 21t-14 54z" />
<glyph unicode="&#xf715;" d="M-354 1452l14 100q14 109 143 109q90 0 125 -51q47 51 135 51q61 0 91.5 -27t23.5 -82l-2 -20h33q36 0 53.5 -20t11.5 -56q-5 -35 -29.5 -55.5t-64.5 -20.5h-114q-45 0 -68.5 15.5t-17.5 56.5l8 61h-8q-2 -5 -6.5 -12t-23 -19t-42.5 -12t-39.5 11t-18.5 21l-4 11h-8 l-8 -61q-6 -40 -34 -60t-68 -20q-41 0 -64.5 20.5t-17.5 59.5z" />
<glyph unicode="&#xf716;" d="M-225 1554q5 31 24.5 48.5t50.5 17.5h52l4 35q12 74 100 74q41 0 64.5 -19t17.5 -55l-4 -35h51q31 0 45.5 -17.5t9.5 -48.5q-10 -65 -73 -65h-51l-7 -35q-4 -36 -32.5 -55t-69.5 -19q-39 0 -61.5 18.5t-18.5 55.5l6 35h-51q-31 0 -46 17t-11 48z" />
<glyph unicode="&#xf717;" d="M-221 1430q-9 41 13.5 77t76.5 54l119 43q59 16 86.5 3.5t34.5 -44.5q14 -77 -80 -113l-45 -16l6 -21q19 -81 -76 -113q-39 -15 -74.5 -2t-44.5 54z" />
<glyph unicode="&#xf718;" d="M-524 -487q5 37 32 60.5t72 23.5h98q64 0 95.5 -22t23.5 -83l-24 -164q-6 -44 -37.5 -66t-77.5 -22q-45 0 -70.5 22t-19.5 66l14 101h-26q-45 0 -65 23.5t-15 60.5z" />
<glyph unicode="&#xf719;" d="M-786 -487q5 37 32 60.5t72 23.5h84q55 0 79.5 -22.5t18.5 -66.5l-12 -88q-3 -15 3.5 -23t14.5 -9.5t23 -1.5t23.5 1.5t17.5 9.5t12 23l12 99q7 44 39.5 66t77.5 22t70 -22t18 -66l-16 -119q-4 -32 -14.5 -56t-23 -40t-34.5 -27t-39.5 -16.5t-49.5 -8.5t-53.5 -3.5 t-60.5 -0.5q-52 0 -80.5 1.5t-61.5 8.5t-47.5 21t-22.5 39.5t-3 63.5l7 47h-7q-45 0 -64.5 23t-14.5 61z" />
<glyph unicode="&#xf71a;" d="M-453 -532q6 53 50 91t112 38t100 -37.5t25 -91.5q-8 -56 -50.5 -93t-111.5 -37t-101 37t-24 93z" />
<glyph unicode="&#xf71d;" horiz-adv-x="1021" />
<glyph unicode="&#xf880;" />
<glyph horiz-adv-x="552" />
<glyph horiz-adv-x="538" d="M-227 1194q10 67 59.5 102t118.5 35q70 0 109.5 -35t29.5 -102q-9 -67 -58 -102t-118 -35q-70 0 -110 35t-31 102zM63 745q5 37 32.5 60.5t72.5 23.5h106q130 0 180 -58t35 -177l-75 -531q-6 -44 -37.5 -66t-77.5 -22q-45 0 -70.5 22t-19.5 66l74 515q9 84 -74 84h-66 q-45 0 -65 23t-15 60z" />
<glyph d="M-651 1087q10 74 75.5 122.5t159.5 64.5q-39 37 -33.5 92t52.5 98q94 84 272 84q94 0 148 -24t47 -68q-4 -36 -28 -55.5t-58 -14.5q-89 15 -167.5 3t-82.5 -46q-1 -10 7 -16.5t27 -8.5t30.5 -2.5t33.5 -0.5h10q17 0 25.5 -14t5.5 -33q-3 -33 -29 -60.5t-59 -23.5 q-76 9 -148.5 -7t-78.5 -57q-3 -24 28.5 -32t72.5 -3t73 17q35 13 56.5 2t27.5 -43q11 -55 -64.5 -97t-193.5 -42q-30 0 -59 4t-59.5 16t-51.5 29.5t-32.5 47.5t-6.5 68z" />
<glyph />
<glyph d="M-469 1020l25 172q7 44 38 66t76 22q46 0 71.5 -22t18.5 -66l-24 -172q-6 -44 -37.5 -66t-77.5 -22q-45 0 -70.5 22t-19.5 66z" />
<glyph d="M-272 1346l18 131q6 44 37.5 66t77.5 22q45 0 69.5 -22t18.5 -66l-17 -131q-6 -44 -37.5 -66.5t-76.5 -22.5t-70.5 22.5t-19.5 66.5z" />
<glyph d="M-256 1458l18 131q6 44 37.5 66t77.5 22q45 0 69.5 -22t18.5 -66l-18 -131q-6 -44 -37 -66t-76 -22q-46 0 -71.5 22t-18.5 66z" />
<glyph d="M-973 1016q5 37 32.5 60.5t72.5 23.5h536q45 0 65 -23.5t15 -60.5t-32 -60.5t-72 -23.5h-537q-45 0 -65 23.5t-15 60.5z" />
<glyph d="M-973 1016q5 37 32.5 60.5t72.5 23.5h424l6 39q6 44 37.5 66t76.5 22t71 -22t20 -66l-15 -103q-8 -61 -46.5 -82.5t-102.5 -21.5h-496q-45 0 -65 23.5t-15 60.5z" />
<glyph d="M-885 1016q5 37 31.5 60.5t71.5 23.5h475q45 0 66 -23.5t16 -60.5q-6 -37 -33 -60.5t-72 -23.5h-475q-45 0 -65.5 23.5t-14.5 60.5z" />
<glyph d="M-885 1016q5 37 31.5 60.5t71.5 23.5h362l6 39q6 44 37.5 66t77.5 22q45 0 70.5 -22t19.5 -66l-14 -103q-8 -61 -46 -82.5t-102 -21.5h-434q-45 0 -65.5 23.5t-14.5 60.5z" />
<glyph d="M-885 1016q5 37 31.5 60.5t71.5 23.5h116l7 39q6 44 37.5 66t76.5 22t70.5 -22t19.5 -66l-6 -39h41l6 39q6 44 37.5 66t77.5 22q45 0 70.5 -22t19.5 -66l-14 -103q-8 -61 -46 -82.5t-102 -21.5h-434q-45 0 -65.5 23.5t-14.5 60.5z" />
<glyph d="M-383 1356l18 131q6 44 37.5 66t77.5 22q45 0 70.5 -22t19.5 -66l-18 -131q-6 -44 -37.5 -66t-77.5 -22q-45 0 -70.5 22t-19.5 66z" />
<glyph d="M-553 1483q5 34 29 55t65 21h115q51 0 74.5 -22t17.5 -62l-6 -45h170q41 0 59 -21t13 -55q-5 -33 -28.5 -54.5t-64.5 -21.5h-268q-45 0 -68.5 19t-17.5 63l8 47h-24q-41 0 -60 21.5t-14 54.5z" />
<glyph d="M-606 1339l14 101q14 108 143 108q90 0 125 -51q25 25 55.5 38t82.5 13q61 0 91 -26.5t23 -81.5l-4 -21h33q36 0 55 -20t13 -56q-4 -35 -29.5 -55t-65.5 -20h-114q-45 0 -68.5 15t-17.5 56l8 62h-8l-2.5 -5t-7.5 -10t-14 -13t-21.5 -10.5t-28.5 -4.5q-24 0 -39.5 11 t-18.5 21l-4 11h-8l-8 -62q-6 -39 -34.5 -59t-69.5 -20t-63.5 20t-16.5 59z" />
<glyph d="M-477 1442q10 65 74 65h51l6 35q4 36 32.5 55t69.5 19q40 0 63 -18.5t19 -55.5l-6 -35h51q31 0 46.5 -17.5t11.5 -47.5q-4 -31 -24.5 -48.5t-51.5 -17.5h-51l-4 -35q-4 -36 -33 -54.5t-70 -18.5t-63.5 18t-18.5 55l4 35h-51q-31 0 -45.5 17.5t-9.5 48.5z" />
<glyph d="M-469 1317q-9 41 14 77t76 54l119 43q59 16 86.5 3.5t34.5 -44.5q18 -76 -78 -113l-45 -16l4 -21q19 -79 -74 -112q-41 -16 -76.5 -3t-44.5 54z" />
<glyph d="M-567 1016q6 37 33.5 60.5t72.5 23.5h393q45 0 64.5 -23.5t13.5 -60.5q-5 -37 -31 -60.5t-71 -23.5h-393q-45 0 -66 23.5t-16 60.5z" />
<glyph d="M-567 1016q6 37 33.5 60.5t72.5 23.5h281l4 39q6 43 38.5 65.5t78.5 22.5q45 0 68.5 -22t17.5 -66l-13 -103q-8 -61 -45.5 -82.5t-101.5 -21.5h-352q-45 0 -66 23.5t-16 60.5z" />
</font>
</defs>
</svg>
