<?xml version="1.0" standalone="no"?>
<!DOCTYPE svg PUBLIC "-//W3C//DTD SVG 1.1//EN" "http://www.w3.org/Graphics/SVG/1.1/DTD/svg11.dtd" >
<svg xmlns="http://www.w3.org/2000/svg" xmlns:xlink="http://www.w3.org/1999/xlink" version="1.1">
<metadata></metadata>
<defs>
<font id="noto_sans_thailight" horiz-adv-x="0" >
<font-face units-per-em="2048" ascent="1638" descent="-410" />
<missing-glyph horiz-adv-x="532" />
<glyph unicode="&#xe24;&#xe45;" horiz-adv-x="1896" d="M147 770v53q0 82 51.5 154t151 118t240.5 46q154 0 249 -59.5t134 -157.5h6q37 102 133 159.5t229 57.5q176 0 277.5 -97.5t101.5 -273.5v-1171h-118v1155q0 150 -78 218t-203 68q-131 0 -212 -73.5t-81 -218.5v-1149h-119v1142q0 150 -92 224.5t-235 74.5t-229.5 -65.5 t-86.5 -159.5l234 -108l-13 -80q-80 -6 -136 -54.5t-56 -156.5v-240q0 -53 23.5 -74.5t66.5 -21.5q47 0 86 14l21 -88q-31 -14 -65 -20t-62 -6q-74 0 -130.5 38.5t-56.5 141.5v254q0 127 58.5 182t144.5 78v6z" />
<glyph unicode="&#xe26;&#xe45;" horiz-adv-x="1900" d="M51 4l17 86q14 -4 30.5 -8t32.5 -4q37 0 50.5 20.5t13.5 67.5v250q0 125 50 181t136 77l4 6l-238 90v53q0 82 52.5 154t152 118t238.5 46q156 0 250 -59.5t135 -157.5h8q35 102 130 159.5t230 57.5q176 0 277.5 -97.5t101.5 -273.5v-1171h-116v1155q0 150 -80 218 t-203 68q-131 0 -212 -73.5t-81 -218.5v-1149h-117v1142q0 150 -93 224.5t-236 74.5t-228.5 -65.5t-85.5 -159.5l234 -108l-17 -80q-78 -6 -127 -54.5t-49 -158.5v-260q0 -100 -42 -137t-105 -37q-61 0 -113 24z" />
<glyph />
<glyph />
<glyph unicode="&#xd;" horiz-adv-x="532" />
<glyph unicode=" "  horiz-adv-x="532" />
<glyph unicode="&#x09;" horiz-adv-x="532" />
<glyph unicode="&#xa0;" horiz-adv-x="532" />
<glyph unicode="-" horiz-adv-x="659" d="M82 500v106h496v-106h-496z" />
<glyph unicode="&#xad;" horiz-adv-x="659" d="M82 500v106h496v-106h-496z" />
<glyph unicode="&#x2bc;" horiz-adv-x="309" d="M27 961q23 76 45 163.5t38.5 176t24.5 161.5h115l12 -20q-20 -117 -63 -245t-88 -236h-84z" />
<glyph unicode="&#x2d7;" horiz-adv-x="446" d="M25 520v90h397v-90h-397z" />
<glyph unicode="&#x303;" d="M-918 1253q10 111 61.5 171.5t135.5 60.5q45 0 82 -20.5t70.5 -47t66.5 -47t68 -20.5q41 0 71.5 29.5t43.5 107.5h73q-8 -111 -60 -172.5t-134 -61.5q-45 0 -82 20.5t-71 47.5t-66.5 47.5t-69.5 20.5q-41 0 -71.5 -29t-39.5 -107h-78z" />
<glyph unicode="&#x331;" d="M-782 -182h536v-97h-536v97z" />
<glyph unicode="&#xe01;" horiz-adv-x="1208" d="M147 770v53q0 82 52.5 154t152 118t238.5 46q123 0 223 -41t158.5 -126t58.5 -212v-762h-117v745q0 154 -92 224.5t-233 70.5q-150 0 -235 -65.5t-85 -159.5l228 -108l-15 -80q-78 -6 -137 -55.5t-59 -157.5v-414h-117v412q0 125 60.5 182t148.5 80v6z" />
<glyph unicode="&#xe02;" horiz-adv-x="1105" d="M123 1094q33 20 79 30.5t89 10.5q86 0 137 -46.5t51 -138.5q0 -72 -30.5 -123t-71.5 -102q-41 -55 -65.5 -104.5t-24.5 -128.5v-148q0 -147 74.5 -205.5t191.5 -58.5q131 0 194.5 60.5t63.5 172.5v809h119v-815q0 -156 -97.5 -241.5t-279.5 -85.5q-178 0 -281.5 88 t-103.5 270v149q0 100 29.5 159t72.5 112t69 92t26 90q0 53 -29 74.5t-66 21.5q-33 0 -65.5 -11t-52.5 -21z" />
<glyph unicode="&#xe03;" horiz-adv-x="1105" d="M102 1081v41h105q0 -78 21.5 -107.5t68.5 -29.5q27 0 53.5 9.5t50.5 33.5l29 94h70v-108q0 -63 -7.5 -104.5t-29 -78t-62.5 -86.5q-33 -41 -59.5 -75.5t-42.5 -77.5t-16 -109v-139q0 -152 73.5 -208t188.5 -56q131 0 198.5 60.5t67.5 172.5v809h119v-815 q0 -156 -100.5 -241.5t-286.5 -85.5q-180 0 -279.5 88t-99.5 272v152q0 104 43 170.5t96 123.5q45 53 65.5 85t24.5 75l-8 4q-20 -18 -51 -32.5t-72 -14.5q-70 0 -115 44t-45 134z" />
<glyph unicode="&#xe04;" horiz-adv-x="1245" d="M176 0v737q0 193 112.5 298.5t334.5 105.5q221 0 333.5 -105.5t112.5 -298.5v-737h-119v733q0 152 -86 229.5t-241 77.5q-156 0 -242 -77.5t-86 -229.5v-264l6 -2q43 76 114.5 110.5t192.5 34.5h88v-100h-86q-166 0 -240.5 -72.5t-74.5 -191.5v-248h-119z" />
<glyph unicode="&#xe05;" horiz-adv-x="1257" d="M176 0v872q0 139 67.5 204t182.5 65q76 0 129 -31t70 -86h8q16 55 70.5 86t127.5 31q115 0 182.5 -64.5t67.5 -204.5v-872h-118v866q0 96 -41 135t-107 39q-131 0 -147 -135h-82q-12 135 -148 135q-61 0 -103 -38.5t-42 -135.5v-397l6 -2q43 76 116.5 110.5t196.5 34.5 h88v-100h-86q-168 0 -243.5 -72.5t-75.5 -191.5v-248h-119z" />
<glyph unicode="&#xe06;" horiz-adv-x="1212" d="M109 1081v41h104q0 -78 21.5 -107.5t68.5 -29.5q25 0 51.5 9.5t53.5 33.5l26 94h72v-108q0 -59 -9.5 -99.5t-32 -78t-63.5 -91.5q-37 -43 -64.5 -79.5t-42.5 -80.5t-15 -108v-39q0 -156 97 -256t261 -100q133 0 207 71.5t74 211.5v757h118v-768q0 -193 -104.5 -283.5 t-272.5 -90.5q-143 0 -240 59t-140 158h-9l-10 -197h-98v483q0 104 42 174t97 129q53 57 74.5 88t21.5 72l-4 4q-20 -18 -52 -32.5t-75 -14.5q-68 0 -112.5 44t-44.5 134z" />
<glyph unicode="&#xe07;" horiz-adv-x="1085" d="M18 1122h119l318 -1018h28q61 0 115.5 24t99.5 65q74 68 110 182t36 241q0 195 -83 305.5t-239 110.5q-27 0 -53.5 -5t-42.5 -11l-29 98q33 10 68 14.5t63 4.5q102 0 180 -33t132 -92q66 -70 94.5 -172.5t28.5 -225.5q0 -164 -48.5 -290.5t-132.5 -202.5 q-57 -53 -140 -85t-198 -32h-79z" />
<glyph unicode="&#xe08;" horiz-adv-x="1075" d="M90 938v115q57 33 155.5 60.5t213.5 27.5q262 0 370.5 -145.5t108.5 -434.5t-119 -425t-381 -136h-114v532h-152v97h266v-531h29q106 0 184 44t121 145.5t43 277.5q0 258 -86 366.5t-287 108.5q-94 0 -183 -26.5t-169 -75.5z" />
<glyph unicode="&#xe09;" horiz-adv-x="1226" d="M176 352v289h119v-279q0 -133 71.5 -206.5t211.5 -73.5q164 0 259 98.5t95 261.5v230q0 205 -95.5 286.5t-275.5 81.5q-96 0 -189 -24.5t-177 -77.5v115q57 33 159.5 60.5t227.5 27.5q229 0 348 -109.5t119 -345.5v-686h-99l-8 184h-8q-45 -94 -142.5 -149t-242.5 -55 q-164 0 -268.5 92t-104.5 280z" />
<glyph unicode="&#xe0a;" horiz-adv-x="1105" d="M123 1094q33 20 79 30.5t87 10.5q84 0 135 -46.5t51 -136.5q0 -76 -30.5 -126t-71.5 -101q-41 -55 -65.5 -104.5t-24.5 -128.5v-148q0 -147 74.5 -205.5t193.5 -58.5q129 0 192.5 60.5t63.5 172.5v312q0 84 -45 127t-121 43h-20v79h22q78 0 118 36t53 93.5t13 118.5h117 q0 -115 -31.5 -184.5t-117.5 -101.5v-9q82 -25 106.5 -81t24.5 -119v-320q0 -156 -96.5 -241.5t-278.5 -85.5t-284.5 88t-102.5 270v149q0 102 30.5 161t71.5 110q43 51 68.5 91t25.5 89q0 55 -27.5 76.5t-70.5 21.5q-29 0 -59.5 -10t-50.5 -20z" />
<glyph unicode="&#xe0b;" horiz-adv-x="1118" d="M102 1081v41h105q0 -80 21.5 -108.5t70.5 -28.5q27 0 53.5 10.5t48.5 32.5l29 94h70v-108q0 -63 -7.5 -104.5t-29 -78t-62.5 -86.5q-53 -61 -81.5 -111t-28.5 -138v-152q0 -152 73.5 -208t188.5 -56q131 0 198.5 60.5t67.5 172.5v312q0 84 -45 127t-123 43h-20v79h24 q78 0 117 36t52.5 93.5t13.5 118.5h116q0 -115 -32.5 -183.5t-118.5 -98.5v-9q78 -27 106.5 -82t28.5 -133v-309q0 -156 -101.5 -241.5t-283.5 -85.5q-180 0 -280.5 88t-100.5 272v152q0 104 39 170.5t92 123.5q43 53 64.5 85t25.5 75l-8 4q-20 -18 -51 -32.5t-72 -14.5 q-70 0 -115 44t-45 134z" />
<glyph unicode="&#xe0c;" horiz-adv-x="1839" d="M147 770v53q0 86 51.5 158t145.5 116t225 44q113 0 208 -39t152.5 -123t57.5 -217v-328q0 -102 41 -182t112.5 -125t164.5 -45q113 0 176 65.5t63 196.5v778h119v-790q0 -184 -94 -268t-244 -84q-119 0 -207 55t-131 151h-8l-8 -186h-101v745q0 106 -39.5 172 t-109.5 94.5t-154 28.5q-133 0 -216 -61t-85 -164l234 -108l-13 -80q-80 -6 -136 -54.5t-56 -156.5v-217q0 -61 31.5 -89t87.5 -28q53 0 98 16l18 -88q-35 -14 -67.5 -20t-67.5 -6q-88 0 -152.5 44t-64.5 160v226q0 127 58.5 182t144.5 78v6z" />
<glyph unicode="&#xe0d;" horiz-adv-x="1851" d="M147 770v53q0 88 51.5 160t144.5 115t222 43q113 0 207 -39t150.5 -122t56.5 -218v-397q0 -131 64.5 -197t173.5 -66q94 0 165.5 45.5t112.5 125t41 182.5v667h119v-1036q0 -217 -113.5 -316.5t-310.5 -99.5q-84 0 -166 17.5t-152 50.5v119q66 -41 150 -61.5t166 -20.5 q88 0 157.5 27.5t110.5 96t41 189.5v90h-8q-45 -76 -128 -127t-208 -51q-147 0 -239.5 84t-92.5 268v393q0 111 -40 175.5t-107.5 92t-151.5 27.5q-131 0 -213 -60t-84 -165l234 -108l-13 -80q-80 -6 -136 -54.5t-56 -156.5v-217q0 -61 31.5 -89t87.5 -28q53 0 98 16l18 -88 q-35 -14 -67.5 -20t-67.5 -6q-88 0 -152.5 44t-64.5 160v226q0 127 58.5 182t144.5 78v6z" />
<glyph unicode="&#xe0e;" horiz-adv-x="1208" d="M51 6l17 88q14 -4 30.5 -8t32.5 -4q37 0 50.5 20.5t13.5 65.5v248q0 125 50 181t136 77l4 6l-238 90v53q0 82 52.5 154t152 118t238.5 46q125 0 225 -41t158.5 -126t58.5 -212v-1163h-94q-41 39 -104.5 77.5t-139.5 65.5t-155 27q-106 0 -156.5 -44t-50.5 -108v-18h-119 v32q0 102 73.5 170t225.5 68q113 0 216 -39t185 -106v1021q0 154 -91 224.5t-234 70.5q-150 0 -234 -65.5t-84 -159.5l234 -108l-17 -80q-78 -6 -127 -54.5t-49 -158.5v-258q0 -98 -43 -135t-106 -37q-55 0 -111 22z" />
<glyph unicode="&#xe0f;" horiz-adv-x="1208" d="M51 6l17 88q14 -4 30.5 -8t32.5 -4q37 0 50.5 20.5t13.5 65.5v248q0 125 50 181t136 77l4 6l-238 90v53q0 82 52.5 154t152 118t238.5 46q125 0 225 -41t158.5 -126t58.5 -212v-1163h-106l-164 135l-148 -135h-34q-31 63 -77 109t-114 46q-61 0 -89 -41t-28 -94v-20h-112 v41q0 98 60.5 154t152.5 56q90 0 146 -43t87 -102l154 135l153 -125v1030q0 154 -91 224.5t-234 70.5q-150 0 -234 -65.5t-84 -159.5l234 -108l-17 -80q-78 -6 -127 -54.5t-49 -158.5v-258q0 -98 -43 -135t-106 -37q-55 0 -111 22z" />
<glyph unicode="&#xe10;" horiz-adv-x="1105" d="M82 938v115q57 33 155.5 60.5t213.5 27.5q207 0 307 -94q57 14 98 50t41 99h119q0 -86 -55.5 -140.5t-139.5 -76.5q57 -70 83 -174.5t26 -243.5q0 -289 -119 -425t-381 -136h-115v532h-151v97h266v-531h29q106 0 184 44t121 145.5t43 277.5q0 258 -86 366.5t-287 108.5 q-94 0 -183 -26.5t-169 -75.5zM111 -360q0 98 55 153t141 55q82 0 133.5 -42t83.5 -99l138 133l145 -127v168h108v-282h-108l-145 135l-134 -135h-30q-31 61 -74 108t-100 47q-59 0 -83 -41t-24 -94v-20h-106v41z" />
<glyph unicode="&#xe11;" horiz-adv-x="1265" d="M102 1081v41h107q0 -80 20.5 -108.5t65.5 -28.5q29 0 53.5 9.5t44.5 33.5l29 94h65v-149h11q61 82 136 125t173 43q141 0 210.5 -75t69.5 -198v-868h-116v842q0 100 -50.5 148t-129.5 48q-94 0 -173 -62.5t-178 -184.5q-47 -57 -71.5 -100.5t-34.5 -95.5t-10 -138v-457 h-119v475q0 119 21.5 183.5t66.5 117.5q39 47 60.5 75t29.5 48.5t10 46.5l-8 4q-20 -18 -51 -32.5t-72 -14.5q-70 0 -115 44t-45 134z" />
<glyph unicode="&#xe12;" horiz-adv-x="1830" d="M139 575q0 215 36 339t99.5 175.5t147.5 51.5q80 0 125 -32t63 -87h8q41 119 189 119q233 0 233 -277v-430q0 -102 40 -182t111 -125t161 -45q117 0 180 65.5t63 196.5v778h117v-790q0 -184 -93 -268t-235 -84q-135 0 -221 59t-125 147h-8l-8 -186h-100v866q0 96 -31 135 t-103 39q-63 0 -93.5 -34.5t-43.5 -100.5h-78q-10 74 -43.5 104.5t-91.5 30.5q-57 0 -97 -43t-61.5 -143t-21.5 -272q0 -168 25.5 -280t92 -167t189.5 -55q31 0 55.5 4t47.5 12l12 -92q-49 -24 -131 -24q-160 0 -249 70.5t-125 204.5t-36 320z" />
<glyph unicode="&#xe13;" horiz-adv-x="1851" d="M147 770v53q0 88 51.5 160t144.5 115t222 43q113 0 207 -39t150.5 -122t56.5 -218v-418q0 -131 64.5 -196.5t185.5 -65.5q86 0 155.5 45t110.5 125t41 182v688h119v-1122h-101l-8 186h-10q-41 -94 -129 -150t-203 -56q-154 0 -248 83.5t-94 268.5v413q0 111 -40 175.5 t-108.5 92t-152.5 27.5q-129 0 -211 -60t-84 -165l234 -108l-13 -80q-80 -6 -136 -54.5t-56 -156.5v-217q0 -61 31.5 -89t89.5 -28q51 0 96 16l18 -88q-35 -14 -67.5 -20t-67.5 -6q-88 0 -152.5 44t-64.5 160v226q0 127 58.5 182t144.5 78v6z" />
<glyph unicode="&#xe14;" horiz-adv-x="1251" d="M135 553q0 178 37 293t102.5 179.5t154.5 90t196 25.5q223 0 335.5 -97.5t112.5 -277.5v-766h-115v754q0 135 -77.5 210.5t-249.5 75.5q-111 0 -196 -39.5t-133 -145t-48 -304.5q0 -135 26.5 -241.5t94 -168t192.5 -61.5q57 0 101 16l16 -94q-29 -12 -65.5 -17t-71.5 -5 q-156 0 -246 71.5t-128 200.5t-38 301z" />
<glyph unicode="&#xe15;" horiz-adv-x="1288" d="M139 580q0 207 38 329.5t106.5 177t162.5 54.5q82 0 131.5 -32t67.5 -87h8q41 119 201 119q256 0 256 -277v-864h-117v866q0 96 -41 135t-116 39q-70 0 -104 -34.5t-44 -100.5h-82q-8 74 -49 104.5t-98 30.5q-98 0 -149.5 -108.5t-51.5 -349.5q0 -164 26.5 -275.5 t96.5 -169t194 -57.5q35 0 64 5t53 11l13 -92q-25 -12 -65 -18t-79 -6q-164 0 -256 73.5t-129 208.5t-37 318z" />
<glyph unicode="&#xe16;" horiz-adv-x="1206" d="M147 770v53q0 82 51.5 154t149.5 118t240 46q125 0 224 -41t157.5 -126t58.5 -212v-762h-117v745q0 154 -91 224.5t-234 70.5q-147 0 -233.5 -65.5t-86.5 -159.5l234 -108l-13 -80q-80 -6 -136 -49t-56 -152v-227q0 -61 31.5 -89t89.5 -28q51 0 96 16l18 -88 q-35 -14 -67.5 -20t-67.5 -6q-88 0 -152.5 44t-64.5 160v226q0 127 58.5 182t144.5 78v6z" />
<glyph unicode="&#xe17;" horiz-adv-x="1245" d="M193 0v1122h86l20 -192h8q43 102 141.5 156.5t233.5 54.5q170 0 277.5 -91.5t107.5 -283.5v-766h-117v758q0 139 -75.5 209.5t-215.5 70.5q-164 0 -256 -103.5t-92 -258.5v-676h-118z" />
<glyph unicode="&#xe18;" horiz-adv-x="1091" d="M141 889q0 123 97.5 187.5t302.5 64.5q137 0 233 -23.5t144 -44.5v-110q-53 29 -160 53t-232 24q-113 0 -190.5 -29.5t-77.5 -111.5q0 -78 84 -118t231 -85q117 -37 209 -76.5t145.5 -108.5t53.5 -192q0 -172 -109.5 -255.5t-322.5 -83.5q-115 0 -212 20t-165 47v473h111 v-397q37 -16 113.5 -30.5t156.5 -14.5q84 0 154.5 20.5t113.5 73.5t43 147t-46 143.5t-130 78t-196 65.5q-123 39 -201 76t-114 85t-36 122z" />
<glyph unicode="&#xe19;" horiz-adv-x="1249" d="M176 356v766h119v-757q0 -139 75.5 -211t215.5 -72q162 0 255 99.5t93 264.5v676h119v-1122h-103l-6 184h-10q-45 -94 -138.5 -149t-236.5 -55q-168 0 -275.5 92t-107.5 284z" />
<glyph unicode="&#xe1a;" horiz-adv-x="1224" d="M176 381v741h119v-739q0 -145 79 -224t236 -79q162 0 241 79t79 224v739h119v-741q0 -184 -105 -292.5t-334 -108.5q-227 0 -330.5 108.5t-103.5 292.5z" />
<glyph unicode="&#xe1b;" horiz-adv-x="1228" d="M176 381v741h119v-739q0 -145 79 -224t236 -79q162 0 241 79t79 224v1143h119v-1145q0 -184 -105 -292.5t-334 -108.5q-227 0 -330.5 108.5t-103.5 292.5z" />
<glyph unicode="&#xe1c;" horiz-adv-x="1318" d="M188 0v938q0 80 31 124t80 61.5t102 17.5q31 0 67 -7.5t56 -15.5l-16 -92q-43 14 -90 14q-55 0 -85 -26.5t-30 -91.5v-435q0 -66 -1 -139.5t-7 -161.5h8q37 82 75 148.5t71 122.5l169 284h74l170 -284q49 -84 83 -145.5t63 -125.5h8q-6 88 -7 162t-1 139v635h114v-1122 h-102l-361 610h-8l-360 -610h-103z" />
<glyph unicode="&#xe1d;" horiz-adv-x="1323" d="M188 0v938q0 80 31 124t80 61.5t102 17.5q31 0 67 -7.5t56 -15.5l-16 -92q-43 14 -90 14q-55 0 -85 -26.5t-30 -91.5v-435q0 -66 -1 -139.5t-7 -161.5h8q37 82 75 148.5t71 122.5l169 284h74l170 -284q49 -84 83 -145.5t63 -125.5h8q-6 88 -7 162t-1 139v1039h116v-1526 h-104l-361 610h-8l-360 -610h-103z" />
<glyph unicode="&#xe1e;" horiz-adv-x="1409" d="M96 1122h121l102 -602q8 -53 20.5 -145t29.5 -205h8q29 113 58.5 215t47.5 162l176 575h91l176 -575q18 -59 48 -161.5t58 -215.5h8q12 113 24.5 205t22.5 145l105 602h123l-201 -1122h-123l-221 690q-16 51 -31.5 108.5t-29.5 129.5h-9q-14 -72 -30.5 -129.5 t-32.5 -108.5l-219 -690h-121z" />
<glyph unicode="&#xe1f;" horiz-adv-x="1394" d="M96 1122h121l102 -602q4 -25 12.5 -82t18.5 -128.5t19 -139.5h8q20 90 51 192.5t55 184.5l176 575h91l176 -575q25 -82 53.5 -184.5t52.5 -192.5h8q10 109 22.5 202t18.5 148l142 1006h116l-227 -1526h-123l-219 690q-31 92 -61 238h-9q-16 -72 -30.5 -129.5 t-30.5 -108.5l-221 -690h-121z" />
<glyph unicode="&#xe20;" horiz-adv-x="1208" d="M51 6l17 88q33 -14 63 -14q37 0 50.5 21.5t13.5 66.5v248q0 125 50 181t136 77l4 6l-238 90v53q0 82 52.5 154t152 118t238.5 46q125 0 225 -41t158.5 -126t58.5 -212v-762h-119v745q0 154 -91 224.5t-232 70.5q-152 0 -236 -65.5t-84 -159.5l234 -108l-17 -80 q-78 -6 -127 -54.5t-49 -158.5v-258q0 -100 -42 -136t-105 -36q-29 0 -57.5 5t-55.5 17z" />
<glyph unicode="&#xe21;" horiz-adv-x="1249" d="M197 0v1122h118v-676q0 -106 44 -188t123 -129t186 -47q139 0 212.5 71.5t73.5 211.5v757h119v-768q0 -193 -106.5 -283.5t-274.5 -90.5q-141 0 -237.5 57t-141.5 160h-8l-8 -197h-100z" />
<glyph unicode="&#xe22;" horiz-adv-x="1204" d="M152 868q0 113 77.5 191t229.5 78q49 0 97 -7.5t79 -19.5l-21 -94q-23 6 -60.5 13t-78.5 7q-92 0 -148.5 -45t-56.5 -135q0 -82 40 -126t100.5 -61.5t121.5 -17.5h62v-88h-62q-123 0 -188 -56t-65 -171q0 -121 77.5 -187.5t237.5 -66.5q154 0 234.5 66.5t80.5 213.5v760 h119v-747q0 -207 -110.5 -300t-323.5 -93q-229 0 -332.5 94t-103.5 248q0 96 27.5 152t69.5 85t85 41v8q-39 12 -83 40t-74.5 80t-30.5 138z" />
<glyph unicode="&#xe23;" horiz-adv-x="983" d="M94 57l37 99q66 -29 160 -52.5t196 -23.5q127 0 207 50t80 149q0 102 -78 152t-204 93q-123 41 -209 84t-132.5 103.5t-46.5 152.5q0 123 98.5 200t299.5 77q100 0 190 -19.5t137 -46.5v-104q-51 27 -143 48t-188 21q-139 0 -208 -47t-69 -121q0 -63 39 -104t112.5 -72.5 t176.5 -68.5q94 -33 172 -74t124 -102.5t46 -161.5q0 -135 -97.5 -222t-314.5 -87q-117 0 -216 23.5t-169 53.5z" />
<glyph unicode="&#xe24;" horiz-adv-x="1206" d="M147 770v53q0 82 51.5 154t149.5 118t240 46q125 0 224 -41t157.5 -126t58.5 -212v-1163h-117v1146q0 154 -91 224.5t-234 70.5q-147 0 -233.5 -65.5t-86.5 -159.5l234 -108l-13 -80q-80 -6 -136 -49t-56 -152v-227q0 -61 31.5 -89t89.5 -28q51 0 96 16l18 -88 q-35 -14 -67.5 -20t-67.5 -6q-88 0 -152.5 44t-64.5 160v226q0 127 58.5 182t144.5 78v6z" />
<glyph unicode="&#xe25;" horiz-adv-x="1159" d="M111 291q0 172 120.5 262t391.5 106l241 11v100q0 137 -71.5 203.5t-227.5 66.5q-102 0 -194 -26.5t-174 -71.5v117q57 29 156.5 55.5t226.5 26.5q401 0 401 -361v-780h-117v569l-219 -12q-223 -12 -319.5 -73.5t-96.5 -188.5q0 -109 69 -163t185 -54q68 0 123 18l19 -92 q-29 -12 -72 -18t-84 -6q-182 0 -270 85t-88 226z" />
<glyph unicode="&#xe26;" horiz-adv-x="1208" d="M51 6l17 88q33 -14 63 -14q37 0 50.5 21.5t13.5 66.5v248q0 125 50 181t136 77l4 6l-238 90v53q0 82 52.5 154t152 118t238.5 46q125 0 225 -41t158.5 -126t58.5 -212v-1163h-119v1146q0 154 -91 224.5t-232 70.5q-152 0 -236 -65.5t-84 -159.5l234 -108l-17 -80 q-78 -6 -127 -54.5t-49 -158.5v-258q0 -100 -42 -136t-105 -36q-29 0 -57.5 5t-55.5 17z" />
<glyph unicode="&#xe27;" horiz-adv-x="999" d="M86 983v102q57 31 129 43.5t141 12.5q266 0 385 -150.5t119 -425.5q0 -285 -121 -435t-342 -150q-82 0 -155.5 17t-151.5 58l41 95q49 -29 110.5 -49.5t137.5 -20.5q164 0 261 119.5t97 365.5q0 240 -97 357.5t-304 117.5q-63 0 -130 -14t-120 -43z" />
<glyph unicode="&#xe28;" horiz-adv-x="1273" d="M176 0v737q0 197 112.5 300.5t334.5 103.5q197 0 295 -88q49 16 83.5 51t34.5 92h117q0 -78 -47 -130t-119 -79q41 -43 61.5 -106.5t20.5 -143.5v-737h-119v733q0 152 -86 229.5t-241 77.5q-156 0 -242 -77.5t-86 -229.5v-264l6 -2q45 76 115.5 110.5t191.5 34.5h88v-100 h-86q-166 0 -240.5 -72.5t-74.5 -191.5v-248h-119z" />
<glyph unicode="&#xe29;" horiz-adv-x="1298" d="M176 391v731h119v-729q0 -154 81 -233.5t251 -79.5t250.5 80t80.5 233v103h-217q-102 0 -143 41t-41 102t25 98l96 -20q-12 -25 -12 -58q0 -31 19.5 -50t64.5 -19h208v532h119v-532h131v-94h-131v-105q0 -184 -105 -297.5t-345 -113.5t-345.5 113.5t-105.5 297.5z" />
<glyph unicode="&#xe2a;" horiz-adv-x="1159" d="M111 295q0 170 123.5 259t388.5 105l241 11v100q0 137 -71.5 203.5t-227.5 66.5q-102 0 -194 -26.5t-174 -71.5v117q57 29 155.5 55.5t220.5 26.5q186 0 277 -82q43 18 71.5 51t28.5 86h119q0 -74 -43 -125t-108 -78q33 -37 48 -91t15 -122v-780h-117v569l-219 -12 q-219 -12 -317.5 -73.5t-98.5 -186.5q0 -113 69 -166t185 -53q68 0 123 18l21 -92q-62 -24 -164 -24q-178 0 -265 86t-87 229z" />
<glyph unicode="&#xe2b;" horiz-adv-x="1189" d="M197 0v1122h118v-559h7l559 559h143v-6l-344 -340q184 -10 270 -110.5t86 -276.5v-389h-118v385q0 143 -74 222t-254 81l-275 -270v-418h-118z" />
<glyph unicode="&#xe2c;" horiz-adv-x="1343" d="M96 1122h119l88 -624q8 -61 19.5 -147.5t17.5 -192.5h8q23 74 41.5 128t37.5 107t44 119l154 412h96l156 -412q25 -66 44 -118t37.5 -107.5t40.5 -128.5h9q4 84 15 174t26 166l53 338q25 152 -32.5 219t-205.5 67h-94v90h172q139 0 196.5 60.5t57.5 173.5v16h119v-16 q0 -121 -50.5 -193.5t-164.5 -101.5v-8q84 -39 107.5 -118t9.5 -169l-140 -856h-119l-204 553q-25 63 -43.5 118.5t-34.5 123.5h-8q-16 -72 -34 -129.5t-38 -112.5l-209 -553h-119z" />
<glyph unicode="&#xe2d;" horiz-adv-x="1165" d="M135 459q0 37 2 84t6 84h398v-95h-289v-73q0 -205 72.5 -293t232.5 -88q111 0 188.5 44t118.5 147.5t41 285.5q0 236 -84 360.5t-293 124.5q-98 0 -190 -25.5t-170 -68.5v115q59 31 158.5 55.5t214.5 24.5q174 0 280.5 -71t154.5 -203t48 -314q0 -279 -106.5 -426 t-360.5 -147q-217 0 -319.5 114.5t-102.5 364.5z" />
<glyph unicode="&#xe2e;" horiz-adv-x="1136" d="M135 459q0 37 2 84t6 84h398v-95h-289v-73q0 -205 72.5 -293t232.5 -88q111 0 188.5 44t118.5 147.5t41 285.5q0 236 -84 360.5t-293 124.5q-98 0 -190 -24.5t-170 -69.5v115q59 31 157.5 55.5t215.5 24.5q92 0 166.5 -21.5t130.5 -66.5q49 18 82.5 53t33.5 90h119 q0 -78 -48 -130t-120 -79q63 -70 91 -181.5t28 -252.5q0 -279 -106.5 -426t-360.5 -147q-217 0 -319.5 114.5t-102.5 364.5z" />
<glyph unicode="&#xe2f;" horiz-adv-x="1056" d="M51 840q0 143 80 222t213 79q29 0 60.5 -4t66.5 -19l-20 -94q-23 8 -46.5 12t-42.5 4q-82 0 -137 -49t-55 -162q0 -119 66.5 -183t197.5 -64q147 0 214 75.5t67 223.5v241h116v-1124h-116v616q-82 -129 -299 -129q-172 0 -268.5 93.5t-96.5 261.5z" />
<glyph unicode="&#xe30;" horiz-adv-x="688" d="M90 295q0 27 8 55.5t19 46.5l100 -16q-4 -12 -9 -30.5t-5 -35.5q0 -31 16.5 -48t59.5 -17h319v-96h-324q-98 0 -141 43t-43 98zM90 868q0 27 8 55.5t19 47.5l100 -17q-4 -12 -9 -30.5t-5 -34.5q0 -31 16.5 -48.5t59.5 -17.5h319v-96h-324q-98 0 -141 43t-43 98z" />
<glyph unicode="&#xe31;" d="M-657 1442q0 25 7 54.5t19 47.5l101 -16q-4 -10 -9.5 -29.5t-5.5 -36.5q0 -29 17.5 -47t60.5 -18h545v-94h-553q-98 0 -140 40.5t-42 98.5z" />
<glyph unicode="&#xe32;" horiz-adv-x="833" d="M41 965v112q45 20 121 42t174 22q156 0 237.5 -74t81.5 -227v-840h-116v815q0 115 -53.5 170t-174.5 55q-68 0 -138.5 -21.5t-131.5 -53.5z" />
<glyph unicode="&#xe33;" horiz-adv-x="833" d="M-520 1436q0 86 55 130t143 44t144.5 -44t56.5 -130t-56.5 -130t-144.5 -44t-143 44t-55 130zM-434 1436q0 -47 29.5 -76t82.5 -29t84 29t31 76t-30.5 75.5t-84.5 28.5q-53 0 -82.5 -28.5t-29.5 -75.5zM41 965v112q45 20 121 42t174 22q156 0 237.5 -74t81.5 -227v-840 h-116v815q0 115 -53.5 170t-174.5 55q-68 0 -138.5 -21.5t-131.5 -53.5z" />
<glyph unicode="&#xe34;" d="M-1036 1303v53l102 43h737v-96h-839z" />
<glyph unicode="&#xe35;" d="M-1036 1303v53l102 43h627v182h110v-278h-839z" />
<glyph unicode="&#xe36;" d="M-1036 1303v53l102 43h438q-12 27 -12 53q0 72 46 111t118 39q76 0 122 -41t46 -111q0 -68 -45 -107.5t-121 -39.5h-694zM-428 1452q0 -35 23.5 -58.5t64.5 -23.5q39 0 62.5 22.5t23.5 57.5q0 37 -24.5 59.5t-63.5 22.5t-62.5 -22.5t-23.5 -57.5z" />
<glyph unicode="&#xe37;" d="M-1036 1303v53l102 43h404v168h100v-168h135v168h98v-264h-839z" />
<glyph unicode="&#xe38;" d="M-401 -158q25 10 50 13.5t44 3.5q53 0 80.5 -27t27.5 -72v-295h-108v252q0 49 -41 50q-10 0 -22.5 -2.5t-22.5 -6.5z" />
<glyph unicode="&#xe39;" d="M-737 -152q20 6 42.5 8.5t35.5 2.5q106 0 106 -101v-98q0 -49 29.5 -81t95.5 -32t95.5 32t29.5 81v193h106v-193q0 -94 -57 -146.5t-172 -52.5t-173 51.5t-58 141.5v74q0 53 -68 34z" />
<glyph unicode="&#xe3a;" d="M-369 -246q0 102 105 103q104 0 104 -103q0 -102 -104 -102t-105 102z" />
<glyph unicode="&#xe3f;" horiz-adv-x="1181" d="M184 78v1304h342v174h88v-176q211 -8 312.5 -83.5t101.5 -227.5q0 -119 -65.5 -198.5t-192.5 -102.5v-6q143 -23 221 -99.5t78 -216.5q0 -190 -126 -279t-329 -89v-197h-88v197h-342zM299 178h227v533h-227v-533zM299 811h227v469h-227v-469zM614 178q166 4 249 74 t83 199q0 248 -332 260v-533zM614 811q156 8 223.5 70.5t67.5 175.5q0 109 -69.5 161t-221.5 60v-467z" />
<glyph unicode="&#xe40;" horiz-adv-x="569" d="M209 160v962h117v-946q0 -98 92 -98q43 0 84 18l18 -90q-31 -14 -64.5 -20t-62.5 -6q-70 0 -127 38.5t-57 141.5z" />
<glyph unicode="&#xe41;" horiz-adv-x="1101" d="M209 160v962h117v-946q0 -98 92 -98q43 0 84 18l18 -90q-31 -14 -64.5 -20t-62.5 -6q-70 0 -127 38.5t-57 141.5zM741 160v962h117v-946q0 -98 92 -98q43 0 84 18l18 -90q-31 -14 -64.5 -20t-62.5 -6q-70 0 -127 38.5t-57 141.5z" />
<glyph unicode="&#xe42;" horiz-adv-x="585" d="M31 1573v49l108 49h520v-98h-413l-2 -8q49 -33 76.5 -90.5t27.5 -155.5v-1143q0 -98 92 -98q43 0 84 18l19 -90q-31 -14 -64.5 -20t-62.5 -6q-72 0 -128.5 38.5t-56.5 141.5v1190q0 113 -53 168t-147 55z" />
<glyph unicode="&#xe43;" horiz-adv-x="561" d="M51 1532v106q27 14 86.5 29.5t128.5 15.5q117 0 187.5 -55t70.5 -166q0 -78 -31.5 -137t-76.5 -117q-39 -49 -63.5 -81.5t-37 -65.5t-12.5 -82v-803q0 -98 90 -98q49 0 86 18l21 -90q-31 -14 -64.5 -20t-62.5 -6q-72 0 -129.5 38.5t-57.5 141.5v827q0 55 12.5 92t40 74 t68.5 92q49 63 75 106.5t26 98.5q0 70 -42 102.5t-112 32.5q-61 0 -115.5 -17.5t-87.5 -35.5z" />
<glyph unicode="&#xe44;" horiz-adv-x="565" d="M-14 1573l30 98h494v-94q-86 -4 -135 -56.5t-49 -170.5v-1174q0 -98 92 -98q43 0 84 18l18 -90q-31 -14 -64.5 -20t-62.5 -6q-70 0 -127 38.5t-57 141.5v1159q0 115 26.5 164t71.5 82l-2 8h-319z" />
<glyph unicode="&#xe45;" horiz-adv-x="833" d="M41 965v112q45 20 121 42t174 22q156 0 237.5 -74t81.5 -227v-1239h-116v1214q0 115 -53.5 170t-174.5 55q-68 0 -138.5 -21.5t-131.5 -53.5z" />
<glyph unicode="&#xe46;" horiz-adv-x="1206" d="M172 803q0 180 65.5 259t172.5 79q68 0 122 -32t74 -89h4q45 121 201 121q90 0 153.5 -52.5t63.5 -179.5v-1310h-115v1288q0 82 -34.5 117.5t-94.5 35.5q-129 0 -129 -153v-86h-102v86q0 76 -34 114.5t-93 38.5q-68 0 -103.5 -54t-35.5 -179q0 -143 36.5 -198.5 t112.5 -55.5q39 0 84 16l25 -90q-33 -16 -63.5 -21t-63.5 -5q-129 0 -187.5 91t-58.5 259z" />
<glyph unicode="&#xe47;" d="M-903 1499q0 106 64.5 162.5t154.5 56.5h475v-88h-453q-59 0 -100 -33.5t-41 -105.5q0 -55 31 -89t90 -34l125 111h37q12 -53 43 -85t84 -32q43 0 67.5 24.5t24.5 65.5v27h92v-29q0 -88 -49 -131t-123 -43q-63 0 -106 27.5t-70 78.5l-111 -100q-106 0 -170.5 56.5 t-64.5 160.5z" />
<glyph unicode="&#xe48;" d="M-315 1303v409h116v-409h-116z" />
<glyph unicode="&#xe49;" d="M-725 1303v61q80 16 144.5 55t64.5 105q0 37 -21.5 59.5t-64.5 22.5q-25 0 -49.5 -10.5t-44.5 -18.5l-29 78q41 29 82 37t70 8q78 0 120.5 -42t42.5 -112q0 -45 -22.5 -84t-52.5 -65h354v-94h-594z" />
<glyph unicode="&#xe4a;" d="M-850 1489q0 94 51 146.5t137 60.5l113 -74l111 74q94 -16 143 -65.5t49 -123.5q0 -72 -49 -118h184v-86h-331v57q41 14 67.5 46t26.5 79q0 59 -31 85.5t-63 35.5l-99 -62h-16l-98 62q-33 -4 -63 -29t-30 -90q0 -57 31 -88t80 -31q25 0 49 10l19 -69q-29 -19 -88 -19 q-88 0 -140.5 52.5t-52.5 146.5z" />
<glyph unicode="&#xe4b;" d="M-631 1458v90h168v164h103v-164h167v-90h-167v-155h-103v155h-168z" />
<glyph unicode="&#xe4c;" d="M-532 1376q0 57 38.5 97t133.5 40h264v-96h-236q-90 0 -90 -65q0 -33 21 -64l-105 -18q-27 43 -26 106z" />
<glyph unicode="&#xe4d;" d="M-520 1436q0 86 55 130t143 44t144.5 -44t56.5 -130t-56.5 -130t-144.5 -44t-143 44t-55 130zM-434 1436q0 -47 29.5 -76t82.5 -29t84 29t31 76t-30.5 75.5t-84.5 28.5q-53 0 -82.5 -28.5t-29.5 -75.5z" />
<glyph unicode="&#xe4e;" d="M-532 1339q0 66 43 96.5t96 30.5q41 0 69 -16q-8 23 -8 45q0 55 42 83t97 28q20 0 47 -4.5t48 -12.5v-73q-20 4 -39 6t-31 2q-82 0 -82 -70q0 -12 4 -26.5t13 -26.5l-54 -39q-39 29 -78 29q-41 0 -60 -20.5t-19 -51.5q0 -12 5 -26.5t13 -28.5l-82 -15q-10 16 -17 42 t-7 48z" />
<glyph unicode="&#xe4f;" horiz-adv-x="1189" d="M133 467q0 475 461 475q463 0 463 -475q0 -225 -116 -351t-347 -126q-229 0 -345 126t-116 351zM248 467q0 -184 87 -282.5t259 -98.5t260 98.5t88 282.5q0 193 -88 285t-260 92t-259 -92.5t-87 -284.5zM418 467q0 201 176 201t176 -201q0 -92 -43 -148.5t-133 -56.5 t-133 56.5t-43 148.5z" />
<glyph unicode="&#xe50;" horiz-adv-x="1159" d="M131 467q0 238 114.5 360.5t334.5 122.5q219 0 333.5 -122.5t114.5 -360.5q0 -227 -114.5 -357t-333.5 -130t-334 130t-115 357zM250 467q0 -184 84 -285.5t246 -101.5q160 0 244.5 101.5t84.5 285.5q0 193 -85 288t-244 95q-162 0 -246 -95.5t-84 -287.5z" />
<glyph unicode="&#xe51;" horiz-adv-x="1110" d="M119 594q0 176 112.5 266t305.5 90q225 0 333.5 -118.5t108.5 -348.5q0 -145 -44 -258.5t-138 -179t-244 -65.5q-92 0 -147 20v98q20 -8 54 -14t75 -6q174 0 249.5 108.5t75.5 292.5q0 201 -84 286t-241 85q-139 0 -219 -64.5t-80 -191.5q0 -100 49 -156.5t133 -56.5 q39 0 65 8l17 -90q-20 -12 -47 -17.5t-56 -5.5q-131 0 -204.5 87.5t-73.5 230.5z" />
<glyph unicode="&#xe52;" horiz-adv-x="1261" d="M147 420v776h113v-766q0 -98 38 -178t124 -126t227 -46t220 46t111 126t32 178v289q0 72 -27 102.5t-72 30.5q-55 0 -76.5 -39t-25.5 -100h-78q-4 66 -27.5 102.5t-76.5 36.5q-100 0 -101 -164q0 -80 27 -124t92 -44q16 0 34.5 5t35.5 12l22 -84q-51 -27 -104 -27 q-115 0 -166 73.5t-51 192.5q0 131 53 192.5t139 61.5q59 0 101.5 -28.5t58.5 -81.5h6q16 55 60.5 82.5t101.5 27.5q74 0 131 -47t57 -166v-313q0 -131 -47 -230.5t-151.5 -154.5t-278.5 -55q-260 0 -381 121.5t-121 318.5z" />
<glyph unicode="&#xe53;" horiz-adv-x="1136" d="M131 496q0 164 35 264t95.5 145t135.5 45q61 0 109.5 -26.5t66.5 -89.5h9q18 63 70.5 89.5t117.5 26.5q96 0 160.5 -57t64.5 -184v-709h-116v709q0 82 -38 112.5t-91 30.5q-45 0 -85 -27.5t-51 -107.5h-77q-8 80 -45 107.5t-78 27.5q-68 0 -117 -80t-49 -272 q0 -213 49 -318.5t162 -105.5q37 0 76 14l14 -90q-47 -20 -119 -20q-160 0 -229.5 137t-69.5 379z" />
<glyph unicode="&#xe54;" horiz-adv-x="1118" d="M131 463q0 227 92 353t289 126h127q119 0 155.5 41t36.5 135v78h115v-86q0 -131 -63.5 -199.5t-210.5 -68.5h-135q-145 0 -217 -91.5t-72 -289.5q0 -197 71.5 -280t225.5 -83h166q-84 78 -84 217q0 127 56 186.5t144 59.5q53 0 99 -20l-33 -82q-12 4 -26.5 6t-22.5 2 q-49 0 -80 -40t-31 -120q0 -98 47 -155.5t117 -57.5h98v-94h-463q-201 0 -301 108.5t-100 354.5z" />
<glyph unicode="&#xe55;" horiz-adv-x="1118" d="M131 473q0 215 79 319.5t200 133.5q-25 18 -41.5 49t-16.5 72q0 74 48.5 115.5t127.5 41.5q82 0 129.5 -44t47.5 -113q0 -68 -43 -109q104 6 141 46t37 140v72h106v-84q0 -139 -69.5 -205.5t-231.5 -66.5h-117q-281 0 -280 -373q0 -201 70.5 -285t226.5 -84h162 q-80 84 -80 217q0 127 57 185.5t143 58.5q57 0 99 -18l-33 -84q-12 4 -26.5 6t-22.5 2q-49 0 -80 -40t-31 -122q0 -94 47 -151.5t117 -57.5h98v-94h-463q-205 0 -303 111.5t-98 361.5zM432 1040q0 -39 23.5 -66.5t72.5 -27.5t74 27.5t25 66.5q0 41 -24.5 68t-74.5 27 q-49 0 -72.5 -27t-23.5 -68z" />
<glyph unicode="&#xe56;" horiz-adv-x="1081" d="M70 1196h110l103 -362q47 63 118.5 89.5t155.5 26.5q199 0 296 -125t97 -362q0 -250 -107 -366.5t-308 -116.5q-113 0 -199 34.5t-152 112.5l78 74q49 -55 111.5 -89t158.5 -34q154 0 228 96t74 297q0 197 -72 289t-217 92q-98 0 -164 -41t-94 -129h-76z" />
<glyph unicode="&#xe57;" horiz-adv-x="1462" d="M131 504q0 180 37 276.5t96.5 133t122.5 36.5t105.5 -26.5t62.5 -89.5h6q20 66 71.5 91t112.5 25q86 0 145.5 -50t59.5 -165v-635q106 0 174 54.5t68 193.5v848h115v-852q0 -129 -52.5 -203.5t-138.5 -107.5t-186 -33h-94v717q0 70 -31 102.5t-84 32.5t-84 -30.5 t-41 -104.5h-78q-10 74 -39.5 104.5t-77.5 30.5q-68 0 -110.5 -76t-42.5 -268q0 -225 48 -328.5t163 -103.5q39 0 76 16l14 -92q-47 -20 -113 -20q-164 0 -234.5 136t-70.5 388z" />
<glyph unicode="&#xe58;" horiz-adv-x="1159" d="M131 457q0 145 39 254.5t128 169t239 59.5h127q82 0 124.5 13.5t57 52t14.5 112.5v78h113v-90q0 -143 -62.5 -204.5t-208.5 -61.5h-149q-172 0 -239.5 -98.5t-67.5 -278.5q0 -184 50 -267t105 -94l152 181h74q4 -106 41 -154.5t108 -48.5q78 0 115 52t37 136 q0 90 -35 136.5t-76 72.5l72 84q74 -43 112.5 -112.5t38.5 -174.5q0 -133 -65.5 -213.5t-188.5 -80.5q-96 0 -151 48t-74 136l-139 -174q-119 0 -205 111.5t-86 355.5z" />
<glyph unicode="&#xe59;" horiz-adv-x="1024" d="M131 487q0 172 34 273.5t97.5 145.5t151.5 44q66 0 105.5 -22.5t66.5 -69.5q14 45 48 68.5t93 23.5h57q51 0 69.5 24.5t18.5 82.5v139h111v-147q0 -92 -39 -140.5t-127 -48.5h-67q-61 0 -87 -41t9 -123l291 -696h-123l-303 743q-20 51 -48 80t-77 29q-74 0 -119 -80 t-45 -285q0 -186 46 -298.5t163 -112.5q16 0 36.5 3t38.5 11l13 -92q-50 -18 -111 -18q-164 0 -233.5 137t-69.5 370z" />
<glyph unicode="&#xe5a;" horiz-adv-x="1544" d="M51 840q0 143 80 222t213 79q29 0 60.5 -4t66.5 -19l-20 -94q-23 8 -46.5 12t-39.5 4q-84 0 -139.5 -49t-55.5 -162q0 -119 66.5 -183t199.5 -64q145 0 212 75.5t67 212.5v252h116v-499q18 -8 45 -13.5t58 -5.5q123 0 196.5 66.5t73.5 216.5v235h119v-1124h-119v637 q-39 -68 -108.5 -99.5t-151.5 -31.5q-57 0 -113 22v-528h-116v625q-41 -72 -117 -105t-180 -33q-176 0 -271.5 93.5t-95.5 261.5z" />
<glyph unicode="&#xe5b;" horiz-adv-x="1691" d="M98 518q0 88 30 162t93.5 117t163.5 43q123 0 190.5 -62.5t67.5 -167.5q0 -45 -12.5 -86t-32.5 -69l-86 45q12 18 20.5 42.5t8.5 55.5q0 70 -43 108.5t-113 38.5q-92 0 -133 -63.5t-41 -157.5q0 -139 71.5 -206.5t188.5 -67.5q106 0 178 55t107 148.5t35 205.5h77 l131 -266l74 250h66l94 -233l74 217h57l16 -49q31 -88 60.5 -132.5t103.5 -44.5q41 0 66 13v-82q-16 -6 -35 -11.5t-43 -5.5q-141 0 -203 170l-63 -200h-58l-98 243l-74 -264h-61l-115 244q-10 -55 -33.5 -116.5t-69.5 -116t-118 -88t-176 -33.5q-168 0 -266.5 95t-98.5 269 z" />
<glyph unicode="&#x2000;" horiz-adv-x="1019" />
<glyph unicode="&#x2001;" horiz-adv-x="2038" />
<glyph unicode="&#x2002;" horiz-adv-x="1019" />
<glyph unicode="&#x2003;" horiz-adv-x="2038" />
<glyph unicode="&#x2004;" horiz-adv-x="679" />
<glyph unicode="&#x2005;" horiz-adv-x="509" />
<glyph unicode="&#x2006;" horiz-adv-x="339" />
<glyph unicode="&#x2007;" horiz-adv-x="339" />
<glyph unicode="&#x2008;" horiz-adv-x="254" />
<glyph unicode="&#x2009;" horiz-adv-x="407" />
<glyph unicode="&#x200a;" horiz-adv-x="113" />
<glyph unicode="&#x200b;" />
<glyph unicode="&#x200c;" d="M-43 -272v1558h86v-1558h-86z" />
<glyph unicode="&#x200d;" d="M-223 1024l168 168l-168 166l53 55l170 -170l170 170l53 -55l-168 -166l168 -168l-53 -55l-127 127v-1368h-86v1368l-127 -127z" />
<glyph unicode="&#x2010;" horiz-adv-x="659" d="M82 500v106h496v-106h-496z" />
<glyph unicode="&#x2011;" horiz-adv-x="659" d="M82 500v106h496v-106h-496z" />
<glyph unicode="&#x2012;" horiz-adv-x="659" d="M82 500v106h496v-106h-496z" />
<glyph unicode="&#x2013;" horiz-adv-x="1187" d="M82 500v106h1024v-106h-1024z" />
<glyph unicode="&#x2014;" horiz-adv-x="2211" d="M82 500v106h2048v-106h-2048z" />
<glyph unicode="&#x202f;" horiz-adv-x="407" />
<glyph unicode="&#x205f;" horiz-adv-x="509" />
<glyph unicode="&#x25cc;" horiz-adv-x="1216" d="M98 596q0 23 16.5 38t37.5 15q20 0 36.5 -15.5t16.5 -37.5q0 -23 -16.5 -38t-36.5 -15t-37 15t-17 38zM135 424q0 23 16.5 38t36.5 15t37 -15.5t17 -37.5q0 -23 -17 -38t-37 -15t-36.5 15t-16.5 38zM135 768q0 23 16.5 38t36.5 15t37 -15t17 -38t-17 -38t-37 -15 t-36.5 15t-16.5 38zM231 272q0 23 15.5 38.5t38.5 15.5t38 -15.5t15 -38.5t-15 -38t-38 -15t-38.5 15.5t-15.5 37.5zM231 920q0 23 15.5 38t38.5 15t38 -15.5t15 -37.5q0 -23 -15 -38.5t-38 -15.5t-38.5 15.5t-15.5 38.5zM383 176q0 20 15.5 36.5t37.5 16.5q23 0 38 -16 t15 -37q0 -20 -15 -36.5t-38 -16.5t-38 16.5t-15 36.5zM383 1016q0 20 15.5 36.5t37.5 16.5q23 0 38 -16.5t15 -36.5t-15 -36.5t-38 -16.5t-38 16t-15 37zM555 139q0 20 15.5 37t37.5 17q23 0 38.5 -16.5t15.5 -37.5q0 -20 -15.5 -36.5t-38.5 -16.5t-38 16.5t-15 36.5z M555 1053q0 20 15.5 36.5t37.5 16.5q23 0 38.5 -16.5t15.5 -36.5t-15.5 -37t-38.5 -17t-38 16.5t-15 37.5zM727 176q0 20 15.5 36.5t37.5 16.5q23 0 38.5 -16t15.5 -37q0 -20 -15.5 -36.5t-38.5 -16.5t-38 16.5t-15 36.5zM727 1016q0 20 15.5 36.5t37.5 16.5 q23 0 38.5 -16.5t15.5 -36.5t-15.5 -36.5t-38.5 -16.5t-38 16t-15 37zM879 272q0 23 15 38.5t38 15.5t38 -15.5t15 -38.5t-15 -38t-38 -15t-38 15.5t-15 37.5zM879 920q0 23 15 38t38 15t38 -15.5t15 -37.5q0 -23 -15 -38.5t-38 -15.5t-38 15.5t-15 38.5zM975 424 q0 23 16.5 38t36.5 15t36.5 -15.5t16.5 -37.5q0 -23 -16.5 -38t-36.5 -15t-36.5 15t-16.5 38zM975 768q0 23 16.5 38t36.5 15t36.5 -15t16.5 -38t-16.5 -38t-36.5 -15t-36.5 15t-16.5 38zM1012 596q0 23 16 38t37 15q20 0 36.5 -15.5t16.5 -37.5q0 -23 -16.5 -38t-36.5 -15 t-36.5 15t-16.5 38z" />
<glyph unicode="&#x25fc;" horiz-adv-x="1024" d="M0 0z" />
<glyph horiz-adv-x="1206" d="M147 770v53q0 82 51.5 154t149.5 118t240 46q125 0 224 -41t157.5 -126t58.5 -212v-1106h-117v1089q0 154 -91 224.5t-234 70.5q-147 0 -233.5 -65.5t-86.5 -159.5l234 -108l-13 -80q-80 -6 -136 -49t-56 -152v-227q0 -61 31.5 -89t89.5 -28q51 0 96 16l18 -88 q-35 -14 -67.5 -20t-67.5 -6q-88 0 -152.5 44t-64.5 160v226q0 127 58.5 182t144.5 78v6z" />
<glyph horiz-adv-x="1208" d="M51 6l17 88q33 -14 63 -14q37 0 50.5 21.5t13.5 66.5v248q0 125 50 181t136 77l4 6l-238 90v53q0 82 52.5 154t152 118t238.5 46q125 0 225 -41t158.5 -126t58.5 -212v-1106h-119v1089q0 154 -91 224.5t-232 70.5q-152 0 -236 -65.5t-84 -159.5l234 -108l-17 -80 q-78 -6 -127 -54.5t-49 -158.5v-258q0 -100 -42 -136t-105 -36q-29 0 -57.5 5t-55.5 17z" />
<glyph horiz-adv-x="1208" d="M51 6l17 88q14 -4 30.5 -8t32.5 -4q37 0 50.5 20.5t13.5 65.5v248q0 125 50 181t136 77l4 6l-238 90v53q0 82 52.5 154t152 118t238.5 46q125 0 225 -41t158.5 -126t58.5 -212v-1110h-94q-41 41 -104.5 80t-139.5 65.5t-155 26.5q-106 0 -156.5 -45t-50.5 -109v-18h-119 v33q0 102 73.5 169.5t225.5 67.5q113 0 216 -39t185 -106v968q0 154 -91 224.5t-234 70.5q-150 0 -234 -65.5t-84 -159.5l234 -108l-17 -80q-78 -6 -127 -54.5t-49 -158.5v-258q0 -98 -43 -135t-106 -37q-55 0 -111 22z" />
<glyph horiz-adv-x="1208" d="M51 6l17 88q14 -4 30.5 -8t32.5 -4q37 0 50.5 20.5t13.5 65.5v248q0 125 50 181t136 77l4 6l-238 90v53q0 82 52.5 154t152 118t238.5 46q125 0 225 -41t158.5 -126t58.5 -212v-1110h-106l-164 139l-148 -139h-32q-33 63 -79 109t-114 46q-61 0 -89 -39.5t-28 -95.5v-20 h-112v41q0 98 60.5 153.5t152.5 55.5q90 0 147.5 -43t89.5 -101l150 136l153 -125v976q0 154 -91 224.5t-234 70.5q-150 0 -234 -65.5t-84 -159.5l234 -108l-17 -80q-78 -6 -127 -54.5t-49 -158.5v-258q0 -98 -43 -135t-106 -37q-55 0 -111 22z" />
<glyph horiz-adv-x="1814" d="M147 770v53q0 88 49.5 160t142.5 115t222 43q111 0 204 -39t149.5 -122t56.5 -218v-408q0 -143 73.5 -208.5t198.5 -65.5q123 0 200 65.5t77 208.5v768h116v-770q0 -180 -100 -276t-293 -96t-291 96t-98 276v393q0 111 -39 175.5t-106.5 92t-151.5 27.5q-129 0 -209 -60 t-82 -165l234 -108l-13 -80q-80 -6 -136 -54.5t-56 -156.5v-217q0 -61 31.5 -89t89.5 -28q51 0 96 16l18 -88q-35 -14 -67.5 -20t-67.5 -6q-88 0 -152.5 44t-64.5 160v226q0 127 58.5 182t144.5 78v6z" />
<glyph horiz-adv-x="1105" d="M82 938v115q57 33 155.5 60.5t213.5 27.5q207 0 307 -94q57 14 98 50t41 99h119q0 -86 -55.5 -140.5t-139.5 -76.5q57 -70 83 -174.5t26 -243.5q0 -289 -119 -425t-381 -136h-115v532h-151v97h266v-531h29q106 0 184 44t121 145.5t43 277.5q0 258 -86 366.5t-287 108.5 q-94 0 -183 -26.5t-169 -75.5z" />
<glyph horiz-adv-x="1314" d="M96 1122h119l80 -604q10 -86 19.5 -169t17.5 -185h8q25 70 52.5 143.5t70.5 179.5l141 353h94l150 -353q29 -72 61.5 -155.5t67.5 -181.5h10q8 115 22.5 201.5t26.5 162.5l33 223q18 123 -17.5 175.5t-160.5 52.5h-98v88h174q102 0 141 32.5t41 110.5h117q2 -90 -44 -141 t-132 -64v-8q66 -27 85 -85t5 -144l-121 -754h-121l-201 492q-25 61 -45 120.5t-35 112.5h-8q-14 -53 -34.5 -112.5t-45.5 -120.5l-200 -492h-123z" />
<glyph d="M-1384 -182h1138v-97h-1138v97z" />
<glyph d="M-979 1442q0 25 8 54.5t17 47.5l102 -16q-6 -10 -9 -29.5t-3 -36.5q0 -29 17.5 -47t60.5 -18h356v-94h-365q-98 0 -141 40.5t-43 98.5z" />
<glyph d="M-309 1712v311h112v-311h-112z" />
<glyph d="M-680 1303v409h119v-409h-119z" />
<glyph d="M-479 1991q33 18 69.5 25t63.5 7q53 0 91 -28.5t38 -85.5q0 -29 -9.5 -56.5t-33.5 -48.5h250v-92h-461v53q70 12 113 45t43 78q0 55 -60 56q-20 0 -39.5 -7.5t-36.5 -15.5z" />
<glyph d="M-938 1655q41 29 83 37t71 8q76 0 121 -43t45 -113q0 -96 -87 -147h273v-94h-502v61q78 16 141.5 55t63.5 105q0 37 -20.5 59.5t-63.5 22.5q-23 0 -48.5 -10.5t-45.5 -18.5z" />
<glyph d="M-557 1864q0 72 45 115.5t123 48.5l100 -70l96 70q68 -6 114 -42t46 -98q0 -63 -39 -98h162v-78h-295v53q37 10 59.5 37t22.5 64t-20.5 58.5t-49.5 27.5l-90 -64h-12l-94 66q-31 -4 -54.5 -25.5t-23.5 -64.5q0 -37 21.5 -62.5t64.5 -25.5q23 0 41 6l16 -66 q-28 -14 -73 -14q-74 0 -117 46t-43 116z" />
<glyph d="M-1073 1489q0 94 48 146.5t128 60.5l98 -74l99 74q84 -14 132 -62.5t48 -126.5q0 -70 -41 -116h151v-88h-295v57q39 14 65 45t26 82q0 55 -29 85t-66 38l-82 -62h-16l-82 62q-33 -4 -62.5 -33t-29.5 -88q0 -53 27.5 -87t76.5 -34q27 0 54 10l16 -69q-29 -19 -82 -19 q-86 0 -135 52.5t-49 146.5z" />
<glyph d="M-426 1827v86h119v115h102v-115h119v-86h-119v-115h-102v115h-119z" />
<glyph d="M-451 1782q0 57 39 98t133 41h254v-94h-225q-90 0 -90 -68q0 -14 5 -30.5t13 -32.5l-102 -19q-14 20 -20.5 48t-6.5 57z" />
<glyph d="M-893 1348q0 55 38 95t132 40h293v-94h-262q-90 0 -90 -68q0 -31 16 -64l-102 -16q-12 18 -18.5 47t-6.5 60z" />
<glyph d="M-1069 1495q0 106 63.5 161.5t149.5 55.5h426v-86h-406q-57 0 -95 -33.5t-38 -105.5q0 -55 30 -89t87 -34l96 111h41q23 -119 109 -119t86 92v27h90v-29q0 -90 -46 -133t-114 -43q-57 0 -98 27.5t-66 78.5l-84 -98q-109 0 -170 55.5t-61 161.5z" />
<glyph d="M-1112 1303v53l102 43h578v-96h-680z" />
<glyph d="M-1112 1303v53l102 41h467v153h111v-247h-680z" />
<glyph d="M-1110 1303v53l102 41h299q-12 27 -12 57q0 72 47 112t119 40q76 0 122 -41t46 -113q0 -70 -46 -109.5t-120 -39.5h-557zM-643 1454q0 -37 23.5 -60.5t66.5 -23.5q39 0 62.5 22.5t23.5 61.5q0 37 -24.5 59.5t-63.5 22.5t-63.5 -22.5t-24.5 -59.5z" />
<glyph d="M-1112 1303v53l102 41h260v168h99v-168h123v168h98v-262h-682z" />
<glyph d="M-520 1436q0 86 55 130t143 44t144.5 -44t56.5 -130t-56.5 -130t-144.5 -44t-143 44t-55 130zM-434 1436q0 -47 29.5 -76t82.5 -29t84 29t31 76t-30.5 75.5t-84.5 28.5q-53 0 -82.5 -28.5t-29.5 -75.5zM-375 1722v311h112v-311h-112z" />
<glyph d="M-545 2001q33 18 69.5 25t63.5 7q53 0 91 -28.5t38 -85.5q0 -29 -9.5 -56.5t-33.5 -48.5h250v-92h-461v53q70 12 113 45t43 78q0 55 -60 56q-20 0 -39.5 -7.5t-36.5 -15.5zM-520 1436q0 86 55 130t143 44t144.5 -44t56.5 -130t-56.5 -130t-144.5 -44t-143 44t-55 130z M-434 1436q0 -47 29.5 -76t82.5 -29t84 29t31 76t-30.5 75.5t-84.5 28.5q-53 0 -82.5 -28.5t-29.5 -75.5z" />
<glyph d="M-623 1874q0 72 45 115.5t123 48.5l100 -70l96 70q68 -6 114 -42t46 -98q0 -63 -39 -98h162v-78h-295v53q37 10 59.5 37t22.5 64t-20.5 58.5t-49.5 27.5l-90 -64h-12l-94 66q-31 -4 -54.5 -25.5t-23.5 -64.5q0 -37 21.5 -62.5t64.5 -25.5q23 0 41 6l16 -66 q-28 -14 -73 -14q-74 0 -117 46t-43 116zM-520 1436q0 86 55 130t143 44t144.5 -44t56.5 -130t-56.5 -130t-144.5 -44t-143 44t-55 130zM-434 1436q0 -47 29.5 -76t82.5 -29t84 29t31 76t-30.5 75.5t-84.5 28.5q-53 0 -82.5 -28.5t-29.5 -75.5z" />
<glyph d="M-520 1436q0 86 55 130t143 44t144.5 -44t56.5 -130t-56.5 -130t-144.5 -44t-143 44t-55 130zM-492 1837v86h119v115h102v-115h119v-86h-119v-115h-102v115h-119zM-434 1436q0 -47 29.5 -76t82.5 -29t84 29t31 76t-30.5 75.5t-84.5 28.5q-53 0 -82.5 -28.5t-29.5 -75.5z " />
<glyph d="M-344 -574q0 102 105 103q104 0 104 -103q0 -102 -104 -102t-105 102z" />
<glyph d="M-381 -490q25 10 50 13.5t44 3.5q53 0 80.5 -27t27.5 -72v-295h-108v252q0 49 -41 50q-10 0 -22.5 -2.5t-22.5 -6.5z" />
<glyph d="M-717 -480q20 6 42.5 8.5t35.5 2.5q106 0 106 -101v-98q0 -49 29.5 -81t95.5 -32t95.5 32t29.5 81v193h106v-193q0 -94 -57 -146.5t-172 -52.5t-173 51.5t-58 141.5v74q0 53 -68 34z" />
<glyph d="M-901 1458v90h164v164h104v-164h166v-90h-166v-155h-104v155h-164z" />
<glyph d="M-872 1436q0 86 55 130t143 44t144.5 -44t56.5 -130t-56.5 -130t-144.5 -44t-143 44t-55 130zM-786 1436q0 -47 29.5 -76t82.5 -29t84 29t31 76t-30.5 75.5t-84.5 28.5q-53 0 -82.5 -28.5t-29.5 -75.5z" />
<glyph d="M-848 1436q0 86 55 130t143 44t144.5 -44t56.5 -130t-56.5 -130t-144.5 -44t-143 44t-55 130zM-762 1436q0 -47 29.5 -76t82.5 -29t84 29t31 76t-30.5 75.5t-84.5 28.5q-53 0 -82.5 -28.5t-29.5 -75.5zM-703 1722v311h112v-311h-112z" />
<glyph d="M-871 2001q33 18 69.5 25t63.5 7q53 0 91 -28.5t38 -85.5q0 -29 -9.5 -56.5t-33.5 -48.5h250v-92h-461v53q70 12 113 45t43 78q0 55 -60 56q-20 0 -39.5 -7.5t-36.5 -15.5zM-846 1436q0 86 55 130t143 44t144.5 -44t56.5 -130t-56.5 -130t-144.5 -44t-143 44t-55 130z M-760 1436q0 -47 29.5 -76t82.5 -29t84 29t31 76t-30.5 75.5t-84.5 28.5q-53 0 -82.5 -28.5t-29.5 -75.5z" />
<glyph d="M-951 1874q0 72 45 115.5t123 48.5l100 -70l96 70q68 -6 114 -42t46 -98q0 -63 -39 -98h162v-78h-295v53q37 10 59.5 37t22.5 64t-20.5 58.5t-49.5 27.5l-90 -64h-12l-94 66q-31 -4 -54.5 -25.5t-23.5 -64.5q0 -37 21.5 -62.5t64.5 -25.5q23 0 41 6l16 -66 q-28 -14 -73 -14q-74 0 -117 46t-43 116zM-848 1436q0 86 55 130t143 44t144.5 -44t56.5 -130t-56.5 -130t-144.5 -44t-143 44t-55 130zM-762 1436q0 -47 29.5 -76t82.5 -29t84 29t31 76t-30.5 75.5t-84.5 28.5q-53 0 -82.5 -28.5t-29.5 -75.5z" />
<glyph d="M-846 1436q0 86 55 130t143 44t144.5 -44t56.5 -130t-56.5 -130t-144.5 -44t-143 44t-55 130zM-818 1837v86h119v115h102v-115h119v-86h-119v-115h-102v115h-119zM-760 1436q0 -47 29.5 -76t82.5 -29t84 29t31 76t-30.5 75.5t-84.5 28.5q-53 0 -82.5 -28.5t-29.5 -75.5z " />
</font>
</defs>
</svg>
