<?xml version="1.0" standalone="no"?>
<!DOCTYPE svg PUBLIC "-//W3C//DTD SVG 1.1//EN" "http://www.w3.org/Graphics/SVG/1.1/DTD/svg11.dtd" >
<svg xmlns="http://www.w3.org/2000/svg" xmlns:xlink="http://www.w3.org/1999/xlink" version="1.1">
<metadata></metadata>
<defs>
<font id="uid_handwrite_2019_v2news" horiz-adv-x="0" >
<font-face units-per-em="2048" ascent="1638" descent="-410" />
<missing-glyph horiz-adv-x="313" />
<glyph unicode="&#x3b;&#x3b;For&#x20;Education&#x20;Used&#x20;Only&#x3b;&#x3b;" horiz-adv-x="1232" d="M14 520q0 92 28 177t82 160t132 128q123 74 268 80q8 6 27 6q14 0 31 -6q117 -4 226 -48t193 -122q25 -14 25 -37q29 -25 53 -53q78 -88 106.5 -197.5t8.5 -226.5q-18 -92 -69.5 -172t-122 -139.5t-156.5 -93t-178 -33.5q-96 0 -192.5 27.5t-179.5 79.5t-148.5 126 t-98.5 166q-35 86 -35 178zM198.5 532.5q-8.5 -71.5 5 -141t52.5 -127.5q43 -96 130 -149.5t192 -53.5q90 0 171.5 41t143 107.5t98.5 151.5t37 174q0 78 -28.5 156.5t-88.5 125.5q-66 49 -141.5 76.5t-151.5 56.5q-90 -8 -170.5 -49t-140.5 -108q-43 -53 -71.5 -121 t-37 -139.5zM327 496q1 47 5 90q10 53 30.5 102t52 86t79 59.5t108.5 22.5q43 0 88 -19.5t79 -53t50 -78t2 -93.5q-2 -10 -11 -15t-22 -5q-18 0 -40.5 8t-42 20.5t-30.5 27t-7 28.5q0 8 4 31.5t-4 33.5h-27q-18 0 -42 -21.5t-34 -31.5q-29 -47 -42 -102.5t-23 -102.5 q0 -8 -1 -28.5t-1 -44t4 -47t14 -37.5q2 4 9 7t14 9q6 0 22.5 12.5t35.5 27.5t36.5 30.5t21.5 19.5q8 8 27 8q20 0 45 -11t44.5 -26.5t28.5 -32t-3 -28.5q-47 -59 -104.5 -93t-123.5 -34q-33 0 -65.5 8t-67.5 29q-43 29 -66.5 68.5t-33.5 84t-9 91.5z" />
<glyph unicode="&#x3b;&#x3b;Registered&#x3b;&#x3b;" horiz-adv-x="1214" d="M24.5 521q2.5 93 30 181.5t80.5 164t129 128.5q59 39 124 58.5t132 23.5q12 6 27 6q12 0 24 -4q117 -4 226.5 -49t193.5 -127q10 -4 17.5 -16.5t5.5 -22.5q27 -25 51 -51q76 -90 104.5 -202.5t8.5 -231.5q-18 -94 -67.5 -175t-120 -141.5t-158 -95.5t-181.5 -35 q-90 0 -182 29t-174 82t-146.5 128t-97.5 169q-29 88 -26.5 181zM203 535.5q-8 -72.5 4 -144.5t45 -129q49 -98 135 -152.5t184 -54.5q29 0 60 5.5t59 17.5q70 25 128.5 72t100.5 108t67.5 133t29.5 146q0 78 -30 158.5t-95 129.5q-57 51 -129 79t-146 57 q-86 -8 -165.5 -49.5t-137.5 -112.5q-47 -53 -74.5 -122t-35.5 -141.5zM365 367q10 119 27.5 227t45.5 219q0 18 27 18q18 0 51 -14q33 12 70 12q72 0 137 -37.5t92 -97.5q29 -41 16.5 -86t-40.5 -84q-20 -29 -45 -46t-54 -32q63 -37 123 -79q18 -10 37.5 -27.5t-0.5 -38.5 q-14 -16 -39 -16q-33 0 -49 16q-57 23 -109.5 50.5t-103.5 58.5q-10 -29 -15.5 -55.5t-9.5 -53.5q-2 -10 -11 -15t-21 -5q-18 0 -40 8t-42.5 20.5t-33.5 27.5t-13 30zM567 555q29 14 51.5 37.5t32.5 62.5q10 10 12.5 21.5t2.5 30.5q-8 18 -11 18q-23 -14 -33 -17.5 t-20 -13.5q-12 -4 -18 -4q-4 -35 -8.5 -67.5t-8.5 -67.5z" />
<glyph unicode="&#x3b;&#x3b;Multiply&#x3b;&#x3b;" horiz-adv-x="927" d="M31.5 1004.5q9.5 19.5 42.5 19.5q31 0 66.5 -17.5t58.5 -37.5q66 -66 124 -135.5t117 -141.5q63 78 131 150.5t144 140.5q14 10 35 10q25 0 53 -10t49.5 -26.5t32 -36t-1.5 -35.5q-82 -92 -162 -177t-152 -178q90 -123 170 -239.5t144 -243.5q20 -23 -0.5 -33t-40.5 -10 q-33 0 -68 12.5t-45 44.5q-70 86 -130 174.5t-120 176.5q-53 -72 -105.5 -145.5t-105.5 -149.5q-8 -18 -39 -19q-23 0 -50 10.5t-48.5 26t-32 32.5t1.5 34q59 98 122 193t134 190q-76 92 -151.5 185t-159.5 185q-23 31 -13.5 50.5z" />
<glyph unicode="&#x3b;&#x3b;Divide&#x3b;&#x3b;" horiz-adv-x="983" d="M30 479.5q-3 12.5 4 23.5t32 17q119 23 239.5 36t243.5 13q135 0 264 -18q37 0 78 -21.5t53 -58.5q6 -18 1 -28.5t-16 -14.5t-24.5 -5t-25.5 -1q-92 6 -183 6q-125 0 -245.5 -10.5t-237.5 -28.5q-10 -2 -18.5 -3t-16.5 -1q-37 0 -64.5 16.5t-47.5 36.5q-12 6 -22.5 17.5 t-13.5 24zM222 138q-1 34 11.5 66t42.5 56q25 12 60 22.5t72 10.5q25 0 49 -10.5t47 -22.5q12 0 24.5 -2t24.5 -14l16 -17q12 -12 25.5 -26.5t17.5 -28.5t-4 -25.5t-39 -17.5q-12 0 -32.5 2t-32.5 14l-47 17l30 -17h-14l-33 -32q0 -8 -4 -15.5t-8 -11.5q6 6 12 10 q12 12 27 13q27 0 55.5 -17.5t46.5 -28.5q25 -10 41.5 -40.5t-8.5 -55.5q-39 -39 -102 -39q-59 0 -121 28t-103 60q-25 25 -39 56.5t-15 65.5zM223 892.5q-6 65.5 53 113.5q25 12 60 22t72 10q25 0 49 -10t47 -22q12 0 24.5 -2.5t24.5 -14.5l16 -14q12 -12 25.5 -26.5 t17.5 -29t-4 -25.5t-39 -17q-12 0 -32.5 2t-32.5 14l-47 16l30 -16h-14l-33 -33q0 -8 -4 -12l-8 -8l12 4q10 10 27 10q27 0 55.5 -16.5t46.5 -26.5q25 -12 41.5 -42t-8.5 -54q-39 -39 -98 -39t-123 30.5t-105 71.5q-47 49 -53 114.5z" />
<glyph unicode="&#x2018;&#x2018;" horiz-adv-x="575" d="M74 1249q6 27 43 27q18 0 38.5 -6t39 -16.5t31 -25t16.5 -28.5q0 -72 -1 -149.5t-12 -149.5q0 -31 -30 -31q-16 0 -36 7.5t-37 19.5t-28.5 25.5t-11.5 25.5q-10 72 -11 150.5t-1 150.5zM522 963q4 72 14.5 149.5t22.5 149.5q8 20 35 20q18 0 38.5 -9t39 -23.5t32 -32 t13.5 -33.5q-12 -72 -25.5 -146.5t-36.5 -146.5q-6 -25 -28 -25q-16 0 -35 10.5t-35 24.5t-26.5 31.5t-8.5 30.5z" />
<glyph unicode="&#x2019;&#x2019;" horiz-adv-x="575" d="M74 1249q6 27 43 27q18 0 38.5 -6t39 -16.5t31 -25t16.5 -28.5q0 -72 -1 -149.5t-12 -149.5q0 -31 -30 -31q-16 0 -36 7.5t-37 19.5t-28.5 25.5t-11.5 25.5q-10 72 -11 150.5t-1 150.5zM522 963q4 72 14.5 149.5t22.5 149.5q8 20 35 20q18 0 38.5 -9t39 -23.5t32 -32 t13.5 -33.5q-12 -72 -25.5 -146.5t-36.5 -146.5q-6 -25 -28 -25q-16 0 -35 10.5t-35 24.5t-26.5 31.5t-8.5 30.5z" />
<glyph unicode="&#x3b;&#x3b;Trademark&#x3b;&#x3b;" horiz-adv-x="1329" d="M51 929.5q-8 16.5 8 28.5q63 29 128 43.5t132 14.5q41 0 81 -5.5t81 -15.5q16 0 45 -16t39 -45q0 -16 -21.5 -25.5t-39.5 -9.5q-16 10 -35.5 11t-48.5 1q10 -47 -1 -91t-11 -89q0 -47 6 -91t6 -89q6 -27 -25 -27q-14 0 -34.5 6.5t-40 15.5t-35 19t-21.5 21 q-18 63 -23 140t11 148q-16 0 -32.5 -6t-26.5 -6q-12 -4 -21 -4q-23 0 -48.5 11.5t-45 27.5t-27.5 32.5zM607 796.5q5 98.5 5 198.5q6 31 45 31q29 0 62 -16.5t49 -38.5q0 -10 7 -12.5t18 -12.5q29 -35 62.5 -71.5t68.5 -71.5q37 35 80 69.5t88 61.5q0 6 6 10q2 2 6 2 q6 31 41 31q16 0 36.5 -7t38 -19.5t29 -26t11.5 -25.5q18 -82 20 -163t-8 -161q0 -31 -31 -30q-16 0 -36.5 7t-39 19.5t-33 25.5t-16.5 26q0 29 -6 56.5t-6 63.5q-16 -18 -35.5 -36.5t-48.5 -36.5q0 -8 -3 -15.5t-20 -7.5q-16 -4 -20 -4q-23 0 -42.5 12.5t-33.5 26.5 q-37 29 -64.5 54.5t-56.5 54.5v-240q-6 -31 -39 -31q-18 0 -39.5 7.5t-40 19.5t-33 25.5t-16.5 25.5q-10 100 -5 198.5z" />
<glyph unicode="&#xe24;&#xe32;" horiz-adv-x="915" d="M41 172q2 37 9 75t17.5 74.5t16.5 71.5q8 45 17.5 83t21.5 77q8 29 7 56.5t3 64.5q-10 8 -20.5 15t-20.5 16q-31 33 -44 62.5t3 76.5q14 49 65.5 87t115 62.5t131 37.5t116.5 13q51 0 102.5 -9t96.5 -28.5t83 -50t62 -73.5q57 53 123 94t121 41q10 0 27 -4 q86 -23 129 -85.5t45 -152.5q2 -104 -13.5 -260t-40 -322.5t-55.5 -322.5t-63 -260q-2 -14 -29 -14q-18 0 -46 10t-51.5 27.5t-36.5 38t-7 42.5q14 47 30.5 119t33 157t31.5 175t28.5 174t22.5 156.5t13 121.5q6 41 10.5 79t0.5 79q4 25 3 54.5t3 58.5q-20 -10 -51 -32.5 t-63 -52.5t-63.5 -62.5t-56.5 -63.5q4 -63 0 -129t-10 -127q-4 -33 -12 -96.5t-19.5 -141.5t-25 -161.5t-25.5 -160.5t-23.5 -138.5t-19.5 -92.5q-4 -16 -22.5 -23t-40.5 -7q-20 0 -43 5t-40.5 14t-27.5 21.5t-8 26.5q8 51 21.5 134t27.5 180.5t28.5 204t25 204.5t17.5 181 t7 139q0 39 -8 81t-26.5 75.5t-49.5 56t-78 22.5q-37 0 -70.5 -12t-68.5 -27q-25 -10 -58.5 -27.5t-59.5 -40t-34 -49t17 -55.5q23 -23 45 -37t26 -49q6 -53 -2 -102t-30 -107q-18 -47 -31.5 -100t-24.5 -109q-6 -37 -9 -70.5t1 -62.5q4 -16 6 -26.5t13 -18.5q2 -8 6 -16 t8 -8q2 0 2 4q2 -2 4 -2q12 0 31.5 20.5t27.5 36.5q12 23 19.5 47.5t3.5 50.5q-2 29 39 29q33 0 69.5 -17.5t40.5 -39.5q16 -78 -22.5 -139.5t-118.5 -79.5q-29 -6 -55 -7q-39 0 -77 11.5t-70.5 33t-57.5 52t-37 71.5q-10 35 -8 72z" />
<glyph unicode="&#xe26;&#xe32;" horiz-adv-x="1392" d="M8 180q-6 16 4.5 22.5t28.5 6.5q33 0 73 -17.5t44 -39.5q2 -6 12 -28l20 -44l13 18q8 12 21.5 56.5t28.5 104.5t30.5 128t27 127t15.5 100t-2 50q-2 18 -3.5 15t-9.5 7q-31 14 -59.5 25.5t-51 27t-35.5 37t-11 58.5q2 53 52 99t119.5 80t141.5 52t119 18q33 0 69 -6 q39 0 83 -12t85 -33.5t75 -51.5t52 -67q57 53 120 91t116 38q10 0 26 -4q86 -23 129 -85t45 -152q2 -104 -13 -260t-39.5 -323t-55.5 -322.5t-64 -260.5q-2 -14 -28 -14q-18 0 -46 10.5t-51.5 27.5t-37 37.5t-7.5 43.5q14 47 31 118.5t33 156.5t31.5 175.5t29 174.5 t22.5 156.5t13 121.5q6 41 10.5 79t-0.5 79q4 25 3.5 54.5t3.5 57.5q-20 -10 -48 -30.5t-59 -48t-61.5 -58t-55.5 -61.5q0 -57 -7 -145.5t-20.5 -192t-29.5 -215t-33.5 -214t-35 -189.5t-31.5 -142q-4 -14 -20.5 -20.5t-39.5 -6.5t-46 5.5t-42.5 15.5t-32 22.5t-10.5 28.5 q6 31 18.5 94.5t28 143.5t32.5 167t31.5 164.5t24 140t11.5 93.5q4 84 12 180t-6 189q-20 59 -56 102t-102 53q-29 -4 -72 -15t-85 -29.5t-77.5 -42t-48.5 -50.5q-10 -25 -14 -46.5t27 -35.5q29 -14 55.5 -25.5t48.5 -33.5q16 -16 19.5 -58.5t-0.5 -99.5t-14.5 -120.5 t-23 -121t-23.5 -103.5t-19 -67q-14 -37 -30.5 -70.5t-39 -58t-54.5 -39t-75 -14.5q-53 0 -89 16.5t-60.5 46t-38 70.5t-21.5 88z" />
<glyph unicode="&#xd;" horiz-adv-x="579" />
<glyph unicode=" "  horiz-adv-x="313" />
<glyph unicode="&#x09;" horiz-adv-x="313" />
<glyph unicode="&#xa0;" horiz-adv-x="313" />
<glyph unicode="!" horiz-adv-x="325" d="M55 14q0 16 6.5 35t6.5 37q10 27 13 46.5t13 35.5q0 12 25 12q16 0 39.5 -5t45 -14t37 -19.5t15.5 -20.5q-10 -35 -14 -72t-25 -82q0 -4 -10 -7t-23.5 -4t-29 -1h-23.5q-18 10 -41.5 25.5t-34.5 33.5zM68 299q0 90 7 184.5t7 184.5q0 98 7 195.5t17 195.5q0 33 39 33 q18 0 40 -7.5t40.5 -17.5t30.5 -25.5t12 -29.5q0 -98 -1 -194.5t-11 -186.5q0 -98 -1 -189.5t-11 -189.5q-6 -33 -47 -33q-37 0 -79 24.5t-50 55.5z" />
<glyph unicode="&#x22;" horiz-adv-x="575" d="M74 1249q6 27 43 27q18 0 38.5 -6t39 -16.5t31 -25t16.5 -28.5q0 -72 -1 -149.5t-12 -149.5q0 -31 -30 -31q-16 0 -36 7.5t-37 19.5t-28.5 25.5t-11.5 25.5q-10 72 -11 150.5t-1 150.5zM295 963q4 72 14.5 149.5t22.5 149.5q8 20 35 20q18 0 38.5 -9t39 -23.5t31.5 -32 t13 -33.5q-12 -72 -25 -146.5t-36 -146.5q-6 -25 -29 -25q-16 0 -34.5 10.5t-35 24.5t-26.5 31.5t-8 30.5z" />
<glyph unicode="#" horiz-adv-x="1030" d="M-20 742.5q0 9.5 14 13.5q143 57 299 92q16 49 32.5 98t32.5 103q8 16 39 16q18 0 41 -8t41.5 -20.5t29.5 -29t9 -32.5l-24 -92q92 10 186 12q8 29 16.5 58.5t16.5 58.5q6 18 32 18q16 0 38 -7t41.5 -18.5t32.5 -25.5t13 -29q-2 -14 -4 -27.5t-6 -29.5q18 0 35.5 -1 t36.5 -3q29 0 58.5 -21.5t39.5 -38.5q8 -29 -11.5 -39t-37.5 -10q-74 6 -145 6q-14 -53 -27.5 -105t-28.5 -106q23 4 45.5 5.5t44.5 3.5q37 0 71 -14.5t52 -32.5q10 -29 1 -45.5t-38 -16.5q-53 -4 -106 -9t-107 -9q-33 -102 -67.5 -200.5t-73.5 -195.5q-6 -16 -33 -16 q-18 0 -40.5 8t-41 21.5t-27.5 29t-3 29.5q27 78 50 155l46 154l-184 -12q-16 -80 -33 -160t-37 -161q-10 -16 -33 -17q-18 0 -40.5 8.5t-41 20.5t-32 25.5t-13.5 23.5q10 66 20.5 127t28.5 117v2l-12 -2q-29 0 -60.5 15t-47.5 34q-10 29 -1 45t35 16q29 2 54.5 4t54.5 4 q4 23 7 44.5t7 44.5t10.5 42t12.5 39q-37 -10 -73 -21t-73 -24q-16 0 -46.5 9.5t-49.5 27.5q0 4 -7 12.5t-13 17.5t-6 18.5zM395 547q47 4 95.5 7t95.5 7q16 53 30.5 107.5t30.5 109.5q-49 -4 -97 -11t-97 -17q-14 -49 -28.5 -99.5t-29.5 -103.5z" />
<glyph unicode="$" horiz-adv-x="792" d="M-15.5 316.5q9.5 113.5 97.5 207.5q10 10 39 11q25 0 56.5 -11.5t56 -29t33.5 -39t-9 -41.5q-41 -43 -54.5 -103.5t-1 -117t47.5 -95.5t92 -39q51 0 107 35q27 20 48 50t35.5 64t19.5 69.5t-1 66.5q-6 47 -28.5 82t-53.5 63.5t-67.5 53t-69.5 51.5q-33 20 -64.5 48 t-56.5 61.5t-40 72.5t-15 80q0 72 49 129t127 80q10 2 22.5 4t22.5 4q4 35 9 72t5 72q0 41 3 90t26 90q6 25 33 24q20 0 45.5 -10t49 -25.5t41 -31t21.5 -27.5q0 -53 -7 -104.5t-7 -102.5q-6 -25 -9 -46t-7 -44q43 -23 76.5 -55.5t55 -72.5t26.5 -87t-11 -98q-6 -18 -39 -19 q-23 0 -50.5 9.5t-51 23.5t-39 32.5t-10.5 37.5q10 31 9 66.5t-24 58.5q-8 8 -12 16q-8 2 -15.5 4t-13.5 4q-6 -2 -14 -4t-18 -6q-39 -20 -58.5 -51t-24 -64.5t6 -68.5t33.5 -66q43 -53 97 -92t105 -80t91 -88t57 -115q12 -57 2 -114.5t-39 -106.5t-75 -86t-107 -53 q-8 -2 -14.5 -3t-14.5 -1q-2 -92 -10.5 -188.5t-18.5 -194.5q-4 -12 -17 -17.5t-30 -5.5q-23 0 -50.5 7.5t-52 20.5t-41 29.5t-16.5 35.5q0 149 29 317q-74 16 -139.5 55t-108.5 99q-78 94 -68.5 207.5z" />
<glyph unicode="%" horiz-adv-x="974" d="M22.5 857q-6.5 40 0 78t30.5 73q35 41 79 61.5t93 20.5h19.5t19.5 -3q70 -20 122 -67t63 -117q8 -78 -31 -139.5t-88 -110.5q-8 -8 -29 -8q-37 0 -74 25q-2 -20 -22 -21q-4 0 -21 4q-29 0 -61.5 16.5t-42.5 37.5q-18 35 -34.5 72.5t-23 77.5zM93 82q-13 16 1 35 q78 117 155 228.5t146 229.5q70 119 138.5 244t136.5 254q12 20 43 21q23 0 48 -8.5t45.5 -22.5t31 -31.5t4.5 -36.5q-49 -139 -122 -260t-140 -239q-70 -102 -137.5 -203t-137.5 -197q10 -14 8 -26.5t-22 -18.5q-10 -10 -20.5 -13t-20.5 -13q-4 -2 -14 -2q-20 0 -50 8 t-55 21.5t-38 29.5zM184 850q0 -18 4.5 -38t10.5 -38q27 29 48 61.5t29 67.5q10 20 10.5 32.5t-10.5 33.5q-39 -20 -60 -45t-32 -74zM522 223q-6 41 0 81t31 75q33 41 77 61.5t93 20.5q10 0 19.5 -1t19.5 -3q70 -20 122 -67.5t62 -117.5q4 -39 -6 -73.5t-28.5 -65.5 t-41.5 -57t-43 -51q-8 -10 -28 -11q-16 0 -36 7.5t-38 17.5q-2 -14 -20.5 -21.5t-34.5 -7.5q-18 0 -49 18.5t-41 47.5q-20 31 -36 68.5t-22 78.5zM684 221q0 -39 10 -90q29 35 50.5 64.5t31.5 64.5q18 39 0 80q-41 -20 -61.5 -45t-30.5 -74z" />
<glyph unicode="&#x26;" horiz-adv-x="763" d="M39 311q20 66 64 114t98 93q-29 45 -51.5 92t-38.5 99q-23 74 -29 144.5t41 131.5q33 41 75 60.5t89 19.5q43 0 87 -14.5t83 -39t68.5 -59t41.5 -75.5q23 -74 6.5 -149t-65.5 -140q-25 -35 -53.5 -62.5t-59.5 -54.5q29 -45 58.5 -87t62.5 -83q14 33 24.5 65.5t14.5 65.5 q6 31 39 31q18 0 38.5 -7t38 -19.5t29 -27t11.5 -26.5q-4 -59 -22.5 -119.5t-51.5 -113.5q20 -25 39.5 -50.5t42.5 -54.5q10 -14 7 -23.5t-12 -14.5t-22.5 -7t-21.5 -2q-29 0 -58.5 16.5t-50.5 42.5q-88 -76 -201 -75q-66 0 -132 24.5t-115.5 67.5t-73 103.5t-0.5 133.5z M201 217q-6 -43 6 -81t59 -54q6 -4 13.5 -4h13.5q20 0 41.5 11t41 26.5t36 34t28.5 34.5q-45 43 -85 90.5t-68 102.5q-8 -6 -21 -19q-20 -20 -39.5 -59t-25.5 -82zM253 833.5q-3 -36.5 5 -73.5t23.5 -74t31.5 -70q45 45 74 98.5t25 125.5q0 14 -2 32.5t-8.5 36t-15.5 31.5 t-24 21q-2 0 -3 1t-5 1q-18 0 -41.5 -24t-33.5 -38q-23 -31 -26 -67.5z" />
<glyph unicode="'" horiz-adv-x="301" d="M74 1249q6 27 43 27q18 0 38.5 -6t39 -16.5t31 -25t16.5 -28.5q0 -72 -1 -149.5t-12 -149.5q0 -31 -30 -31q-16 0 -36 7.5t-37 19.5t-28.5 25.5t-11.5 25.5q-10 72 -11 150.5t-1 150.5z" />
<glyph unicode="(" horiz-adv-x="387" d="M-2 496q8 201 66.5 386t179.5 339q8 14 35 14q18 0 39.5 -8t38 -19.5t24.5 -25t0 -25.5q-100 -162 -157.5 -337t-65.5 -367q0 -119 11 -208t33.5 -169t56.5 -162t81 -186q4 -10 1 -18.5t-10 -13.5t-16.5 -7t-17.5 -2q-25 8 -47.5 19t-38.5 34q-59 76 -101 168t-69 190.5 t-37 199.5t-6 198z" />
<glyph unicode=")" horiz-adv-x="387" d="M14 1157q-8 12 0.5 25.5t24.5 25t37.5 19.5t40.5 8q27 0 35 -14q121 -154 179 -339.5t66 -385.5q4 -96 -7 -197.5t-36.5 -200t-67.5 -190.5t-102 -168q-16 -23 -38.5 -34t-47.5 -19q-8 0 -17 2t-16.5 7t-10.5 13t1 19q45 104 80 186t57.5 162t34 169t11.5 208 q-8 193 -65.5 367.5t-158.5 336.5z" />
<glyph unicode="*" horiz-adv-x="784" d="M94 1118q6 15 33 15q35 0 69.5 -1.5t71.5 -1.5q-27 47 -52.5 91.5t-43.5 93.5q-16 27 1 31t34 4q27 0 54.5 -15.5t35.5 -31.5q16 -23 30.5 -45.5t28.5 -45.5q25 29 50.5 54.5t50.5 48.5q14 14 37 14q20 0 42.5 -9t38 -23.5t22.5 -31t-3 -30.5q-25 -29 -49.5 -56.5 t-48.5 -56.5q23 0 44 -1t44 -1q25 0 58.5 -9t43.5 -36q14 -16 10 -31.5t-20 -15.5q-8 0 -14 2h-203q33 -53 66.5 -109.5t58.5 -117.5q6 -20 -3.5 -28.5t-25.5 -8.5q-29 0 -63.5 15.5t-45.5 31.5q-25 29 -44 63.5t-37 69.5q-25 -37 -49.5 -77t-51.5 -78q-8 -14 -31 -15 q-16 0 -35.5 8.5t-37 20.5t-27.5 26.5t-6 26.5q33 86 90 172h-22q-25 0 -53.5 15.5t-37.5 41.5q-16 16 -10 31z" />
<glyph unicode="+" horiz-adv-x="1052" d="M96 516q-10 23 0 40t45 17q59 10 118.5 16.5t121.5 12.5q0 80 4.5 163t24.5 161q10 25 41 24q20 0 44.5 -11t45 -26.5t35 -32t14.5 -28.5q14 -53 13 -111.5t-3 -115.5q49 4 98.5 10t98.5 12q35 0 73.5 -19.5t61.5 -54.5q10 -23 0 -40t-45 -17q-70 -10 -140.5 -17 t-142.5 -16q0 -86 7 -175t7 -187q0 -18 -13 -26.5t-34 -8.5q-20 0 -43.5 7t-45 17.5t-38 25t-20.5 28.5q-16 70 -22.5 147.5t-12.5 155.5q-41 -2 -80 -4t-78 -6q-16 -4 -24 -4q-31 0 -61.5 17t-49.5 46z" />
<glyph unicode="," horiz-adv-x="305" d="M20 -88q27 45 47.5 93t26.5 101q-18 20 -27.5 42t17.5 32h39q8 2 29 2q20 0 41.5 -5t40 -14t30.5 -24.5t12 -36.5q0 -76 -25.5 -149.5t-76.5 -130.5q-10 -12 -31 -12q-20 0 -45.5 10t-46 25.5t-31 33t-0.5 33.5z" />
<glyph unicode="-" horiz-adv-x="1052" d="M85 583q3 17 21 17q131 6 265 6q133 0 265 -3t263 -3q25 0 47.5 -12.5t32.5 -44.5q8 -23 5 -41.5t-21 -18.5q-135 0 -269.5 -3t-269.5 -3q-133 0 -268 6q-18 0 -37 13.5t-29 46.5q-8 23 -5 40z" />
<glyph unicode="." horiz-adv-x="299" d="M47 4q0 37 27.5 81t58.5 69q6 6 19 6q18 0 41.5 -10.5t37.5 -16.5q4 0 13.5 -4t17.5 -11t11 -16.5t-5 -17.5q-12 -14 -20 -28.5t-17 -30.5q-10 -23 -18 -39.5t-18 -32.5q-8 -16 -31 -16q-14 0 -26.5 3t-16.5 3q-18 8 -46 23.5t-28 37.5z" />
<glyph unicode="/" horiz-adv-x="770" d="M10 18q141 330 287.5 662t314.5 661q8 20 39 21q18 0 39 -8t37 -22.5t24.5 -31t2.5 -34.5q-133 -340 -291.5 -669t-310.5 -669q-8 -16 -31 -16q-18 0 -41 9t-41.5 24.5t-27.5 35t-1 37.5z" />
<glyph unicode="0" horiz-adv-x="641" d="M18.5 497q6.5 169 55.5 318q35 111 103.5 184.5t170.5 73.5q35 0 68 -8q68 -18 108.5 -57t61 -93.5t24.5 -118t0 -126.5q-10 -129 -36.5 -263.5t-71.5 -263.5q-12 -39 -27.5 -75.5t-38 -64.5t-54.5 -45t-79 -17q-86 0 -150.5 58t-91.5 144q-6 17 2 29q-51 156 -44.5 325z M185 350.5q-1 -122.5 36 -233.5l10 -15q4 -6 10.5 -15t12.5 -17q29 27 41 55.5t22 56.5q16 51 29.5 98.5t32.5 86.5q18 111 39.5 218t21.5 216q0 41 -9 85t-28 72h-24q-41 -25 -69.5 -68.5t-49 -95t-32 -105.5t-19.5 -97q-23 -119 -24 -241.5z" />
<glyph unicode="1" horiz-adv-x="491" d="M7 668.5q-7 15.5 5 31.5q68 92 141.5 177.5t141.5 177.5q14 18 51 18q18 0 40 -5t39 -15.5t27.5 -23.5t10.5 -30q-16 -244 -30.5 -485.5t-31.5 -488.5q0 -16 -15 -24.5t-38 -8.5q-18 0 -38.5 5t-37 15.5t-26.5 23.5t-10 32q2 86 8 184t13 199.5t14.5 202t15.5 190.5 q-16 -20 -31.5 -51t-33 -62t-34 -58.5t-30.5 -41.5q-12 -14 -43 -15q-23 0 -45.5 7.5t-39 18.5t-23.5 26.5z" />
<glyph unicode="2" horiz-adv-x="643" d="M27.5 7.5q-11.5 17.5 1.5 39.5q63 117 133.5 236.5t134.5 236.5q25 45 53.5 91t53 94.5t42 97.5t21.5 98q-80 -37 -137.5 -118t-85.5 -179q-6 -16 -25 -16q-14 0 -31.5 8t-34 21.5t-27.5 29t-11 29.5q8 76 43 138.5t87 109.5t115.5 77.5t128.5 40.5q16 0 37 -1t39.5 -7 t31.5 -18.5t19 -32.5q18 -72 7 -139.5t-38.5 -132t-63.5 -125t-64 -113.5q-55 -106 -111.5 -205.5t-114.5 -197.5q66 0 124.5 1t121.5 11q25 0 56.5 -11.5t50.5 -35.5q16 -20 10 -40t-31 -20q-104 -10 -213.5 -12t-214.5 -12q-12 0 -34.5 7t-42 19.5t-31 30z" />
<glyph unicode="3" horiz-adv-x="677" d="M18.5 183.5q-8.5 52.5 1 109.5t29.5 113q8 14 35 14q18 0 40.5 -8.5t41 -21.5t30 -30.5t5.5 -33.5q-4 -23 -11.5 -55.5t-10.5 -67.5t1 -68t23 -53h10q16 0 25 8q10 8 25.5 14.5t25.5 16.5q37 18 69.5 61t59 94.5t45 103.5t22.5 89q2 10 2 18.5t2 18.5q-10 -8 -24 -15.5 t-25 -15.5q-10 -8 -20 -23.5t-23 -31.5q-10 -12 -30 -12q-23 0 -49.5 12t-47 29.5t-29 38t8.5 36.5q27 29 63.5 82t71.5 112.5t60.5 117t31.5 96.5l-12 -10q-78 -41 -136.5 -105.5t-92.5 -144.5q-6 -14 -25 -15q-16 0 -36.5 9.5t-38 25t-27 33.5t-0.5 37q20 49 56 101 t82 96.5t99 73t109 28.5q35 0 68.5 -13.5t66.5 -46.5q29 -29 37 -62.5t4 -69t-16.5 -69.5t-24.5 -65q-14 -35 -32 -62.5t-32 -62.5q63 -27 105 -88q29 -45 26.5 -100t-22 -110.5t-49 -104.5t-54.5 -82q-53 -70 -120.5 -115t-145.5 -45q-68 0 -131 41q-53 33 -80.5 79 t-36 98.5z" />
<glyph unicode="4" horiz-adv-x="663" d="M23 377q35 180 77.5 351t87.5 351q6 16 33 17q18 0 41 -7.5t42.5 -19.5t31.5 -28.5t8 -32.5q-35 -143 -65.5 -292t-65.5 -292q35 0 68.5 1t62.5 11q8 18 9 30.5t1 29.5q10 63 24.5 126.5t24.5 135.5q8 63 19.5 124.5t28.5 125.5q6 23 32 22q18 0 39 -8t39.5 -20.5 t30.5 -26.5t12 -27q0 -63 -12 -130.5t-23 -131.5q-10 -53 -20.5 -113.5t-26.5 -123.5q27 0 58.5 -7.5t48.5 -27.5q20 -27 12 -43.5t-37 -16.5q-27 -10 -47 -11t-47 -1q-10 -35 -14 -68.5t-11 -62.5q-12 -63 -20 -131t-27 -131q-6 -18 -39 -19q-18 0 -40.5 6.5t-41 16.5 t-32 24.5t-13.5 30.5q10 53 15.5 115.5t19.5 122.5q4 20 9.5 37.5t15.5 33.5q-45 0 -88 -6t-80 -6q-8 -2 -27 -2q-20 0 -43.5 4t-42 13.5t-28 23.5t-0.5 33z" />
<glyph unicode="5" horiz-adv-x="581" d="M20 518q18 92 30.5 183.5t31.5 183.5q-18 18 -29.5 33.5t4.5 27.5q76 53 163 83t179 52q6 2 13.5 2h13.5q25 0 49.5 -8t46.5 -31q4 -4 10.5 -13t8.5 -18t-1 -17.5t-18 -12.5q-74 -20 -139.5 -45t-130.5 -53q0 -55 -7 -109.5t-18 -109.5q29 10 49.5 11t49.5 1 q41 -4 80.5 -20.5t70.5 -43t50.5 -63.5t19.5 -82q0 -82 -25.5 -159t-72 -141.5t-108.5 -115.5t-136 -84q-12 -4 -23 -4q-25 0 -53.5 11.5t-48 26.5t-23.5 32.5t25 30.5q94 45 160.5 124.5t95.5 182.5q16 53 23.5 100t-11.5 94h-12q-51 -25 -81 -51.5t-64 -71.5 q-12 -14 -41 -14q-20 0 -45 7t-45.5 19.5t-33 28t-8.5 33.5z" />
<glyph unicode="6" horiz-adv-x="555" d="M34 215q1 37 4 74t3 67q18 180 41.5 354.5t77.5 344.5q6 18 33 18q18 0 39.5 -7t40 -18.5t30.5 -24.5t10 -28q-14 -106 -33.5 -206.5t-35.5 -206.5v-60q72 0 142.5 -32.5t105.5 -86.5q37 -57 37.5 -128.5t-25 -136t-74.5 -113t-117 -60.5q-10 -2 -20 -3t-21 -1 q-66 0 -127 32t-92 91q-12 27 -16 60.5t-3 70.5zM219 166q0 -27 1 -46.5t11 -35.5q4 0 9 2q8 4 14 10q35 27 60.5 74t35.5 92q4 18 5 41t-2 46.5t-12 44t-28 34.5l2 2v2q-6 0 -14 -4q-18 -4 -31.5 -9t-22.5 -15.5t-15.5 -30t-12.5 -51.5v-156z" />
<glyph unicode="7" horiz-adv-x="655" d="M13 1009.5q5 24.5 34 24.5q111 10 211.5 10.5t200.5 16.5q4 0 9 1t9 1q20 0 48 -4t51.5 -14.5t37 -25.5t4.5 -38q-84 -254 -133 -506q-25 -131 -48 -253t-44 -251q0 -16 -13 -24t-36 -8q-20 0 -45 6t-45.5 16t-33.5 23.5t-13 25.5q10 242 58 471.5t128 458.5 q-59 -10 -119.5 -13t-119.5 -14q-14 0 -34 4.5t-39.5 11.5t-35.5 16t-25 22q-12 18 -7 42.5z" />
<glyph unicode="8" horiz-adv-x="636" d="M25 723q-23 70 0.5 138.5t66.5 115.5q45 49 101.5 66.5t117.5 17.5q18 0 37 -1t37 -3q29 0 62.5 -16.5t44.5 -36.5q20 -10 37.5 -20.5t29.5 -23t16.5 -24.5t-4.5 -27q-45 -84 -102 -162.5t-98 -168.5q111 -59 180.5 -159t58.5 -241q-8 -109 -81.5 -174t-176.5 -65 q-66 0 -127 26q-70 31 -105.5 84t-46 120t0 138.5t30.5 136.5q10 29 21.5 66t32.5 68q-49 29 -83 61.5t-50 83.5zM208 740.5q3 -19.5 3 -29.5q31 59 68.5 119.5t78.5 119.5q-51 -20 -92 -60t-55 -99q-6 -31 -3 -50.5zM269.5 210q-1.5 -42 9.5 -73q0 -20 6 -39.5t6 -40.5h26 q35 20 56.5 53t32 72t11.5 80t-5 76q-8 41 -30 77t-50 56q-20 -41 -30.5 -89t-22.5 -97q-8 -33 -9.5 -75z" />
<glyph unicode="9" horiz-adv-x="573" d="M8.5 669q-0.5 50 12 101t33 98t44.5 84q37 55 84 82t99 27q47 0 96 -23q12 6 33 6q23 0 47 -7t44.5 -19t31 -29.5t2.5 -36.5q0 -18 -9.5 -34.5t-15.5 -36.5q-29 -98 -51.5 -193.5t-32.5 -195.5q-29 -127 -33 -249t-16 -249q-2 -16 -14.5 -24.5t-30.5 -8.5t-41 7 t-41.5 18.5t-30.5 26t-12 30.5q-10 100 -2 206.5t26 217.5q-10 -2 -30 -2q-55 0 -102.5 27.5t-71.5 85.5q-18 41 -18.5 91zM184 602q8 16 16.5 28.5t18.5 31.5q23 37 41.5 70.5t33.5 67.5t26.5 70.5t21.5 81.5l-12 13q10 -10 -2.5 -12.5t-22.5 -12.5q-18 -16 -29.5 -28.5 t-19.5 -30.5q-10 -29 -24.5 -57.5t-24.5 -63.5q-8 -29 -15.5 -57.5t-7.5 -65.5v-35z" />
<glyph unicode=":" horiz-adv-x="333" d="M51 260q0 49 32 103.5t62 95.5q4 4 17 4q23 0 48.5 -10.5t41.5 -20.5q4 0 14 -6t19.5 -16.5t12.5 -21.5t-7 -21q-10 -20 -19.5 -40t-19.5 -40q-10 -31 -20.5 -52.5t-20.5 -41.5q-8 -23 -33 -23q-14 0 -27.5 5t-19.5 5q-20 10 -50 29.5t-30 50.5zM51 793q0 25 9.5 52 t22.5 52t29.5 46.5t32.5 35.5q10 12 31 12q20 0 41 -9l35 -15q4 -6 14 -15.5t19.5 -20.5t12.5 -22.5t-7 -21.5q-10 -20 -19.5 -35.5t-19.5 -44.5q-10 -20 -20.5 -41.5t-20.5 -52.5q-6 -14 -33 -15q-33 0 -47 15q-20 10 -50 30.5t-30 49.5z" />
<glyph unicode=";" horiz-adv-x="313" d="M25.5 182.5q-9.5 16.5 3.5 32.5q23 47 43 93.5t28 97.5q-18 18 -27.5 39.5t17.5 31.5h37q8 2 29 2q20 0 41.5 -5t39 -14t28.5 -23.5t11 -35.5q0 -74 -25.5 -145.5t-72.5 -128.5q-14 -10 -31 -10q-23 0 -47 9t-44.5 24.5t-30 32zM66 801q0 55 24.5 102t63.5 84q2 10 22 10 q16 0 36.5 -8t27.5 -14q8 -4 21 -13.5t22.5 -19.5t12.5 -21.5t-5 -21.5q-10 -18 -25.5 -36.5t-25.5 -37.5q-10 -18 -12.5 -43t-12.5 -45q-8 -14 -31 -14q-14 0 -30.5 5t-26.5 9q-18 10 -39.5 27.5t-21.5 36.5z" />
<glyph unicode="&#x3c;" horiz-adv-x="819" d="M-6 535q-6 23 0 39t18.5 28t27.5 21.5t30 19.5q43 29 91 54.5t93 52.5q94 55 183 105.5t169 109.5q8 6 27 6q29 0 64.5 -15.5t63 -36t39 -43t-8.5 -34.5q-66 -39 -135.5 -82t-141.5 -86q-45 -27 -82 -48.5t-72 -43.5q-12 -6 -32.5 -17.5t-42 -23t-39 -21.5t-23.5 -16 q-12 0 -12 -7.5t12 -7.5q10 -12 22.5 -16t22.5 -14l47 -47q35 -23 70 -52.5t68 -54.5q72 -55 133 -105t127 -110q25 -23 39 -48.5t-23 -43.5q-12 -6 -27 -6q-33 0 -68.5 18.5t-58.5 34.5q-90 61 -165.5 123.5t-155.5 122.5q-47 35 -81 69.5t-73 67.5q-16 12 -34.5 24.5 t-34 24.5t-26.5 26.5t-11 31.5z" />
<glyph unicode="=" horiz-adv-x="1052" d="M43 626.5q4 12.5 27 12.5q152 23 293 35t282 12q51 0 101.5 -2t101.5 -6q20 0 45 -7t46.5 -17.5t38.5 -25t26 -28.5q14 -29 1.5 -53.5t-40.5 -24.5q-193 0 -366 -5t-335 -34q-23 -6 -41 -6q-43 0 -76.5 20.5t-56.5 43.5q-14 8 -27.5 24.5t-18.5 32.5t-1 28.5z M150.5 391.5q11.5 34.5 56.5 34.5q131 -16 262 -18t262 -2q43 0 94.5 -25t79.5 -53q8 -14 11.5 -31.5t-3 -32t-21.5 -24t-44 -9.5q-131 0 -262 9.5t-262 9.5q-45 0 -93.5 24.5t-62.5 53.5q-29 29 -17.5 63.5z" />
<glyph unicode="&#x3e;" horiz-adv-x="956" d="M23.5 976.5q13.5 24.5 46 49.5t74.5 42t75 17q17 0 29 -6q94 -68 196.5 -126t210.5 -122q53 -31 107.5 -61.5t105.5 -62.5q14 -10 33 -20.5t33 -25t21.5 -34t0.5 -45.5q0 -20 -12 -36t-30.5 -30t-40 -28.5t-39.5 -28.5q-43 -35 -84 -77t-95 -83q-92 -66 -180 -139.5 t-192 -145.5q-25 -16 -67 -37.5t-79 -21.5q-16 0 -31 6q-23 10 -27.5 23.5t0.5 28t18.5 28.5t27.5 27q78 70 147.5 127t153.5 122q37 29 78 63t82 60q12 14 25.5 26.5t27.5 27.5q12 14 25.5 18t27.5 16q12 0 12.5 9.5t-12.5 9.5q-6 6 -27.5 18.5t-47 24.5t-49 24.5 t-36.5 20.5q-41 25 -83.5 50.5t-94.5 55.5q-84 49 -162.5 99.5t-156.5 97.5q-25 14 -11.5 38.5z" />
<glyph unicode="?" horiz-adv-x="872" d="M20.5 651q8.5 66 37 127.5t73.5 114.5t88 88q59 47 129 70.5t141 23.5q66 0 128.5 -20.5t115.5 -61.5q61 -49 88 -110.5t27 -127t-22.5 -131t-57.5 -122.5q-39 -61 -86 -127t-81 -134.5t-44 -141t25 -146.5q10 -18 -4.5 -26.5t-30.5 -8.5q-27 0 -57.5 9.5t-49.5 37.5 q-43 61 -51 124t9.5 125t51 122.5t72.5 118.5q45 53 84 112.5t58 120.5q8 31 13 67t3 70.5t-13.5 66.5t-37.5 54q-35 27 -80 27q-47 0 -94 -19.5t-88 -52.5t-74 -73t-51 -80q-16 -27 -30.5 -59t-14.5 -58q-10 -18 -11.5 -35.5t-1.5 -34.5q0 -10 6.5 -24.5t6.5 -22.5 q8 -10 8 -11t-8 -1q8 0 16 1t18 11q16 0 28.5 12.5t29.5 22.5q27 27 46.5 58.5t35.5 58.5q14 23 47 22q20 0 41.5 -8t38 -20.5t23.5 -27t1 -26.5q-23 -35 -45 -68.5t-48 -61t-57.5 -46t-70.5 -22.5q-10 0 -19.5 -1t-19.5 -1q-70 0 -129 28.5t-90 89.5t-22.5 127zM477 -176 q2 16 12.5 23.5t26.5 7.5t36.5 -7.5t39 -19.5t32 -25.5t15.5 -25.5v-117q-2 -16 -14.5 -23.5t-28.5 -7.5t-36.5 7.5t-38 17.5t-30 24.5t-14.5 28.5v117z" />
<glyph unicode="@" horiz-adv-x="1218" d="M33 361.5q-4 84.5 21.5 166.5t75.5 156t112 133q96 94 225 159.5t266 65.5q94 0 178 -34q88 -35 157 -104.5t100.5 -155.5t20.5 -178.5t-79 -174.5q-47 -57 -105.5 -89t-121.5 -32q-41 0 -84 15.5t-76 42.5q-37 -70 -86 -104.5t-131 -34.5q-41 0 -81 10t-75 33 q-47 29 -65.5 65.5t-17.5 76.5t16.5 81t35.5 78q47 86 117 142t154 95q4 2 16 2q20 0 50 -12t51.5 -29.5t26.5 -35t-19 -29.5q-2 -2 6 -2q20 0 46 -6.5t45 -18.5t31.5 -28.5t6.5 -34.5q-2 -14 -3 -17.5t-5 -7.5q-12 -35 -18.5 -72t5.5 -77q0 -4 2 -11q4 -14 9 -16q6 6 4 14 q45 4 77.5 37t54 78t32 94t10.5 86q-4 45 -20.5 89t-45 79t-68.5 55.5t-89 20.5q-63 0 -135 -29t-138.5 -74t-123 -98t-87.5 -102q-70 -106 -84 -221t52 -220q43 -68 101 -98.5t124 -30.5q59 0 116.5 21.5t106.5 62.5q12 10 37 11q25 0 50.5 -9.5t44 -22.5t25.5 -28.5 t-7 -27.5q-72 -57 -160 -86t-180 -29q-133 0 -256 60.5t-195 183.5q-49 82 -53 166.5zM442 338q0 -4 2 -14.5t5 -16.5q25 6 36 16.5t19 20.5q16 23 36.5 42.5t32.5 43.5q29 59 47.5 116.5t57.5 106.5q-76 -39 -135.5 -100t-81.5 -147q-6 -23 -14.5 -36.5t-4.5 -31.5z" />
<glyph unicode="A" horiz-adv-x="602" d="M31 347q2 161 26 308q8 55 23.5 128t44.5 138.5t76 111.5t121 46t137 -31.5t92 -105.5q12 -35 16 -73q3 -25 3 -51q0 -12 -1 -26q-2 -40 -5 -80t-3 -79q-8 -174 -10 -344t-23 -342q-2 -16 -14 -24.5t-31 -8.5q-18 0 -38.5 7t-38 17.5t-28.5 24.5t-11 29q0 121 6 245.5 t6 245.5q-43 -8 -86 -18t-86 -27q-8 -43 -9 -86t-1 -86q8 -70 15 -131t7 -121q0 -31 -35 -30q-31 0 -68.5 21.5t-45.5 43.5q-39 131 -39 283v15zM219 575q43 10 86 11.5t86 1.5v227q0 27 4 58.5t-4 56.5q0 10 -6 23.5t-6 23.5q-10 -10 -27.5 -19.5t-17.5 -27.5 q-10 -8 -18.5 -21.5t-16.5 -23.5q-27 -72 -48.5 -153t-31.5 -157z" />
<glyph unicode="B" horiz-adv-x="600" d="M32 94q1 60 3 121q4 68 4 130.5t-6 121.5q6 129 9 263q1 57 1 114q0 75 -2 149q8 10 15 17.5t18 9.5q-4 33 30 37q12 2 25.5 3t26.5 1q57 0 114.5 -18.5t104.5 -52.5t82 -80t49 -103q11 -42 11 -83q0 -54 -20 -106q-34 -90 -96 -163q31 0 61 -14.5t54.5 -38t41 -53 t20.5 -60.5q-4 -61 -42 -112.5t-92.5 -91.5t-116 -69.5t-110.5 -48.5q-8 -10 -10 -11t-10 -1v-12t2 -11q-8 -25 -41 -24q-16 0 -36 6t-37 16.5t-28.5 21.5t-11.5 23q-13 55 -13 111v8zM197 184q4 -27 5 -46t3 -46q41 23 73.5 52.5t65.5 64.5q22 23 44 59q14 24 15 48 q0 12 -4 24q-10 33 -45 33q-20 0 -41.5 -8.5t-40.5 -14.5q-8 0 -29.5 5t-39.5 12q-3 -34 -3 -72v-19v-20q0 -38 -3 -72zM205 471q55 57 96 119.5t51 134.5q3 18 3 38t-3 41q-6 42 -23.5 78t-45 58.5t-66.5 22.5h-12q2 -60 2 -120.5t-2 -121.5t-2 -123.5t2 -126.5z" />
<glyph unicode="C" horiz-adv-x="550" d="M21 402q2 70 13 154.5t31.5 171.5t52.5 158.5t76 117t103 45.5q33 0 66.5 -12.5t62.5 -33t51.5 -49t32.5 -59.5q18 -46 17 -91q-1 -14 -1 -26q-6 -58 -16 -116q-6 -29 -39 -29q-16 0 -35.5 7t-36 18.5t-27 23.5t-7.5 25q10 49 13 104v17q0 46 -13 90q0 8 -6.5 16 t-14.5 16q-16 -16 -30.5 -33.5t-24.5 -33.5q-23 -43 -43.5 -108.5t-33.5 -140.5q-14 -75 -22 -156q-8 -72 -7 -139v-15q1 -74 12.5 -136.5t35.5 -101.5l13 -12q4 0 8 6q2 2 2 6q27 8 41 22.5t27 43.5q23 49 27.5 99t15.5 101q2 20 30 21q16 0 36 -7.5t37 -19.5t29.5 -25.5 t12.5 -25.5q0 -53 -10.5 -111.5t-35 -105.5t-65.5 -78t-104 -31q-68 0 -117 29t-80.5 75t-50 104.5t-24.5 117.5q-3 25 -3 64q0 19 1 43z" />
<glyph unicode="D" horiz-adv-x="532" d="M23 256q0 68 5 129t5 121q10 135 11 264t22 264q6 27 38 27q23 0 51 -10.5t48 -26.5q172 -66 238.5 -192.5t66.5 -305.5q-10 -170 -86 -326.5t-219 -258.5q0 -8 -12.5 -9.5t-22.5 -1.5q-10 -6 -21 -6q-16 0 -35.5 7.5t-37 18.5t-29.5 23.5t-12 22.5q-8 70 -9 135.5 t-1 124.5zM190 156q51 68 86.5 139.5t49.5 163.5q9 64 9 124v13q-1 66 -9 135q-8 20 -17.5 48t-22 55.5t-30.5 51t-43 36.5q0 -111 -6 -221.5t-17 -229.5v-315z" />
<glyph unicode="E" horiz-adv-x="555" d="M46 140q3 38 3 77q18 193 29.5 381t30.5 373q0 16 1 20t9 15q72 25 146.5 35t144.5 10q27 0 56.5 -11.5t47.5 -33.5q16 -20 9 -34t-31 -14q-61 0 -114.5 -10t-107.5 -37q-10 -96 -16 -190t-6 -193q16 10 33.5 17.5t35.5 7.5q10 4 20.5 4h20.5q45 0 74 -29 q14 -14 20.5 -36.5t-20.5 -32.5q-53 -16 -98 -31.5t-98 -26.5q0 -16 -6.5 -33.5t-6.5 -35.5v-150q-8 -27 -5 -58.5t-5 -57.5h35q35 10 70.5 17t78.5 17q27 0 58 -9t47 -25q4 -4 11 -14.5t10 -22t0 -20.5t-21 -13q-57 -14 -128 -32.5t-136 -18.5q-25 0 -48.5 3t-46.5 13 q-47 18 -67 46q-21 27 -27 61q-4 22 -4 47q0 12 1 25z" />
<glyph unicode="F" horiz-adv-x="546" d="M23 18q0 209 7 410t15 410l-1 83q0 43 26 68q25 25 67.5 39t90.5 20.5t95.5 8.5t79.5 2q4 2 15 1q25 0 50.5 -16t39.5 -32q12 -16 3 -31.5t-26 -15.5q-53 -8 -104 -10.5t-105 -12.5q-27 -6 -43 -18.5t-26 -38.5v-336q18 10 41.5 17t40.5 7q16 4 28 5q47 0 76 -29 q16 -16 26.5 -36.5t-16.5 -31.5q-53 -16 -103 -32.5t-103 -26.5q0 -113 -6.5 -219.5t-6.5 -218.5q0 -16 -12 -24.5t-31 -8.5q-18 0 -38.5 6t-38 16.5t-29.5 21.5t-12 23z" />
<glyph unicode="G" horiz-adv-x="577" d="M23 369q0 92 1 174t9 174q8 33 17 72.5t21.5 79.5t30 76t43.5 63q29 27 61 39t66 12q39 0 76 -13.5t66 -35.5q70 -51 86 -125q10 -46 10 -94q0 -30 -4 -62q-2 -16 -29 -16q-16 0 -35.5 5t-37 14t-31 18.5t-13.5 19.5q-3 33 -3 64v16v7q0 36 -9 73q-10 8 -17 15t-9 13 q-10 0 -19 -2q-23 -18 -39 -45.5t-27.5 -60.5t-18.5 -65.5t-13 -61.5q-29 -135 -31 -281v-24q0 -134 21 -258q2 -25 6 -51.5t22 -42.5h10.5t12.5 2q6 0 19.5 8t19.5 18q23 18 39 44t28.5 56.5t19.5 62.5t11 60q6 41 12 87q2 16 2 31q0 30 -8 57q0 -4 -6 -11q-2 -2 -4 -2 q-16 -10 -30.5 -23.5t-31.5 -25.5q-8 -8 -26 -8q-20 0 -43 9t-39 21.5t-22.5 27t6.5 26.5q39 33 82.5 58.5t95.5 25.5q82 0 126 -51.5t50 -128.5v-19q0 -49 -9 -107q-10 -69 -36.5 -132.5t-71.5 -111.5t-113 -63q-10 -2 -21 -3t-22 -1q-51 0 -105 20.5t-85 57.5 q-29 35 -40 76t-15 83t-4 83t-2 76z" />
<glyph unicode="H" horiz-adv-x="577" d="M18 25q0 125 12.5 255t22.5 255t15.5 255t31.5 254q0 25 29 25q16 0 35.5 -7t37 -18.5t30 -27t12.5 -31.5q4 -44 4 -88q0 -57 -6 -115q-12 -104 -23 -213q35 0 77 6.5t79 6.5q8 117 11.5 231t23.5 231q2 25 34 25q33 0 73 -25.5t45 -58.5q0 -125 -11.5 -255t-22.5 -255 q-9 -114 -9 -226v-23v-9q0 -120 -27 -240q0 -25 -33 -24q-16 0 -38 6t-40.5 17.5t-30.5 23.5t-12 25q-5 48 -5 98q0 59 7 121q12 114 22 231q-35 -10 -71.5 -17t-71.5 -7q-10 -117 -13 -237t-22 -237q-2 -25 -41 -24q-18 0 -39.5 6t-41 17.5t-32 23.5t-12.5 25z" />
<glyph unicode="I" horiz-adv-x="251" d="M37 16q4 256 11.5 509t21.5 509q0 33 39 33q33 0 70.5 -21.5t39.5 -50.5q2 -146 2 -291q0 -108 -1 -216q-3 -250 -13 -498q0 -20 -16.5 -28.5t-38.5 -8.5q-37 0 -75 18.5t-40 44.5z" />
<glyph unicode="J" horiz-adv-x="581" d="M7 214v9q0 46 9 96q2 14 12.5 19.5t24.5 5.5q18 0 40 -7t40.5 -19.5t30.5 -28t12 -31.5q-8 -31 -8 -66v-14q2 -43 20 -80q0 -10 7.5 -23.5t17.5 -13.5q-4 0 1 4.5t13 8.5q8 6 23 12q29 25 49 96.5t35.5 166.5t25 205t16.5 210t11 181t8 120q0 23 27 22q16 0 36.5 -8 t39 -20t32 -26.5t13.5 -28.5q8 -51 11 -126q2 -38 2 -78t-2 -84q-3 -87 -10 -178.5t-20.5 -176.5t-30 -156.5t-36.5 -118.5q-29 -61 -80 -93t-113 -32q-59 0 -112 27q-51 25 -82 58.5t-46.5 75.5t-16.5 92z" />
<glyph unicode="K" horiz-adv-x="595" d="M33 -8q0 133 8 265t16 265q10 135 19.5 267.5t27.5 265.5q0 31 35 30q16 0 37 -7t39 -19t30.5 -25.5t12.5 -25.5q-10 -68 -11 -136.5t-1 -136.5q45 72 84 142.5t82 142.5q14 23 43 22q18 0 38.5 -8t36 -22.5t22.5 -30.5t1 -33q-29 -72 -65.5 -142.5t-75.5 -139.5 q-16 -29 -41 -61t-41 -58q35 -61 63 -130t53 -130q37 -90 73 -183.5t46 -183.5q0 -16 -11 -21t-24 -5q-8 0 -14 1t-10 1q-27 10 -49.5 22t-32.5 37q-41 92 -75 178t-68 176q-10 27 -17.5 53.5t-17.5 53.5q-10 -8 -12.5 -15.5t-10.5 -7.5v-12q-10 -106 -14 -218t-23 -220 q-6 -29 -39 -29q-16 0 -36.5 7t-38 18.5t-28.5 26t-11 26.5z" />
<glyph unicode="L" horiz-adv-x="464" d="M37 807q-1 22 -1 44q0 110 17 218q6 31 37 31q16 0 34.5 -7.5t35 -19.5t28 -26.5t11.5 -26.5q15 -54 15 -108v-18q-3 -63 -3 -128v-713q29 0 60.5 1.5t60.5 11.5q29 0 54.5 -18.5t41.5 -43.5q11 -17 11 -28q0 -19 -36 -19q-53 -10 -113.5 -11t-115.5 -1q-14 0 -36.5 3 t-44 10t-37 21.5t-15.5 36.5v521q0 137 -4 270z" />
<glyph unicode="M" horiz-adv-x="710" d="M18 8q10 160 12.5 314.5t10.5 316.5q0 72 1 150.5t11 158.5q0 18 3 48t22 48q14 12 37 13q16 0 31.5 -4t25.5 -9q37 -14 57.5 -39.5t31.5 -56t17.5 -64.5t14.5 -67q10 -45 17 -95t18 -95q18 117 32.5 226t26.5 226q2 20 12.5 27.5t26.5 7.5q18 0 39.5 -8t40 -20.5t33 -27 t16.5 -26.5q63 -270 85 -551.5t22 -568.5q0 -14 -12.5 -20.5t-28.5 -6.5q-18 0 -41 6.5t-42.5 15.5t-31.5 22.5t-12 29.5q0 57 -1 151.5t-4.5 195t-7.5 193.5t-8 152q-4 -68 -10 -166t-12.5 -203.5t-13.5 -203.5t-13 -166q-2 -16 -14.5 -24.5t-28.5 -8.5q-18 0 -40 7.5 t-40 17.5t-30.5 24.5t-14.5 30.5q-6 68 -12 158t-12.5 183t-15.5 182t-23 157v-12q0 -68 -1.5 -157t-4.5 -181t-7 -179t-8 -151q0 -25 -33 -25q-16 0 -37.5 6.5t-40 17.5t-31 24.5t-12.5 25.5z" />
<glyph unicode="N" horiz-adv-x="542" d="M29 1022q0 31 39 31q33 0 70.5 -18.5t47.5 -35.5q53 -109 92 -211t74 -213q0 111 7.5 223.5t15.5 223.5q0 29 28 29q14 0 33 -7.5t34 -18.5t26.5 -23.5t11.5 -24.5q7 -85 7 -169q0 -42 -2 -84q-5 -126 -5 -261v-502q0 -16 -10.5 -23.5t-26.5 -7.5t-36.5 6.5t-38 15.5 t-30 20.5t-14.5 23.5q-35 160 -69.5 312.5t-85.5 312.5q0 -168 6 -334q2 -55 2 -110q0 -109 -8 -216q-2 -29 -33 -29q-16 0 -35.5 7.5t-37 18.5t-29 23.5t-11.5 24.5q-8 127 -9 252t-1 250q-10 135 -11 261t-1 253z" />
<glyph unicode="O" horiz-adv-x="491" d="M23 258q-5 56 -5 110t5 106q10 106 10 206q4 49 7 114.5t20.5 125t53.5 100.5t107 41q6 0 11.5 -1t11.5 -1q61 -6 102 -38t66.5 -80t38 -104.5t16.5 -111.5q2 -29 2 -87t-2 -132t-8 -154t-15.5 -150.5t-22.5 -124.5t-32 -73q-25 -29 -55.5 -40t-65.5 -11q-63 0 -109 26.5 t-77 69.5t-45 97.5t-14 111.5zM166 270q0 -51 4 -100t29 -100l12 -11h10q27 8 37 19.5t18 36.5q14 45 23.5 127t13.5 170q3 70 3 135v33q-1 80 -5 122v99.5t-12 91.5q-4 16 -13.5 32.5t-9.5 32.5h-10l-33 -32q-16 -27 -25 -77t-15.5 -111.5t-10.5 -129t-6 -131t-4 -118 t-6 -89.5z" />
<glyph unicode="P" horiz-adv-x="464" d="M39 1017q-2 9 1 16t15 7q10 2 19.5 2h19.5q63 0 121.5 -23.5t105 -65.5t77 -98t38.5 -122q3 -22 3 -44q0 -44 -11 -88q-16 -66 -49 -129.5t-78 -120t-94 -101.5q8 -66 9 -132.5t1 -131.5q0 -29 -29 -29q-14 0 -32.5 7t-36 18.5t-29.5 23.5t-14 25q-27 117 -30 241.5 t-3 241.5q0 118 -2 236v26q0 105 14 209q-4 4 -9 13.5t-7 18.5zM184 942q7 -84 7 -165q0 -33 -1 -65q-1 -30 -1 -61q0 -84 8 -170q25 41 45 89.5t30 97.5q6 28 8 68v11q0 34 -8 69q-10 40 -30.5 75t-57.5 51z" />
<glyph unicode="Q" horiz-adv-x="550" d="M17 419v20q0 83 7 164q9 91 27.5 175t46 148.5t66.5 103.5t88 39h10q76 -6 123 -53t72.5 -118t34.5 -157q7 -77 7 -154v-18q-1 -86 -8.5 -162.5t-11.5 -127.5l-10 -13v-57q8 -8 10.5 -16.5t12.5 -16.5q35 -59 71.5 -114.5t65.5 -114.5q8 -16 -3.5 -25.5t-19.5 -9.5 q-27 0 -53.5 9t-38.5 26q-16 18 -33.5 34.5t-34.5 32.5q-10 -8 -14 -16t-20 -16q-23 -29 -53.5 -41.5t-65.5 -12.5q-51 0 -100.5 21.5t-79.5 54.5q-31 33 -51.5 96.5t-32 144.5t-12.5 174zM188 152q2 -50 29 -103l10 -10h13q27 8 38 19t19 38q10 35 16 62.5t6 62.5 q-27 53 -43 104.5t-36 102.5q-8 20 1 26.5t25 6.5q31 0 66 -10q0 59 5 125.5t5 125.5q-8 53 -9 103.5t-14 91.5q-6 18 -10 34.5t-12 35.5h-12q-8 -10 -15.5 -18.5t-7.5 -16.5q-35 -35 -35 -92q-16 -43 -19 -92.5t-3 -102.5q0 -94 -5 -194.5t-5 -194.5q-8 -42 -8 -83 q0 -10 1 -21z" />
<glyph unicode="R" horiz-adv-x="509" d="M25.5 1015.5q-5.5 22.5 21.5 26.5q25 4 50.5 7.5t52.5 3.5q49 0 96 -10.5t87 -34t68.5 -62.5t40.5 -94q9 -45 10 -94q0 -24 -3 -48q-7 -74 -41 -141q-23 -43 -58 -75.5t-78 -59.5q78 -92 134.5 -205.5t68.5 -232.5q2 -25 -24 -25q-29 0 -66 20.5t-45 39.5 q-33 86 -63.5 167t-81.5 148q8 -94 15 -192.5t7 -190.5q0 -29 -31 -29q-16 0 -34.5 7.5t-36 18.5t-30.5 23.5t-15 24.5q-27 119 -30 248t-3 246q-7 106 -7 215v27q1 124 17 241q-16 8 -21.5 30.5zM182 952q7 -73 7 -144q0 -30 -1 -58q-1 -27 -1 -52q0 -72 8 -139 q8 8 21 23.5t24 31.5q33 52 43 104q6 29 6 60q0 25 -4 51q0 31 -6.5 62t-14.5 55z" />
<glyph unicode="S" horiz-adv-x="477" d="M23 446q0 31 30 31q16 0 36 -7t38 -19.5t31.5 -25.5t15.5 -26q8 -39 10 -79.5t3 -81.5t5.5 -80t18.5 -74q8 -10 10 -17.5t12 -7.5t17.5 7.5t7.5 17.5q16 35 19.5 64.5t3.5 64.5q5 33 5 68q0 30 -4 62q-8 69 -36 128q-25 53 -68 99t-86 100q-36 45 -58 97q-14 34 -15 74 q0 20 4 42q8 43 40.5 90t75.5 74q27 6 54 6q51 0 99 -20.5t83 -57.5q35 -39 35 -94v-5q-2 -58 -13 -112q-4 -25 -32 -25q-14 0 -32 6.5t-33 17.5t-27.5 23.5t-14.5 24.5q-8 27 -10 53.5t-2 53.5v10h-13q-45 -42 -55 -100q-2 -14 -2 -28q0 -43 23 -83q33 -55 80.5 -100.5 t82.5 -98.5q29 -43 52.5 -100.5t29.5 -110.5q7 -53 7 -115q-1 -59 -15 -112q-14 -55 -49 -92t-98 -37q-10 0 -21.5 1t-21.5 3q-70 14 -121 59t-80 117q-12 35 -16 74t-4 80t1 82v16q0 33 -3 63z" />
<glyph unicode="T" horiz-adv-x="514" d="M16 1009.5q-2 16.5 21 22.5q94 25 203 25q23 0 62.5 -2t80.5 -11.5t75 -25.5t42 -43t-11.5 -35t-35.5 -8q-35 10 -68 13t-68 5q10 -41 16.5 -120.5t9.5 -178t3 -205t-3 -201.5t-7 -168t-10 -104q0 -16 -23 -16q-14 0 -34.5 7t-39 17.5t-33 22.5t-16.5 23q-6 23 -9 93 t-3 163.5t1 198t3 198.5t4 167t4 99q-16 -8 -26.5 -9t-18.5 -1q-4 -2 -14 -2q-20 0 -44 13.5t-41.5 29.5t-19.5 32.5z" />
<glyph unicode="U" horiz-adv-x="555" d="M27 702v30q0 148 18 294q2 31 35 31q16 0 36.5 -7.5t38 -19.5t30 -25.5t14.5 -25.5q0 -125 -5 -249q-2 -41 -2 -83q0 -83 7 -166q2 -29 8 -79t15 -103t20.5 -101t27.5 -73q0 -8 7.5 -21.5t17.5 -13.5q27 8 41 27.5t21.5 41t8.5 44t1 41.5v262q1 125 -5 254q-2 43 -2 86 q0 85 7 168q0 33 39 33q16 0 36.5 -7.5t38 -17.5t28.5 -25.5t11 -29.5q2 -23 5 -92.5t7 -160.5q3 -92 5 -194q1 -68 1 -131v-62q-1 -91 -5.5 -159t-12.5 -90q-20 -53 -59 -75.5t-84 -22.5q-8 0 -16.5 1t-18.5 3q-72 0 -131 37.5t-94 93.5q-37 59 -49.5 129.5t-22.5 142.5 q-16 151 -18 315z" />
<glyph unicode="V" horiz-adv-x="559" d="M8 1055q-2 27 37 26q18 0 39.5 -5t42 -14t35 -19.5t16.5 -18.5q18 -68 33.5 -164t30 -197.5t28 -197.5t27.5 -164q0 63 9 164.5t21.5 210t25 208t18.5 158.5q2 23 26 23q16 0 38 -9t41.5 -22.5t33.5 -28t18 -24.5q-18 -254 -58 -517t-75 -511q-6 -31 -43 -31 q-20 0 -43.5 7.5t-44 19.5t-35 25.5t-16.5 25.5q-29 129 -54.5 257t-54.5 263q-27 129 -54 263.5t-42 271.5z" />
<glyph unicode="W" horiz-adv-x="796" d="M4 1067q0 27 33 27q16 0 36.5 -7.5t39 -17.5t32 -24.5t17.5 -26.5q10 -45 19 -117t18.5 -148.5t18.5 -146t20 -110.5q4 45 11 114.5t15 145t16.5 147.5t12.5 121q0 25 18.5 35t44.5 10q31 0 63 -12.5t42 -32.5q12 -55 23.5 -131t21.5 -155t20.5 -153.5t24.5 -129.5 q4 63 8 141t10 159t13.5 159t17.5 141q2 10 12.5 15t26.5 5q18 0 43 -7t45.5 -19.5t32.5 -30t10 -35.5q-37 -240 -62.5 -477.5t-35.5 -485.5q-6 -33 -47 -32q-39 0 -82 24.5t-54 57.5q-33 117 -56 230.5t-52 231.5q-18 -129 -34.5 -263t-39.5 -273q-2 -23 -33 -23 q-18 0 -40.5 8.5t-43 20.5t-36 26.5t-17.5 28.5q-41 248 -73.5 501t-59.5 509z" />
<glyph unicode="X" horiz-adv-x="591" d="M27 49q41 117 82 228.5t88 228.5l-13 12q-37 117 -70.5 242t-62.5 252q0 16 12.5 21t24.5 5q35 0 71 -14t48 -49q16 -53 35.5 -114.5t38.5 -125.5q10 18 16 29.5t6 30.5q29 63 51.5 126t57.5 126q8 18 39 18q18 0 38.5 -7t38 -18.5t29.5 -25t12 -27.5q-10 -63 -39.5 -132 t-56.5 -132q-29 -63 -49.5 -119.5t-46.5 -122.5q0 -8 -6 -16t-6 -19q35 -111 67.5 -219t50.5 -225q4 -14 -4 -20.5t-20 -6.5q-14 0 -33.5 6.5t-37 15.5t-31 19.5t-17.5 20.5q-16 45 -34.5 90t-37.5 90q-18 -63 -43.5 -124.5t-52.5 -115.5q-8 -16 -33 -16q-18 0 -39.5 8 t-39 21.5t-27.5 29t-6 29.5z" />
<glyph unicode="Y" horiz-adv-x="514" d="M37 836q2 106 20 215q6 31 39 30q18 0 38 -7t35 -19.5t24.5 -25.5t7.5 -25q0 -72 -5 -145q-2 -24 -2 -48q0 -49 7 -96q8 -94 18 -131t21 -37q10 0 20 24.5t19.5 59.5t16.5 71.5t11 61.5q10 72 11 149.5t1 149.5q6 31 39 31q18 0 39 -7.5t38.5 -19.5t28.5 -26.5t11 -26.5 q12 -63 12 -129q0 -36 -4 -73q-10 -105 -32 -204q-14 -63 -46 -119.5t-86 -82.5v-205v-107.5t-12 -107.5q-2 -10 -13 -13.5t-26 -3.5q-14 0 -26.5 2t-16.5 2q-29 10 -51 27.5t-22 46.5q-10 33 -12 85q-2 24 -2 48q0 29 2 60q3 55 7.5 105t4.5 83q-57 31 -82 86t-25 119 q-8 82 -8 169v34z" />
<glyph unicode="Z" horiz-adv-x="573" d="M10 41q72 233 155 452.5t179 442.5q-43 0 -79 -7t-70 -18q-6 -2 -23 -2q-25 0 -50.5 10.5t-41.5 28.5q-14 14 -20.5 38t20.5 24q66 23 130 32t134 9h46.5t45.5 -4q8 0 27.5 -7.5t39 -18.5t31 -26.5t5.5 -33.5q-90 -223 -172 -441.5t-160 -441.5h10q35 0 75 3t81 3t76 -6 q25 0 53.5 -16.5t36.5 -45.5q8 -23 0.5 -32t-23.5 -9q-14 0 -22 5q-84 0 -166 -6.5t-168 -6.5q-16 -12 -41 -12q-20 0 -42 7t-38 19.5t-25.5 28t-3.5 31.5z" />
<glyph unicode="[" horiz-adv-x="387" d="M-18.5 520.5q2.5 399.5 43.5 790.5q2 16 16 24t25 6q57 6 114.5 6.5t114.5 4.5q29 -2 55.5 -17.5t44.5 -31.5q4 -4 10.5 -12.5t7.5 -15.5t-2 -12.5t-18 -5.5l-98 -8t-96 -8q-20 -375 -26.5 -739.5t15.5 -739.5q27 0 54.5 1t56.5 4q29 -2 60.5 -14.5t50.5 -35.5 q33 -39 -29 -55q-16 2 -31.5 2h-32.5q-25 0 -50 -1t-52 -1h-31.5t-31.5 2q-4 0 -8.5 -1t-8.5 -1q-16 0 -37.5 5t-40 13.5t-31 20.5t-10.5 27q-37 393 -34.5 792.5z" />
<glyph unicode="\" horiz-adv-x="770" d="M8 1266q-6 18 2 34.5t24.5 31t37 22.5t39.5 8q31 0 39 -21q168 -330 314 -661.5t288 -661.5q8 -18 -1.5 -37.5t-27.5 -35t-41 -24.5t-41 -9q-23 0 -31 16q-152 340 -310.5 669t-291.5 669z" />
<glyph unicode="]" horiz-adv-x="387" d="M-13 1275q1 7 7 15t10 13q18 16 44.5 31.5t55.5 17.5q57 -4 114.5 -4t115.5 -7q10 2 24.5 -6t16.5 -24q41 -391 43 -790.5t-35 -792.5q2 -14 -10.5 -26.5t-30.5 -21t-39.5 -13.5t-38.5 -5q-4 0 -8 1t-8 1q-16 -2 -31.5 -2h-32.5q-27 0 -52.5 1t-49.5 1h-31.5t-32.5 -2 q-61 16 -28 55q18 23 50 35t60 15q29 -2 56.5 -3.5t54.5 -1.5q23 375 16.5 739.5t-26.5 739.5q-47 4 -96.5 8t-98.5 8q-14 0 -17 5.5t-2 12.5z" />
<glyph unicode="^" horiz-adv-x="956" d="M-81 193.5q-9 37.5 3 60.5q68 94 126 196.5t122 211.5q31 53 61.5 107t63.5 105q8 14 17.5 30t21.5 30t26.5 23.5t34.5 9.5q8 0 25 -4q20 0 35.5 -12.5t30 -31t27.5 -40t30 -39.5q35 -43 77 -84t82 -94q66 -92 139.5 -180.5t145.5 -192.5q10 -16 23.5 -39t22.5 -47.5 t12.5 -48t-5.5 -41.5q-14 -29 -36 -29q-18 0 -36 14.5t-34 32.5q-70 78 -127 147.5t-123 153.5q-29 37 -62.5 78t-60.5 82q-14 12 -26.5 25.5t-26.5 27.5q-14 12 -18.5 25.5t-16.5 27.5q0 12 -8 13q-10 0 -10 -13q-6 -6 -18.5 -27.5t-25 -47t-24.5 -49t-20 -35.5 q-25 -41 -50.5 -84t-56.5 -95q-49 -84 -99 -162.5t-98 -156.5q-8 -14 -24 -14q-20 0 -46 27.5t-45.5 64.5t-28.5 74.5z" />
<glyph unicode="_" horiz-adv-x="862" d="M-21 -23q3 17 21 17q131 6 264 6t265.5 -3t263.5 -3q25 0 47 -12.5t32 -44.5q8 -23 5 -41.5t-21 -18.5q-135 0 -269 -3t-270 -3q-133 0 -268 6q-18 0 -36.5 13.5t-28.5 46.5q-8 23 -5 40z" />
<glyph unicode="`" horiz-adv-x="301" d="M74 1249q6 27 43 27q18 0 38.5 -6t39 -16.5t31 -25t16.5 -28.5q0 -72 -1 -149.5t-12 -149.5q0 -31 -30 -31q-16 0 -36 7.5t-37 19.5t-28.5 25.5t-11.5 25.5q-10 72 -11 150.5t-1 150.5z" />
<glyph unicode="a" horiz-adv-x="602" d="M31 347q2 161 26 308q8 55 23.5 128t44.5 138.5t76 111.5t121 46t137 -31.5t92 -105.5q12 -35 16 -73q3 -25 3 -51q0 -12 -1 -26q-2 -40 -5 -80t-3 -79q-8 -174 -10 -344t-23 -342q-2 -16 -14 -24.5t-31 -8.5q-18 0 -38.5 7t-38 17.5t-28.5 24.5t-11 29q0 121 6 245.5 t6 245.5q-43 -8 -86 -18t-86 -27q-8 -43 -9 -86t-1 -86q8 -70 15 -131t7 -121q0 -31 -35 -30q-31 0 -68.5 21.5t-45.5 43.5q-39 131 -39 283v15zM219 575q43 10 86 11.5t86 1.5v227q0 27 4 58.5t-4 56.5q0 10 -6 23.5t-6 23.5q-10 -10 -27.5 -19.5t-17.5 -27.5 q-10 -8 -18.5 -21.5t-16.5 -23.5q-27 -72 -48.5 -153t-31.5 -157z" />
<glyph unicode="b" horiz-adv-x="600" d="M32 94q1 60 3 121q4 68 4 130.5t-6 121.5q6 129 9 263q1 57 1 114q0 75 -2 149q8 10 15 17.5t18 9.5q-4 33 30 37q12 2 25.5 3t26.5 1q57 0 114.5 -18.5t104.5 -52.5t82 -80t49 -103q11 -42 11 -83q0 -54 -20 -106q-34 -90 -96 -163q31 0 61 -14.5t54.5 -38t41 -53 t20.5 -60.5q-4 -61 -42 -112.5t-92.5 -91.5t-116 -69.5t-110.5 -48.5q-8 -10 -10 -11t-10 -1v-12t2 -11q-8 -25 -41 -24q-16 0 -36 6t-37 16.5t-28.5 21.5t-11.5 23q-13 55 -13 111v8zM197 184q4 -27 5 -46t3 -46q41 23 73.5 52.5t65.5 64.5q22 23 44 59q14 24 15 48 q0 12 -4 24q-10 33 -45 33q-20 0 -41.5 -8.5t-40.5 -14.5q-8 0 -29.5 5t-39.5 12q-3 -34 -3 -72v-19v-20q0 -38 -3 -72zM205 471q55 57 96 119.5t51 134.5q3 18 3 38t-3 41q-6 42 -23.5 78t-45 58.5t-66.5 22.5h-12q2 -60 2 -120.5t-2 -121.5t-2 -123.5t2 -126.5z" />
<glyph unicode="c" horiz-adv-x="550" d="M21 402q2 70 13 154.5t31.5 171.5t52.5 158.5t76 117t103 45.5q33 0 66.5 -12.5t62.5 -33t51.5 -49t32.5 -59.5q18 -46 17 -91q-1 -14 -1 -26q-6 -58 -16 -116q-6 -29 -39 -29q-16 0 -35.5 7t-36 18.5t-27 23.5t-7.5 25q10 49 13 104v17q0 46 -13 90q0 8 -6.5 16 t-14.5 16q-16 -16 -30.5 -33.5t-24.5 -33.5q-23 -43 -43.5 -108.5t-33.5 -140.5q-14 -75 -22 -156q-8 -72 -7 -139v-15q1 -74 12.5 -136.5t35.5 -101.5l13 -12q4 0 8 6q2 2 2 6q27 8 41 22.5t27 43.5q23 49 27.5 99t15.5 101q2 20 30 21q16 0 36 -7.5t37 -19.5t29.5 -25.5 t12.5 -25.5q0 -53 -10.5 -111.5t-35 -105.5t-65.5 -78t-104 -31q-68 0 -117 29t-80.5 75t-50 104.5t-24.5 117.5q-3 25 -3 64q0 19 1 43z" />
<glyph unicode="d" horiz-adv-x="532" d="M23 256q0 68 5 129t5 121q10 135 11 264t22 264q6 27 38 27q23 0 51 -10.5t48 -26.5q172 -66 238.5 -192.5t66.5 -305.5q-10 -170 -86 -326.5t-219 -258.5q0 -8 -12.5 -9.5t-22.5 -1.5q-10 -6 -21 -6q-16 0 -35.5 7.5t-37 18.5t-29.5 23.5t-12 22.5q-8 70 -9 135.5 t-1 124.5zM190 156q51 68 86.5 139.5t49.5 163.5q9 64 9 124v13q-1 66 -9 135q-8 20 -17.5 48t-22 55.5t-30.5 51t-43 36.5q0 -111 -6 -221.5t-17 -229.5v-315z" />
<glyph unicode="e" horiz-adv-x="555" d="M46 140q3 38 3 77q18 193 29.5 381t30.5 373q0 16 1 20t9 15q72 25 146.5 35t144.5 10q27 0 56.5 -11.5t47.5 -33.5q16 -20 9 -34t-31 -14q-61 0 -114.5 -10t-107.5 -37q-10 -96 -16 -190t-6 -193q16 10 33.5 17.5t35.5 7.5q10 4 20.5 4h20.5q45 0 74 -29 q14 -14 20.5 -36.5t-20.5 -32.5q-53 -16 -98 -31.5t-98 -26.5q0 -16 -6.5 -33.5t-6.5 -35.5v-150q-8 -27 -5 -58.5t-5 -57.5h35q35 10 70.5 17t78.5 17q27 0 58 -9t47 -25q4 -4 11 -14.5t10 -22t0 -20.5t-21 -13q-57 -14 -128 -32.5t-136 -18.5q-25 0 -48.5 3t-46.5 13 q-47 18 -67 46q-21 27 -27 61q-4 22 -4 47q0 12 1 25z" />
<glyph unicode="f" horiz-adv-x="546" d="M23 18q0 209 7 410t15 410l-1 83q0 43 26 68q25 25 67.5 39t90.5 20.5t95.5 8.5t79.5 2q4 2 15 2q25 0 50.5 -16.5t39.5 -32.5q12 -16 3 -31.5t-26 -15.5q-53 -8 -104 -10.5t-105 -12.5q-27 -6 -43 -18.5t-26 -38.5v-336q18 10 41.5 17t40.5 7q16 4 28 5q47 0 76 -29 q16 -16 26.5 -36.5t-16.5 -31.5q-53 -16 -103 -32.5t-103 -26.5q0 -113 -6.5 -219.5t-6.5 -218.5q0 -16 -12 -24.5t-31 -8.5q-18 0 -38.5 6t-38 16.5t-29.5 21.5t-12 23z" />
<glyph unicode="g" horiz-adv-x="577" d="M23 369q0 92 1 174t9 174q8 33 17 72.5t21.5 79.5t30 76t43.5 63q29 27 61 39t66 12q39 0 76 -13.5t66 -35.5q70 -51 86 -125q10 -46 10 -94q0 -30 -4 -62q-2 -16 -29 -16q-16 0 -35.5 5t-37 14t-31 18.5t-13.5 19.5q-3 33 -3 64v16v7q0 36 -9 73q-10 8 -17 15t-9 13 q-10 0 -19 -2q-23 -18 -39 -45.5t-27.5 -60.5t-18.5 -65.5t-13 -61.5q-29 -135 -31 -281v-24q0 -134 21 -258q2 -25 6 -51.5t22 -42.5h10.5t12.5 2q6 0 19.5 8t19.5 18q23 18 39 44t28.5 56.5t19.5 62.5t11 60q6 41 12 87q2 16 2 31q0 30 -8 57q0 -4 -6 -11q-2 -2 -4 -2 q-16 -10 -30.5 -23.5t-31.5 -25.5q-8 -8 -26 -8q-20 0 -43 9t-39 21.5t-22.5 27t6.5 26.5q39 33 82.5 58.5t95.5 25.5q82 0 126 -51.5t50 -128.5v-19q0 -49 -9 -107q-10 -69 -36.5 -132.5t-71.5 -111.5t-113 -63q-10 -2 -21 -3t-22 -1q-51 0 -105 20.5t-85 57.5 q-29 35 -40 76t-15 83t-4 83t-2 76z" />
<glyph unicode="h" horiz-adv-x="577" d="M18 25q0 125 12.5 255t22.5 255t15.5 255t31.5 254q0 25 29 25q16 0 35.5 -7t37 -18.5t30 -27t12.5 -31.5q4 -44 4 -88q0 -57 -6 -115q-12 -104 -23 -213q35 0 77 6.5t79 6.5q8 117 11.5 231t23.5 231q2 25 34 25q33 0 73 -25.5t45 -58.5q0 -125 -11.5 -255t-22.5 -255 q-9 -114 -9 -226v-23v-9q0 -120 -27 -240q0 -25 -33 -24q-16 0 -38 6t-40.5 17.5t-30.5 23.5t-12 25q-5 48 -5 98q0 59 7 121q12 114 22 231q-35 -10 -71.5 -17t-71.5 -7q-10 -117 -13 -237t-22 -237q-2 -25 -41 -24q-18 0 -39.5 6t-41 17.5t-32 23.5t-12.5 25z" />
<glyph unicode="i" horiz-adv-x="251" d="M37 16q4 256 11.5 509t21.5 509q0 33 39 33q33 0 70.5 -21.5t39.5 -50.5q2 -146 2 -291q0 -108 -1 -216q-3 -250 -13 -498q0 -20 -16.5 -28.5t-38.5 -8.5q-37 0 -75 18.5t-40 44.5z" />
<glyph unicode="j" horiz-adv-x="581" d="M7 214v9q0 46 9 96q2 14 12.5 19.5t24.5 5.5q18 0 40 -7t40.5 -19.5t30.5 -28t12 -31.5q-8 -31 -8 -66v-14q2 -43 20 -80q0 -10 7.5 -23.5t17.5 -13.5q-4 0 1 4.5t13 8.5q8 6 23 12q29 25 49 96.5t35.5 166.5t25 205t16.5 210t11 181t8 120q0 23 27 22q16 0 36.5 -8 t39 -20t32 -26.5t13.5 -28.5q8 -51 11 -126q2 -38 2 -78t-2 -84q-3 -87 -10 -178.5t-20.5 -176.5t-30 -156.5t-36.5 -118.5q-29 -61 -80 -93t-113 -32q-59 0 -112 27q-51 25 -82 58.5t-46.5 75.5t-16.5 92z" />
<glyph unicode="k" horiz-adv-x="595" d="M33 -8q0 133 8 265t16 265q10 135 19.5 267.5t27.5 265.5q0 31 35 30q16 0 37 -7t39 -19t30.5 -25.5t12.5 -25.5q-10 -68 -11 -136.5t-1 -136.5q45 72 84 142.5t82 142.5q14 23 43 22q18 0 38.5 -8t36 -22.5t22.5 -30.5t1 -33q-29 -72 -65.5 -142.5t-75.5 -139.5 q-16 -29 -41 -61t-41 -58q35 -61 63 -130t53 -130q37 -90 73 -183.5t46 -183.5q0 -16 -11 -21t-24 -5q-8 0 -14 1t-10 1q-27 10 -49.5 22t-32.5 37q-41 92 -75 178t-68 176q-10 27 -17.5 53.5t-17.5 53.5q-10 -8 -12.5 -15.5t-10.5 -7.5v-12q-10 -106 -14 -218t-23 -220 q-6 -29 -39 -29q-16 0 -36.5 7t-38 18.5t-28.5 26t-11 26.5z" />
<glyph unicode="l" horiz-adv-x="464" d="M37 807q-1 22 -1 44q0 110 17 218q6 31 37 31q16 0 34.5 -7.5t35 -19.5t28 -26.5t11.5 -26.5q15 -54 15 -108v-18q-3 -63 -3 -128v-713q29 0 60.5 1.5t60.5 11.5q29 0 54.5 -18.5t41.5 -43.5q11 -17 11 -28q0 -19 -36 -19q-53 -10 -113.5 -11t-115.5 -1q-14 0 -36.5 3 t-44 10t-37 21.5t-15.5 36.5v521q0 137 -4 270z" />
<glyph unicode="m" horiz-adv-x="710" d="M18 8q10 160 12.5 314.5t10.5 316.5q0 72 1 150.5t11 158.5q0 18 3 48t22 48q14 12 37 13q16 0 31.5 -4t25.5 -9q37 -14 57.5 -39.5t31.5 -56t17.5 -64.5t14.5 -67q10 -45 17 -95t18 -95q18 117 32.5 226t26.5 226q2 20 12.5 27.5t26.5 7.5q18 0 39.5 -8t40 -20.5t33 -27 t16.5 -26.5q63 -270 85 -551.5t22 -568.5q0 -14 -12.5 -20.5t-28.5 -6.5q-18 0 -41 6.5t-42.5 15.5t-31.5 22.5t-12 29.5q0 57 -1 151.5t-4.5 195t-7.5 193.5t-8 152q-4 -68 -10 -166t-12.5 -203.5t-13.5 -203.5t-13 -166q-2 -16 -14.5 -24.5t-28.5 -8.5q-18 0 -40 7.5 t-40 17.5t-30.5 24.5t-14.5 30.5q-6 68 -12 158t-12.5 183t-15.5 182t-23 157v-12q0 -68 -1.5 -157t-4.5 -181t-7 -179t-8 -151q0 -25 -33 -25q-16 0 -37.5 6.5t-40 17.5t-31 24.5t-12.5 25.5z" />
<glyph unicode="n" horiz-adv-x="542" d="M29 1022q0 31 39 31q33 0 70.5 -18.5t47.5 -35.5q53 -109 92 -211t74 -213q0 111 7.5 223.5t15.5 223.5q0 29 28 29q14 0 33 -7.5t34 -18.5t26.5 -23.5t11.5 -24.5q7 -85 7 -169q0 -42 -2 -84q-5 -126 -5 -261v-502q0 -16 -10.5 -23.5t-26.5 -7.5t-36.5 6.5t-38 15.5 t-30 20.5t-14.5 23.5q-35 160 -69.5 312.5t-85.5 312.5q0 -168 6 -334q2 -55 2 -110q0 -109 -8 -216q-2 -29 -33 -29q-16 0 -35.5 7.5t-37 18.5t-29 23.5t-11.5 24.5q-8 127 -9 252t-1 250q-10 135 -11 261t-1 253z" />
<glyph unicode="o" horiz-adv-x="491" d="M23 258q-5 56 -5 110t5 106q10 106 10 206q4 49 7 114.5t20.5 125t53.5 100.5t107 41q6 0 11.5 -1t11.5 -1q61 -6 102 -38t66.5 -80t38 -104.5t16.5 -111.5q2 -29 2 -87t-2 -132t-8 -154t-15.5 -150.5t-22.5 -124.5t-32 -73q-25 -29 -55.5 -40t-65.5 -11q-63 0 -109 26.5 t-77 69.5t-45 97.5t-14 111.5zM166 270q0 -51 4 -100t29 -100l12 -11h10q27 8 37 19.5t18 36.5q14 45 23.5 127t13.5 170q3 70 3 135v33q-1 80 -5 122v99.5t-12 91.5q-4 16 -13.5 32.5t-9.5 32.5h-10l-33 -32q-16 -27 -25 -77t-15.5 -111.5t-10.5 -129t-6 -131t-4 -118 t-6 -89.5z" />
<glyph unicode="p" horiz-adv-x="464" d="M39 1017q-2 9 1 16t15 7q10 2 19.5 2h19.5q63 0 121.5 -23.5t105 -65.5t77 -98t38.5 -122q3 -22 3 -44q0 -44 -11 -88q-16 -66 -49 -129.5t-78 -120t-94 -101.5q8 -66 9 -132.5t1 -131.5q0 -29 -29 -29q-14 0 -32.5 7t-36 18.5t-29.5 23.5t-14 25q-27 117 -30 241.5 t-3 241.5t-2 236v26q0 105 14 209q-4 4 -9 13.5t-7 18.5zM184 942q7 -84 7 -165q0 -33 -1 -65q-1 -31 -1 -61q0 -84 8 -170q25 41 45 89.5t30 97.5q6 29 8 68v11q0 34 -8 69q-10 40 -30.5 75t-57.5 51z" />
<glyph unicode="q" horiz-adv-x="550" d="M17 419v20q0 83 7 164q9 91 27.5 175t46 148.5t66.5 103.5t88 39h10q76 -6 123 -53t72.5 -118t34.5 -157q7 -77 7 -154v-18q-1 -86 -8.5 -162.5t-11.5 -127.5l-10 -13v-57q8 -8 10.5 -16.5t12.5 -16.5q35 -59 71.5 -114.5t65.5 -114.5q8 -16 -3.5 -25.5t-19.5 -9.5 q-27 0 -53.5 9t-38.5 26q-16 18 -33.5 34.5t-34.5 32.5q-10 -8 -14 -16t-20 -16q-23 -29 -53.5 -41.5t-65.5 -12.5q-51 0 -100.5 21.5t-79.5 54.5q-31 33 -51.5 96.5t-32 144.5t-12.5 174zM188 152q2 -50 29 -103l10 -10h13q27 8 38 19t19 38q10 35 16 62.5t6 62.5 q-27 53 -43 104.5t-36 102.5q-8 20 1 26.5t25 6.5q31 0 66 -10q0 59 5 125.5t5 125.5q-8 53 -9 103.5t-14 91.5q-6 18 -10 34.5t-12 35.5h-12q-8 -10 -15.5 -18.5t-7.5 -16.5q-35 -35 -35 -92q-16 -43 -19 -92.5t-3 -102.5q0 -94 -5 -194.5t-5 -194.5q-8 -42 -8 -83 q0 -10 1 -21z" />
<glyph unicode="r" horiz-adv-x="509" d="M25.5 1015.5q-5.5 22.5 21.5 26.5q25 4 50.5 7.5t52.5 3.5q49 0 96 -10.5t87 -34t68.5 -62.5t40.5 -94q9 -45 10 -94q0 -24 -3 -48q-7 -74 -41 -141q-23 -43 -58 -75.5t-78 -59.5q78 -92 134.5 -205.5t68.5 -232.5q2 -25 -24 -25q-29 0 -66 20.5t-45 39.5 q-33 86 -63.5 167t-81.5 148q8 -94 15 -192.5t7 -190.5q0 -29 -31 -29q-16 0 -34.5 7.5t-36 18.5t-30.5 23.5t-15 24.5q-27 119 -30 248t-3 246q-7 106 -7 215v27q1 124 17 241q-16 8 -21.5 30.5zM182 952q7 -73 7 -144q0 -30 -1 -58q-1 -27 -1 -52q0 -72 8 -139 q8 8 21 23.5t24 31.5q33 52 43 104q6 29 6 60q0 25 -4 51q0 31 -6.5 62t-14.5 55z" />
<glyph unicode="s" horiz-adv-x="477" d="M23 446q0 31 30 31q16 0 36 -7t38 -19.5t31.5 -25.5t15.5 -26q8 -39 10 -79.5t3 -81.5t5.5 -80t18.5 -74q8 -10 10 -17.5t12 -7.5t17.5 7.5t7.5 17.5q16 35 19.5 64.5t3.5 64.5q5 33 5 68q0 30 -4 62q-8 69 -36 128q-25 53 -68 99t-86 100q-36 45 -58 97q-14 34 -15 74 q0 20 4 42q8 43 40.5 90t75.5 74q27 6 54 6q51 0 99 -20.5t83 -57.5q35 -39 35 -94v-5q-2 -58 -13 -112q-4 -25 -32 -25q-14 0 -32 6.5t-33 17.5t-27.5 23.5t-14.5 24.5q-8 27 -10 53.5t-2 53.5v10h-13q-45 -42 -55 -100q-2 -14 -2 -28q0 -43 23 -83q33 -55 80.5 -100.5 t82.5 -98.5q29 -43 52.5 -100.5t29.5 -110.5q7 -53 7 -115q-1 -59 -15 -112q-14 -55 -49 -92t-98 -37q-10 0 -21.5 1t-21.5 3q-70 14 -121 59t-80 117q-12 35 -16 74t-4 80t1 82v16q0 33 -3 63z" />
<glyph unicode="t" horiz-adv-x="514" d="M16 1009.5q-2 16.5 21 22.5q94 25 203 25q23 0 62.5 -2t80.5 -11.5t75 -25.5t42 -43t-11.5 -35t-35.5 -8q-35 10 -68 13t-68 5q10 -41 16.5 -120.5t9.5 -178t3 -205t-3 -201.5t-7 -168t-10 -104q0 -16 -23 -16q-14 0 -34.5 7t-39 17.5t-33 22.5t-16.5 23q-6 23 -9 93 t-3 163.5t1 198t3 198.5t4 167t4 99q-16 -8 -26.5 -9t-18.5 -1q-4 -2 -14 -2q-20 0 -44 13.5t-41.5 29.5t-19.5 32.5z" />
<glyph unicode="u" horiz-adv-x="555" d="M27 702v30q0 148 18 294q2 31 35 31q16 0 36.5 -7.5t38 -19.5t30 -25.5t14.5 -25.5q0 -125 -5 -249q-2 -41 -2 -83q0 -83 7 -166q2 -29 8 -79t15 -103t20.5 -101t27.5 -73q0 -8 7.5 -21.5t17.5 -13.5q27 8 41 27.5t21.5 41t8.5 44t1 41.5v262q1 125 -5 254q-2 43 -2 86 q0 85 7 168q0 33 39 33q16 0 36.5 -7.5t38 -17.5t28.5 -25.5t11 -29.5q2 -23 5 -92.5t7 -160.5q3 -92 5 -194q1 -68 1 -131v-62q-1 -91 -5.5 -159t-12.5 -90q-20 -53 -59 -75.5t-84 -22.5q-8 0 -16.5 1t-18.5 3q-72 0 -131 37.5t-94 93.5q-37 59 -49.5 129.5t-22.5 142.5 q-16 151 -18 315z" />
<glyph unicode="v" horiz-adv-x="559" d="M8 1055q-2 27 37 26q18 0 39.5 -5t42 -14t35 -19.5t16.5 -18.5q18 -68 33.5 -164t30 -197.5t28 -197.5t27.5 -164q0 63 9 164.5t21.5 210t25 208t18.5 158.5q2 23 26 23q16 0 38 -9t41.5 -22.5t33.5 -28t18 -24.5q-18 -254 -58 -517t-75 -511q-6 -31 -43 -31 q-20 0 -43.5 7.5t-44 19.5t-35 25.5t-16.5 25.5q-29 129 -54.5 257t-54.5 263q-27 129 -54 263.5t-42 271.5z" />
<glyph unicode="w" horiz-adv-x="796" d="M4 1067q0 27 33 27q16 0 36.5 -7.5t39 -17.5t32 -24.5t17.5 -26.5q10 -45 19 -117t18.5 -148.5t18.5 -146t20 -110.5q4 45 11 114.5t15 145t16.5 147.5t12.5 121q0 25 18.5 35t44.5 10q31 0 63 -12.5t42 -32.5q12 -55 23.5 -131t21.5 -155t20.5 -153.5t24.5 -129.5 q4 63 8 141t10 159t13.5 159t17.5 141q2 10 12.5 15t26.5 5q18 0 43 -7t45.5 -19.5t32.5 -30t10 -35.5q-37 -240 -62.5 -477.5t-35.5 -485.5q-6 -33 -47 -32q-39 0 -82 24.5t-54 57.5q-33 117 -56 230.5t-52 231.5q-18 -129 -34.5 -263t-39.5 -273q-2 -23 -33 -23 q-18 0 -40.5 8.5t-43 20.5t-36 26.5t-17.5 28.5q-41 248 -73.5 501t-59.5 509z" />
<glyph unicode="x" horiz-adv-x="591" d="M27 49q41 117 82 228.5t88 228.5l-13 12q-37 117 -70.5 242t-62.5 252q0 16 12.5 21t24.5 5q35 0 71 -14t48 -49q16 -53 35.5 -114.5t38.5 -125.5q10 18 16 29.5t6 30.5q29 63 51.5 126t57.5 126q8 18 39 18q18 0 38.5 -7t38 -18.5t29.5 -25t12 -27.5q-10 -63 -39.5 -132 t-56.5 -132q-29 -63 -49.5 -119.5t-46.5 -122.5q0 -8 -6 -16t-6 -19q35 -111 67.5 -219t50.5 -225q4 -14 -4 -20.5t-20 -6.5q-14 0 -33.5 6.5t-37 15.5t-31 19.5t-17.5 20.5q-16 45 -34.5 90t-37.5 90q-18 -63 -43.5 -124.5t-52.5 -115.5q-8 -16 -33 -16q-18 0 -39.5 8 t-39 21.5t-27.5 29t-6 29.5z" />
<glyph unicode="y" horiz-adv-x="514" d="M37 836q2 106 20 215q6 31 39 30q18 0 38 -7t35 -19.5t24.5 -25.5t7.5 -25q0 -72 -5 -145q-2 -24 -2 -48q0 -49 7 -96q8 -94 18 -131t21 -37q10 0 20 24.5t19.5 59.5t16.5 71.5t11 61.5q10 72 11 149.5t1 149.5q6 31 39 31q18 0 39 -7.5t38.5 -19.5t28.5 -26.5t11 -26.5 q12 -63 12 -129q0 -36 -4 -73q-10 -105 -32 -204q-14 -63 -46 -119.5t-86 -82.5v-205v-107.5t-12 -107.5q-2 -10 -13 -13.5t-26 -3.5q-14 0 -26.5 2t-16.5 2q-29 10 -51 27.5t-22 46.5q-10 33 -12 85q-2 24 -2 48q0 29 2 60q3 55 7.5 105t4.5 83q-57 31 -82 86t-25 119 q-8 82 -8 169v34z" />
<glyph unicode="z" horiz-adv-x="573" d="M10 41q72 233 155 452.5t179 442.5q-43 0 -79 -7t-70 -18q-6 -2 -23 -2q-25 0 -50.5 10.5t-41.5 28.5q-14 14 -20.5 38t20.5 24q66 23 130 32t134 9h46.5t45.5 -4q8 0 27.5 -7.5t39 -18.5t31 -26.5t5.5 -33.5q-90 -223 -172 -441.5t-160 -441.5h10q35 0 75 3t81 3t76 -6 q25 0 53.5 -16.5t36.5 -45.5q8 -23 0.5 -32t-23.5 -9q-14 0 -22 5q-84 0 -166 -6.5t-168 -6.5q-16 -12 -41 -12q-20 0 -42 7t-38 19.5t-25.5 28t-3.5 31.5z" />
<glyph unicode="{" horiz-adv-x="434" d="M-57 653q51 76 73.5 158t26.5 167t-3 171t-15 170q-8 16 3 23.5t27 7.5q39 6 82 12t82 12q53 -2 90 -33q12 -10 21.5 -33.5t-13.5 -27.5q-43 -8 -81.5 -12t-75.5 -8q10 -80 18 -161t5 -160t-19.5 -154.5t-54.5 -145.5q47 -31 73 -74q31 -53 28 -119.5t-5 -134.5 q-10 -68 -13.5 -142.5t-7.5 -150.5q-2 -31 -6 -56t2 -54q6 -25 13.5 -42.5t25.5 -17.5q8 0 21 7q10 10 32 10q20 0 42 -8.5t37.5 -20.5t19.5 -25.5t-13 -21.5q-37 -35 -94 -35q-53 0 -95 21.5t-70.5 58.5t-45 83t-20.5 95q4 86 10 163t10 161q10 39 11.5 77t3.5 74 q2 16 0 38t-17 44l-4 11q-10 0 -31.5 6t-40 16t-30 24.5t-2.5 26.5z" />
<glyph unicode="|" horiz-adv-x="251" d="M25 196q0 169 6 337.5t15 336.5t13 330q0 29 33 29q14 0 33.5 -7.5t35 -17.5t26 -23.5t10.5 -27.5q6 -88 7 -196.5t-1 -229.5t-4 -246t-5.5 -244.5t-5.5 -228t0 -194.5q0 -29 -32 -29q-16 0 -36 6t-38.5 17.5t-30.5 24.5t-12 28q-14 166 -14 335z" />
<glyph unicode="}" horiz-adv-x="391" d="M-41 -189.5q4 13.5 19.5 25.5t37 20.5t41.5 8.5q23 0 33 -10q12 -6 21 -7q18 0 25 17.5t14 42.5q6 29 1.5 54.5t-6.5 55.5q-4 76 -7 151t-13 142q-2 68 -5 134.5t27 119.5q27 43 74 74q-39 70 -55 145.5t-19.5 154.5t5 160t18.5 161q-37 4 -76 8t-82 12q-23 4 -13.5 27.5 t21.5 33.5q38 31 91 33q39 -6 82 -12t81 -12q16 0 27.5 -7.5t3.5 -23.5q-8 -84 -15 -170t-3 -171t26.5 -167t73.5 -158q8 -12 -3 -26.5t-29.5 -24.5t-40 -16t-31.5 -6l-4 -11q-14 -23 -16.5 -44t-0.5 -38q2 -37 3 -74.5t11 -76.5q4 -84 10.5 -161t10.5 -163 q-4 -49 -20.5 -95t-45 -83t-70.5 -58.5t-95 -21.5q-57 0 -95 35q-16 8 -12 21.5z" />
<glyph unicode="~" horiz-adv-x="851" d="M31 547q23 41 46 75.5t52 59.5t66.5 39t89.5 14q57 0 100 -24.5t84 -61.5q16 -16 28.5 -37.5t28.5 -29.5h13q-10 0 -8.5 5t20.5 5q10 10 23.5 12t23.5 10q27 27 44 47.5t38 43.5q8 10 31 10q18 0 40.5 -8.5t41 -21.5t28.5 -28.5t2 -29.5q-37 -66 -100.5 -107t-136.5 -41 q-72 0 -118 29t-95 74q-8 8 -21.5 29.5t-23.5 25.5q2 -2 -17 -12q-8 -6 -20 -11q-16 -8 -26.5 -16t-20.5 -16q-16 -27 -29 -51.5t-31 -51.5q-8 -14 -32 -14q-18 0 -42 8t-43.5 20.5t-30.5 27t-5 26.5z" />
<glyph unicode="&#xad;" horiz-adv-x="1052" d="M85 583q3 17 21 17q131 6 265 6q133 0 265 -3t263 -3q25 0 47.5 -12.5t32.5 -44.5q8 -23 5 -41.5t-21 -18.5q-135 0 -269.5 -3t-269.5 -3q-133 0 -268 6q-18 0 -37 13.5t-29 46.5q-8 23 -5 40z" />
<glyph unicode="&#xff;" horiz-adv-x="1941" d="M51 242.5q-4 23.5 21 38.5q8 4 15 7t15 7q4 10 7.5 20.5t7.5 20.5q8 20 14 40.5t16 43.5q-10 0 -19 -1t-19 -1t-21.5 6t-19 16.5t-6.5 21.5t16 19q29 16 58.5 27.5t62.5 19.5q12 14 30 15q8 0 21 -4q8 2 14 3t15 1q37 8 75.5 13t77.5 5q45 0 80 -8q23 -6 33 -31.5 t-21 -36.5q-47 -16 -97 -20t-99 -12q-16 -2 -34 -5.5t-34 -7.5q-8 -29 -18.5 -54.5t-20.5 -51.5q35 8 69 13t64 9h6q29 0 37.5 -25.5t-20.5 -39.5q-88 -43 -195 -70q-10 -29 -23.5 -57.5t-29.5 -57.5q-8 -14 -25 -14q-16 0 -29.5 11.5t-11.5 27.5q4 45 15 80q-23 8 -27 31.5 zM248 961q16 133 83.5 263t145.5 236q20 29 55 29q20 0 42 -10.5t35.5 -27.5t15.5 -37.5t-13 -41.5q-39 -74 -76.5 -146.5t-68.5 -148.5q-8 -23 -18.5 -62.5t-15.5 -79.5t0 -68.5t28 -28.5q25 0 67 41q55 53 92 120.5t65 141t51.5 148.5t51.5 143q10 23 29 33t41 10 q33 0 59.5 -21.5t22.5 -58.5q-6 -55 -24.5 -131t-49 -158t-72.5 -163t-94.5 -144.5t-116 -102.5t-134.5 -39h-19q-55 4 -92 35t-58.5 75t-28.5 95t-3 99zM440 324q35 94 121 141t182 47q51 -2 85 -23.5t49.5 -55.5t10.5 -75t-34 -82q-23 -31 -53.5 -58.5t-66.5 -49 t-77 -34.5t-79 -13q-31 0 -56 8q-63 18 -78.5 64.5t0.5 99.5q-10 12 -4 31zM532 276q-8 -35 6.5 -48t36.5 -13q27 0 50 8q41 10 76.5 33.5t62.5 58.5q12 14 19.5 33t7.5 35t-11.5 27.5t-38.5 13.5q-47 0 -82.5 -10.5t-74.5 -34.5q0 -10 -6 -19q-33 -41 -46 -84zM848 649 q14 152 73.5 290t125.5 273q12 25 29.5 73t42 95t55 82t69.5 35q18 0 33 -8q18 -6 33.5 -24.5t11.5 -41.5q2 -2 -2 -13t-9 -23.5t-10.5 -24.5t-5.5 -14q-10 -29 -23.5 -54.5t-27.5 -54.5q-23 -47 -46 -95t-46 -97q-49 -104 -93 -213t-97 -213q-8 -16 -22.5 -24.5t-31.5 -8.5 q-25 0 -44 16.5t-15 44.5zM926 223q16 74 42.5 145.5t57.5 141.5q6 14 18.5 21.5t24.5 7.5q35 0 51 -29q27 -41 49.5 -83t44.5 -83q4 16 9.5 33.5t9.5 34.5q16 37 32.5 75.5t45.5 67.5q14 16 35 16q23 0 38 -16t7 -43q-10 -45 -33 -87t-39 -87q-12 -37 -22.5 -75t-34.5 -66 q-18 -18 -41 -19q-33 0 -50 29q-23 45 -45 87t-45 85q-18 -45 -36.5 -89t-38.5 -87q-4 -12 -15.5 -17.5t-23.5 -5.5q-16 0 -30.5 11.5t-10.5 31.5zM1153 715q0 8 4 28q-2 14 4 29q16 76 48 148.5t63 144.5q16 39 31.5 80t34 80t41 74.5t55.5 64.5q16 14 36 14q29 0 50 -24 q55 25 125 24q53 0 106 -18t90 -53q37 -37 49.5 -79t7 -87t-24 -88t-40.5 -82q-37 -66 -82 -128.5t-100.5 -110.5t-122 -76.5t-148.5 -28.5q-72 0 -131 26q-16 -6 -28 -6q-29 0 -50.5 17.5t-17.5 50.5zM1350 793q78 4 139 42.5t115 110.5q25 35 58.5 80t43.5 86q8 35 0 56.5 t-26.5 32.5t-44 15.5t-52.5 4.5h-17t-18 -2q-4 0 -8 1t-8 1q-16 -63 -47 -124t-55 -118q-18 -47 -38 -93t-42 -93zM1430.5 490.5q-3.5 13.5 1 25.5t20.5 16q27 6 62.5 13.5t74.5 12.5t76 8t66 3q30 0 59 -6q12 -4 22.5 -13t13.5 -21.5t-1 -22.5t-21 -17q-27 -10 -53.5 -13 t-54.5 -7q-4 -29 -16.5 -71t-30 -84t-38 -78.5t-42.5 -55.5q-8 -8 -21 -8q-18 0 -33.5 15.5t-5.5 33.5q-2 -4 -2 6.5v12.5q2 10 5.5 17t7.5 17q20 47 35.5 93.5t31.5 93.5q-29 -2 -59.5 -3t-59.5 -1q-14 0 -24 10t-13.5 23.5z" />
<glyph unicode="&#xe01;" horiz-adv-x="839" d="M16.5 859.5q6.5 25.5 21.5 48t36.5 41t44.5 32.5q63 37 136 56.5t146 19.5q59 0 115.5 -12.5t110.5 -38.5q70 -35 108.5 -110t56 -172t15.5 -206.5t-14.5 -215t-31 -198t-34.5 -151.5q-8 -27 -47 -27q-20 0 -45 8.5t-45.5 20.5t-34.5 27.5t-14 31.5q6 33 17 108t22.5 168 t18.5 195.5t7 193.5t-12 158.5t-41 94.5q-25 23 -66 22q-43 0 -90 -18t-80 -31q-29 -10 -54 -19t-44 -38q-23 -35 0 -53.5t58.5 -38t66.5 -48t23 -83.5q0 -25 -11.5 -76t-29 -113.5t-39 -131t-42 -131t-38 -113.5t-25.5 -78q-6 -27 -43 -27q-18 0 -40.5 7t-41 18.5t-30 27 t-7.5 31.5q4 20 16.5 69.5t30 113t35 132t33 128t25.5 101.5t10 50q-4 18 -9 28.5t-15.5 18.5t-26 17.5t-37.5 23.5q-31 20 -41 38.5t-21 47.5q-10 27 -3.5 52.5z" />
<glyph unicode="&#xe02;" horiz-adv-x="577" d="M-39 641q12 59 29.5 110.5t42 98.5t59.5 90t84 88q14 12 37 12q31 0 62.5 -24.5t39.5 -52.5v-502q0 -59 7.5 -118.5t7.5 -119.5v-18q8 35 13 68.5t13 68.5q16 59 28.5 118.5t23.5 119.5q20 119 32.5 236.5t34.5 238.5q2 20 31 20q16 0 35.5 -7t37 -18.5t30 -25.5 t12.5 -29q6 -41 0.5 -111.5t-17.5 -155.5t-29.5 -178t-36 -177t-35 -153.5t-28.5 -108.5q-8 -31 -15 -56.5t-18.5 -44t-31 -29t-54.5 -10.5q-59 0 -98 37t-68 96q-8 16 -13 85t-8 165.5t-4 206t-1 205.5q-41 -77 -68 -186q-6 -27 -33 -27q-16 0 -33.5 8t-32.5 21.5t-25.5 29 t-10.5 29.5z" />
<glyph unicode="&#xe03;" horiz-adv-x="813" d="M66 997q4 16 35.5 29.5t60.5 13.5q16 0 28.5 -6t14.5 -20q2 -25 3 -54.5t3 -62.5q12 20 26.5 43t26.5 41t20 31l7 14q6 20 31 21q18 0 39.5 -8.5t40 -20.5t31.5 -27.5t13 -29.5q0 -193 7.5 -374t7.5 -368v-33q10 35 19 73t20 79q20 82 35.5 173t29 183t24.5 183.5 t27 175.5q2 20 31 20q18 0 40 -8t41.5 -20.5t32.5 -28t13 -29.5q4 -20 1 -67.5t-10 -106.5t-16.5 -124.5t-18.5 -127t-18.5 -111t-13.5 -73.5q-14 -72 -35.5 -139.5t-44.5 -137.5q-10 -31 -18 -55.5t-21.5 -41.5t-35 -26.5t-56.5 -9.5q-59 0 -99 37t-71 96q-8 16 -13 82 t-8 158t-4 198.5t-1 202.5q-20 -29 -36.5 -55.5t-29.5 -44.5q-14 -23 -45 -23q-35 0 -68.5 25t-33.5 53q0 78 -6 149.5t-6 151.5z" />
<glyph unicode="&#xe04;" horiz-adv-x="976" d="M14 249q2 44 9 85q25 174 95 334.5t204 283.5q53 51 117.5 85t135.5 34q80 0 139.5 -35t100.5 -90t64.5 -123.5t29.5 -138.5q8 -6 19.5 -18.5t19.5 -24.5t11.5 -22.5t-5.5 -14.5q-10 -4 -19 -9t-20 -9q0 -129 -24.5 -259t-40.5 -253q0 -16 -10.5 -23.5t-26.5 -7.5 q-18 0 -38.5 7t-39 19.5t-30 28t-11.5 31.5q-2 86 10.5 171t22.5 171q-61 -45 -111.5 -92t-94.5 -97.5t-85 -106.5t-84 -120q-23 -33 -51.5 -64.5t-73.5 -29.5q-6 -2 -18 -2q-33 0 -65.5 17.5t-57.5 39.5q-31 29 -46 67t-21.5 80t-4.5 86zM187 177q-1 -25 3 -54 q41 61 82 124.5t90 123.5q76 92 173.5 163.5t203.5 122.5q0 33 -3 74t-12 82t-24.5 78t-37.5 61q-6 2 -11 6q-6 6 -2 7q-4 0 -10 2q-10 0 -18.5 -6.5t-18.5 -6.5q-90 -35 -162.5 -119.5t-126 -190t-85 -216.5t-40.5 -197q0 -29 -1 -54z" />
<glyph unicode="&#xe05;" horiz-adv-x="1056" d="M56 266q1 39 1 74q14 133 51 265t103 251q29 49 55.5 98.5t73.5 81.5q39 27 92 27q70 0 131 -39q66 84 178 84q74 0 142.5 -36t99.5 -99q23 -49 26 -106.5t-3 -116.5q20 -14 36.5 -39t-6.5 -35q-10 -4 -21 -9t-22 -12q-4 -23 -6 -42t-4 -40q-6 -59 -14 -132.5 t-17.5 -150.5t-17.5 -150.5t-12 -131.5q0 -18 -12.5 -26.5t-28.5 -8.5q-18 0 -41 7.5t-42.5 19.5t-31.5 27.5t-12 31.5q-6 100 5 221t27 244q-162 -127 -278 -311q-16 -25 -30.5 -57.5t-34 -65.5t-44 -62.5t-59.5 -47.5q-33 -16 -66 -17q-47 0 -92 23.5t-73 58.5 q-25 31 -35.5 68t-14.5 75.5t-3 77.5zM238 160q0 -8 1 -14.5t3 -14.5q8 16 16 33.5t18 34.5q104 158 236.5 294t296.5 230q2 29 4 54.5t4 51.5v129q0 10 -6 17.5t-14 15.5l-6 -6q-47 -14 -73 -59t-40 -95q0 -35 -12.5 -69.5t-55.5 -34.5q-23 0 -46 8t-43.5 20.5t-32 29 t-7.5 32.5q4 14 7.5 28.5t7.5 28.5v33q0 10 -4 23l-35 -35q-29 -39 -56.5 -86t-48.5 -94q-57 -135 -91 -271.5t-23 -283.5z" />
<glyph unicode="&#xe06;" horiz-adv-x="1040" d="M47 1010q-4 16 5 22t26 6q16 0 35.5 -6t38 -15t31 -20.5t16.5 -23.5q4 -10 5 -21.5t5 -21.5q10 10 20.5 16t20.5 12q37 16 67 17q37 0 72 -17.5t62.5 -45t47 -61.5t27.5 -69q23 -63 26 -130.5t-5 -135.5q14 2 23.5 2h17.5q96 0 162 -61q23 143 41 283.5t45 299.5 q6 27 45 27q20 0 44.5 -7t44 -17.5t32 -24.5t10.5 -27q-10 -119 -22.5 -228.5t-30 -217t-37 -217t-43.5 -228.5q-6 -27 -43 -26q-20 0 -44 7t-45.5 18.5t-38 24.5t-18.5 28q0 29 -3 66.5t-12 72.5t-26.5 59.5t-48.5 24.5q-20 0 -41 -10q-10 -4 -17 -9.5t-16 -9.5 q-4 -49 -12 -105.5t-24.5 -108.5t-44 -97t-70.5 -74q-16 -10 -45 -10q-20 0 -43 5t-42.5 14.5t-32.5 22.5t-13 32q2 45 12 97t28.5 103t46 99.5t64.5 87.5q10 61 17.5 125.5t7.5 130.5q0 37 -3 80t-20 79q-23 -43 -42 -87t-36 -97q-12 -18 -45 -18q-18 0 -40.5 7t-42 19.5 t-33 26.5t-15.5 29q-12 76 -26.5 151.5t-24.5 151.5z" />
<glyph unicode="&#xe07;" horiz-adv-x="671" d="M19 570q4 20 36 20q43 0 76 -18.5t53 -41.5q63 -72 113.5 -150.5t93.5 -164.5q33 74 47.5 155t14.5 160v250q-4 10 -7.5 27.5t-7.5 36t-10 33t-16 20.5q-4 2 -13 2q-20 0 -39.5 -20.5t-19.5 -40.5q-6 -20 -35 -21q-20 0 -44.5 8.5t-46 22.5t-35 30.5t-9.5 32.5 q8 41 31.5 69t55.5 44t67.5 23.5t72.5 7.5q16 0 30.5 -1t29.5 -3q55 -6 89 -38t53 -83t26.5 -119t9.5 -147q2 -94 2 -186.5t-15.5 -178.5t-50 -165t-104.5 -146q-16 -16 -49 -17q-39 0 -80 21.5t-55 54.5q-55 121 -119 241t-137 242q-12 20 -8 40z" />
<glyph unicode="&#xe08;" horiz-adv-x="776" d="M9 835.5q-7 16.5 7 28.5q43 35 86 67t88.5 56.5t95.5 38.5t107 14q59 0 116.5 -15t104.5 -50q51 -37 81 -86t44.5 -104.5t15.5 -113t-5 -112.5q-14 -121 -47 -237.5t-89 -227.5q-16 -20 -32.5 -41.5t-37 -40t-43 -30t-50.5 -11.5q-4 0 -9.5 1t-9.5 1q-37 0 -67.5 13.5 t-52 36t-33 53t-7.5 67.5q10 92 14.5 177.5t-14.5 177.5q0 12 -2 25.5t-6 25.5q-14 -8 -14 -14q-37 -18 -52.5 -52t-33.5 -71q-4 -16 -27 -17q-16 0 -36.5 8.5t-39 21.5t-28.5 29.5t-4 30.5q23 63 60.5 118.5t111.5 66.5q63 0 126.5 -35t92.5 -100q29 -66 33 -141t4 -140 q0 -20 -2 -40.5t-6 -41.5q41 70 66.5 149.5t39.5 151.5q8 45 17.5 97.5t11.5 105.5t-4.5 104t-24.5 97q-16 35 -39.5 48t-54.5 13q-39 0 -83 -18.5t-87 -44t-80 -52t-59 -45.5q-8 -8 -27 -8q-20 0 -46 10.5t-44.5 24.5t-25.5 30.5z" />
<glyph unicode="&#xe09;" horiz-adv-x="956" d="M-12 481q10 61 49 91t86 30q45 0 94 -27q115 -39 133 -161q0 -41 -1 -81t-11 -81q53 37 107.5 60.5t113.5 23.5h17.5t17.5 -2q20 0 32.5 -2t32.5 -13q23 82 34.5 156t21.5 154q4 31 3 77t-12.5 93t-35 85t-64.5 54q-18 8 -47 8q-47 0 -96 -20.5t-86 -40.5 q-63 -35 -112.5 -82t-102.5 -107q-8 -10 -31 -10t-50.5 11.5t-49 27.5t-31.5 37.5t2 42.5q45 53 101.5 99t120 81t131 54.5t137.5 19.5q84 0 158.5 -30t131 -83t89 -127t32.5 -162q0 -72 -15.5 -141.5t-25.5 -140.5q0 -31 -7 -54.5t-7 -54.5q31 -31 56.5 -62.5t25.5 -72.5 q0 -72 -52.5 -118t-123.5 -56q-14 0 -37 5t-44.5 15.5t-36.5 24.5t-15 35q-20 96 0 176q-31 0 -60 -22.5t-49 -32.5q-72 -41 -139.5 -91.5t-128.5 -97.5q-8 -8 -31 -8t-50.5 9.5t-50 23.5t-37 32.5t-7.5 36.5q16 63 41.5 130t40.5 126q6 31 14 68t-2 68q0 -10 -6 -20.5 t-6 -20.5q-6 -20 -35 -21q-18 0 -41 8.5t-43.5 20.5t-32.5 27.5t-10 31.5z" />
<glyph unicode="&#xe0a;" horiz-adv-x="829" d="M-16 760q-2 57 15 114.5t49 102.5t76 72.5t93 27.5q53 0 100.5 -30.5t77.5 -73.5q37 61 88.5 128.5t111.5 129t128 111t137 71.5q6 2 21 2q25 0 54.5 -13t51 -31.5t27.5 -40t-15 -38.5q-66 -51 -120 -87t-104 -79t-101 -107.5t-113 -172.5q-2 -10 -12 -25.5t-12 -25.5 q-10 -16 -15 -31q23 -8 52.5 -16.5t35.5 -8.5q55 -23 103.5 -62.5t68.5 -98.5q18 -59 1 -123t-46 -113q-76 -123 -192.5 -206t-241.5 -136q-12 -4 -20 -4q-18 0 -45 8t-49.5 22.5t-39 34t-16.5 41.5q35 184 70 365.5t69 366.5q4 20 1 42.5t-3 45.5q-33 -12 -58.5 -38 t-41.5 -58.5t-25.5 -68.5t-9.5 -69q0 -29 -29 -29q-16 0 -36.5 9.5t-40 25t-32.5 32.5t-13 34zM258 963q2 0 4 -2t3 -4.5t5 -4.5zM352 238q74 49 136.5 110.5t99.5 134.5q16 33 15 59.5t7 67.5q-10 4 -26.5 5t-28.5 6q-35 12 -68.5 28t-64.5 41q-16 -123 -33.5 -232.5 t-36.5 -219.5z" />
<glyph unicode="&#xe0b;" horiz-adv-x="958" d="M23 1038q2 18 26 19q16 0 40 -9.5t44.5 -23.5t35.5 -33.5t17 -38.5q23 23 60 43q37 16 69 17q57 0 110.5 -33t88.5 -80q6 10 12 20.5t13 20.5q49 90 100 155.5t102.5 112.5t98.5 79t84 54q8 6 22 7q23 0 52.5 -13.5t52 -32t31 -39t-10.5 -34.5q-47 -39 -89 -66.5 t-86 -68.5t-97.5 -106.5t-122.5 -182.5q-10 -8 -16.5 -23.5t-16.5 -25.5q-2 -10 -2 -18.5v-14.5q27 -4 49 -10q12 -4 27 -6q59 -18 116.5 -55.5t79.5 -90.5q25 -57 13.5 -116.5t-46 -117t-87 -110.5t-108.5 -98t-112.5 -79t-97.5 -52q-16 -6 -35 -6q-23 0 -48 7t-45.5 20.5 t-34 30.5t-11.5 38q14 98 26.5 197.5t26.5 209.5q10 80 18.5 159t8.5 159q4 20 4 33.5t-8 35.5q-16 -4 -29.5 -16t-15.5 -18q-23 -18 -41.5 -40t-36.5 -45.5t-36.5 -45t-41.5 -37.5q-10 -8 -26 -8q-18 0 -41 10t-41.5 26.5t-29.5 36t-9 35.5q-4 59 -4 127.5t-2 140.5z M506 207q55 39 103 84t82 93t48.5 98t1.5 100q-10 2 -26.5 4t-26.5 4q-37 10 -72.5 24t-66.5 37q-4 -104 -16.5 -222t-26.5 -222z" />
<glyph unicode="&#xe0c;" horiz-adv-x="1228" d="M41 182q-12 70 3 142.5t32 138.5q10 41 22.5 83t24.5 85q2 16 3 32.5t1 32.5l2 13q-12 6 -25.5 18t-23.5 25.5t-16.5 26t-6.5 16.5q-29 55 11 123q20 33 54 56t72.5 39.5t80.5 28t77 21.5q16 2 35 3t35 1q82 0 153.5 -21.5t127 -64.5t87 -108.5t33.5 -153.5 q2 -86 -4 -176t-14 -176q-2 -10 -2 -21q16 -6 40.5 -20.5t49.5 -32t44 -36.5t26 -38q16 186 32.5 363.5t40.5 355.5q6 29 43 29q18 0 42 -8.5t43.5 -20.5t31.5 -27.5t10 -29.5q0 -111 -12 -218.5t-23 -209.5q-10 -119 -19 -229.5t-17 -221.5q-2 -18 -16.5 -26.5t-35.5 -8.5 q-35 0 -74.5 15.5t-52.5 31.5q-29 35 -49 77t-51 79q-16 18 -31.5 42t-40.5 44q-6 -78 -18 -148.5t-29 -142.5q-6 -20 -35 -20q-16 0 -34.5 6t-36 15t-31.5 21.5t-18 24.5q-39 45 -70 99.5t-25 113.5q12 59 47 96t89 50q8 86 15 172t15 180q-4 45 -15 85t-34.5 70.5 t-58.5 48t-86 17.5q-45 0 -84 -16q-20 -8 -49 -20.5t-52.5 -31t-36 -42t-1.5 -54.5q6 -18 13 -27.5t14 -16.5t14.5 -16t11.5 -28q6 -29 -1 -83t-20.5 -114.5t-28 -118t-22.5 -93.5q-4 -35 -6 -62.5t-6 -62.5q10 -10 11 -23.5t9 -23.5v-11q25 -2 36 18.5t28 43.5 q14 18 20 40.5t8 47.5q-2 18 5.5 24.5t19.5 6.5t24.5 -4.5t20.5 -8.5q25 -12 45.5 -30.5t18.5 -44.5q10 -78 -35 -138.5t-131 -62.5q-86 0 -157 51t-87 139z" />
<glyph unicode="&#xe0d;" horiz-adv-x="1269" d="M30 834.5q7 37.5 31 64.5q27 31 69 59.5t90 49t97.5 33t92.5 12.5h27.5t27.5 -4q121 -8 215 -68.5t129 -173.5q12 -55 14 -113.5t-3 -116t-12 -116t-11 -113.5q0 -53 -1 -109.5t25 -109.5q0 -16 12.5 -33.5t20.5 -34.5l4 -4q6 -6 10 -8q4 4 24.5 15.5t20.5 19.5 q8 10 10.5 23.5t12.5 21.5q8 27 9 58.5t1 56.5q0 61 6 121.5t6 119.5q16 147 22.5 287.5t23.5 288.5q6 18 40 18q20 0 46 -6t47.5 -16t37 -22.5t15.5 -24.5q0 -139 -6 -275.5t-17 -275.5q-10 -70 -12 -138.5t-10 -138.5q0 -53 -19.5 -98t-64.5 -80q-27 -31 -61.5 -44 t-73.5 -13q-47 0 -93.5 16.5t-80.5 40.5q-78 59 -102.5 131t-24.5 168q0 35 7 96.5t13 134t5 146.5t-15 134t-49 99t-97 39q-23 0 -47 -6q-27 -4 -78 -25.5t-93 -51t-56 -65.5t33 -71q27 -16 42 -34.5t15 -45.5q10 -27 4 -63.5t-14 -63.5q-18 -94 -36.5 -182t-10.5 -184 q0 -27 7 -50.5t15 -39.5q10 4 16.5 5t10.5 3q6 2 8 2q43 25 56.5 71t13.5 89q-4 16 5 20t26 4q10 0 20 -1t18 -1q25 -8 46.5 -24.5t21.5 -42.5q10 -51 -4 -94.5t-45 -75t-74 -49t-88 -17.5q-16 0 -32.5 2t-32.5 8q-61 16 -97.5 53t-53.5 86.5t-18 105.5t7 112q10 43 17 91 t18 93q0 2 2 22.5t5 45t5 50t2 40.5q-10 2 -13.5 9t-13.5 15q-16 10 -31.5 26.5t-25.5 43.5q-16 35 -9 72.5zM567 -227q-8 53 22 97t83 52q12 4 18 4q23 0 46.5 -11t37.5 -26q4 -10 10.5 -20t8.5 -18.5t-2.5 -14.5t-16.5 -6q-27 -8 -41 -37t-4 -53q6 -29 33 -29 q14 0 28.5 6.5t30.5 10.5q39 20 72 51t65.5 63.5t65.5 62t72 52.5q6 4 20 4q20 0 47 -10t46.5 -25.5t25.5 -32t-12 -28.5q-59 -35 -106.5 -87t-100.5 -95q-51 -37 -102.5 -55.5t-112.5 -18.5q-10 0 -23.5 1t-25.5 3q-27 8 -56.5 21.5t-57.5 33t-47.5 45t-23.5 60.5z" />
<glyph unicode="&#xe0e;" horiz-adv-x="970" d="M-49 -410q8 63 42 113.5t83 83.5t107.5 50.5t115.5 17.5q39 0 83 -10.5t85 -28t79.5 -38.5t69.5 -46q14 129 36 262t40.5 263t26.5 256t-2 241v63.5t-7.5 61t-26.5 48t-58 23.5q-27 0 -72 -10t-92 -27.5t-87 -40t-52 -49.5q-8 -18 -14.5 -41.5t3.5 -40.5q0 6 8 7 q4 0 17 -5q6 -2 10 -2q27 -16 56.5 -35.5t48.5 -46.5q14 -20 12 -70t-13.5 -115.5t-30 -137.5t-39 -136.5t-39.5 -113.5t-30 -66q-29 -35 -64.5 -55t-76.5 -20q-25 0 -45 6q-35 12 -61.5 38.5t-45 60.5t-30 72t-15.5 73q-4 16 8.5 21t28.5 5q10 0 19.5 -1t13.5 -1 q27 -10 49.5 -26.5t32.5 -42.5q0 -35 5 -47.5t11 -12.5t13 6q4 2 6 6q10 10 17 25.5t18 32.5q2 12 12 53t22.5 95t26.5 114.5t24.5 113t15.5 87t3 36.5q-6 0 -12 3q-16 4 -23 10q-27 10 -58.5 28.5t-58.5 53.5q-16 31 -13 61.5t19.5 59t42 52t56.5 36.5q70 39 150.5 62.5 t164.5 23.5q86 0 164 -31t137 -103q27 -31 41.5 -66.5t20.5 -74.5t7 -80t1 -80q-27 -299 -70 -586.5t-69 -586.5q0 -18 -16.5 -26.5t-41.5 -8.5q-23 0 -47 5t-45.5 14.5t-35 22.5t-13.5 28q0 16 1 31.5t1 31.5q-16 31 -32.5 62.5t-39.5 58.5q-27 35 -66.5 59.5t-82.5 34.5 q-100 0 -175 -62.5t-104 -158.5q-6 -25 -39 -25q-18 0 -39.5 7.5t-38 18.5t-27.5 25.5t-7 30.5z" />
<glyph unicode="&#xe0f;" horiz-adv-x="1079" d="M-57 -377q-10 47 1 88t48 70q23 18 49.5 25.5t52.5 7.5q53 0 105 -21q45 -14 78.5 -37.5t62.5 -54.5q16 45 38.5 89t49.5 87q10 25 49 25q31 0 63.5 -15.5t45.5 -31.5q27 -37 52 -74t48 -76q18 104 46 234.5t51.5 265.5t39 264t11 232.5t-34 169t-92.5 73.5 q-47 0 -91.5 -3t-91.5 -21q-35 -18 -74.5 -40t-58.5 -57q-10 -23 -8 -36t11 -21t24.5 -14.5t34.5 -14.5q27 -10 52 -29.5t44 -54.5q10 -14 2 -65t-24.5 -120t-41 -146.5t-47 -145t-43 -116t-28.5 -60.5q-29 -29 -58.5 -41t-62.5 -12q-39 0 -84 16q-66 35 -94.5 96.5 t-38.5 133.5q-6 16 7 21t30 5q12 0 21 -1t13 -1q29 -10 51.5 -27.5t22.5 -46.5q10 -16 12 -34.5t13 -36.5q33 31 61.5 106.5t52 161.5t41 167t25.5 122v37q-10 18 -36 22t-36 12q-29 10 -54.5 34t-43.5 52q-8 41 3 75t35.5 61.5t56.5 48t63 33.5q63 29 138 46t150 17 q98 0 189.5 -36t152.5 -124q33 -66 38 -183.5t-8 -261t-38.5 -300t-52.5 -304t-51.5 -273.5t-32.5 -203q0 -16 -18 -17q-25 0 -66 23q-31 4 -65.5 24.5t-45.5 40.5q-29 61 -59.5 123t-65.5 121q-27 -55 -47 -113.5t-36 -124.5q0 -8 4 -16q-12 -2 -13 -12q-6 -25 -34 -25 q-16 0 -38 8t-40.5 20.5t-31.5 28t-13 27.5q-10 29 -18.5 61.5t-18.5 59.5q-4 8 -11.5 23.5t-14.5 31t-16 27.5t-18 16h-12q-20 0 -35.5 -12t-25 -30.5t-13.5 -40t0 -40.5q0 -16 -10 -20t-27 -4q-10 0 -19 1t-15 1q-18 10 -47 20t-39 39z" />
<glyph unicode="&#xe10;" horiz-adv-x="813" d="M31 709q-14 29 11.5 85t73.5 111.5t111.5 97t126.5 41.5q29 0 58.5 -1t58.5 -11q20 0 30.5 -14t20.5 -25q6 -6 18.5 -11t18.5 -11q8 4 14.5 10t14.5 12l39 39q18 29 29.5 58.5t21.5 58.5q6 16 21.5 22.5t33.5 6.5q20 0 41 -6.5t38 -17.5t26.5 -25.5t7.5 -30.5 q-23 -104 -83.5 -172t-156.5 -68q-45 0 -96 19q-20 10 -32.5 18t-33.5 8q-10 10 -25.5 24.5t-25.5 14.5q-4 0 -15 -10t-24.5 -25.5l-27 -31t-23.5 -23.5q-20 -20 -28.5 -52t-36.5 -52v-3q23 4 38 5.5t29 1.5q53 0 106.5 -15.5t99.5 -43t83 -66.5t57 -86q29 -63 34 -132 t-8 -138.5t-41 -136t-61 -124.5q-16 -25 -59 -24q-20 0 -41.5 5t-40 13t-30 20.5t-11.5 24.5q0 25 -5 80t-15.5 112.5t-27.5 100.5t-42 43q-12 4 -16 4q-25 0 -45.5 -21.5t-28.5 -45.5l-27 -39q-10 -10 -26 -11q-20 0 -45 12.5t-44.5 31t-28.5 41t3 42.5q35 59 91.5 88 t117.5 29q72 0 142.5 -36t111.5 -95q4 59 -9.5 116.5t-54.5 104.5q-16 23 -33.5 30t-37.5 7q-23 0 -45.5 -6t-51.5 -6q-12 -2 -25 -3t-30 -1q-55 0 -111.5 17.5t-78.5 64.5zM53 -350.5q-8 16.5 2 28.5q49 47 82 112t62 134q6 20 32 21q27 0 57.5 -16.5t39.5 -30.5 q88 -80 164 -174l43 147q2 18 26 18q18 0 42 -10t44.5 -25.5t32.5 -35t10 -37.5q-20 -59 -39.5 -125t-38.5 -133q-6 -23 -28 -23q-16 0 -37 9.5t-39.5 21.5t-32.5 24.5t-18 18.5q-61 96 -140 195q-41 -90 -94 -168q-14 -20 -47 -21q-25 0 -50.5 11.5t-45 26.5t-27.5 31.5z " />
<glyph unicode="&#xe11;" horiz-adv-x="1222" d="M23.5 825.5q-9.5 87.5 7.5 165.5q4 23 20.5 31t38.5 8q29 0 56.5 -13t27.5 -32q10 -29 11 -59.5t1 -59.5q10 10 13.5 26.5t15.5 27.5q18 41 34.5 84t57.5 63q25 10 49 10q37 0 76 -15t64 -38q29 -25 32.5 -57.5t3.5 -73.5q0 -31 -4 -76t-9 -93t-11 -93t-12 -76 q20 35 43.5 83t48 99t51.5 99.5t53 83.5q39 51 99.5 92t140.5 41q72 0 138 -35t101 -98q20 -37 23.5 -116t-5.5 -177.5t-26.5 -206t-38 -205.5t-41 -177t-32.5 -116q-8 -27 -50 -26q-23 0 -49 9t-47.5 24.5t-34 34t-6.5 36.5q63 188 98 389t35 399q0 23 -4 49.5t-26 26.5 q-18 0 -47 -22q-51 -39 -88 -85t-68 -96.5t-57.5 -105.5t-53.5 -115q-57 -123 -107 -240.5t-93 -238.5q-4 -16 -20.5 -23.5t-37.5 -7.5q-23 0 -47 7.5t-43.5 20.5t-31 31.5t-7.5 39.5q20 129 29.5 258t23.5 260q6 49 11.5 101t15.5 112q-20 -29 -40.5 -66t-39.5 -67 q-8 -14 -30 -15q-12 0 -33 5.5t-42.5 13.5t-40 17t-26.5 18q-61 72 -70.5 159.5z" />
<glyph unicode="&#xe12;" horiz-adv-x="1470" d="M19 198.5q-7 82.5 0.5 168.5t23.5 167.5t33 141.5q20 57 51 125.5t74 127t99 98.5t128 40q27 0 57 -6q47 -14 91.5 -41t78.5 -66q23 41 52.5 64.5t72.5 23.5q23 0 51 -6q86 -14 129.5 -67.5t58.5 -123t12 -146t-7 -138.5q-8 -57 -14 -113.5t-15 -113.5q51 -23 96.5 -54.5 t88.5 -70.5q37 184 47 374.5t26 374.5q6 18 37 19q18 0 44 -7t47.5 -19.5t37 -27t15.5 -28.5q18 -213 -12.5 -436t-78.5 -436q-6 -31 -47 -31q-33 0 -69.5 15.5t-48.5 27.5q-27 20 -50.5 47t-48 52.5t-50 50t-54.5 40.5q-12 -55 -21.5 -106t-19.5 -109q-4 -12 -21 -16 q-10 -12 -36 -12q-10 0 -19.5 1t-13.5 1q-43 14 -86 36.5t-76 52t-49.5 68.5t-5.5 86q16 72 68.5 105t113.5 37q10 78 17.5 153.5t17.5 153.5q0 51 -1 101t-9 100q-4 -8 -17 -21q-39 -78 -60.5 -153.5t-41.5 -153.5q-12 -29 -56 -29q-23 0 -46 7.5t-42.5 19.5t-33 28.5 t-13.5 36.5q4 33 10.5 71t7.5 77t-6.5 75.5t-25.5 71.5q-14 29 -31 45q-12 -6 -20 -6q-29 -20 -49.5 -47t-40.5 -55q-16 -27 -33 -59.5t-33 -73.5q115 -106 154 -250t2 -297q-6 -39 -18.5 -78t-35 -70.5t-54.5 -51t-77 -19.5q-70 0 -128 31.5t-85 84.5q-35 55 -42 137.5z M199 191.5q2 -58.5 18 -103.5q10 10 17.5 21.5t7.5 15.5q23 33 36 88t15 117.5t-7.5 128.5t-29.5 119q-18 -63 -32.5 -131t-20.5 -132.5t-4 -123z" />
<glyph unicode="&#xe13;" horiz-adv-x="1402" d="M35 844q2 53 53 93t119.5 67.5t140.5 41t117 13.5q63 0 125.5 -14.5t115 -43t92.5 -73.5t58 -107q23 -86 22 -178t-16 -184q-2 -16 -3 -41t-1 -49q51 43 106.5 74.5t120.5 48.5q0 10 1 25t1 32q8 127 21.5 258t56.5 248q0 12 10.5 17t26.5 5q18 0 42 -7t43.5 -17.5 t32.5 -24.5t13 -29q-4 -59 -14 -119.5t-23 -127.5q-4 -59 -13 -125t-13 -133v-13q37 -10 57.5 -26.5t30.5 -40t11 -56t-1 -75.5q-6 -41 -13 -86t-19.5 -88t-34 -82t-60.5 -66q-16 -12 -49 -12q-20 0 -42 5t-39 13t-28.5 20.5t-11.5 28.5q4 78 3 155t3 163 q-98 -63 -166.5 -148.5t-109.5 -177.5q-8 -12 -31 -12q-18 0 -41.5 9t-44 22.5t-32 29t-7.5 27.5q-8 18 -14 27.5t4 19.5q29 160 48 326t-1 327q-6 53 -26.5 103.5t-73.5 62.5q-27 8 -60 8q-53 0 -105 -19t-98 -44q-18 -8 -42.5 -24.5t-42 -38t-20.5 -45t24 -46.5 q18 -18 39.5 -33.5t29.5 -50.5q6 -51 -8 -100t-27 -90q-23 -59 -36 -111.5t-25 -111.5q-2 -25 -2 -50.5t10 -52.5q-2 -16 -2 -31.5t10 -25.5q53 0 70.5 30.5t21.5 78.5q-6 23 21 22q12 0 27.5 -5t25.5 -9q29 -2 50.5 -18.5t19.5 -43.5q16 -78 -17.5 -117.5t-126.5 -44.5 q-39 0 -79.5 10.5t-76.5 31t-64.5 51t-41.5 69.5q-23 70 -14.5 142.5t31.5 140.5q2 41 12 75.5t20 69.5q29 49 18 92t-46 80q-27 18 -40 44t-3 61z" />
<glyph unicode="&#xe14;" horiz-adv-x="921" d="M59 295q-16 111 17 228.5t86 215.5q33 61 79 118.5t98 104t110.5 74t117.5 27.5q57 0 112.5 -29.5t106.5 -95.5q61 -80 87 -202t27 -256t-16.5 -263t-41.5 -221q-6 -18 -37 -19q-20 0 -47 8.5t-49.5 21.5t-38 29.5t-11.5 35.5q14 88 24.5 189t10.5 204.5t-13 203 t-46 183.5q-25 66 -100 66q-33 0 -73 -46.5t-75 -97.5q4 0 9 1t10 1q57 0 104 -25.5t82 -86.5q31 -55 43 -127t8 -147t-24.5 -146.5t-56.5 -128t-87 -90t-115 -33.5q-61 0 -112 26.5t-90 69.5t-64.5 97.5t-34.5 109.5zM229 381q-8 -125 24 -178t79 -53t95 47t65 122 q14 66 10 149t-45 148q-20 31 -54 31q-31 0 -64 -22t-60 -45q-20 -47 -33 -96.5t-17 -102.5z" />
<glyph unicode="&#xe15;" horiz-adv-x="1042" d="M8 365q10 78 22.5 159.5t41.5 159.5q20 57 52 126t74 127t96 98t122 40q66 0 125 -31.5t100 -78.5q47 84 139 84h22.5t24.5 -5q86 -18 129 -85.5t56.5 -162t3.5 -207t-28.5 -220t-40 -200.5t-29.5 -151q0 -18 -29 -18q-18 0 -44 8t-47.5 21.5t-35.5 31t-10 35.5q0 -6 2 0 t4 15.5t4 19.5t2 16q10 84 29.5 177.5t35 188.5t17.5 191.5t-23 188.5q-4 -8 -10 -16.5t-10 -12.5q-29 -78 -57.5 -153.5t-47.5 -153.5q-6 -29 -51 -29q-20 0 -43.5 7.5t-43 19.5t-31 29.5t-9.5 36.5q10 68 13.5 147.5t-25.5 146.5q-10 20 -18.5 29.5t-18.5 20.5 q-8 -4 -10 -7l-4 -4q-25 -16 -49.5 -44.5t-46 -62.5t-40 -68.5t-30.5 -61.5q115 -106 160 -248.5t6 -296.5q-10 -41 -25.5 -80t-39 -69.5t-57.5 -50t-81 -19.5q-61 0 -120.5 31.5t-88.5 85.5q-35 66 -36 141.5t-1 153.5zM192 210.5q1 -56.5 19 -110.5q10 10 18.5 19.5 t8.5 13.5q10 29 20 58.5t18 58.5q23 80 16 176t-48 172q-23 -66 -34 -135.5t-11 -136.5q-8 -59 -7 -115.5z" />
<glyph unicode="&#xe16;" horiz-adv-x="946" d="M48 754.5q-13 31.5 3 79.5q16 51 69.5 90t120 65.5t136 39.5t121.5 13q66 0 131 -14t118.5 -46t92.5 -82t53 -120q16 -92 13 -191.5t-13 -195.5q-10 -104 -28.5 -207.5t-43.5 -199.5q-4 -18 -23.5 -26.5t-43.5 -8.5q-23 0 -45.5 5t-41 15.5t-29.5 22.5t-7 29 q29 166 52.5 333.5t23.5 335.5q0 39 -8.5 83t-28 81t-51 61.5t-80.5 24.5q-37 0 -74 -14.5t-74 -28.5q-27 -10 -61.5 -28.5t-61 -42t-36 -51t17.5 -56.5q23 -25 47.5 -39t28.5 -51q6 -55 -3.5 -106.5t-31.5 -108.5q-20 -51 -29.5 -86t-19.5 -92q-6 -37 -9.5 -74t0.5 -66 q2 -16 5.5 -27.5t15.5 -19.5q2 -8 6 -16t8 -8v4q2 -2 6 -2q12 0 32 21.5t30 37.5q10 23 19 48t5 54q-2 31 39 31q35 0 73 -18.5t42 -42.5q18 -82 -21.5 -145.5t-123.5 -82.5q-29 -6 -58 -6q-80 0 -153.5 45t-98.5 131q-10 35 -9 68t7 64.5t14.5 62.5t14.5 65q8 47 18.5 87 t22.5 81q8 29 7 58.5t3 66.5q-10 10 -21.5 18.5t-21.5 14.5q-33 35 -46 66.5z" />
<glyph unicode="&#xe17;" horiz-adv-x="940" d="M-18 909q4 12 17 27.5t31.5 32t38 32t35.5 25.5q23 23 58 23t65.5 -22.5t30.5 -51.5q12 -160 6 -322q37 63 76 120.5t86 123.5q41 57 97.5 93t133.5 36q66 0 129.5 -29.5t100.5 -99.5q14 -29 20 -63.5t5 -72.5t-5 -76t-6 -71q-14 -174 -39.5 -345t-89.5 -335 q-8 -20 -41 -20q-23 0 -49.5 8t-49 22.5t-34.5 32t-6 35.5q2 4 18.5 72t37 167t42 214t33.5 213t10 162.5t-28 64.5q-16 0 -48 -35q-49 -43 -88 -95t-70.5 -107.5t-59 -111.5t-52.5 -107q-57 -119 -101 -239t-91 -237q-12 -27 -52 -26q-23 0 -46 8t-42.5 20.5t-32 28.5 t-8.5 33q35 205 54.5 410.5t29.5 416.5q0 4 -8 -1t-18.5 -12t-22.5 -16.5t-20 -15.5q-2 -2 -11 -2q-20 0 -34.5 32t-1.5 60z" />
<glyph unicode="&#xe18;" horiz-adv-x="817" d="M41 149.5v77.5q0 98 8.5 197.5t20.5 210.5q6 27 43 27q20 0 42.5 -7.5t43 -18.5t34 -25.5t13.5 -28.5q0 -98 -6.5 -196.5t-6.5 -197.5v-92q0 -4 -4 -7t-5 -4t2 -1h20h26q31 10 65 29.5t56 36.5q55 47 89 105t44.5 120.5t-5 126t-56.5 121.5q-39 53 -92.5 86.5 t-114.5 56.5q-25 8 -53.5 21.5t-53 32t-44 44t-25.5 60.5q-8 39 5 65.5t40 42t62.5 21.5t72.5 6q16 0 31.5 -1t32.5 -3q41 0 89 -10.5t89 -28.5h28q10 10 16.5 16t22.5 23q16 16 22.5 28.5t6.5 22.5q4 16 18.5 23.5t36.5 7.5q20 0 45 -6.5t45.5 -17.5t33 -26.5t9.5 -31.5 q-10 -80 -67 -120t-129 -40h-17.5t-17.5 2q-51 8 -93 25.5t-83 27.5q-10 0 -20.5 1t-20.5 1q-23 0 -42 -7t-26 -36q0 -18 3.5 -26.5t9.5 -11.5t16 -5t25 -8q88 -35 163 -80q61 -37 113.5 -94t85.5 -124.5t43 -142.5t-10 -149q-18 -66 -56 -120t-90.5 -93t-116 -61.5 t-132.5 -22.5q-66 0 -140.5 23.5t-115.5 77.5q-29 39 -29 77.5z" />
<glyph unicode="&#xe19;" horiz-adv-x="1021" d="M25 823q6 39 24.5 77t46 67.5t61 50t72.5 26.5q98 0 151.5 -61t53.5 -160q10 -78 -2 -169t-22 -169q-12 -106 -31 -198q72 59 155.5 116.5t170.5 67.5q25 135 42 267t33 268q0 16 12.5 23t28.5 7q18 0 42 -7t43.5 -18.5t31.5 -26.5t10 -32q-14 -133 -26.5 -263 t-24.5 -263q33 -23 56.5 -57.5t33.5 -79.5q8 -41 0 -81t-27.5 -77t-47 -71.5t-54.5 -67.5v-2h-2q-4 -4 -5 -6t-5 -7q-12 -12 -37 -12q-20 0 -45 8.5t-45.5 21.5t-32.5 28.5t-8 31.5v17q6 63 12 124.5t12 122.5q-14 -6 -24 -16q-117 -78 -205 -173t-166 -204q-18 -23 -55 -22 q-23 0 -46.5 7t-42 19.5t-29.5 27.5t-7 32q39 186 74 370.5t55 370.5q0 29 1 59.5t11 59.5q0 8 -1 19.5t-5 21.5q-4 -6 -9 -12.5t-9 -16.5q-16 -23 -33.5 -49t-17.5 -55q-6 -18 -37 -19q-18 0 -43 7.5t-44.5 19.5t-32.5 27.5t-11 29.5z" />
<glyph unicode="&#xe1a;" horiz-adv-x="1052" d="M-14 874q12 37 29.5 72t42 63.5t56 46t74.5 17.5q10 2 31 2q70 0 134.5 -35.5t92.5 -95.5q14 -29 19.5 -83t3.5 -119.5t-9 -139.5t-15.5 -142.5t-15.5 -127t-11 -92.5q0 -23 -6 -36.5t-6 -45.5q0 -23 29.5 -36t68.5 -19.5t76.5 -7.5t54.5 -1q53 0 86 9.5t45 64.5 q20 98 23.5 201.5t3.5 199.5q0 111 3 236t3 233q-4 23 8 31t33 8q20 0 45.5 -8t47 -21.5t37 -31t15.5 -35.5q16 -96 21.5 -206.5t0 -222.5t-16.5 -221.5t-25 -205.5q-14 -88 -69.5 -124t-129.5 -36h-87t-59.5 2t-59.5 4t-85 9q-37 0 -81 6t-83 22.5t-68.5 45t-39.5 71.5 q0 94 11 189.5t24.5 190.5t24.5 190.5t11 191.5q0 6 -2 20.5t-6 30.5q-47 -29 -66.5 -69t-39.5 -83q-4 -10 -15.5 -14t-23.5 -4q-23 0 -48.5 9t-47 24.5t-33.5 35t-6 37.5z" />
<glyph unicode="&#xe1b;" horiz-adv-x="1079" d="M-14 874q12 37 29.5 72t42 63.5t56 46t74.5 17.5q10 2 31 2q70 0 134.5 -35.5t92.5 -95.5q14 -29 19.5 -83t3.5 -119.5t-9 -139.5t-15.5 -142.5t-15.5 -127t-11 -92.5q0 -23 -6 -36.5t-6 -45.5q0 -23 32.5 -36t75.5 -19.5t84 -7.5t57 -1q53 0 86 9.5t45 64.5 q20 98 23.5 201.5t3.5 199.5q0 37 -3 135.5t-7 228.5t-8 274.5t-8.5 274.5t-7.5 227t-3 134q-4 23 8.5 31t32.5 8t46 -8t47.5 -21.5t37 -31t15.5 -35.5q12 -66 20 -196t14.5 -292.5t8.5 -343t1 -343t-6.5 -293t-15.5 -193.5q-14 -88 -69.5 -124t-129.5 -36h-89.5t-66.5 2 t-67 4t-88 9q-37 0 -81 6t-83 22.5t-68.5 45t-39.5 71.5q0 94 11 189.5t24.5 190.5t24.5 190.5t11 191.5q0 6 -2 20.5t-6 30.5q-47 -29 -66.5 -69t-39.5 -83q-4 -10 -15.5 -14t-23.5 -4q-23 0 -48.5 9t-47 24.5t-33.5 35t-6 37.5z" />
<glyph unicode="&#xe1c;" horiz-adv-x="1220" d="M12 374.5q-6 102.5 4.5 204t33 192.5t48.5 157q18 47 53 86t89 51q10 2 19 3t20 1q45 0 92 -19.5t79.5 -53t47 -79t-3.5 -96.5q-8 -29 -19.5 -40t-28.5 -11q-20 0 -44.5 17.5t-49 37t-46 37t-36.5 17.5q-14 0 -16 -19q-27 -49 -39 -141t-14 -193.5t5 -194.5t19 -145 q6 -25 12.5 -39t16.5 -36q8 -10 13 -18.5t14 -8.5q8 0 22 16.5t36.5 58.5t56.5 114.5t83 185.5q29 66 48.5 142.5t50.5 143.5q4 18 20 26.5t39 8.5q20 0 45 -7t46.5 -17.5t34.5 -25.5t13 -30q0 -125 9.5 -249.5t45.5 -249.5q16 -53 31 -54q18 0 31 72q27 119 45 217.5 t30.5 192.5t19.5 194.5t13 225.5q0 41 46 41q20 0 44.5 -9.5t47 -24t39 -32.5t20.5 -37q0 -47 -5 -134t-15.5 -191.5t-24.5 -217t-34.5 -211t-46 -172t-56.5 -102.5q-23 -23 -49.5 -31t-55.5 -8q-78 0 -128 31t-81.5 81t-49 111.5t-29.5 122.5q-8 -16 -15.5 -32.5 t-15.5 -32.5q-23 -43 -48.5 -90.5t-57 -85t-70.5 -62t-86 -24.5q-23 0 -47 6q-92 25 -149.5 89t-86.5 151t-35 189.5z" />
<glyph unicode="&#xe1d;" horiz-adv-x="1165" d="M14 338q0 41 1 107.5t8.5 142.5t20.5 155.5t37.5 146t61.5 115t90 60.5q10 2 18.5 3t18.5 1q43 0 88 -19.5t78 -53t47 -79t-4 -96.5q-8 -31 -19 -43t-24 -12q-16 0 -35.5 14.5t-37 31.5t-34 31.5t-26.5 14.5t-16 -20q-27 -49 -46.5 -138.5t-28.5 -186.5t-8 -186t13 -141 q6 -25 12.5 -39t16.5 -36q8 -10 13 -18.5t13 -8.5t20.5 16.5t34 58.5t54.5 114.5t82 185.5q29 66 47 142.5t49 143.5q4 18 19.5 26.5t37.5 8.5q20 0 45 -7t44.5 -17.5t33 -25.5t13.5 -30q0 -125 9 -249.5t44 -249.5q16 -53 31 -54q16 0 28 72q16 80 30.5 191.5t24 239.5 t17.5 264.5t13 265.5t9.5 242.5t8.5 197.5q0 41 45 41q20 0 43.5 -9.5t45 -23.5t37 -32.5t19.5 -36.5q0 -53 -1 -139.5t-3 -189t-5 -214t-7 -215t-9.5 -189.5t-11.5 -139q-18 -152 -55 -317q-8 -39 -19.5 -80t-31 -76t-51 -57.5t-80.5 -22.5q-76 0 -125 32t-80 82 t-47.5 111.5t-28.5 120.5q-6 -16 -13 -32.5t-16 -32.5q-23 -43 -47 -90.5t-55 -85t-68.5 -62t-85.5 -24.5q-20 0 -45 6q-66 18 -112.5 56t-77.5 90t-47.5 115.5t-20.5 131.5z" />
<glyph unicode="&#xe1e;" horiz-adv-x="1204" d="M33 838q12 31 26.5 64.5t34 63t46 52t65.5 33.5q10 2 18 3t19 1q35 0 65.5 -13.5t55 -36t41 -50t22.5 -58.5t3 -102.5t-9 -151.5t-13.5 -154.5t-9.5 -111.5q4 6 15.5 35.5t27 71.5t34 91.5t35.5 96.5t31.5 87t24.5 60q23 53 67 71.5t99 18.5q66 -14 97.5 -73.5t46 -136 t18.5 -156.5t14 -133q12 66 25.5 149.5t28 171.5t30 172t33.5 150q0 18 29 18q18 0 40.5 -8t44 -20.5t35 -29t13.5 -34.5q-35 -248 -84 -491.5t-101 -491.5q-2 -23 -30 -23q-18 0 -43 9.5t-47.5 22.5t-39 27.5t-18.5 24.5q-14 70 -30.5 155t-32 172t-28.5 173t-21 158l2 12 q-78 -186 -148.5 -373.5t-152.5 -371.5q-10 -18 -37 -19q-18 0 -43 9.5t-46.5 22.5t-34.5 29.5t-13 30.5q0 76 2 162t4 174t4 174t2 164q2 39 3 68.5t-7 58.5q-2 -10 -8.5 -18.5t-8.5 -18.5q-10 -14 -16 -19t-11 -10.5t-9.5 -12.5t-10.5 -25q-6 -16 -30 -17q-18 0 -43 9.5 t-44.5 23.5t-29.5 32.5t-2 37.5z" />
<glyph unicode="&#xe1f;" horiz-adv-x="1204" d="M33 838q12 31 26.5 64.5t34 63t46 52t65.5 33.5q10 2 18 3t19 1q35 0 65.5 -13.5t55 -36t41 -50t22.5 -58.5t3 -102.5t-9 -151.5t-13.5 -154.5t-9.5 -111.5q4 6 13.5 36.5t22.5 76t27.5 98.5t30 103t27.5 91t23 62q23 53 66.5 71.5t99.5 18.5q63 -4 99 -66.5t54.5 -146.5 t27.5 -171t19 -140q8 45 18.5 132t21.5 195.5t22.5 227t24 227t24.5 196t24 132.5q0 18 29 18q18 0 41 -8t44.5 -20.5t34.5 -29t13 -34.5q-12 -82 -26.5 -199t-31 -251t-34.5 -276t-37.5 -275.5t-38 -250t-35.5 -198.5q-2 -23 -30 -23q-18 0 -43 9.5t-47.5 22.5t-39 27.5 t-18.5 24.5q-14 70 -34.5 158t-41 180t-37 182.5t-24.5 161.5l2 13q-39 -92 -71.5 -190.5t-64.5 -197t-65.5 -194.5t-74.5 -188q-10 -18 -37 -19q-18 0 -43 9.5t-46.5 22.5t-34.5 29.5t-13 30.5q0 76 2 162t4 174t4 174t2 164q2 39 3 68.5t-7 58.5q-2 -10 -8.5 -18.5 t-8.5 -18.5q-10 -14 -16 -19t-11 -10.5t-9.5 -12.5t-10.5 -25q-6 -16 -30 -17q-18 0 -43 9.5t-44.5 23.5t-29.5 32.5t-2 37.5z" />
<glyph unicode="&#xe20;" horiz-adv-x="1107" d="M63 180q-8 29 31 29q16 0 36 -5t38 -13.5t30.5 -19.5t12.5 -24q2 -6 10 -27.5t19 -43.5q10 10 14 16q8 12 23.5 55t33 102.5t36 127t31.5 126t19 99.5t0 49q-2 18 -3 15.5t-9 7.5q-29 14 -57.5 27.5t-50 28.5t-35 38t-9.5 59q2 37 22.5 65t50.5 49.5t63.5 36.5t64.5 30 q51 23 105.5 38t113.5 15q23 0 45.5 -3t44.5 -7q63 0 126 -29t114 -78q51 -47 70.5 -114.5t19.5 -139.5q0 -166 -24.5 -339t-73.5 -341q-6 -23 -51 -22q-23 0 -47.5 6t-46 16t-34 24.5t-8.5 31.5q23 94 43.5 186t28.5 184q8 82 19.5 178.5t1.5 188.5q-18 61 -52 106t-100 56 q-29 -4 -72 -13.5t-87 -26t-80.5 -38t-49.5 -47.5q-12 -25 -16 -46.5t27 -37.5q29 -14 53 -27.5t47 -36.5q14 -16 17 -59t-3 -99.5t-18 -119t-26.5 -120.5t-29 -103.5t-22.5 -65.5q-16 -35 -33.5 -66.5t-40 -56.5t-53.5 -39t-74 -14q-53 0 -89 18.5t-60.5 50t-37 73.5 t-18.5 89z" />
<glyph unicode="&#xe21;" horiz-adv-x="1001" d="M49 813q6 29 16.5 61.5t27 61.5t41 48.5t59.5 19.5q14 0 20 -3q57 0 96 -21.5t64.5 -56t39 -76.5t17.5 -83q6 -51 2 -142.5t-14 -183.5q86 -4 153.5 -45t118.5 -104q18 94 33.5 198.5t30 205t28 191.5t29.5 163q8 27 43 26q18 0 39.5 -8t39 -21.5t28 -30t8.5 -30.5 q-12 -102 -28.5 -232t-36 -265.5t-43 -262.5t-54.5 -221q-12 -33 -55 -33q-20 0 -42 6.5t-40.5 17.5t-30.5 23.5t-12 24.5q0 29 -9.5 67.5t-27 73.5t-43 59.5t-62.5 24.5q-20 0 -47.5 -11t-44.5 -22q-12 -39 -25.5 -77.5t-32 -74.5t-45 -65.5t-63.5 -48.5q-12 -6 -28 -6 q-20 0 -43 7t-42.5 20.5t-31.5 30t-8 34.5q16 86 60 178.5t118 149.5q6 35 11 68.5t9 62.5q4 25 6.5 72t0 100t-8.5 104.5t-18 81.5q-35 -27 -49.5 -62.5t-22.5 -76.5q-2 -20 -26 -20q-16 0 -37 10t-38.5 25.5t-26.5 33t-3 33.5z" />
<glyph unicode="&#xe22;" horiz-adv-x="952" d="M18 655q-6 33 2.5 66t27 64.5t43 61.5t46.5 56q80 88 221 129q12 4 21 4q23 0 50.5 -13t46 -31.5t21.5 -37t-22 -26.5q-72 -29 -132 -79t-103 -116q-8 -12 -18.5 -31.5t-15.5 -41t-1 -41t22 -29.5q2 -2 11 -2q12 0 31.5 7t39 16.5t35.5 17.5t27 12q14 6 35 6q49 0 96 -31 q4 -6 14 -15t17.5 -20.5t7.5 -22.5t-15 -19q-43 -25 -85 -60t-72.5 -77t-45 -93t-4.5 -110q0 -14 5.5 -35t14.5 -40.5t23.5 -34.5t34.5 -19q18 0 40 12t41.5 30.5t35.5 39t27 34.5q63 92 99 199t55.5 217.5t29.5 223t23 218.5q2 20 15 28.5t34 8.5q20 0 42.5 -8t41 -20.5 t29 -27.5t8.5 -32q0 -158 -15.5 -310.5t-62.5 -301.5q-20 -70 -51 -143.5t-77 -135t-108.5 -101.5t-146.5 -40q-51 0 -102.5 16.5t-94.5 45t-75.5 70.5t-47.5 93q-25 84 -3 161t71 142q-59 16 -114.5 57.5t-72.5 108.5z" />
<glyph unicode="&#xe23;" horiz-adv-x="636" d="M35 69.5q4 16.5 35 16.5q66 0 108.5 29.5t66 73.5t25.5 98.5t-14 103.5q-18 55 -46 104.5t-53.5 98.5t-46 100t-26.5 111q-10 100 42 165.5t144 88.5q16 4 34 6t36 2q72 0 144.5 -28.5t117.5 -88.5q14 -18 9 -36.5t-36 -28.5q-29 0 -60.5 8t-57.5 31q-27 23 -54 22 q-43 0 -77.5 -39t-42.5 -76q-10 -49 0 -97t29.5 -95t45 -92t45.5 -88q39 -82 56.5 -168t-29.5 -166q-41 -70 -113.5 -107.5t-152.5 -37.5q-31 0 -67 11t-54 42q-12 20 -8 36.5z" />
<glyph unicode="&#xe24;" horiz-adv-x="915" d="M41 172q2 37 9 75t17.5 74.5t16.5 71.5q8 45 17.5 83t21.5 77q8 29 7 56.5t3 64.5q-10 8 -20.5 15t-20.5 16q-31 33 -44 62.5t3 76.5q14 49 65.5 87t115 62.5t131 37.5t116.5 13q63 0 125 -14t114 -44t89 -78t49 -115q16 -88 14 -183.5t-12 -187.5q-4 -33 -12 -96.5 t-19.5 -141.5t-25 -161.5t-25.5 -160.5t-23.5 -138.5t-19.5 -92.5q-4 -16 -22.5 -23t-40.5 -7q-20 0 -43 5t-40.5 14t-27.5 21.5t-8 26.5q8 51 21.5 134t27.5 180.5t28.5 204t25 204.5t17.5 181t7 139q0 39 -8 81t-26.5 75.5t-49.5 56t-78 22.5q-37 0 -70.5 -12t-68.5 -27 q-25 -10 -58.5 -27.5t-59.5 -40t-34 -49t17 -55.5q23 -23 45 -37t26 -49q6 -53 -2 -102t-30 -107q-18 -47 -31.5 -100t-24.5 -109q-6 -37 -9 -70.5t1 -62.5q4 -16 6 -26.5t13 -18.5q2 -8 6 -16t8 -8q2 0 2 4q2 -2 4 -2q12 0 31.5 20.5t27.5 36.5q12 23 19.5 47t3.5 51 q-2 29 39 29q33 0 69.5 -17.5t40.5 -39.5q16 -78 -22.5 -139.5t-118.5 -79.5q-29 -6 -55 -7q-39 0 -77 11.5t-70.5 33t-57.5 52t-37 71.5q-10 35 -8 72z" />
<glyph unicode="&#xe25;" horiz-adv-x="927" d="M21.5 245.5q7.5 55.5 32 106.5t60.5 96.5t70 79.5q72 70 154 124.5t174 54.5q12 0 24.5 -1t24.5 -4q39 -8 64.5 -20t44 -29.5t36 -38t39.5 -45.5q2 45 -2 109.5t-23.5 124t-55 100.5t-95.5 41q-10 0 -16 -2q-45 -4 -85 -23.5t-78 -46t-74.5 -56.5t-73.5 -54 q-10 -8 -31 -8q-25 0 -55.5 14t-52 33.5t-27.5 40t14 35.5q49 35 98.5 69.5t99.5 64t102.5 49t105.5 21.5q8 2 24 2q123 0 221.5 -67.5t141.5 -200.5q12 -31 16 -99.5t2 -153.5t-9 -178t-16.5 -178t-20.5 -149.5t-21 -93.5q-2 -23 -15.5 -32t-34.5 -9q-20 0 -43.5 8.5 t-44 22.5t-33 32.5t-10.5 37.5q0 10 1 30.5t3 42.5q6 78 3 158t-19 158q-14 80 -43 113.5t-66 33.5q-39 0 -84 -31.5t-87 -78t-76.5 -98.5t-55.5 -95q-10 -23 -15 -45.5t-15 -42.5q-2 -35 6 -48.5t24 -13.5q14 0 33 8.5t36 20.5t32.5 25.5t25.5 23.5t27 11q23 0 49.5 -15.5 t47 -37t26.5 -45t-12 -42.5q-41 -41 -98.5 -63.5t-116.5 -22.5q-76 0 -142.5 39t-99.5 125q-23 57 -15.5 112.5z" />
<glyph unicode="&#xe26;" horiz-adv-x="1015" d="M8 180q-6 16 4.5 22.5t28.5 6.5q33 0 73 -17.5t44 -39.5q2 -6 12 -28l20 -44l13 18q8 12 21.5 56.5t28.5 104.5t30.5 128t27 127t15.5 100t-2 50q-2 18 -3.5 15t-9.5 7q-31 14 -59.5 25.5t-51 27t-35.5 37t-11 58.5q2 53 52 99t119.5 80t141.5 52t119 18q33 0 69 -6 q70 0 131.5 -26.5t112.5 -71.5q53 -47 73.5 -113.5t24.5 -138.5q2 -55 -5 -143t-20.5 -192.5t-30.5 -217.5t-34.5 -218.5t-35 -194.5t-31.5 -144q-4 -14 -20.5 -20.5t-39.5 -6.5t-46 5.5t-42.5 15.5t-32 22.5t-10.5 28.5q6 31 18.5 94.5t28 143.5t32.5 167t31.5 164.5 t24 140t11.5 93.5q4 84 12 180t-6 189q-20 59 -56 102t-102 53q-29 -4 -72 -15t-85 -29.5t-77.5 -42t-48.5 -50.5q-10 -25 -14 -46.5t27 -35.5q29 -14 55.5 -25.5t48.5 -33.5q16 -16 19.5 -58.5t-0.5 -99.5t-14.5 -120.5t-23 -121t-23.5 -103.5t-19 -67q-14 -37 -30.5 -70.5 t-39 -58t-54.5 -39t-75 -14.5q-53 0 -89 16.5t-60.5 46t-38 70.5t-21.5 88z" />
<glyph unicode="&#xe27;" horiz-adv-x="757" d="M37 774.5q-2 22.5 8 44.5q23 49 58.5 90t78.5 71t90 47t95 17q78 0 142 -48t112.5 -119.5t78 -152.5t37.5 -146q14 -121 -20.5 -247t-126.5 -216q-137 -133 -320 -133q-29 0 -58 3t-58 11q-20 10 -36 21.5t-16 41.5q0 29 12.5 47.5t32.5 18.5q33 -6 64 -6q76 0 137.5 38 t105.5 95t68.5 127t28.5 133q0 37 -7 102.5t-27.5 128t-54.5 109.5t-89 47q-20 0 -50 -21.5t-60 -49t-55.5 -56.5t-33.5 -43q-12 -18 -27.5 -26.5t-31.5 -8.5q-18 0 -36 11.5t-29 29t-13 40z" />
<glyph unicode="&#xe28;" horiz-adv-x="948" d="M39 315q18 166 80.5 322t185.5 278q53 53 117.5 92.5t136.5 39.5q12 0 23.5 -1.5t21.5 -3.5q43 -10 74 -26.5t65 -42.5q43 53 87 109.5t98 109.5q10 10 28 10t42 -9t42.5 -22.5t26.5 -30t-2 -30.5q-53 -70 -111.5 -137.5t-117.5 -126.5q16 -43 25 -86t20 -86h12 q4 -4 13 -14.5t15.5 -21.5t6.5 -20.5t-13 -13.5q-10 0 -17 -6t-17 -6q0 -61 -6.5 -132t-13.5 -143.5t-15 -143.5t-12 -132q0 -14 -10.5 -20.5t-26.5 -6.5t-37 6.5t-38 16.5t-28.5 23.5t-11.5 27.5q0 43 2 94t6 103.5t9.5 102.5t9.5 89q-49 -33 -98.5 -83t-94.5 -108.5 t-84 -116.5t-70 -108q-20 -33 -44.5 -57t-59.5 -35q-82 0 -127 30t-65.5 78t-23.5 110.5t-3 127.5zM201 223q0 -27 1 -52.5t11 -49.5v10q41 74 96.5 150.5t122 145.5t139 127t148.5 95q0 29 -6 68t-17.5 79t-29 74.5t-39.5 55.5q0 2 -2 6q-6 6 -9 6h-12q-10 0 -17 -1 t-18 -11q-59 -25 -109 -79t-85 -106q-78 -115 -121 -247t-53 -271z" />
<glyph unicode="&#xe29;" horiz-adv-x="1255" d="M35 862q12 37 28.5 72t40 62.5t54 45t73.5 17.5q10 2 31 2q68 0 130.5 -35t90.5 -94q12 -27 17.5 -80t3.5 -117.5t-8.5 -137.5t-13.5 -139.5t-14 -124t-11 -89.5q0 -23 -7.5 -51.5t-7.5 -61.5v-14q41 0 84 -7.5t84 -7.5h183q53 0 84.5 9.5t42.5 62.5q10 53 12 98t2 99 q-41 -10 -80 -11q-45 0 -95 16.5t-92 45.5t-70 69.5t-28 90.5q0 53 22.5 92t76.5 61q16 4 24 4q29 0 61.5 -14t54 -33.5t25 -39t-25.5 -29.5q-31 -10 -41 -43t0 -56q0 -47 29 -47q10 0 26 6q33 10 63.5 28.5t63.5 41.5v14q0 53 2 113.5t5 123t5.5 123t2.5 113.5q-6 39 38 39 q20 0 45 -8t46.5 -21.5t37 -31t15.5 -35.5q6 -31 6 -71t-1 -83t-3 -84.5t-2 -78.5q43 -10 70.5 -37t13.5 -47q-16 -25 -41 -50.5t-29 -48.5q-16 -84 -21 -175t-22 -177q-16 -84 -69.5 -119t-126.5 -35q-104 0 -203 1.5t-205 11.5q-37 0 -79 6t-81 22.5t-67.5 43t-38.5 69.5 q0 43 7 83t7 73q0 74 8 147.5t19.5 147t19.5 147.5t8 148q0 10 -2 18q-4 14 -12 37v-12q-41 -23 -59.5 -62t-38.5 -80q-8 -20 -39 -20q-20 0 -46 10t-46.5 25.5t-31.5 34t-5 34.5z" />
<glyph unicode="&#xe2a;" horiz-adv-x="948" d="M32.5 245.5q6.5 55.5 30 108t57.5 97.5t68 79q35 35 74 69t80 59.5t85 41t91 15.5q10 0 22.5 -1t22.5 -3q39 -6 64.5 -18.5t45 -29t37 -37t40.5 -44.5q2 45 -4.5 108.5t-26 121.5t-56 99t-94.5 41q-12 0 -18 -2q-45 -6 -85 -25.5t-77 -46t-72.5 -57t-72.5 -57.5 q-14 -8 -33 -8q-25 0 -54.5 13t-51 32.5t-28.5 40t11 35.5q49 35 98.5 71.5t99.5 66t101 50t105 25.5q88 0 145 -23t123 -82q53 76 113.5 132.5t134.5 107.5q8 6 18 6q20 0 50 -14.5t52.5 -35t30.5 -44t-12 -39.5q-139 -119 -264 -271q12 -31 17 -98t5 -152t-6 -178.5 t-14 -178.5t-17.5 -149.5t-19.5 -93.5q-2 -23 -15.5 -33t-33.5 -10t-44 8.5t-44.5 23t-32.5 31.5t-10 36q0 10 1 31.5t3 44.5q4 78 -1 156.5t-22 156.5q-16 80 -45 112.5t-65 32.5q-39 0 -84 -31.5t-86 -79.5t-76 -101.5t-53 -96.5q-10 -23 -14.5 -45.5t-14.5 -42.5 q-2 -35 6 -48t25 -13q14 0 31.5 9t35 21.5t33.5 26.5t27 24q8 8 26 9q23 0 49.5 -14.5t47 -35t26.5 -44t-12 -42.5q-41 -43 -99.5 -66.5t-117.5 -23.5q-76 0 -141.5 38t-98.5 122q-23 57 -16.5 112.5z" />
<glyph unicode="&#xe2b;" horiz-adv-x="933" d="M44 287.5q1 66.5 6 130t5 104.5q10 137 20.5 265.5t20.5 265.5q0 29 39 28q20 0 45 -8t46.5 -20.5t35.5 -27.5t14 -30q-10 -115 -13 -221t-13 -223q0 -96 -4 -167t-5 -119t3 -71.5t22 -23.5t50 22.5t64 53t59.5 60.5t37.5 44q-35 98 -46 202.5t-1 254.5q4 51 13.5 99 t31 86t59 60.5t97.5 22.5q84 0 156.5 -52t101.5 -132q25 -66 12.5 -146.5t-45.5 -161.5t-77 -155t-83 -125q23 -61 50.5 -123.5t62.5 -140.5q12 -29 -10.5 -42t-44.5 -13q-86 0 -125 69q-37 59 -64 109q-31 -31 -68.5 -61.5t-79.5 -55.5t-88 -40t-91 -15q-47 0 -89.5 19.5 t-72.5 64.5q-23 31 -28 89t-4 124.5zM630 707.5q1 -21.5 3 -47t6 -68.5q0 -13 2 -19q43 70 62.5 142.5t5.5 175.5q0 10 -7.5 27.5t-7.5 27.5l-14 -12q-41 -66 -41 -113q-6 -41 -8 -66.5t-1 -47z" />
<glyph unicode="&#xe2c;" horiz-adv-x="1193" d="M12 805q6 41 18.5 84t33 76.5t54.5 55t83 21.5q39 0 72.5 -15t60.5 -42q20 -23 37.5 -75t31 -122.5t22.5 -153.5t17 -169q35 102 71 202.5t77 202.5q12 27 49 27q20 0 44 -7t43 -18.5t31.5 -24.5t12.5 -28q18 -117 31.5 -230.5t32.5 -219.5q0 -47 8 -99.5t16 -99.5 q8 27 14 33q10 47 20.5 94t18.5 86q14 70 22.5 147.5t10.5 157.5t-2 160t-16 153q-55 -29 -107.5 -46t-97.5 -17q-23 0 -43 6q-98 27 -150.5 99.5t-42.5 170.5q10 106 76 155.5t168 49.5q98 -4 168 -47t119 -112q53 47 94 86.5t59 58.5q10 10 35 10t53.5 -10t51 -24.5 t32 -33t-5.5 -32.5q-41 -41 -105.5 -98.5t-139.5 -110.5q37 -106 48 -229t6 -245t-23.5 -230.5t-43.5 -186.5q-12 -41 -25.5 -84t-34 -78t-50 -56.5t-74.5 -21.5q-29 0 -59 9q-57 16 -90 47.5t-50.5 75t-24.5 94.5t-14 104q-4 33 -7 64.5t-7 64.5q-80 -219 -166 -436 q-12 -31 -57 -31q-20 0 -42 6.5t-40.5 17.5t-29.5 26.5t-11 31.5q-12 96 -16.5 206t-9.5 220.5t-15 218t-35 199.5q-8 -4 -14 -10q-18 -29 -22.5 -66t-14.5 -76q0 -27 -33 -26q-16 0 -37.5 8t-40 20.5t-32 28.5t-13.5 33zM193 971v2v-2zM671 1174.5q-3 -33.5 7 -62.5 q6 -39 41 -39q31 0 75 23.5t95 60.5q-20 53 -49 100.5t-68 47.5q-18 0 -38.5 -15.5t-43.5 -50.5q-16 -31 -19 -64.5z" />
<glyph unicode="&#xe2d;" horiz-adv-x="1083" d="M23.5 737.5q-9.5 20.5 5.5 40.5q49 66 95 117t98 87t116.5 54.5t150.5 18.5q117 0 222 -41q88 -35 159.5 -94.5t117.5 -137t61.5 -169t-11.5 -189.5q-23 -88 -70.5 -169t-114.5 -142.5t-149.5 -98.5t-177.5 -37q-10 -2 -20 -2h-21q-78 0 -155.5 31t-130.5 90 q-57 59 -69.5 141t5.5 160q27 115 93.5 186.5t187.5 71.5q68 0 128 -29.5t101 -82.5q20 -20 11 -37t-38 -17q-12 0 -29.5 4.5t-34.5 11.5t-31.5 16t-20.5 22h-15q-25 0 -49 -17.5t-46.5 -42t-39 -51t-22.5 -47.5q-10 -31 -18.5 -68.5t-8.5 -75.5t11.5 -73t41.5 -59 q31 -25 78 -25q41 0 83 16.5t75 34.5q70 41 117 105.5t79 130.5q33 66 50.5 147.5t8.5 160.5t-50 144.5t-125 98.5q-35 14 -86 14q-53 0 -107.5 -14.5t-95.5 -38.5q-57 -33 -101 -92.5t-96 -116.5q-10 -12 -32 -12q-23 0 -50.5 10t-49 27.5t-31 38z" />
<glyph unicode="&#xe2e;" horiz-adv-x="976" d="M25 317.5q2 53.5 17 104.5t44 95t66 75t78.5 45t84.5 14q66 0 125.5 -28.5t100.5 -81.5q20 -20 14 -37t-27 -17q-29 0 -61.5 14.5t-42.5 24.5q-10 14 -10 15h-29q-29 0 -51.5 -16.5t-40 -40t-29.5 -51t-20 -48.5q-12 -31 -22.5 -70t-11.5 -78.5t11 -76.5t47 -62 q23 -8 58 -8q59 0 113.5 22.5t100.5 60.5t82.5 86t61.5 99q27 55 44 119t18.5 128.5t-16 125t-58.5 107.5q-70 -35 -150 -57.5t-160 -22.5q-31 0 -60.5 3t-57.5 13q-20 6 -45 18.5t-45.5 29t-32.5 37t-8 44.5q0 41 31.5 69.5t75.5 46t92 25t81 7.5q59 0 119.5 -13.5 t116.5 -36.5q72 53 130 123t95 156q12 27 51 27q20 0 44 -8.5t42.5 -20.5t27.5 -28.5t3 -35.5q-70 -193 -238 -311q70 -61 115 -146t45 -177q10 -129 -39 -243t-131 -200q-70 -72 -162 -114.5t-192 -42.5q-8 0 -16.5 1t-18.5 1q-59 6 -114.5 21t-102.5 43t-82 69t-51 100 q-12 49 -10 102.5zM307 879q43 0 97.5 13t93.5 36q-8 2 -16.5 2h-18.5q-66 0 -117 -27q-10 -10 -19.5 -12t-19.5 -12z" />
<glyph unicode="&#xe2f;" horiz-adv-x="784" d="M50 758q-1 41 7.5 83t22.5 77q29 70 81 102.5t122 32.5h16t18 -2q29 -10 62 -31t43 -49q10 -29 -11.5 -34t-41.5 -5q-4 0 -8.5 1t-8.5 1q-31 0 -52 -20.5t-34.5 -49t-20.5 -61.5t-7 -58v-51q6 -6 8 -13t4 -13l41 26l39 39q37 25 71.5 58.5t65.5 72.5t56.5 80t43.5 80 q14 29 60 29q20 0 43.5 -6.5t42 -17.5t31 -26.5t10.5 -31.5v-13l-2 -2q-23 -246 -36.5 -487.5t-41.5 -488.5q0 -20 -37 -21q-20 0 -46 7t-48.5 18.5t-38 28t-15.5 34.5q12 154 24.5 310.5t25.5 314.5q-47 -55 -119 -92t-146 -37q-45 0 -88 16t-82 55q-29 27 -41 65t-13 79z " />
<glyph unicode="&#xe30;" horiz-adv-x="684" d="M74 723q0 29 32.5 46t65.5 17q23 0 39 -9t16 -27q0 -10 -2 -23.5t-2 -26t3 -20.5t14 -8q18 10 44.5 23.5t58.5 37t70 61t81 95.5q14 10 30 10q20 0 45 -9t45.5 -24.5t30.5 -33t2 -33.5q-57 -76 -132 -133.5t-161 -96.5q-35 -12 -75 -12q-37 0 -75 10.5t-69 30.5t-48 52 t-13 73zM86 328q0 29 33 46t65 17q23 0 39.5 -9t16.5 -28q0 -10 -2 -23.5t-2 -25.5t3 -20.5t13 -8.5q18 10 45 23.5t59.5 38t70.5 61.5t81 95q8 10 31 10q20 0 43.5 -9.5t44 -24.5t31 -32.5t1.5 -31.5q-27 -37 -68.5 -79t-91.5 -78t-103.5 -60.5t-102.5 -24.5q-37 0 -76 10 t-68.5 30.5t-48 51.5t-14.5 72z" />
<glyph unicode="&#xe31;" d="M-513 1288.5q-9 40.5 1 78.5t40 64.5t81 26.5q29 0 61.5 -11t48.5 -38q37 -59 -24 -59h-6q-18 0 -29.5 -16.5t-15.5 -37t2 -37t22 -16.5h6q16 4 57.5 13.5t86.5 29.5q92 43 176 99.5t176 97.5q12 4 18 4q23 0 50.5 -11.5t48 -27.5t24.5 -33.5t-20 -30.5q-8 0 -28.5 -13 t-31.5 -21q-37 -18 -65.5 -38t-54.5 -36q-88 -53 -191.5 -94t-208.5 -41q-51 0 -98 16.5t-88 59.5q-29 31 -38 71.5z" />
<glyph unicode="&#xe32;" horiz-adv-x="503" d="M33 874.5q-8 20.5 2 38.5q18 31 38.5 59.5t45 51.5t53.5 37t64 14q27 0 51 -8q86 -23 128 -86t42 -154q0 -209 -30 -423t-97 -420q-6 -14 -29 -15q-18 0 -46 11.5t-50.5 29t-35.5 39t-7 43.5q37 111 61.5 226.5t41 227t23.5 213t7 181.5q-10 -6 -23.5 -11t-23.5 -11 q-25 -27 -40.5 -53.5t-31.5 -53.5q-8 -14 -31 -14q-20 0 -43.5 11t-42 28.5t-26.5 38z" />
<glyph unicode="&#xe33;" horiz-adv-x="514" d="M-512 1323q8 66 58.5 95.5t113.5 29.5q37 0 81 -13.5t81 -38t61.5 -59t24.5 -77.5q4 -39 -8.5 -71t-36 -55.5t-55 -36t-66.5 -12.5q-26 1 -51 7q-8 2 -16.5 4t-14.5 4q-31 10 -63.5 32.5t-58 52t-40 65.5t-10.5 73zM-352 1223q0 -10 6 -18.5t6 -16.5q33 4 55.5 31.5 t30.5 52.5v63q-6 12 -8 15q-29 0 -49.5 -18.5t-28.5 -47.5q-10 -10 -11 -26.5t-1 -34.5zM33 874.5q-8 20.5 2 38.5q18 31 38.5 59.5t45 51.5t53.5 37t64 14q27 0 51 -8q86 -23 128 -86t42 -154q0 -209 -30 -423t-97 -420q-6 -14 -29 -15q-18 0 -46 11.5t-50.5 29t-35.5 39 t-7 43.5q37 111 61.5 226.5t41 227t23.5 213t7 181.5q-10 -6 -23.5 -11t-23.5 -11q-25 -27 -40.5 -53.5t-31.5 -53.5q-8 -14 -31 -14q-20 0 -43.5 11t-42 28.5t-26.5 38z" />
<glyph unicode="&#xe34;" d="M-881.5 1277q-7.5 36 21.5 79q47 68 112.5 108.5t149.5 40.5q86 -6 159.5 -40.5t137 -88t114 -121t89.5 -137.5l6 -10q8 -16 5 -27.5t-13.5 -17.5t-23.5 -8t-23 -2q-29 10 -63 22t-56 41q-12 4 -23.5 11.5t-21.5 7.5q-31 0 -69 7t-69 7h-233h-27q-37 6 -75.5 22.5t-64 43 t-33 62.5zM-700 1266h94q70 0 136.5 -4.5t133.5 -16.5q-14 20 -34.5 43t-45 43.5t-51.5 33.5t-53 13q-37 0 -66 -22q-18 -14 -37.5 -23.5t-29.5 -19.5q-10 -16 -22.5 -26.5t-24.5 -20.5z" />
<glyph unicode="&#xe35;" horiz-adv-x="4" d="M-831 1317q10 41 52 75.5t81 57.5q90 51 188 51q74 0 143.5 -27.5t130.5 -76.5q10 41 11.5 72.5t1.5 72.5q6 27 43 27q18 0 40.5 -7.5t42 -18.5t33 -25.5t13.5 -28.5q10 -90 5 -172t-5 -172q-4 -18 -18.5 -26.5t-32.5 -8.5q-23 0 -47.5 9t-47.5 26h-12q-18 0 -60 1 t-96.5 2t-113 3t-109.5 5t-89 7t-48 8q-20 8 -41.5 22.5t-38 34t-25 42t-1.5 47.5zM-633 1278q10 -10 13.5 -12t13.5 -2h303q10 0 20.5 -1t20.5 -12q-10 20 -28.5 45t-42 46.5t-49.5 35t-52 13.5q-25 0 -54.5 -10.5t-57 -26t-51.5 -36t-36 -40.5z" />
<glyph unicode="&#xe36;" d="M-875.5 1281q-1.5 26 21.5 56q43 59 101.5 93t127.5 34q72 -4 133.5 -31.5t114.5 -70.5q8 29 29 55q35 37 86 37q29 0 60.5 -10t60.5 -27q53 -25 89 -75t25 -119q-16 -53 -64 -91t-108 -47q-12 -4 -18 -4q-10 0 -23 4h-16q-27 8 -56.5 19.5t-47.5 38.5v2q-12 4 -33 8 t-42.5 7t-42 4t-32.5 1h-195q-23 2 -31.5 3t-17.5 6q-31 8 -58.5 23t-44.5 36.5t-18.5 47.5zM-709 1264h72q57 0 113.5 -3.5t111.5 -15.5q-23 35 -48 61.5t-60 43.5q-10 4 -21.5 6t-21.5 2q-33 0 -62 -21q-16 -8 -28.5 -16t-28.5 -18q-6 -14 -13 -22.5t-14 -16.5zM-360 1143 q6 -6 8 -6q4 0 4 2v4h-12zM-256 1227q12 -16 16 -25q16 10 28.5 24.5t23.5 30.5q18 33 0 70q6 0 5 7t-5 16q-25 -18 -36.5 -37t-21.5 -43q-4 -12 -6 -22.5t-4 -20.5z" />
<glyph unicode="&#xe37;" d="M-819 1253q8 33 42 63t66 46q78 45 154 45q51 0 95 -17.5t85 -48.5q0 27 2 53.5t6 55.5q2 29 37 29q14 0 33.5 -7.5t35 -17.5t27 -22.5t11.5 -24.5q8 -66 4 -137.5t-4 -136.5q-4 -18 -17.5 -26.5t-31.5 -8.5q-20 0 -40 6t-36 16h-84t-114.5 2t-111 7.5t-71.5 13.5 q-12 4 -29.5 14t-32 24.5t-22.5 33t-4 38.5zM-651 1221h18q43 -6 70 -7q31 0 57.5 3.5t71.5 3.5q8 0 24 -4q-14 27 -33.5 51t-45.5 41q-23 12 -31 12q-14 0 -24.5 -12.5t-33.5 -22.5q-23 -16 -43 -30.5t-30 -34.5zM-186 1292.5q4 75.5 36 157.5q8 18 39 18t65 -21.5 t30 -51.5q-10 -66 -15.5 -138.5t2.5 -146.5q-6 -29 -47 -29q-33 0 -66.5 17.5t-39.5 44.5q-8 74 -4 149.5z" />
<glyph unicode="&#xe38;" d="M-395 -266q29 41 58.5 77.5t57.5 65.5q12 12 37 12q18 0 40 -7t41.5 -18t33.5 -24.5t18 -25.5q0 -111 -5 -216.5t-33 -203.5q-6 -18 -35 -19q-18 0 -42 7.5t-44.5 19.5t-34.5 27.5t-14 29.5q8 41 15 88t9 88q-18 4 -39.5 16.5t-38 27t-24.5 30t0 25.5z" />
<glyph unicode="&#xe39;" d="M-575 -292q11 85 36 155q2 16 27 16q16 0 38.5 -9t43 -23.5t35 -32t14.5 -31.5q-10 -25 -19.5 -56.5t-16.5 -64.5t-9 -64.5t4 -56.5q0 -4 7 -16t18 -23q4 12 7 23.5t3 15.5q14 49 23.5 83t15.5 64.5t13 65.5t18 84q2 18 28 19q18 0 43 -9.5t47.5 -25t38 -32.5t15.5 -32 q-6 -59 -17.5 -129.5t-36 -131t-69.5 -101.5t-119 -41q-84 10 -128 64.5t-57.5 129t-2.5 159.5z" />
<glyph unicode="&#xe3a;" d="M-285 -172q0 12 1 15t10 10q0 6 5 12t5 12q6 0 8 5t10 12l2 2q4 4 8 4q8 16 33 16q12 0 24.5 -2t24.5 -6q14 -6 24 -11.5t26 -11.5q2 -6 4 -10t4 -7t2 -7q-16 -18 -36 -41t-34 -41q-8 -4 -14 -4q-14 0 -34.5 4t-33.5 8q-4 2 -12 7t-15.5 10.5t-11.5 11.5t0 12z" />
<glyph unicode="&#xe3b;" />
<glyph unicode="&#xe3c;" />
<glyph unicode="&#xe3d;" />
<glyph unicode="&#xe3e;" />
<glyph unicode="&#xe3f;" horiz-adv-x="724" d="M28 88q1 16 31 25q-4 111 2.5 220t12.5 220q8 121 9 240.5t9 240.5q12 29 47 29q31 0 60 -23q23 8 34 9.5t21 1.5q2 29 3 59.5t5 58.5q12 41 15.5 73t7.5 73q8 14 37 14q18 0 37.5 -3t31.5 -5q20 -10 43 -31.5t33 -52.5q8 -31 1 -67.5t-11 -65.5q-10 -29 -9 -53.5 t-10 -53.5q68 -35 123 -94t76 -131q23 -80 -8 -161t-105 -128q0 -6 -8 -10q-4 -2 -6 -2q10 -10 19.5 -14t19.5 -15q57 -43 103 -106t40 -143q-8 -55 -35.5 -92.5t-67.5 -61t-89 -36.5t-101 -19q14 -80 5 -168t-39 -164q-10 -18 -35 -19q-20 0 -47 9.5t-49.5 25t-38 31.5 t-13.5 33q14 59 24.5 124.5t4.5 127.5q-43 0 -92 12t-76 51q-16 25 -15 41zM246 100q72 6 135 27t98 80q23 39 9.5 90t-50.5 86q-12 12 -33.5 19.5t-46 11.5t-49 5t-43.5 1q-4 -80 -10 -160t-10 -160zM260 541q41 2 75 20.5t58.5 47t38.5 64.5t17 70q2 41 -9.5 90.5 t-48.5 73.5q-27 18 -59 19q-25 0 -60 -11q4 -92 -1 -187t-11 -187z" />
<glyph unicode="&#xe40;" horiz-adv-x="399" d="M8 223q14 98 27.5 203.5t31 213.5t37 212t46.5 199q6 16 30 16q18 0 42 -8t44.5 -21.5t32.5 -29t6 -29.5q-6 -109 -23.5 -214.5t-36 -212t-33.5 -213t-22 -212.5q23 10 37.5 27.5t34.5 33.5q8 16 31 17q14 0 31.5 -8.5t30 -20.5t17.5 -27.5t-5 -27.5q-23 -31 -41.5 -55.5 t-38 -42t-42 -27.5t-55.5 -10h-16t-18 2q-45 6 -75 27.5t-47.5 53t-22.5 71.5t-3 83z" />
<glyph unicode="&#xe41;" horiz-adv-x="831" d="M8 223q14 98 28.5 203.5t31 213.5t37 212t47.5 199q6 16 30 16q18 0 42 -8t43.5 -21.5t31.5 -29t6 -29.5q-6 -109 -23.5 -214.5t-36 -212t-33.5 -213t-19 -212.5q20 10 34.5 27.5t34.5 33.5q8 16 33 17q14 0 31.5 -8.5t30 -20.5t17.5 -27.5t-5 -27.5q-23 -31 -41.5 -55.5 t-38 -42t-43 -27.5t-56.5 -10h-16t-18 2q-45 6 -75 27.5t-47.5 53t-22.5 71.5t-3 83zM430 223q14 98 27.5 203.5t30 213.5t37 212t46.5 199q6 16 31 16q18 0 42 -8t44.5 -21.5t32.5 -29t6 -29.5q-6 -109 -23.5 -214.5t-36 -212t-34 -213t-21.5 -212.5q20 10 34.5 27.5 t37.5 33.5q8 16 31 17q14 0 31.5 -8.5t29.5 -20.5t17.5 -27.5t-5.5 -27.5q-23 -31 -41 -55.5t-37.5 -42t-43 -27.5t-56.5 -10h-16t-19 2q-45 6 -74.5 27.5t-46 53t-22.5 71.5t-2 83z" />
<glyph unicode="&#xe42;" horiz-adv-x="446" d="M20 1444q0 31 11.5 61.5t38.5 57.5q51 53 121.5 76.5t146.5 23.5q74 0 146.5 -19.5t131.5 -52.5q6 0 17.5 -7t23 -18.5t19.5 -23.5t8 -24q-4 -23 -20.5 -28t-32.5 -5q-10 0 -21.5 1t-19.5 1q-39 18 -84 30.5t-92 12.5q-37 0 -73 -10.5t-65 -32.5q-25 -18 -47 -45t-22 -58 q0 -35 23.5 -66.5t41.5 -68.5q14 -33 17.5 -113.5t-1.5 -184t-16.5 -221.5t-23.5 -227.5t-23.5 -198.5t-15.5 -136v-62q8 12 18.5 23.5t20.5 22.5q10 12 21.5 23t21.5 22q8 27 37 26q18 0 37.5 -10t33 -26.5t19.5 -36t-4 -37.5q-33 -59 -79 -103.5t-110 -44.5q-16 0 -24 2 q-72 10 -121 57.5t-49 127.5q0 104 9 219.5t21.5 235.5t25.5 241t24 233q0 70 -12.5 127.5t-43.5 114.5q-16 27 -25.5 58.5t-9.5 62.5z" />
<glyph unicode="&#xe43;" horiz-adv-x="505" d="M-137 1386q6 39 23.5 88.5t42 96.5t55 89t65.5 64q51 37 127 37q41 0 80 -10t68 -31q29 -23 52 -41t23 -39q-29 -344 -62.5 -697t-55.5 -697q0 -29 -2.5 -59.5t-12.5 -59.5q0 -10 7.5 -18.5t7.5 -18.5q0 2 2 6q2 2 3 4t5 2q10 18 21.5 37t29.5 27q8 25 33 24 q16 0 34.5 -10t33 -25.5t19.5 -33t-3 -31.5q-29 -51 -68 -93t-102 -42q-47 0 -92 23.5t-74 58.5q-20 23 -27.5 95.5t-6.5 170.5t7 210t14.5 214t15.5 182t9 115q-47 10 -83 22.5t-64 30.5q-84 51 -113 131t-12 178zM33 1266q-2 -45 16 -84q0 -10 1 -20.5t11 -20.5 q20 0 37 15.5t27 25.5q0 10 22 10q10 119 21.5 226.5t28.5 215.5q-2 -4 -7 -6q-8 -4 -16 -4q-18 -18 -36.5 -53t-36 -74t-32 -75t-20.5 -60q-14 -51 -16 -96z" />
<glyph unicode="&#xe44;" horiz-adv-x="565" d="M-313 1819q-8 33 10 40t53 7q31 0 57.5 -30t49 -77t40 -104.5t30 -111.5t20.5 -99t12 -66q68 72 143.5 159t143.5 159q8 6 30 6q18 0 42 -4t43.5 -10.5t34 -16.5t14.5 -22q-12 -145 -23.5 -269.5t-22 -237t-19.5 -220t-15 -221t-9.5 -237.5t-3.5 -271v-48l15 19 q25 23 38 44.5t25 31.5q16 29 51 28q20 0 41 -10t34.5 -26.5t18.5 -36t-5 -35.5q-14 -25 -31 -51.5t-38.5 -51t-48 -43t-61.5 -26.5q-6 0 -12 -1t-12 -1q-49 0 -91 29.5t-77 70.5q-25 27 -34 124t-7 229t12 283.5t23.5 290t26 247t18.5 153.5q-47 -72 -103.5 -131 t-115.5 -121q-20 -16 -50 -16q-25 0 -51 8t-48.5 22.5t-38 32t-15.5 35.5q0 152 -27.5 291t-66.5 285z" />
<glyph unicode="&#xe45;" horiz-adv-x="557" d="M66.5 834.5q-9.5 19.5 1.5 37.5q14 33 32.5 66t42 58.5t54 41t69.5 15.5q100 0 159.5 -65.5t70.5 -162.5q6 -68 7 -171t-3 -224t-12.5 -250t-19.5 -249.5t-25.5 -225t-30.5 -174.5q-4 -18 -33 -18q-20 0 -47 9t-50.5 23.5t-37 34t-8.5 41.5q10 49 21 131t20.5 180.5 t17.5 206t15 205.5t10.5 180t3.5 131q4 41 5 79t-5 79q2 25 -1.5 53.5t-3.5 55.5q-10 -8 -21 -14.5t-19 -12.5q-23 -29 -36.5 -56.5t-25.5 -56.5q-10 -16 -37 -16q-20 0 -43.5 9t-42 24.5t-28 35z" />
<glyph unicode="&#xe46;" horiz-adv-x="620" d="M45 430q6 39 18.5 75t33 64.5t48 46t62.5 17.5h13t13 -2q31 0 62 -21q20 33 43.5 44.5t60.5 11.5q33 -2 63 -18.5t53.5 -43t39.5 -61.5t23 -72q14 -86 2.5 -184.5t-23.5 -182.5q-16 -106 -30.5 -210.5t-41.5 -210.5q-6 -18 -30 -19q-18 0 -43 9.5t-45.5 23.5t-34 31.5 t-8.5 33.5q10 150 37.5 294.5t44.5 281.5q4 47 3 89t-3 85q-14 -31 -34 -65.5t-28 -61.5q-6 -20 -31 -20q-14 0 -30.5 8t-28.5 21.5t-17.5 30.5t3.5 36q0 10 -1 17t-3 16q-44 -48 -62 -107q-8 -33 -41 -33q-29 0 -59.5 23.5t-28.5 52.5z" />
<glyph unicode="&#xe47;" d="M-588 1307.5q6 60.5 47 107.5q51 59 96.5 77.5t92.5 18.5q31 0 63.5 -3t67.5 -3t72.5 7.5t80.5 29.5q8 4 17 4q18 0 42.5 -11t42 -26.5t25 -31t-7.5 -21.5q-51 -27 -101 -33t-97 -6h-64q-59 0 -110.5 -11t-92.5 -65q-4 -4 -7 -9t-7 -9q14 4 26.5 6t26.5 2q59 0 113 -35 q24 31 49 56q14 14 37 14q18 0 38.5 -8t36 -20.5t20.5 -26t-3 -23.5q-25 -29 -46.5 -63.5t-47.5 -63.5q-10 -10 -25 -10q-16 0 -34.5 8t-35 19.5t-28.5 25t-14 23.5q0 14 -4 14t-21 -14q-2 -4 -6 -6q-6 -6 -12 -7q-35 -20 -60.5 -31.5t-48.5 -11.5q-35 0 -74 33 q-53 43 -47 103.5z" />
<glyph unicode="&#xe48;" d="M-248 1735v78.5t1 50t4 51.5t7 80q0 37 35 37q18 0 40 -9.5t40.5 -22.5t30.5 -28.5t12 -29.5q-4 -47 -2 -75t4 -52.5t3 -54t-5 -81.5q-6 -35 -43 -34q-18 0 -40.5 8t-41 21.5t-32 29.5t-13.5 31z" />
<glyph unicode="&#xe49;" d="M-688 1722q29 51 54.5 91t82.5 59q31 8 66 8q41 0 77.5 -12.5t67.5 -30.5q41 -25 63.5 -72t12.5 -90v-18t-4 -19q86 20 166 50q4 0 8 1t8 1q23 0 50.5 -11.5t46 -27t21.5 -31.5t-22 -25q-94 -33 -194.5 -59.5t-192.5 -54.5q-2 -2 -8 -2q-16 0 -43 7t-50.5 18.5 t-35.5 25.5t0 31q18 20 37.5 44.5t34 49t19.5 50.5t-3 50v23q-10 -8 -25.5 -16.5t-25.5 -18.5q-18 -16 -35 -39.5t-27 -50.5q-6 -16 -32 -17q-18 0 -42 8.5t-42.5 20.5t-28.5 27.5t-4 29.5z" />
<glyph unicode="&#xe4a;" d="M-441 1751q-10 55 13 109q16 41 44 61.5t75 20.5q39 -4 68.5 -22.5t52.5 -47.5q33 41 68.5 70.5t76.5 29.5q23 0 39 -8q47 -18 65.5 -56t24.5 -85q16 20 34.5 41.5t43.5 44.5q10 10 24 10q18 0 40 -10.5t38.5 -25.5t22.5 -30.5t-6 -27.5q-35 -31 -57.5 -58.5t-44 -54 t-45 -53.5t-60.5 -53q-16 -8 -35 -9q-29 0 -61.5 17.5t-32.5 48.5v139q-29 -35 -48.5 -58.5t-39.5 -47.5q-12 -14 -33 -15q-14 0 -30.5 7.5t-30 17.5t-22.5 23.5t-11 25.5q0 16 -1 32.5t-7 39.5l-25 -25q-23 -45 -13.5 -94t23.5 -94q10 -31 -16 -31q-12 0 -28.5 6t-32 16.5 t-27 22.5t-13.5 23q-23 45 -33 100z" />
<glyph unicode="&#xe4b;" d="M-358 1826q8 11 24 19q41 0 78 2t74 6q4 29 10 56.5t12 54.5q6 23 37 23q14 0 32.5 -5.5t34 -13.5t26 -18.5t10.5 -18.5v-59q12 2 23 3t24 3q27 0 55.5 -18.5t36.5 -34.5q10 -33 2 -54.5t-25 -21.5q-33 -4 -64.5 -5t-64.5 -3q-6 -61 -22 -131q-4 -18 -35 -19 q-16 0 -36.5 5.5t-38 14.5t-29 19t-11.5 23v37.5t4 42.5q-16 -2 -31.5 -3t-31.5 -1q-27 0 -54.5 14t-37.5 39q-10 33 -2 44z" />
<glyph unicode="&#xe4c;" d="M-113.5 1726q7.5 43 58.5 74q104 63 225 87t242 24q29 0 62.5 -13.5t47.5 -35.5q16 -25 10 -43.5t-34 -18.5q-35 0 -91.5 -6t-116 -16.5t-113.5 -26.5t-85 -37q-10 -8 -23.5 -17t-13.5 -20q-4 0 -10 -6q-2 -4 -2 -6v-10q23 -10 37 -27q18 -18 23.5 -42.5t-23.5 -31.5 q-8 -2 -29 -2q-47 0 -88 28t-62.5 65.5t-14 80.5z" />
<glyph unicode="&#xe4d;" d="M-512 1323q8 66 58.5 95.5t113.5 29.5q37 0 81 -13.5t81 -38t61.5 -59t24.5 -77.5q4 -39 -8.5 -71t-36 -55.5t-55 -36t-66.5 -12.5q-26 1 -51 7q-8 2 -16.5 4t-14.5 4q-31 10 -63.5 32.5t-58 52t-40 65.5t-10.5 73zM-352 1223q0 -10 6 -18.5t6 -16.5q33 4 55.5 31.5 t30.5 52.5v63q-6 12 -8 15q-29 0 -49.5 -18.5t-28.5 -47.5q-10 -10 -11 -26.5t-1 -34.5z" />
<glyph unicode="&#xe4e;" d="M-603 878q5 40 23.5 74.5t49 63t65.5 53.5q-41 27 -68.5 66t-27.5 86q0 45 17.5 82.5t47 65.5t68.5 42t80 14q57 1 112 -30q4 -4 13.5 -10.5t17.5 -13.5t12.5 -16t-2.5 -22q-10 -12 -28 -12q-33 0 -41 12q-16 6 -29 6q-20 0 -38.5 -10t-34 -25.5t-26.5 -33t-16 -29.5 q-6 -23 -6 -49.5t6 -42.5q10 -27 23 -27q6 0 18 6q31 6 41 7q18 0 35 -6.5t27 -10.5q2 -4 11 -11t15.5 -16.5t8.5 -18.5t-7 -15q-4 -2 -7 -4t-7 -4q-33 -16 -66.5 -36t-62.5 -44.5t-50.5 -55t-29.5 -69.5q0 -53 19.5 -92t79.5 -39q29 0 59.5 6t54.5 12q8 2 23 2 q20 0 41.5 -8t38.5 -25q8 -8 15 -26.5t-15 -24.5q-74 -23 -160 -22q-92 0 -174 35.5t-115 130.5q-16 45 -11 85z" />
<glyph unicode="&#xe4f;" horiz-adv-x="862" d="M94 428q0 70 26.5 131.5t73 106.5t106.5 71.5t130 26.5t132.5 -26.5t107.5 -71.5t71.5 -106.5t26.5 -131.5q0 -72 -26.5 -132t-72.5 -106.5t-107.5 -72t-131.5 -25.5t-131 26.5t-106.5 73t-72 106.5t-26.5 130zM143 428q0 -59 22.5 -111.5t61.5 -91.5t91.5 -61.5 t111.5 -22.5q61 0 113.5 22.5t90.5 61.5t60.5 91.5t22.5 111.5t-22.5 111.5t-61.5 91.5t-91.5 61.5t-111.5 22.5t-111.5 -22.5t-91.5 -61.5t-61.5 -91.5t-22.5 -111.5zM225 428q0 43 16.5 80t44 64.5t64.5 44t80 16.5t81 -16.5t65.5 -44t44 -64.5t16.5 -80t-16.5 -81 t-44 -65.5t-65.5 -43t-81 -15.5t-81 16.5t-65.5 44t-43 64.5t-15.5 80z" />
<glyph unicode="&#xe50;" horiz-adv-x="641" d="M18.5 497q6.5 169 55.5 318q35 111 103.5 184.5t170.5 73.5q35 0 68 -8q68 -18 108.5 -57t61 -93.5t24.5 -118t0 -126.5q-10 -129 -36.5 -263.5t-71.5 -263.5q-12 -39 -27.5 -75.5t-38 -64.5t-54.5 -45t-79 -17q-86 0 -150.5 58t-91.5 144q-6 17 2 29q-51 156 -44.5 325z M185 350.5q-1 -122.5 36 -233.5l10 -15q4 -6 10.5 -15t12.5 -17q29 27 41 55.5t22 56.5q16 51 29.5 98.5t32.5 86.5q18 111 39.5 218t21.5 216q0 41 -9 85t-28 72h-24q-41 -25 -69.5 -68.5t-49 -95t-32 -105.5t-19.5 -97q-23 -119 -24 -241.5z" />
<glyph unicode="&#xe51;" horiz-adv-x="491" d="M7 668.5q-7 15.5 5 31.5q68 92 141.5 177.5t141.5 177.5q14 18 51 18q18 0 40 -5t39 -15.5t27.5 -23.5t10.5 -30q-16 -244 -30.5 -485.5t-31.5 -488.5q0 -16 -15 -24.5t-38 -8.5q-18 0 -38.5 5t-37 15.5t-26.5 23.5t-10 32q2 86 8 184t13 199.5t14.5 202t15.5 190.5 q-16 -20 -31.5 -51t-33 -62t-34 -58.5t-30.5 -41.5q-12 -14 -43 -15q-23 0 -45.5 7.5t-39 18.5t-23.5 26.5z" />
<glyph unicode="&#xe52;" horiz-adv-x="643" d="M27.5 7.5q-11.5 17.5 1.5 39.5q63 117 133.5 236.5t134.5 236.5q25 45 53.5 91t53 94.5t42 97.5t21.5 98q-80 -37 -137.5 -118t-85.5 -179q-6 -16 -25 -16q-14 0 -31.5 8t-34 21.5t-27.5 29t-11 29.5q8 76 43 138.5t87 109.5t115.5 77.5t128.5 40.5q16 0 37 -1t39.5 -7 t31.5 -18.5t19 -32.5q18 -72 7 -139.5t-38.5 -132t-63.5 -125t-64 -113.5q-55 -106 -111.5 -205.5t-114.5 -197.5q66 0 124.5 1t121.5 11q25 0 56.5 -11.5t50.5 -35.5q16 -20 10 -40t-31 -20q-104 -10 -213.5 -12t-214.5 -12q-12 0 -34.5 7t-42 19.5t-31 30z" />
<glyph unicode="&#xe53;" horiz-adv-x="677" d="M18.5 183.5q-8.5 52.5 1 109.5t29.5 113q8 14 35 14q18 0 40.5 -8.5t41 -21.5t30 -30.5t5.5 -33.5q-4 -23 -11.5 -55.5t-10.5 -67.5t1 -68t23 -53h10q16 0 25 8q10 8 25.5 14.5t25.5 16.5q37 18 69.5 61t59 94.5t45 103.5t22.5 89q2 10 2 18.5t2 18.5q-10 -8 -24 -15.5 t-25 -15.5q-10 -8 -20 -23.5t-23 -31.5q-10 -12 -30 -12q-23 0 -49.5 12t-47 29.5t-29 38t8.5 36.5q27 29 63.5 82t71.5 112.5t60.5 117t31.5 96.5l-12 -10q-78 -41 -136.5 -105.5t-92.5 -144.5q-6 -14 -25 -15q-16 0 -36.5 9.5t-38 25t-27 33.5t-0.5 37q20 49 56 101 t82 96.5t99 73t109 28.5q35 0 68.5 -13.5t66.5 -46.5q29 -29 37 -62.5t4 -69t-16.5 -69.5t-24.5 -65q-14 -35 -32 -62.5t-32 -62.5q63 -27 105 -88q29 -45 26.5 -100t-22 -110.5t-49 -104.5t-54.5 -82q-53 -70 -120.5 -115t-145.5 -45q-68 0 -131 41q-53 33 -80.5 79 t-36 98.5z" />
<glyph unicode="&#xe54;" horiz-adv-x="663" d="M23 377q35 180 77.5 351t87.5 351q6 16 33 17q18 0 41 -7.5t42.5 -19.5t31.5 -28.5t8 -32.5q-35 -143 -65.5 -292t-65.5 -292q35 0 68.5 1t62.5 11q8 18 9 30.5t1 29.5q10 63 24.5 126.5t24.5 135.5q8 63 19.5 124.5t28.5 125.5q6 23 32 22q18 0 39 -8t39.5 -20.5 t30.5 -26.5t12 -27q0 -63 -12 -130.5t-23 -131.5q-10 -53 -20.5 -113.5t-26.5 -123.5q27 0 58.5 -7.5t48.5 -27.5q20 -27 12 -43.5t-37 -16.5q-27 -10 -47 -11t-47 -1q-10 -35 -14 -68.5t-11 -62.5q-12 -63 -20 -131t-27 -131q-6 -18 -39 -19q-18 0 -40.5 6.5t-41 16.5 t-32 24.5t-13.5 30.5q10 53 15.5 115.5t19.5 122.5q4 20 9.5 37.5t15.5 33.5q-45 0 -88 -6t-80 -6q-8 -2 -27 -2q-20 0 -43.5 4t-42 13.5t-28 23.5t-0.5 33z" />
<glyph unicode="&#xe55;" horiz-adv-x="581" d="M20 518q18 92 30.5 183.5t31.5 183.5q-18 18 -29.5 33.5t4.5 27.5q76 53 163 83t179 52q6 2 13.5 2h13.5q25 0 49.5 -8t46.5 -31q4 -4 10.5 -13t8.5 -18t-1 -17.5t-18 -12.5q-74 -20 -139.5 -45t-130.5 -53q0 -55 -7 -109.5t-18 -109.5q29 10 49.5 11t49.5 1 q41 -4 80.5 -20.5t70.5 -43t50.5 -63.5t19.5 -82q0 -82 -25.5 -159t-72 -141.5t-108.5 -115.5t-136 -84q-12 -4 -23 -4q-25 0 -53.5 11.5t-48 26.5t-23.5 32.5t25 30.5q94 45 160.5 124.5t95.5 182.5q16 53 23.5 100t-11.5 94h-12q-51 -25 -81 -51.5t-64 -71.5 q-12 -14 -41 -14q-20 0 -45 7t-45.5 19.5t-33 28t-8.5 33.5z" />
<glyph unicode="&#xe56;" horiz-adv-x="555" d="M34 215q1 37 4 74t3 67q18 180 41.5 354.5t77.5 344.5q6 18 33 18q18 0 39.5 -7t40 -18.5t30.5 -24.5t10 -28q-14 -106 -33.5 -206.5t-35.5 -206.5v-60q72 0 142.5 -32.5t105.5 -86.5q37 -57 37.5 -128.5t-25 -136t-74.5 -113t-117 -60.5q-10 -2 -20 -3t-21 -1 q-66 0 -127 32t-92 91q-12 27 -16 60.5t-3 70.5zM219 166q0 -27 1 -46.5t11 -35.5q4 0 9 2q8 4 14 10q35 27 60.5 74t35.5 92q4 18 5 41t-2 46.5t-12 44t-28 34.5l2 2v2q-6 0 -14 -4q-18 -4 -31.5 -9t-22.5 -15.5t-15.5 -30t-12.5 -51.5v-156z" />
<glyph unicode="&#xe57;" horiz-adv-x="655" d="M13 1009.5q5 24.5 34 24.5q111 10 211.5 10.5t200.5 16.5q4 0 9 1t9 1q20 0 48 -4t51.5 -14.5t37 -25.5t4.5 -38q-84 -254 -133 -506q-25 -131 -48 -253t-44 -251q0 -16 -13 -24t-36 -8q-20 0 -45 6t-45.5 16t-33.5 23.5t-13 25.5q10 242 58 471.5t128 458.5 q-59 -10 -119.5 -13t-119.5 -14q-14 0 -34 4.5t-39.5 11.5t-35.5 16t-25 22q-12 18 -7 42.5z" />
<glyph unicode="&#xe58;" horiz-adv-x="636" d="M25 723q-23 70 0.5 138.5t66.5 115.5q45 49 101.5 66.5t117.5 17.5q18 0 37 -1t37 -3q29 0 62.5 -16.5t44.5 -36.5q20 -10 37.5 -20.5t29.5 -23t16.5 -24.5t-4.5 -27q-45 -84 -102 -162.5t-98 -168.5q111 -59 180.5 -159t58.5 -241q-8 -109 -81.5 -174t-176.5 -65 q-66 0 -127 26q-70 31 -105.5 84t-46 120t0 138.5t30.5 136.5q10 29 21.5 66t32.5 68q-49 29 -83 61.5t-50 83.5zM208 740.5q3 -19.5 3 -29.5q31 59 68.5 119.5t78.5 119.5q-51 -20 -92 -60t-55 -99q-6 -31 -3 -50.5zM269.5 210q-1.5 -42 9.5 -73q0 -20 6 -39.5t6 -40.5h26 q35 20 56.5 53t32 72t11.5 80t-5 76q-8 41 -30 77t-50 56q-20 -41 -30.5 -89t-22.5 -97q-8 -33 -9.5 -75z" />
<glyph unicode="&#xe59;" horiz-adv-x="573" d="M8.5 669q-0.5 50 12 101t33 98t44.5 84q37 55 84 82t99 27q47 0 96 -23q12 6 33 6q23 0 47 -7t44.5 -19t31 -29.5t2.5 -36.5q0 -18 -9.5 -34.5t-15.5 -36.5q-29 -98 -51.5 -193.5t-32.5 -195.5q-29 -127 -33 -249t-16 -249q-2 -16 -14.5 -24.5t-30.5 -8.5t-41 7 t-41.5 18.5t-30.5 26t-12 30.5q-10 100 -2 206.5t26 217.5q-10 -2 -30 -2q-55 0 -102.5 27.5t-71.5 85.5q-18 41 -18.5 91zM184 602q8 16 16.5 28.5t18.5 31.5q23 37 41.5 70.5t33.5 67.5t26.5 70.5t21.5 81.5l-12 13q10 -10 -2.5 -12.5t-22.5 -12.5q-18 -16 -29.5 -28.5 t-19.5 -30.5q-10 -29 -24.5 -57.5t-24.5 -63.5q-8 -29 -15.5 -57.5t-7.5 -65.5v-35z" />
<glyph unicode="&#xe5a;" horiz-adv-x="1028" d="M63.5 835.5q12.5 63.5 54.5 124t91 95.5q10 8 33 8q25 0 53.5 -11.5t50 -26.5t29.5 -32.5t-8 -29.5q-29 -31 -55.5 -55.5t-37.5 -65.5q-10 -12 -20 -45q35 16 57.5 33.5t42.5 37.5q49 31 95.5 69t74.5 77q14 14 45 14q23 0 49.5 -7t48 -20.5t34 -30t10.5 -34.5 q-72 -229 -127.5 -462.5t-124.5 -463.5q-6 -18 -37 -18q-20 0 -45 7t-46.5 19.5t-34.5 27.5t-9 32q23 166 63.5 326.5t87.5 320.5q-47 -33 -97 -59.5t-103 -26.5q-23 0 -43 6q-90 20 -117 73.5t-14.5 117zM616 143q10 229 71.5 458.5t141.5 438.5q8 25 45 25q20 0 46 -9 t45.5 -24.5t31 -33t2.5 -35.5q-39 -111 -70.5 -218.5t-60.5 -218.5q-20 -111 -32.5 -220t-32.5 -228q-6 -20 -37 -21q-20 0 -46 8.5t-49.5 20.5t-39 27.5t-15.5 29.5z" />
<glyph unicode="&#xe5b;" horiz-adv-x="1646" d="M29 411.5q-4 75.5 14 148.5t61 126q33 41 74 58.5t84 17.5q39 0 81 -13.5t79 -38t63.5 -57t38.5 -71.5q8 -29 -1 -71t-29.5 -84t-46 -77t-50.5 -49q-6 -4 -24 -4q-23 0 -51.5 11t-50 28.5t-28.5 36t13 30.5q14 8 33.5 35t37 57.5t28 62.5t3.5 50q0 14 -6 25.5t-8 15.5 q-2 0 -3 1t-3 1q-10 0 -22.5 -8t-20.5 -8q-33 -29 -53.5 -73t-30.5 -92t-10 -96t6 -87q2 -16 7 -38t14.5 -42.5t22.5 -34.5t32 -14q39 0 77.5 32.5t63.5 57.5q35 37 61.5 79t49 87t44 91t48.5 91q12 20 43 20q35 0 71.5 -21.5t51.5 -49.5q20 -39 36.5 -77t26.5 -65 q6 -14 12 -27.5t15 -25.5q23 33 51 66q27 33 53.5 66.5t48.5 68.5q4 8 7.5 11t5.5 7q14 23 53 23t75.5 -20.5t36.5 -53.5q10 -80 37 -108.5t68 -28.5q31 0 68.5 12.5t80.5 24.5q29 0 61 -11.5t54 -27.5q8 -6 17.5 -18.5t13.5 -24.5t0 -22.5t-19 -12.5q-68 -12 -110.5 -24.5 t-87.5 -12.5q-35 0 -72 9.5t-72.5 25.5t-67.5 36.5t-57 45.5q-18 -27 -37.5 -53.5t-41.5 -53.5q-27 -33 -49.5 -63.5t-71.5 -30.5q-72 0 -116 41t-71 105q-4 12 -10 24t-12 25q-29 -61 -61.5 -119.5t-75.5 -105t-99.5 -74t-132.5 -27.5q-63 0 -121.5 24.5t-99.5 71.5 q-43 49 -69.5 120t-30.5 146.5z" />
<glyph unicode="&#x2000;" horiz-adv-x="1016" />
<glyph unicode="&#x2001;" horiz-adv-x="2032" />
<glyph unicode="&#x2002;" horiz-adv-x="1016" />
<glyph unicode="&#x2003;" horiz-adv-x="2032" />
<glyph unicode="&#x2004;" horiz-adv-x="677" />
<glyph unicode="&#x2005;" horiz-adv-x="508" />
<glyph unicode="&#x2006;" horiz-adv-x="338" />
<glyph unicode="&#x2007;" horiz-adv-x="338" />
<glyph unicode="&#x2008;" horiz-adv-x="254" />
<glyph unicode="&#x2009;" horiz-adv-x="406" />
<glyph unicode="&#x200a;" horiz-adv-x="112" />
<glyph unicode="&#x2010;" horiz-adv-x="1052" d="M85 583q3 17 21 17q131 6 265 6q133 0 265 -3t263 -3q25 0 47.5 -12.5t32.5 -44.5q8 -23 5 -41.5t-21 -18.5q-135 0 -269.5 -3t-269.5 -3q-133 0 -268 6q-18 0 -37 13.5t-29 46.5q-8 23 -5 40z" />
<glyph unicode="&#x2011;" horiz-adv-x="1052" d="M85 583q3 17 21 17q131 6 265 6q133 0 265 -3t263 -3q25 0 47.5 -12.5t32.5 -44.5q8 -23 5 -41.5t-21 -18.5q-135 0 -269.5 -3t-269.5 -3q-133 0 -268 6q-18 0 -37 13.5t-29 46.5q-8 23 -5 40z" />
<glyph unicode="&#x2012;" horiz-adv-x="1052" d="M85 583q3 17 21 17q131 6 265 6q133 0 265 -3t263 -3q25 0 47.5 -12.5t32.5 -44.5q8 -23 5 -41.5t-21 -18.5q-135 0 -269.5 -3t-269.5 -3q-133 0 -268 6q-18 0 -37 13.5t-29 46.5q-8 23 -5 40z" />
<glyph unicode="&#x2013;" horiz-adv-x="862" d="M4 551q4 24 29 24q94 4 157.5 6.5t112.5 2.5t90 -1t89 -3t111.5 -3.5t156.5 -1.5q35 0 65.5 -18t46.5 -65q10 -31 7 -56.5t-29 -25.5q-96 0 -162 -1t-115 -3.5t-92 -3.5t-92 -1q-51 0 -116 2.5t-161 6.5q-27 0 -51 18t-41 64q-10 35 -6 59z" />
<glyph unicode="&#x2014;" horiz-adv-x="1292" d="M4 551q4 24 29 24q94 4 188 6.5t189 2.5q193 0 381 -4.5t374 -4.5q35 0 66 -18t47 -65q10 -31 7 -56.5t-30 -25.5q-193 0 -385 -4.5t-385 -4.5q-96 0 -191.5 2.5t-191.5 6.5q-27 0 -51 18t-41 64q-10 35 -6 59z" />
<glyph unicode="&#x2018;" horiz-adv-x="301" d="M74 1249q6 27 43 27q18 0 38.5 -6t39 -16.5t31 -25t16.5 -28.5q0 -72 -1 -149.5t-12 -149.5q0 -31 -30 -31q-16 0 -36 7.5t-37 19.5t-28.5 25.5t-11.5 25.5q-10 72 -11 150.5t-1 150.5z" />
<glyph unicode="&#x2019;" horiz-adv-x="301" d="M74 1249q6 27 43 27q18 0 38.5 -6t39 -16.5t31 -25t16.5 -28.5q0 -72 -1 -149.5t-12 -149.5q0 -31 -30 -31q-16 0 -36 7.5t-37 19.5t-28.5 25.5t-11.5 25.5q-10 72 -11 150.5t-1 150.5z" />
<glyph unicode="&#x2022;" horiz-adv-x="702" d="M94 389q0 51 20.5 97t56.5 82t82 56.5t97 20.5t98.5 -20.5t82 -56.5t55 -82t20.5 -97t-20.5 -97t-56 -82t-82 -56.5t-97.5 -20.5q-53 0 -99 20.5t-81 56.5t-55.5 82t-20.5 97z" />
<glyph unicode="&#x2026;" horiz-adv-x="1081" d="M84 37q-4 6 0 12q0 12 1 15.5t9 9.5q0 6 5 12t5 12q8 0 10.5 5.5t10.5 11.5q-2 2 0 4q0 4 8 4q8 16 33 16q12 0 24.5 -2t24.5 -6q16 -6 25.5 -12.5t23.5 -12.5q2 -6 4 -10t4 -7t2 -7q-16 -18 -34.5 -41t-34.5 -41q-8 -4 -12 -4q-12 0 -35 4t-33 8q-4 2 -12.5 7 t-16.5 10.5t-12 11.5zM446 49q0 12 1.5 15.5t9.5 9.5q0 6 5 12t5 12q6 0 8 5.5t10 11.5q0 2 2 4q4 4 9 4q8 16 32 16q12 0 24.5 -2t25.5 -6q14 -6 23.5 -12.5t25.5 -12.5q2 -6 4 -10t4 -7t2 -7q-16 -18 -34.5 -41t-35.5 -41q-8 -4 -12 -4q-14 0 -35.5 4t-34.5 8q-4 2 -12 7 t-15 10.5t-11.5 11.5t-0.5 12zM809 37q-4 6 0 12q0 12 1 15.5t9 9.5q0 6 4 12t4 12q8 0 10.5 5.5t10.5 11.5q0 2 2 4q4 4 8 4q8 16 33 16q10 0 23.5 -2t23.5 -6q16 -6 25.5 -12.5t25.5 -12.5q2 -6 4 -10t4 -7t2 -7q-16 -18 -35.5 -41t-33.5 -41q-8 -4 -15 -4q-14 0 -34.5 4 t-32.5 8q-4 2 -12.5 7t-15.5 10.5t-11 11.5z" />
<glyph unicode="&#x202f;" horiz-adv-x="406" />
<glyph unicode="&#x205f;" horiz-adv-x="508" />
<glyph unicode="&#x25cc;" horiz-adv-x="1048" d="M96 430q0 20 14.5 33.5t34.5 13.5q18 0 33 -14t15 -33q0 -20 -13.5 -34.5t-34.5 -14.5q-23 0 -36 13.5t-13 35.5zM211 162q0 20 14 35q15 12 33 12t35 -12q14 -14 14 -35q0 -20 -14 -33q-14 -14 -35 -14q-18 0 -33 14q-14 12 -14 33zM211 694q0 23 12 36t35 13 q49 0 49 -49q0 -20 -14 -33.5t-35 -13.5q-18 0 -32.5 14.5t-14.5 32.5zM479 47q0 23 13.5 35t33.5 12q18 0 35 -12q14 -14 14 -35q0 -20 -14 -33.5t-35 -13.5q-20 0 -32 14q-14 14 -15 33zM479 811q0 20 13.5 32.5t33.5 12.5q18 0 35 -12q14 -14 14 -33q0 -20 -14 -33 q-14 -14 -35 -14q-20 0 -32 14q-14 12 -15 33zM743 162q0 20 15 35q15 12 35 12q16 0 32 -12q14 -14 15 -35q0 -20 -12.5 -33.5t-34.5 -13.5q-20 0 -35 14q-14 12 -15 33zM743 694q1 49 50 49q23 0 35 -13t12 -36q0 -18 -13 -32q-14 -14 -34 -15q-20 0 -35 13.5t-15 33.5z M858 430q0 18 14 33q13 14 31 14q23 0 37 -14q12 -16 12 -33q0 -49 -49 -49q-18 0 -31 14q-14 14 -14 35z" />
<glyph unicode="&#x25fc;" horiz-adv-x="1064" d="M0 0v1065h1065v-1065h-1065z" />
<glyph unicode="&#xf700;" horiz-adv-x="858" d="M27.5 418.5q-9.5 17.5 3.5 34.5q35 49 86 70.5t108 21.5q70 0 136.5 -29t107.5 -76q31 -31 45 -59q12 59 6 117.5t-37 109.5q-23 29 -44 37t-46 8q-18 0 -36.5 -3t-41.5 -3q-29 0 -59.5 5t-57 17.5t-48 33t-29.5 49.5q-14 29 -9 57.5t20 55t38 50t41 43.5q35 41 82 67 t104 26h16.5t16.5 -2q29 0 58.5 -8.5t58.5 -18.5q20 -10 30.5 -19.5t20.5 -19.5l16.5 -11t16.5 -14q10 4 17 8.5t16 4.5l38 39q20 29 37 58.5t27 57.5q14 18 49 19q20 0 45 -8.5t44.5 -22.5t28.5 -30.5t3 -34.5q-31 -90 -96.5 -148.5t-153.5 -58.5q-55 0 -113 24 q-20 10 -32.5 19.5t-32.5 19.5q-10 10 -19.5 24.5t-19.5 14.5t-23.5 -8t-28 -20.5t-28.5 -25.5t-22 -24q-20 -18 -35 -50t-43 -52h12q6 0 13.5 1t13.5 1q55 0 109.5 -18.5t101.5 -50t82.5 -78t54.5 -101.5q25 -68 22.5 -137.5t-23 -136t-55 -128t-73.5 -114.5 q-14 -23 -53 -22q-20 0 -43 7t-41.5 19t-30.5 27.5t-12 32.5q10 68 14 142.5t-14 141.5q-10 29 -23.5 53.5t-42.5 24.5q-4 2 -16 2q-27 0 -56 -20.5t-45 -47.5q-10 -10 -30 -10q-23 0 -49.5 10.5t-47 24.5t-30 31.5zM53 -350.5q-8 16.5 2 28.5q49 47 82 112t62 134 q6 20 32 21q27 0 57.5 -16.5t39.5 -30.5q88 -80 164 -174l43 147q2 18 26 18q18 0 42 -10t44.5 -25.5t32.5 -35t10 -37.5q-20 -59 -39.5 -125t-38.5 -133q-6 -23 -28 -23q-16 0 -37 9.5t-39.5 21.5t-32.5 24.5t-18 18.5q-61 96 -140 195q-41 -90 -94 -168q-14 -20 -47 -21 q-25 0 -50.5 11.5t-45 26.5t-27.5 31.5z" />
<glyph unicode="&#xf701;" d="M-1078 1283q-7 36 21 79q47 68 112.5 108.5t149.5 40.5q86 -6 160 -40.5t137.5 -88t113.5 -121t89 -137.5l6 -10q8 -16 5 -27.5t-13 -17.5t-23.5 -8t-23.5 -2q-29 10 -62.5 22.5t-56.5 40.5q-12 4 -23.5 11.5t-21.5 7.5q-31 0 -68.5 7t-68.5 7h-234h-26q-37 6 -76 22.5 t-64.5 43t-32.5 62.5zM-895 1272h92q70 0 136.5 -4t134.5 -17q-14 20 -35 43t-45.5 43.5t-51 33.5t-53.5 13q-37 0 -65 -22q-18 -14 -38 -23.5t-30 -19.5q-10 -16 -22.5 -26.5t-22.5 -20.5z" />
<glyph unicode="&#xf702;" horiz-adv-x="4" d="M-1081 1370q10 41 52 76t81 57q90 51 188 51q74 0 143.5 -27.5t131.5 -76.5q10 41 11 72.5t1 72.5q6 29 43 29q18 0 40.5 -7t42 -19.5t33 -27t13.5 -28.5q10 -90 5 -172t-5 -172q-8 -33 -53 -33q-47 0 -92 33h-13q-18 0 -60 1t-96.5 2t-112.5 3t-109.5 5t-89.5 7.5 t-48 8.5q-20 8 -41.5 22.5t-38 33.5t-24.5 42t-2 47zM-883 1331q10 -10 13.5 -12t13.5 -2h303q10 0 20.5 -1t20.5 -11q-10 23 -28.5 47t-42 44.5t-50 34t-53.5 13.5q-25 0 -54.5 -10.5t-57 -25.5t-51 -35.5t-34.5 -41.5z" />
<glyph unicode="&#xf703;" d="M-1263 1284q-1 27 22 57q43 59 101.5 92t127.5 33q72 -4 132.5 -31.5t113.5 -70.5q14 35 31 57q35 35 86 35q29 0 60.5 -10t60.5 -25q51 -27 86.5 -77t27.5 -117q-16 -53 -64 -91t-108 -49q-6 -2 -20 -2q-15 1 -23 5q-4 -2 -14 -3q-27 10 -57.5 20.5t-47.5 37.5v2 q-33 10 -74.5 16t-74.5 6h-195q-23 2 -33 3.5t-16 3.5q-31 8 -58.5 23t-45 36.5t-18.5 48.5zM-1098 1268q57 -2 110.5 -1t113.5 -7q16 -2 35.5 -4.5t39.5 -6.5q-25 39 -62.5 75t-88.5 36q-31 0 -62 -19q-16 -10 -28.5 -18t-28.5 -16q-17 -29 -29 -39zM-748 1145q4 -4 9 -4 q4 0 4 2v2h-13zM-643 1229q4 -6 8 -12.5t8 -12.5q31 25 52 56q18 37 0 69q4 0 3 8.5t-3 14.5q-27 -16 -37.5 -35t-20.5 -45q-4 -12 -6 -22.5t-4 -20.5z" />
<glyph unicode="&#xf704;" d="M-1194 1243q8 33 42 62.5t69 46.5q41 25 78.5 35t74.5 10q49 0 94 -17.5t84 -48.5q2 27 3 53.5t6 55.5q6 29 36 28q16 0 35 -7t35 -17t26.5 -22.5t10.5 -24.5q8 -66 4 -137.5t-4 -137.5q-4 -18 -17.5 -26.5t-31.5 -8.5q-41 0 -76 25h-83t-113.5 1t-111.5 6t-73 14 q-12 4 -28.5 14t-31 24.5t-23.5 33t-5 38.5zM-1024 1210h16q45 -6 72 -6q29 0 55.5 3t71.5 3q6 0 12 -1t15 -3q-16 29 -36 52.5t-46 39.5q-14 12 -31 13q-12 0 -23.5 -12.5t-33.5 -22.5q-23 -16 -42.5 -30.5t-29.5 -35.5zM-561 1282.5q4 75.5 39 157.5q8 18 37 18 q16 0 33.5 -6t31.5 -15.5t22.5 -22.5t6.5 -28q-8 -66 -14 -139t4 -147q-4 -16 -17.5 -22.5t-32.5 -6.5q-33 0 -66.5 17.5t-39.5 44.5q-8 74 -4 149.5z" />
<glyph unicode="&#xf705;" d="M-475 1339q-2 78 0 141.5t12 141.5q0 14 10.5 20.5t26.5 6.5t37.5 -7.5t40 -17.5t31 -21.5t12.5 -21.5q-4 -35 -2 -69.5t4 -68.5t3 -70t-5 -75q-2 -29 -41 -28q-18 0 -41 7t-42.5 17.5t-32.5 22.5t-13 22z" />
<glyph unicode="&#xf706;" d="M-944 1409q18 35 36.5 63.5t41 50t52.5 34t73 12.5q39 0 76.5 -12.5t68.5 -32.5q41 -25 63.5 -72t12.5 -90v-17.5t-4 -17.5q47 14 95 27.5t93 27t83 24.5t65 21q4 0 8 1.5t8 1.5q23 0 50.5 -11.5t46 -27t21.5 -32t-22 -24.5q-47 -16 -122.5 -39.5t-156.5 -47t-157 -45 t-121 -36.5h-8q-16 0 -43 6.5t-50.5 17.5t-35.5 25.5t0 30.5q18 20 37.5 45t34 49.5t19.5 50t-3 50.5v22q-10 -8 -25.5 -16t-25.5 -18q-18 -16 -35 -40t-27 -51q-6 -16 -32 -16q-18 0 -42 8t-42.5 21.5t-28.5 29t-4 27.5z" />
<glyph unicode="&#xf707;" d="M-935 1374q3 66 28 127q20 47 51 69.5t84 22.5q45 -4 80 -24.5t59 -55.5q37 47 78 81t88 34q43 0 71.5 -21.5t45 -53t25 -70.5t8.5 -74q43 31 88 62.5t88 64.5t79.5 61.5t61.5 53.5q10 8 29 8q20 0 44.5 -11.5t43 -28.5t26 -34.5t-7.5 -30.5q-39 -35 -101.5 -82t-130 -95 t-131 -92t-104.5 -75q-16 -10 -39 -10q-35 0 -71.5 19.5t-36.5 56.5v158q-4 -4 -5 -6.5t-5 -6.5q-25 -31 -46.5 -55.5t-44.5 -52.5q-14 -16 -38 -17q-35 0 -69 28t-38 56q0 20 -1 39t-9 43l-27 -26q-25 -51 -14.5 -107.5t26.5 -107.5q6 -20 -3 -28.5t-25 -8.5t-39 6 t-42.5 17.5t-34.5 24.5t-17 25q-27 51 -24 117z" />
<glyph unicode="&#xf708;" d="M-876 1604.5q8 13.5 28 23.5q47 0 90 3t86 7q6 35 13.5 67t15.5 60q6 27 43 27q18 0 38.5 -6t38 -15.5t30 -20.5t12.5 -21v-68q14 2 27.5 3t27.5 1q31 0 64.5 -21.5t44.5 -39.5q10 -39 1.5 -63.5t-28.5 -24.5q-41 -4 -78 -6.5t-74 -4.5q-4 -39 -10 -76.5t-16 -76.5 q-2 -10 -13.5 -15.5t-27.5 -5.5q-20 0 -44 6t-44.5 16.5t-33.5 24t-13 25.5q0 45 6 92q-18 0 -37 -1t-37 -3q-31 0 -64.5 16.5t-43.5 44.5q-10 39 -2 52.5z" />
<glyph unicode="&#xf709;" d="M-599 1370q7 43 58 74t135 59.5t175.5 50t179.5 35t147 13.5q29 0 63 -13.5t48 -36.5q16 -25 10 -43t-35 -18q-18 0 -63 -6t-102.5 -16.5t-121 -23.5t-121 -28.5t-102.5 -31t-65 -27.5q-10 -8 -23.5 -17.5t-13.5 -19.5q-4 0 -10 -6q-2 -4 -2 -6v-13q20 -10 36 -24 q18 -18 23.5 -44t-23.5 -30q-10 -4 -28 -4q-47 0 -88 27.5t-62.5 66.5t-14.5 82z" />
<glyph unicode="&#xf70a;" d="M-272 1210q-2 78 0 141.5t12 141.5q0 16 10 21.5t27 5.5q16 0 37.5 -6.5t40 -16.5t31 -22.5t12.5 -22.5q-4 -35 -2 -69.5t4 -68.5t3 -70t-5 -75q-2 -27 -41 -26q-18 0 -41 6t-42.5 16.5t-32.5 22.5t-13 22z" />
<glyph unicode="&#xf70b;" d="M-625 1409q18 35 37 63.5t41.5 50t52 34t72.5 12.5q41 0 78 -12.5t68 -32.5q41 -25 63.5 -72t11.5 -90v-17.5t-4 -17.5q47 14 95.5 27.5t93.5 27t82.5 24.5t64.5 21q4 0 8 1.5t8 1.5q23 0 50.5 -11.5t46 -27t21.5 -32t-21 -24.5q-47 -16 -123 -39.5t-157 -47t-156.5 -45 t-120.5 -36.5h-9q-16 0 -42.5 6.5t-50 17.5t-36 25.5t-0.5 30.5q18 20 38 45t34 49.5t19.5 50t-2.5 50.5v22q-10 -8 -25.5 -16t-26.5 -18q-18 -16 -34.5 -40t-26.5 -51q-6 -16 -33 -16q-18 0 -41.5 8t-42 21.5t-29 29t-4.5 27.5z" />
<glyph unicode="&#xf70c;" d="M-744.5 1374q3.5 66 27.5 127q20 47 51 69.5t84 22.5q45 -4 80 -24.5t60 -55.5q37 47 77.5 81t88.5 34q43 0 71.5 -21.5t45 -53t24.5 -70.5t8 -74q43 31 88 62.5t88 64.5t80 61.5t61 53.5q10 8 29 8q20 0 45 -11.5t43.5 -28.5t25.5 -34.5t-7 -30.5q-39 -35 -101.5 -82 t-130 -95t-131 -92t-104.5 -75q-16 -10 -39 -10q-35 0 -72 19.5t-37 56.5v158q-4 -4 -5 -6.5t-5 -6.5q-25 -31 -46.5 -55.5t-43.5 -52.5q-14 -16 -39 -17q-35 0 -68.5 28t-38.5 56q0 20 -1 39t-9 43l-26 -26q-25 -51 -14.5 -107.5t26.5 -107.5q6 -20 -3 -28.5t-26 -8.5 q-16 0 -38.5 6t-42 17.5t-35 24.5t-17.5 25q-27 51 -23.5 117z" />
<glyph unicode="&#xf70d;" d="M-538.5 1604.5q8.5 13.5 28.5 23.5q47 0 90 3t86 7q6 35 13.5 67t15.5 60q6 27 43 27q18 0 38.5 -6t38 -15.5t30 -20.5t12.5 -21v-68q14 2 27.5 3t27.5 1q31 0 64.5 -21.5t43.5 -39.5q10 -39 2 -63.5t-28 -24.5q-41 -4 -78 -6.5t-74 -4.5q-4 -39 -10 -76.5t-16 -76.5 q-2 -10 -13.5 -15.5t-27.5 -5.5q-20 0 -44 6t-44.5 16.5t-33.5 24t-13 25.5q0 45 6 92q-18 0 -37 -1t-37 -3q-31 0 -64.5 16.5t-44.5 44.5q-10 39 -1.5 52.5z" />
<glyph unicode="&#xf70e;" d="M-415 1370q7 43 59 74q51 31 135 59.5t175 50t179 35t148 13.5q29 0 62.5 -13.5t47.5 -36.5q16 -25 10 -43t-34 -18q-18 0 -63.5 -6t-103 -16.5t-121 -23.5t-120.5 -28.5t-102 -31t-66 -27.5q-10 -8 -23.5 -17.5t-13.5 -19.5q-4 0 -10 -6q-2 -4 -2 -6v-13q20 -10 37 -24 q18 -18 23 -44t-23 -30q-10 -4 -29 -4q-47 0 -88 27.5t-62.5 66.5t-14.5 82z" />
<glyph unicode="&#xf70f;" horiz-adv-x="1269" d="M30 834.5q7 37.5 31 64.5q27 31 69 59.5t90 49t97.5 33t92.5 12.5h27.5t27.5 -4q121 -8 215 -68.5t129 -173.5q12 -55 14 -113.5t-3 -116t-12 -116t-11 -113.5q0 -53 -1 -109.5t25 -109.5q0 -16 12.5 -33.5t20.5 -34.5l4 -4q6 -6 10 -8q4 4 24.5 15.5t20.5 19.5 q8 10 10.5 23.5t12.5 21.5q8 27 9 58.5t1 56.5q0 61 6 121.5t6 119.5q16 147 22.5 287.5t23.5 288.5q6 18 40 18q20 0 46 -6t47.5 -16t37 -22.5t15.5 -24.5q0 -139 -6 -275.5t-17 -275.5q-10 -70 -12 -138.5t-10 -138.5q0 -53 -19.5 -98t-64.5 -80q-27 -31 -61.5 -44 t-73.5 -13q-47 0 -93.5 16.5t-80.5 40.5q-78 59 -102.5 131t-24.5 168q0 35 7 96.5t13 134t5 146.5t-15 134t-49 99t-97 39q-23 0 -47 -6q-27 -4 -78 -25.5t-93 -51t-56 -65.5t33 -71q27 -16 42 -34.5t15 -45.5q10 -27 4 -63.5t-14 -63.5q-18 -94 -36.5 -182t-10.5 -184 q0 -27 7 -50.5t15 -39.5q10 4 16.5 5t10.5 3q6 2 8 2q43 25 56.5 71t13.5 89q-4 16 5 20t26 4q10 0 20 -1t18 -1q25 -8 46.5 -24.5t21.5 -42.5q10 -51 -4 -94.5t-45 -75t-74 -49t-88 -17.5q-16 0 -32.5 2t-32.5 8q-61 16 -97.5 53t-53.5 86.5t-18 105.5t7 112q10 43 17 91 t18 93q0 2 2 22.5t5 45t5 50t2 40.5q-10 2 -13.5 9t-13.5 15q-16 10 -31.5 26.5t-25.5 43.5q-16 35 -9 72.5zM567 -227q-8 53 22 97t83 52q12 4 18 4q23 0 46.5 -11t37.5 -26q4 -10 10.5 -20t8.5 -18.5t-2.5 -14.5t-16.5 -6q-27 -8 -41 -37t-4 -53q6 -29 33 -29 q14 0 28.5 6.5t30.5 10.5q39 20 72 51t65.5 63.5t65.5 62t72 52.5q6 4 20 4q20 0 47 -10t46.5 -25.5t25.5 -32t-12 -28.5q-59 -35 -106.5 -87t-100.5 -95q-51 -37 -102.5 -55.5t-112.5 -18.5q-10 0 -23.5 1t-25.5 3q-27 8 -56.5 21.5t-57.5 33t-47.5 45t-23.5 60.5z" />
<glyph unicode="&#xf710;" d="M-817 1335.5q-12 53.5 0 102.5t50 82.5t103 33.5q39 0 79 -14t63 -49t14.5 -55.5t-45.5 -20.5q-4 0 -5 1t-5 1q-25 0 -36 -21.5t-13 -47t6 -47t24 -21.5h4q25 4 74 15.5t107 39.5q59 27 123.5 64t129 74.5t129 74.5t124.5 62q6 4 24 4q29 0 64.5 -14.5t60.5 -35t30 -43 t-26 -36.5q-4 0 -14 -5t-21.5 -12.5t-22.5 -14.5t-18 -13q-23 -12 -52.5 -27.5t-58 -33t-55 -33t-43.5 -25.5q-55 -33 -116.5 -63.5t-127 -55t-133 -39t-132.5 -14.5q-66 0 -127.5 21.5t-110.5 74.5q-35 37 -47 90.5z" />
<glyph unicode="&#xf711;" d="M-512 1323q8 66 58.5 95.5t113.5 29.5q37 0 81 -13.5t81 -38t61.5 -59t24.5 -77.5q4 -39 -8.5 -71t-36 -55.5t-55 -36t-66.5 -12.5q-26 1 -51 7q-8 2 -16.5 4t-14.5 4q-31 10 -63.5 32.5t-58 52t-40 65.5t-10.5 73zM-352 1223q0 -10 6 -18.5t6 -16.5q33 4 55.5 31.5 t30.5 52.5v63q-6 12 -8 15q-29 0 -49.5 -18.5t-28.5 -47.5q-10 -10 -11 -26.5t-1 -34.5z" />
<glyph unicode="&#xf712;" d="M-945 1266.5q1 27.5 13 55.5t33 52q51 59 96 77.5t92 18.5q31 0 64 -3t67 -3q35 0 73 7.5t81 29.5q8 4 16 4q18 0 43 -11t42.5 -26.5t24.5 -30t-7 -22.5q-51 -27 -102.5 -32t-98.5 -5h-57q-59 0 -112.5 -12t-94.5 -66q-4 -4 -7 -9t-7 -9q14 4 26 6t27 2q59 0 112 -35 q25 31 50 56q14 14 36 14q18 0 39 -8t36.5 -20.5t20.5 -26t-3 -23.5q-25 -29 -45.5 -63.5t-49.5 -63.5q-10 -10 -24 -10q-16 0 -34.5 8t-35 19.5t-29 25t-14.5 23.5q0 14 -4 14t-20 -14q-2 -4 -7 -6q-6 -6 -12 -6q-35 -20 -59.5 -32t-46.5 -12q-37 0 -76 33q-27 20 -37 48 t-9 55.5z" />
<glyph unicode="&#xf713;" d="M-616 1735v78.5t1 50t4 51.5t7 80q0 37 35 37q18 0 39.5 -9.5t40 -22.5t31 -28.5t12.5 -29.5q-4 -47 -2 -75t4 -52.5t3 -54t-5 -81.5q-6 -35 -43 -34q-18 0 -41 8t-41.5 21.5t-31.5 29.5t-13 31z" />
<glyph unicode="&#xf714;" d="M-1106 1872q18 35 36.5 63.5t41 50t52.5 34t73 12.5q41 0 78 -12.5t67 -32.5q41 -25 63.5 -72t12.5 -90v-18.5t-4 -18.5q43 12 84 23.5t82 25.5q6 2 16 2q23 0 50.5 -11t46 -26.5t21.5 -32t-22 -24.5q-94 -33 -194 -59.5t-193 -55.5q-2 0 -3 -1t-5 -1q-16 0 -42.5 7 t-50.5 18.5t-36 26t0 30.5q18 20 38 45t34 49.5t19 50t-3 50.5v22q-10 -8 -25.5 -16t-25.5 -19q-18 -16 -34.5 -39.5t-26.5 -50.5q-6 -16 -33 -16q-18 0 -42 8t-42.5 20.5t-28.5 28t-4 29.5z" />
<glyph unicode="&#xf715;" d="M-1526 1669q-10 55 13 109q16 41 43.5 61.5t74.5 20.5q39 -4 69 -22.5t52 -47.5q33 41 69 70.5t77 29.5q31 0 53 -13t37.5 -34.5t24.5 -48.5t12 -53q16 20 34.5 41.5t44.5 44.5q8 8 25 8q18 0 39.5 -10t38 -24.5t22.5 -30t-6 -27.5q-35 -31 -57.5 -59.5t-44 -55 t-45 -52.5t-60.5 -52q-16 -8 -34 -8q-31 0 -63 17t-32 48v139q-29 -35 -48 -58.5t-40 -47.5q-14 -14 -35 -15q-29 0 -58.5 25t-33.5 49q0 16 -1 32.5t-9 39.5l-22 -25q-23 -45 -13.5 -94t23.5 -94q8 -31 -19 -31q-12 0 -27.5 6t-30.5 16.5t-26.5 23t-13.5 22.5 q-23 45 -33 100z" />
<glyph unicode="&#xf716;" d="M-839.5 1790q8.5 12 24.5 20q39 0 77 2.5t72 6.5q6 29 12.5 56.5t12.5 51.5q6 23 37 23q14 0 32.5 -5.5t34 -13.5t25.5 -17t10 -18v-29.5t-2 -29.5q12 2 24.5 3t24.5 1q27 0 54.5 -18.5t38.5 -34.5q10 -33 1.5 -53.5t-24.5 -20.5q-35 -4 -66.5 -5t-62.5 -3 q-4 -35 -9 -66.5t-14 -64.5q-6 -18 -36 -19q-16 0 -37 5.5t-38.5 14.5t-28.5 19.5t-11 22.5q0 37 6 80q-16 -2 -31.5 -3t-31.5 -3q-27 0 -55.5 15t-37.5 38q-10 33 -1.5 45z" />
<glyph unicode="&#xf717;" d="M-1074 1767q7 43 58 74q104 63 225 87t242 24q29 0 62.5 -13.5t48.5 -35.5q16 -25 10 -43.5t-35 -18.5q-35 0 -91 -6t-115.5 -16.5t-114 -26.5t-84.5 -37q-10 -8 -23.5 -17t-13.5 -20q-4 0 -10 -6l-3 -6l-2 -12q25 -10 39 -25q18 -18 23.5 -42.5t-23.5 -31.5 q-8 -2 -15 -2h-13q-47 0 -88 28t-62.5 65.5t-14.5 80.5z" />
<glyph unicode="&#xf718;" d="M-395 -266q29 41 58.5 77.5t57.5 65.5q12 12 37 12q18 0 40 -7t41.5 -18t33.5 -24.5t18 -25.5q0 -111 -5 -216.5t-33 -203.5q-6 -18 -35 -19q-18 0 -42 7.5t-44.5 19.5t-34.5 27.5t-14 29.5q8 41 15 88t9 88q-18 4 -39.5 16.5t-38 27t-24.5 30t0 25.5z" />
<glyph unicode="&#xf719;" d="M-575 -292q11 85 36 155q2 16 27 16q16 0 38.5 -9t43 -23.5t35 -32t14.5 -31.5q-10 -25 -19.5 -56.5t-16.5 -64.5t-9 -64.5t4 -56.5q0 -4 7 -16t18 -23q4 12 7 23.5t3 15.5q14 49 23.5 83t15.5 64.5t13 65.5t18 84q2 18 28 19q18 0 43 -9.5t47.5 -25t38 -32.5t15.5 -32 q-6 -59 -17.5 -129.5t-36 -131t-69.5 -101.5t-119 -41q-84 10 -128 64.5t-57.5 129t-2.5 159.5z" />
<glyph unicode="&#xf71a;" d="M-285 -172q0 12 1 15t10 10q0 6 5 12t5 12q6 0 8 5t10 12l2 2q4 4 8 4q8 16 33 16q12 0 24.5 -2t24.5 -6q14 -6 24 -11.5t26 -11.5q2 -6 4 -10t4 -7t2 -7q-16 -18 -36 -41t-34 -41q-8 -4 -14 -4q-14 0 -34.5 4t-33.5 8q-4 2 -12 7t-15.5 10.5t-11.5 11.5t0 12z" />
<glyph unicode="&#xf71d;" horiz-adv-x="1193" d="M12 805q6 41 18.5 84t33 76.5t54.5 55t83 21.5q39 0 72.5 -15t60.5 -42q20 -23 37.5 -75t31 -122.5t22.5 -153.5t17 -169q35 102 71 202.5t77 202.5q12 27 49 27q20 0 44 -7t43 -18.5t31.5 -24.5t12.5 -28q18 -117 31.5 -230.5t32.5 -219.5q0 -47 8 -99.5t16 -99.5 q8 27 14 33q10 47 20.5 94t18.5 86q14 70 22.5 147.5t10.5 157.5t-2 160t-16 153q-55 -29 -107.5 -46t-97.5 -17q-23 0 -43 6q-98 27 -150.5 99.5t-42.5 170.5q10 106 76 155.5t168 49.5q98 -4 168 -47t119 -112q53 47 94 86.5t59 58.5q10 10 35 10t53.5 -10t51 -24.5 t32 -33t-5.5 -32.5q-41 -41 -105.5 -98.5t-139.5 -110.5q37 -106 48 -229t6 -245t-23.5 -230.5t-43.5 -186.5q-12 -41 -25.5 -84t-34 -78t-50 -56.5t-74.5 -21.5q-29 0 -59 9q-57 16 -90 47.5t-50.5 75t-24.5 94.5t-14 104q-4 33 -7 64.5t-7 64.5q-80 -219 -166 -436 q-12 -31 -57 -31q-20 0 -42 6.5t-40.5 17.5t-29.5 26.5t-11 31.5q-12 96 -16.5 206t-9.5 220.5t-15 218t-35 199.5q-8 -4 -14 -10q-18 -29 -22.5 -66t-14.5 -76q0 -27 -33 -26q-16 0 -37.5 8t-40 20.5t-32 28.5t-13.5 33zM193 971v2v-2zM671 1174.5q-3 -33.5 7 -62.5 q6 -39 41 -39q31 0 75 23.5t95 60.5q-20 53 -49 100.5t-68 47.5q-18 0 -38.5 -15.5t-43.5 -50.5q-16 -31 -19 -64.5z" />
<glyph horiz-adv-x="514" d="M-512 1323q8 66 58.5 95.5t113.5 29.5q37 0 81 -13.5t81 -38t61.5 -59t24.5 -77.5q4 -39 -8.5 -71t-36 -55.5t-55 -36t-66.5 -12.5q-26 1 -51 7q-8 2 -16.5 4t-14.5 4q-31 10 -63.5 32.5t-58 52t-40 65.5t-10.5 73zM-352 1223q0 -10 6 -18.5t6 -16.5q33 4 55.5 31.5 t30.5 52.5v63q-6 12 -8 15q-29 0 -49.5 -18.5t-28.5 -47.5q-10 -10 -11 -26.5t-1 -34.5zM33 874.5q-8 20.5 2 38.5q18 31 38.5 59.5t45 51.5t53.5 37t64 14q27 0 51 -8q86 -23 128 -86t42 -154q0 -209 -30 -423t-97 -420q-6 -14 -29 -15q-18 0 -46 11.5t-50.5 29t-35.5 39 t-7 43.5q37 111 61.5 226.5t41 227t23.5 213t7 181.5q-10 -6 -23.5 -11t-23.5 -11q-25 -27 -40.5 -53.5t-31.5 -53.5q-8 -14 -31 -14q-20 0 -43.5 11t-42 28.5t-26.5 38z" />
<glyph d="M-603 878q5 40 23.5 74.5t49 63t65.5 53.5q-41 27 -68.5 66t-27.5 86q0 45 17.5 82.5t47 65.5t68.5 42t80 14q57 1 112 -30q4 -4 13.5 -10.5t17.5 -13.5t12.5 -16t-2.5 -22q-10 -12 -28 -12q-33 0 -41 12q-16 6 -29 6q-20 0 -38.5 -10t-34 -25.5t-26.5 -33t-16 -29.5 q-6 -23 -6 -49.5t6 -42.5q10 -27 23 -27q6 0 18 6q31 6 41 7q18 0 35 -6.5t27 -10.5q2 -4 11 -11t15.5 -16.5t8.5 -18.5t-7 -15q-4 -2 -7 -4t-7 -4q-33 -16 -66.5 -36t-62.5 -44.5t-50.5 -55t-29.5 -69.5q0 -53 19.5 -92t79.5 -39q29 0 59.5 6t54.5 12q8 2 23 2 q20 0 41.5 -8t38.5 -25q8 -8 15 -26.5t-15 -24.5q-74 -23 -160 -22q-92 0 -174 35.5t-115 130.5q-16 45 -11 85z" />
<glyph />
<glyph horiz-adv-x="514" d="M-512 1323q8 66 58.5 95.5t113.5 29.5q37 0 81 -13.5t81 -38t61.5 -59t24.5 -77.5q4 -39 -8.5 -71t-36 -55.5t-55 -36t-66.5 -12.5q-26 1 -51 7q-8 2 -16.5 4t-14.5 4q-31 10 -63.5 32.5t-58 52t-40 65.5t-10.5 73zM-352 1223q0 -10 6 -18.5t6 -16.5q33 4 55.5 31.5 t30.5 52.5v63q-6 12 -8 15q-29 0 -49.5 -18.5t-28.5 -47.5q-10 -10 -11 -26.5t-1 -34.5zM22.5 834.5q-10.5 19.5 0.5 37.5q14 33 33.5 66t43 58.5t53 41t68.5 15.5q100 0 159.5 -65.5t70.5 -162.5q8 -102 10 -214.5t-5 -227.5t-21.5 -228.5t-39.5 -217.5q-2 -16 -33 -17 q-20 0 -46.5 9.5t-50 23.5t-37 33.5t-9.5 42.5q33 145 47.5 312t14.5 314q4 41 4 79t-6 79q2 25 -0.5 53.5t-2.5 55.5q-10 -8 -22 -14.5t-21 -12.5q-23 -29 -36 -56.5t-25 -56.5q-8 -16 -35 -16q-20 0 -43.5 9t-42 24.5t-29 35z" />
</font>
</defs>
</svg>
