<?xml version="1.0" standalone="no"?>
<!DOCTYPE svg PUBLIC "-//W3C//DTD SVG 1.1//EN" "http://www.w3.org/Graphics/SVG/1.1/DTD/svg11.dtd" >
<svg xmlns="http://www.w3.org/2000/svg" xmlns:xlink="http://www.w3.org/1999/xlink" version="1.1">
<metadata></metadata>
<defs>
<font id="uid_immjungregular" horiz-adv-x="0" >
<font-face units-per-em="2048" ascent="1638" descent="-410" />
<missing-glyph horiz-adv-x="385" />
<glyph unicode="&#x3b;&#x3b;For&#x20;Education&#x20;Used&#x20;Only&#x3b;&#x3b;" horiz-adv-x="933" d="M67 370q-7 63 5 124q18 84 64 146t109.5 105t140.5 64.5t157 21.5q47 0 95 -7t89 -24.5t70.5 -47t42.5 -76.5q0 -6 -4 -19q14 -23 20 -50t10 -54q8 -66 -18.5 -129.5t-61.5 -116.5q-61 -92 -158.5 -136t-203.5 -44q-86 0 -170 33t-139 98q-41 49 -48 112zM178 385 q6 -55 53 -98q39 -37 87.5 -53.5t101.5 -16.5q61 0 118.5 22.5t103.5 61.5t74.5 93.5t33.5 117.5q2 25 1 51.5t-12 48.5q-8 20 -19 38t-20 36q-2 12 4.5 18.5t14.5 10.5q-61 35 -150 35q-68 0 -132 -18.5t-109 -49.5q-41 -31 -79 -81t-57.5 -105.5t-13.5 -110.5zM315 430 q-10 43 3.5 83t42 70.5t68.5 49t81 18.5q35 0 68 -16q14 -8 15 -20.5t-15 -18.5q-27 -10 -55.5 -17.5t-51 -19.5t-38 -31.5t-17.5 -56.5q-2 -35 19.5 -50t49.5 -15q25 0 50 10q2 2 12 2q14 0 25.5 -6t5.5 -21q-16 -35 -43 -49t-60 -14q-49 0 -97 29.5t-63 72.5z" />
<glyph unicode="&#x3b;&#x3b;Registered&#x3b;&#x3b;" horiz-adv-x="1036" d="M76 332q0 45 10 90q18 90 69.5 159.5t121 115.5t153.5 71t172 25q51 0 103.5 -8.5t97.5 -28t78 -53.5t45 -85q2 -4 2 -6q0 -6 -6 -10q16 -25 24 -54.5t12 -60.5v-20q0 -63 -22.5 -128t-65.5 -122q-72 -96 -177 -146.5t-222 -50.5q-92 0 -185 34t-153 108q-45 57 -51 102 t-6 68zM203 336q0 -16 4 -55t53 -88q43 -39 96.5 -57.5t110.5 -18.5q70 0 131 25.5t110.5 68.5t82 102.5t38.5 126.5q2 12 0 23q-2 18 -3 40.5t-11 49.5q-8 23 -19.5 40t-19.5 42v4q0 8 5.5 15.5t15.5 11.5q-37 18 -79 27t-87 9q-74 0 -145.5 -21.5t-120.5 -53.5 q-45 -31 -86 -85.5t-58.5 -107.5t-17.5 -98zM276 262q0 20 8.5 53t20.5 76q14 51 21.5 109.5t31.5 103.5q4 8 16.5 14.5t24.5 8.5q4 8 15.5 15t26 11t28.5 5t23 1q27 0 52 -5t50 -13q16 -6 37.5 -16.5t41 -24.5t30 -30.5t10.5 -34.5v-7q0 -53 -43 -87.5t-95 -57.5 q47 -20 83 -50t44 -71q2 -6 3 -12q0 -12 -14.5 -21.5t-33.5 -9.5q-14 0 -22 4q-29 14 -54.5 35t-52.5 39q-57 33 -129 45q-10 -39 -26.5 -74t-48.5 -63q-6 -4 -17 -4q-8 0 -16 2t-8 10q-6 25 -7 49zM422 432q41 8 85 23.5t71 50.5q14 18 16 20l-1 1t-15 16q-12 12 -27.5 17 t-30.5 9q-18 6 -39 7.5t-41 5.5q2 -14 2 -27q0 -25 -6 -54.5t-14 -68.5z" />
<glyph unicode="&#x3b;&#x3b;Multiply&#x3b;&#x3b;" horiz-adv-x="856" d="M98 209q-4 23 4.5 42t21.5 37.5t31.5 35t32.5 30.5q29 27 58.5 52.5t60.5 50.5q-29 55 -51.5 114.5t-17.5 112.5q2 18 14 25.5t27 7.5q20 0 36 -17q33 -33 54.5 -76.5t42.5 -88.5q76 55 160.5 100t177.5 53q18 2 33.5 -13.5t2.5 -35.5q-29 -37 -69.5 -63.5t-81.5 -49.5 q-41 -27 -82 -53.5t-82 -54.5q35 -61 74 -120.5t67 -123.5q8 -16 -5 -24.5t-29 -8.5q-12 0 -25 6q-55 43 -98 91.5t-82 105.5q-16 -14 -37 -29.5t-37 -31.5q-35 -29 -70.5 -59.5t-81.5 -35.5h-8q-35 0 -41 21z" />
<glyph unicode="&#x3b;&#x3b;Divide&#x3b;&#x3b;" horiz-adv-x="1034" d="M160 341q0 34 43 46q39 12 81 15.5t85 3.5q49 0 98 -4.5t94 -4.5q37 -2 78 -3t82 -5t79 -13t68 -32q10 -8 11.5 -23.5t-11.5 -21.5q-35 -18 -73.5 -25.5t-81.5 -7.5q-39 0 -77 3t-75 5h-33q-33 0 -65.5 -1t-65.5 -1q-49 0 -98 3.5t-96 15.5q-43 16 -43 50zM381 72.5 q-6 23.5 10 52.5q23 37 63 44t78 7q37 -4 66 -21.5t45 -52.5q8 -16 -7 -25t-34 -9q-18 0 -24 6q-8 8 -30 20t-40 12q-10 0 -21 -10q-6 -10 1.5 -14t15.5 -8q6 -2 16 -2q8 0 17.5 1t17.5 1q6 0 11 -2t12 -2q14 -2 21 -13.5t-1 -23.5q-12 -20 -35.5 -29.5t-50.5 -9.5 q-29 0 -57.5 10t-48 27.5t-25.5 41zM470 586.5q-5 23.5 11 50.5q18 31 51 43t68 12q41 0 78 -19.5t55 -56.5q8 -18 -7 -27t-34 -9q-16 0 -24 8t-30 20.5t-42 12.5q-12 0 -18 -11q-8 -10 0 -16t16 -8h51q14 0 23 -2q12 -4 20 -13.5t0 -23.5q-12 -23 -36.5 -32t-49.5 -9 q-29 0 -57.5 10t-49 28.5t-25.5 42z" />
<glyph unicode="&#x2018;&#x2018;" horiz-adv-x="524" d="M53 989q0 49 49 53l2 2q18 -2 33 -16t17 -33q-2 -2 4 -64.5t6 -172.5q0 -20 -13.5 -34.5t-35.5 -14.5q-18 0 -35 14t-12 35q0 133 -7.5 181t-7.5 50zM250 989q0 49 49 53l2 2q18 -2 32.5 -16t16.5 -33q-2 -2 4 -64.5t6 -172.5q0 -20 -13 -34.5t-36 -14.5q-18 0 -34.5 14 t-12.5 35q0 133 -7 181t-7 50z" />
<glyph unicode="&#x2019;&#x2019;" horiz-adv-x="524" d="M137 758q0 111 6 173t4 64q2 18 16.5 32.5t33.5 16.5l2 -2q23 -2 37 -16t12 -37q0 -2 -7.5 -50t-7.5 -181q4 -20 -12 -34.5t-35 -14.5q-23 0 -36 14t-13 35zM334 758q0 111 6 173t4 64q2 18 16.5 32.5t32.5 16.5l2 -2q23 -2 37 -16t12 -37q0 -2 -7 -50t-7 -181 q4 -20 -12.5 -34.5t-34.5 -14.5q-23 0 -36 14.5t-13 34.5z" />
<glyph unicode="&#x3b;&#x3b;Trademark&#x3b;&#x3b;" horiz-adv-x="757" d="M59 852q0 4 2 14.5t14.5 21.5t33.5 11h8q31 -6 65.5 -7t67.5 -1q12 0 23.5 1t25.5 1q16 0 32.5 -3t33.5 -16q6 -6 7 -12t1 -12q-16 -23 -48 -32t-59 -13q-4 -29 -11 -80t-18.5 -104.5t-27.5 -98.5t-35 -59h-12t-12 8q-14 20 -19.5 52t-5.5 59q0 20 2 57t10.5 85t14.5 79 q-16 2 -31 3t-29 3q-20 6 -26.5 19.5t-6.5 23.5zM356 502v10q0 92 19.5 185.5t38.5 185.5q2 14 14 22t27 8q8 0 18 -5t14 -17q23 -35 36.5 -72t21.5 -78q16 31 32.5 62t32.5 63q6 12 16.5 17.5t20.5 5.5q18 0 32.5 -13.5t14.5 -33.5q0 -49 4 -103.5t4 -103.5q-2 -20 -3 -47 t-4 -53.5t-11 -50t-25 -38.5q-8 -8 -20 -8q-20 0 -29 17q-16 16 -16 40.5v49.5t1 49t7 49v25q-8 -20 -19.5 -40t-21.5 -42q-10 -20 -33 -21q-18 0 -33.5 13.5t-15.5 31.5q-4 47 -16 84q-18 -104 -33 -207q-4 -14 -12 -20t-19 -6q-18 0 -30.5 12t-12.5 29z" />
<glyph unicode="&#xe24;&#xe32;" horiz-adv-x="907" d="M-62 165q9 36 32.5 64.5t58 46t71.5 17.5q35 -1 60 -17q4 14 16 64.5t26.5 108t25 107.5t5.5 62q-10 27 -21 32t-34 18q-63 37 -82 106q-20 84 26 148.5t116 101.5q61 33 140 52.5t157 19.5q55 0 107 -11.5t96 -36t79 -63.5t53 -94q14 -43 12.5 -117t-16 -161t-37 -180 t-49 -177t-54.5 -151.5t-50 -104.5q-12 -20 -41 -20q-27 0 -49.5 17t-18.5 44q8 43 35 129t55.5 191.5t50 217t18.5 202.5t-37 149.5t-118 56.5q-25 0 -67.5 -10t-89.5 -26.5t-90 -40t-67 -53.5t-20.5 -62.5t48.5 -69.5q31 -25 56.5 -44t35.5 -63q6 -29 1 -82t-19.5 -116.5 t-36 -131t-49 -125t-58.5 -99t-63 -54.5q-27 -10 -54 -10q-47 0 -91 25.5t-62 66.5q-16 37 -7 73z" />
<glyph unicode="&#xe26;&#xe32;" horiz-adv-x="944" d="M-27 165q9 36 32.5 64.5t58 46t69.5 17.5q35 -1 60 -17q12 43 32.5 99.5t32.5 112t5 104.5t-50 76q-63 37 -82 106q-20 84 26 148.5t115 101.5q61 33 140.5 52.5t156.5 19.5q55 0 107.5 -11.5t96.5 -36t79 -63.5t53 -94q12 -37 10 -107.5t-15 -162t-35.5 -198t-48 -215 t-54.5 -210.5t-55.5 -187t-50 -145.5t-38.5 -83.5q-14 -20 -40 -20q-27 0 -49.5 17.5t-18.5 43.5q6 33 27.5 108.5t51 178t61.5 222.5t56.5 241t38 232.5t5 196.5t-42 136t-101.5 49q-25 0 -67.5 -9t-90 -26.5t-91.5 -41t-67.5 -52.5t-20.5 -62.5t50 -70.5q31 -25 56.5 -44 t36.5 -63q6 -29 1 -82t-19.5 -116.5t-37 -131t-49 -125t-57.5 -99t-64 -54.5q-27 -10 -53 -10q-47 0 -91 25.5t-62 66.5q-16 37 -7 73z" />
<glyph unicode="&#xd;" horiz-adv-x="579" />
<glyph unicode=" "  horiz-adv-x="385" />
<glyph unicode="&#x09;" horiz-adv-x="385" />
<glyph unicode="&#xa0;" horiz-adv-x="385" />
<glyph unicode="!" horiz-adv-x="305" d="M25 14q10 72 18 86q4 6 8 8.5t6 4.5q8 2 25 2q29 0 53.5 -7.5t40.5 -21.5q2 -4 5 -11t1 -14q-2 -10 -10 -39.5t-20.5 -61.5t-29 -56.5t-38.5 -24.5q-18 0 -39 27q-28 38 -20 108zM76 225q-24 51 78 801q10 57 34 57q6 0 18.5 -6t25 -13t21.5 -15.5t11 -12.5l41 -110 q-4 -37 -12 -90q-6 -45 -15.5 -111t-23.5 -158q-27 -180 -45.5 -280.5t-26.5 -122.5q-4 -14 -20 -21h-4q-29 0 -50.5 30t-31.5 52z" />
<glyph unicode="&#x22;" horiz-adv-x="415" d="M57 1178q0 20 6 43q10 41 12.5 80.5t8.5 80.5q4 25 9.5 31t25.5 6q53 -8 86 -67q10 -16 10 -33q0 -6 -2 -14q-4 -14 -11 -49t-18.5 -71t-25 -62.5t-31.5 -26.5q-12 0 -35 16q-29 20 -32 38.5t-3 27.5zM221 1178q0 20 6 43q10 41 12.5 80.5t8.5 80.5q4 25 9.5 31t25.5 6 q53 -8 86 -67q10 -16 10 -33q0 -6 -2 -14q-4 -14 -11.5 -49t-18.5 -71t-25.5 -62.5t-30.5 -26.5q-14 0 -35 16q-29 23 -32 40t-3 26z" />
<glyph unicode="#" horiz-adv-x="794" d="M27 383q-6 20 7 24.5t34 4.5h20q12 0 24.5 2t24.5 4q18 45 34.5 88t35.5 88q-12 4 -23.5 5t-21.5 5q-23 6 -38 18.5t-26 63.5q-6 31 1 40t18 9q6 0 12 -1t10 -1q47 0 74 -3t39 -3q14 0 20 12q29 55 42.5 93t19.5 66t8 46.5t8 30.5q14 27 25 26q31 0 55.5 -32.5 t24.5 -63.5v-14q-2 -4 -33 -131h98q37 92 50.5 144t21.5 71q10 23 20 22q18 0 36 -10t31 -26.5t20.5 -36t7.5 -35.5q4 12 4 14q2 4 2 6l-2 -12q-2 -6 -4 -14.5t-7 -20.5q-23 -80 -22 -84q8 -4 16 -6t17 -6q55 -20 61 -84q2 -27 -22 -27q-20 -2 -42 -3t-42 -3q-23 0 -29 -20 q-10 -41 -24.5 -78t-28.5 -78q8 -4 14 -8t12 -10q57 -39 58 -115q0 -14 -6.5 -16t-18.5 -5q-25 -4 -49.5 -6t-48.5 -4h-4q-18 0 -31 -24q-23 -43 -38 -92.5t-34 -94.5l-22 -63q-12 -4 -19 -4q-16 4 -22 8q-33 23 -48.5 55.5t-4.5 73.5q2 25 7 50.5t7 51.5q0 4 1 10.5t1 16.5 q-25 -4 -46.5 -6t-41.5 -6q-14 0 -19 -21q-16 -41 -31.5 -83t-31.5 -83q-12 -31 -29 -30q-23 0 -44 29.5t-21 49.5q0 14 1 26.5t5 27.5q6 18 10 37.5t8 40.5q-10 4 -17 8t-15 8q-14 6 -39 88zM307 449q18 2 33.5 5t30.5 5q18 4 24 20q10 31 23.5 57.5t21.5 57.5q2 6 3 10 l3 12q-20 -4 -39.5 -5t-37.5 -5q-14 -39 -30 -77.5t-32 -79.5z" />
<glyph unicode="$" horiz-adv-x="684" d="M35 205q2 10 13 14t26 4q23 0 44 -8t23 -22t6.5 -34t11.5 -39.5t18 -34.5t28 -22q-4 2 8 5.5t20 7.5q16 10 29.5 18t28.5 23q80 80 81 182t-53 197q-18 33 -40.5 62.5t-43 61t-37 64.5t-22.5 72q-12 72 13.5 137t84.5 106q49 35 111 43q8 59 13 123t28 119q8 18 43 19 q23 0 41 -8.5t22 -22.5q10 -57 0 -121t-18 -121q66 -23 103.5 -82t48.5 -125q4 -16 -17.5 -23t-46.5 -7t-46 7t-26 21q-4 16 -14 41t-24.5 47.5t-33 39t-40.5 16.5q-27 0 -47.5 -27t-30.5 -55q-29 -82 3 -156t79 -137q33 -47 58.5 -98.5t37.5 -104.5t7 -108.5t-36 -110.5 q-39 -70 -105.5 -116t-143.5 -56q29 0 51 -10.5t18 -26.5q-8 -41 -15 -83t-24 -81q-4 -10 -15 -13t-24 -3q-8 0 -15 2t-13 2q-14 2 -31.5 9t-19.5 24q0 37 11 76.5t17 76.5q4 18 35 25h-10q-100 0 -145 56.5t-25 154.5z" />
<glyph unicode="%" horiz-adv-x="618" d="M30 78q-1 20 7 41q10 23 34.5 73t65.5 127q41 78 85 158t91 166t95.5 170t97.5 170l6 12q2 2 2 4t2 5q6 8 16 8q29 -14 43 -43q8 -14 9.5 -30t-2.5 -32l-4.5 -9t-4.5 -13q-4 -18 -12 -33q-31 -53 -75 -142t-109 -212q-66 -123 -114 -213t-77 -148q-57 -113 -98 -129 q-8 -4 -20 -4q-20 0 -31 31q-6 23 -7 43zM56 694q-3 19 1 35q4 27 22.5 61.5t43 66.5t55.5 53.5t60 21.5q27 0 46 -14.5t29 -36.5q23 -50 15 -95q-6 -27 -22.5 -60.5t-41 -63t-54.5 -50t-60 -20.5q-70 0 -87 65q-4 18 -7 37zM129 649q55 20 95 81t46 120q-41 -14 -80.5 -56 t-52.5 -87q-4 -16 -7 -30.5t-1 -27.5zM293 180q16 59 38.5 99t63.5 86l17 10q18 16 32.5 21t38.5 5q29 0 62 -36q31 -33 26 -70q-2 -18 -5 -36.5t-11 -37.5q-12 -31 -28.5 -59.5t-39 -52t-50 -38t-64.5 -14.5q-33 0 -52.5 34t-23.5 63q-2 8 -2 15t-2 11zM367 121 q27 6 51 27.5t42.5 49t31 59t14.5 58.5q-18 -4 -37.5 -20t-38 -36.5t-33 -42t-20.5 -40.5q-4 -16 -8 -29.5t-2 -25.5z" />
<glyph unicode="&#x26;" horiz-adv-x="638" d="M14 194.5q2 38.5 13.5 76.5t25.5 69q27 59 65 110.5t81 100.5q-4 16 -7.5 30.5t-5.5 30.5q-12 55 -17 123t8 130.5t50 110.5t107 66q25 6 53 7q41 0 81 -14.5t64 -43.5q18 -23 23.5 -49.5t2.5 -54t-13 -54t-23 -51.5q-35 -72 -84 -131t-102 -119q14 -53 32.5 -105 t43.5 -101q6 -12 12 -24.5t12 -27.5q12 12 25.5 23.5t25.5 24.5q12 12 48 12q16 0 32.5 -3t28.5 -8.5t17 -12.5t-3 -15l-53.5 -53.5t-69.5 -65.5q23 -45 42.5 -89t35.5 -91q4 -12 -5 -17.5t-23 -5.5q-20 0 -43 6.5t-29 14.5q-18 25 -35.5 50.5t-36.5 51.5 q-53 -39 -107.5 -65.5t-107.5 -26.5q-68 0 -121 53q-27 27 -36 63t-7 74.5zM154 156q0 -6 2 -17.5t5 -24t9 -20.5t14 -8q16 0 39 14.5t46.5 32t43 34.5t27.5 23q-29 53 -54.5 109.5t-45.5 116.5q-16 -23 -30.5 -48.5t-27.5 -52.5q-16 -37 -24 -77.5t-4 -81.5zM299 769 q2 -44 6 -85q0 -6 2 -8q16 23 32.5 45t33.5 47q10 16 22.5 39.5t20.5 49.5t11 50.5t-5 44.5q-12 27 -29 27q-14 0 -28.5 -16.5t-26.5 -37t-20.5 -41t-10.5 -30.5q-10 -41 -8 -85z" />
<glyph unicode="'" horiz-adv-x="233" d="M41 997q0 35 25 226q4 25 10 31t26 6q57 -8 91 -68q10 -14 10 -31q0 -8 -2 -16q-4 -14 -11.5 -49t-18.5 -71t-26.5 -62.5t-33.5 -26.5h-2q-12 0 -35 16q-29 20 -31 30.5t-2 14.5z" />
<glyph unicode="(" horiz-adv-x="358" d="M8 494q0 76 12 226l11 150l81 140q81 141 150 186q84 51 129 51q6 0 32 -6t52 -33q2 -2 2 -4q0 -10 -43 -21.5t-96 -60.5q-199 -244 -199 -608q0 -14 5.5 -216t50.5 -288t65 -90q12 -2 23.5 -10t23.5 -12q6 -2 6 -7q0 -6 -14 -14q-12 -8 -20 -10h-13q-23 0 -49 4 q-150 23 -179.5 243t-29.5 380z" />
<glyph unicode=")" horiz-adv-x="342" d="M-96 -109q0 4 6 7q12 4 24.5 11t26.5 11q20 6 76.5 91t95.5 329t39 336q0 260 -127 446q-47 49 -88 60.5t-41 19.5q0 4 4 6q37 18 59.5 28.5t30.5 10.5q43 0 121 -51q63 -45 119.5 -171t56.5 -296q0 -41 0 64.5t0 -64.5q0 -41 -9 -177t-78.5 -395t-223.5 -286 q-27 -4 -49 -4h-13q-8 2 -18 10q-12 8 -12 14z" />
<glyph unicode="*" horiz-adv-x="636" d="M63 1227.5q3 9.5 21 17.5q23 10 42 18.5t40 16.5q4 4 8 5t8 5q-12 23 -31.5 41.5t-15.5 52.5h15q31 0 55 -11t53 -21q-8 29 -23.5 54.5t-25.5 53.5q12 4 27 4q29 0 47 -18.5t36 -42.5q16 33 28.5 61.5t25.5 55.5q41 2 67.5 -29t22.5 -78q8 4 15 5t14 5q18 6 28 7 q14 0 24.5 -11.5t18.5 -21.5q12 -18 10 -26.5t-20 -18.5q-10 -6 -21.5 -12.5t-21.5 -14.5q18 -16 33.5 -35.5t19.5 -48.5q-35 -10 -69.5 -17t-71.5 -18q14 -25 25.5 -46t23.5 -44q18 -33 -18 -43q-33 10 -58.5 20.5t-32.5 43.5l-12 18q-12 -27 -19 -51.5t-18 -50.5 q-2 -4 -2 -7.5t-2 -7.5q-4 -8 -5 -16t-11 -8q-12 0 -23.5 2t-19.5 12q-18 27 -27.5 53.5t0.5 63.5q-8 -2 -38.5 -8.5t-41.5 -6.5q-27 0 -46 25t-29 47q-8 16 -5 25.5z" />
<glyph unicode="+" horiz-adv-x="507" d="M41 483q-10 14 0 37t17.5 35t14.5 18.5t19 8.5t31 2h22.5t24.5 2q18 25 29.5 46t21.5 42q10 18 22.5 35.5t24.5 33.5q14 14 33 15l21 -4q37 -14 54 -47t1 -68q-4 -10 -7 -21.5t-8 -21.5q12 -6 24.5 -7t23.5 -1h32q18 0 25 -2q12 -27 5 -48.5t-23 -43.5q-4 -6 -12.5 -7.5 t-16.5 -3.5q-29 -2 -55.5 -4t-55.5 -4q-27 -59 -48 -115.5t-44 -113.5q-8 -25 -31 -25q-14 0 -22 8q-29 29 -42 59.5t-3 71.5q6 27 12 52.5t12 54.5h-67q-25 2 -35 16z" />
<glyph unicode="," horiz-adv-x="251" d="M27 -154q0 4 2 11q4 14 22.5 47t31.5 67.5t17 52t4 21.5q0 14 -12 14l-22 -12q-12 -4 -19 -4q-12 0 -16 7t-4 13q0 4 1 11.5t9 17.5t20 17q29 14 60 12q41 -2 71.5 -24.5t30.5 -63.5v-6q0 -63 -20.5 -110.5t-63.5 -88.5q-10 -10 -41 -10q-29 0 -50 9t-21 19z" />
<glyph unicode="-" horiz-adv-x="526" d="M51 565q8 33 41 39q29 4 56.5 9t56.5 8q61 4 122.5 8t123.5 8q10 0 19 1t19 3q16 -29 12.5 -55.5t-14.5 -53.5q-4 -10 -10 -12t-16 -4q-45 0 -88 -1t-88 -3h-152q-14 0 -28.5 2t-28.5 4q-37 8 -25 47z" />
<glyph unicode="." horiz-adv-x="239" d="M37 96q4 4 4 10.5t4 12.5q10 12 15.5 23.5t13.5 21.5q23 29 47 29q23 0 39 -17q18 -18 25.5 -24.5t2.5 -18.5q-4 -14 -11 -35.5t-13 -42.5q-14 -45 -41 -45q-29 0 -52.5 29.5t-33.5 56.5z" />
<glyph unicode="/" horiz-adv-x="677" d="M34 -32.5q-9 28.5 1 63.5q29 104 55.5 207.5t54.5 207.5q37 131 83 257t96 255q53 135 106 269.5t105 269.5q12 20 22 21q6 0 23 -11q51 -33 51 -118q-4 -16 -9.5 -41t-15.5 -52q-78 -233 -157.5 -462.5t-159.5 -460.5q-39 -111 -78 -216.5t-76 -215.5q-2 -4 -3 -10.5 t-5 -12.5q-12 -23 -33 -22q-18 0 -31 16q-20 27 -29 55.5z" />
<glyph unicode="0" horiz-adv-x="645" d="M25 233q0 53 10 132t36.5 181.5t60.5 195t70 167t66 115.5q31 41 50.5 57.5t50.5 16.5q18 0 41.5 -4t56.5 -13q61 -14 96 -87.5t42 -149.5t7 -123q0 -66 -11 -165t-49 -214t-100.5 -206t-146.5 -132q-25 -12 -53.5 -18t-56.5 -6q-39 0 -71.5 13t-55.5 46 q-33 51 -38 106.5t-5 87.5zM170 197q0 -10 1 -53.5t30 -88.5q4 2 6 2t6 2q27 12 46.5 33t37.5 45q55 74 97 182.5t58.5 216t16.5 201.5q0 20 -2 88t-35 152q-2 6 -8 6q-4 0 -14.5 -6t-32.5 -29l-2 2q-2 -4 -2 -5t-2 -5q-10 -20 -35 -81.5t-53.5 -144.5t-56 -179.5 t-42 -182.5t-14.5 -155z" />
<glyph unicode="1" horiz-adv-x="401" d="M80 739v6q59 166 170 295q6 8 22.5 12.5t34.5 4.5q25 0 45.5 -8.5t20.5 -22.5v-4q0 -51 -9.5 -136t-20.5 -186.5t-25.5 -210t-30 -206t-32.5 -176t-34 -117.5q-4 -10 -15 -13.5t-26 -3.5q-20 0 -38.5 7.5t-20.5 21.5q-2 20 -2 45q0 27 3 72t11 116.5t20.5 148.5 t24.5 150.5t22.5 137t16.5 108.5q-2 -6 -10 -21.5t-18.5 -31.5t-18.5 -32.5t-12 -22.5q-2 -10 -15 -10q-8 0 -20 9t-23.5 22.5t-15.5 25.5t-4 20z" />
<glyph unicode="2" horiz-adv-x="483" d="M-14 39q41 147 113.5 282.5t142.5 270.5q18 35 37.5 74t35 79.5t24.5 81.5t7 80q0 4 -2 14.5t-5 22.5t-6 21.5t-7 11.5q2 8 0 8q-4 0 -21 -16q-41 -41 -68.5 -85t-50.5 -98q-8 -18 -45 -18q-14 0 -27.5 3t-24.5 8t-15 13.5t0 18.5q18 45 40.5 87t51.5 74t67.5 51t94.5 19 q53 -2 84.5 -25.5t46 -59t12.5 -79.5t-14 -87q-29 -94 -73 -184.5t-91 -177.5t-91 -176t-75 -183h23q20 0 47.5 -1t56.5 -3.5t55.5 -3.5t44.5 -1h13q6 0 17 -1t23.5 -3t21.5 -7t11 -15q4 -18 -13 -24.5t-32 -8.5q-10 -2 -23.5 -2h-27.5q-55 0 -122.5 3t-121.5 3h-43 q-8 0 -22.5 1t-25.5 5t-19 10.5t-4 16.5z" />
<glyph unicode="3" horiz-adv-x="518" d="M14.5 174q-1.5 41 10.5 84q2 14 22 14q18 0 40 -12t24 -24q12 -94 35.5 -131t48.5 -37q27 0 55.5 39.5t53 97t41.5 119t22 106.5q4 53 -0.5 76.5t-26.5 23.5q-18 0 -76 -22q-2 -2 -12 -2q-14 0 -33.5 5t-34 14.5t-19.5 19.5t9 18q74 47 125 121t70 166q4 16 5 37.5t-2 40 t-11.5 31t-20.5 12.5q-14 0 -33 -13q-37 -25 -59.5 -65.5t-44.5 -81.5q-8 -14 -37 -14t-55.5 15t-16.5 38q18 37 39 71.5t46.5 61.5t60 42t79.5 15q43 0 86.5 -15t69.5 -54q18 -27 21.5 -59.5t-2 -66.5t-16.5 -67t-23 -59q-29 -66 -74 -115q59 -10 85 -59t24.5 -117 t-25 -144.5t-65.5 -141t-98 -106.5t-120 -42h-19t-20 4q-41 12 -68.5 37.5t-43 61.5t-17 77z" />
<glyph unicode="4" horiz-adv-x="569" d="M14 475q0 2 1 19.5t12 58.5q31 121 60.5 238.5t59.5 238.5q4 16 21.5 22.5t40.5 6.5q29 0 51.5 -9.5t22.5 -23.5v-4q0 -49 -26 -114.5t-46.5 -139.5t-37.5 -147.5t-26 -135.5v-2q0 -4 14.5 -6t37.5 -2q20 0 41.5 2t39 5t23.5 5t6 5q0 2 -2 4q4 4 11.5 38.5t17.5 86 t21.5 113t21.5 117.5t17.5 100.5t11.5 60.5t24.5 23t44.5 7q29 0 50.5 -8t21.5 -22v-4q0 -254 -71.5 -501t-106.5 -501q-2 -16 -19.5 -22.5t-40.5 -6.5q-25 0 -47 9.5t-24 27.5t0 37q2 16 2 43t6 70t16 98t23 131q-18 0 -51 3t-69 6.5t-65.5 7.5t-42.5 10q-45 23 -45 55z " />
<glyph unicode="5" horiz-adv-x="677" d="M25 100q8 29 59 29q25 0 45.5 -9t24.5 -26q6 -59 36 -59q25 0 60 35.5t70.5 91t67.5 124t51.5 132t21.5 117t-23 77.5q-8 8 -24 9q-18 0 -38 -12.5t-37 -31t-30.5 -37t-23.5 -30.5q-8 -10 -37 -18.5t-58 -8.5q-23 0 -38 7.5t-13 23.5q6 78 15.5 143.5t18.5 130t19.5 131 t20.5 142.5q8 29 82 29q41 0 90 -7.5t96 -14.5t84 -14t51 -7q31 -2 40.5 -12.5t4 -23t-22.5 -21.5t-40 -9q-59 4 -118.5 7t-119.5 7q-6 -53 -13 -91t-14 -72.5t-14.5 -72.5t-13.5 -91q53 29 117 28q51 0 108.5 -22.5t77.5 -75.5q14 -35 3 -92t-37.5 -124t-64.5 -134.5 t-80 -126t-83 -99t-72 -51.5q-33 -12 -79 -12q-35 0 -69 7t-59.5 24.5t-37.5 44t-4 65.5z" />
<glyph unicode="6" horiz-adv-x="526" d="M29 80v24q0 25 4 48q8 104 25.5 215.5t40 223t51 221.5t57.5 208q4 16 25.5 24.5t46.5 8.5q31 0 52 -8.5t21 -22.5v-4q0 -106 -39 -203.5t-59 -202.5q49 31 106 31q10 0 20.5 -1t20.5 -3q70 -14 89.5 -50t19.5 -77q0 -18 -4 -39q-16 -78 -33.5 -151.5t-48.5 -145.5 q-18 -41 -38.5 -77t-48.5 -61.5t-63.5 -40.5t-85.5 -15q-41 0 -78.5 13t-60.5 42q-20 25 -20 43zM178 114.5q0 -20.5 4 -34.5t13 -14q14 0 36 30q25 33 46.5 81t39 100.5t28.5 104.5t15 93q0 6 2.5 20.5t4.5 27t2 22.5q0 6 -1 15t-8 11h-2t-11 -5t-19.5 -13t-19.5 -16.5 t-13 -10.5q-8 -4 -25 -6q-8 -2 -16 0t-18 4q-16 -84 -28.5 -166t-23.5 -168q-2 -12 -4 -33.5t-2 -42z" />
<glyph unicode="7" horiz-adv-x="477" d="M29 989q2 12 12 18.5t23.5 9.5t26.5 5t22 2q72 6 140.5 11t137.5 16q2 2 21 2q20 0 41.5 -6.5t13.5 -28.5q-43 -129 -79 -260t-70.5 -262t-70.5 -261.5t-79 -257.5q-4 -14 -29.5 -22t-52.5 -8q-20 0 -34.5 6t-14.5 20q4 63 20.5 145.5t40 173.5t52 187t57.5 185.5 t56.5 169t47.5 139.5q-113 -12 -227 -19h-6q-16 0 -34.5 7.5t-14.5 27.5z" />
<glyph unicode="8" horiz-adv-x="526" d="M-5.5 190.5q-1.5 79.5 23.5 147.5q31 82 78 156.5t97 144.5q-14 16 -28.5 29.5t-31.5 27.5q-68 55 -85 114.5t36 125.5t108.5 103.5t143.5 37.5q49 -4 97 -31.5t67 -76.5q27 -4 46 -14.5t9 -26.5q-43 -78 -98.5 -146.5t-106.5 -140.5q49 -63 80 -131q31 -74 35 -147.5 t-15.5 -140t-61.5 -121t-101 -89.5q-29 -16 -60.5 -28.5t-64.5 -12.5q-35 0 -67 16.5t-56 55.5q-43 68 -44.5 147.5zM141.5 178q1.5 -51 24.5 -96q6 -12 10 -16q12 8 23.5 15t21.5 17q55 55 80 134t12 165q-10 72 -41 129q-39 -59 -72.5 -120.5t-49.5 -129.5 q-10 -47 -8.5 -98zM194.5 829.5q-4.5 -38.5 28.5 -73.5q6 -6 14.5 -13.5t14.5 -13.5q35 49 71.5 98.5t77.5 94.5q-8 59 -55 59q-31 0 -65.5 -22.5t-58 -56.5t-28 -72.5z" />
<glyph unicode="9" horiz-adv-x="610" d="M6 573q0 27 7 72t38 112.5t73 128t88 104.5t89 61q23 8 53 8q16 0 28.5 -2t23.5 -10q16 -12 18 -20.5t2 -10.5q0 -10 -20 -19q-51 -20 -100.5 -77.5t-86.5 -129t-50 -129t-13 -94.5q0 -25 4 -45q2 -27 16 -26q16 0 41 27.5t39 43.5q90 102 138 222t89 249q4 16 26.5 24.5 t49.5 8.5q29 0 51.5 -9t22.5 -24v-4q0 -25 -10.5 -49t-18.5 -49q-37 -113 -59.5 -229.5t-46 -233.5t-47 -231.5t-56.5 -229.5q-4 -14 -21.5 -21t-39.5 -7q-29 0 -52.5 10t-23.5 31q0 113 24.5 227.5t51.5 224.5q-37 -29 -78 -48t-86 -19t-94 24q-49 25 -59.5 66t-10.5 73z " />
<glyph unicode=":" horiz-adv-x="327" d="M25.5 283q-6.5 20 9.5 59q10 25 21.5 51.5t31.5 46.5q6 6 21 6q23 -2 38 -15t31 -30q6 -6 2 -22q-10 -43 -23.5 -83t-27.5 -85q-8 -6 -18 -6q-18 0 -31 16q-2 2 -5 6t-12 9q-31 27 -37.5 47zM129 651q4 10 9.5 29t13.5 37q10 20 21 37.5t24 36.5q6 14 22 14 q43 -10 57.5 -32.5t6.5 -57.5q-8 -37 -15.5 -75t-15.5 -75q-4 -23 -13.5 -33t-31.5 -10q-35 27 -56.5 54.5t-21.5 74.5z" />
<glyph unicode=";" horiz-adv-x="385" d="M20 180q39 12 64 35t40 52.5t25.5 62t20.5 63.5h10q33 0 55.5 -21.5t20.5 -54.5t-12.5 -67.5t-27.5 -63t-44 -49t-63 -22.5q-35 0 -55 16t-34 49zM184 647q6 29 12.5 54.5t24.5 48.5q10 12 18.5 24t18.5 25q10 12 23 12h10q31 -8 55 -43q8 -10 4 -22.5t-8 -22.5 q-10 -35 -19.5 -71t-19.5 -72q-4 -10 -6 -21.5t-18 -15.5q-12 0 -22.5 2t-18.5 14q-10 12 -20.5 24.5t-20.5 26.5q-4 10 -6.5 20.5t-6.5 16.5z" />
<glyph unicode="&#x3c;" horiz-adv-x="536" d="M51 442v7q0 27 15.5 39t37.5 28q80 57 162 112.5t162 112.5q8 6 14.5 12.5t16.5 14.5q41 -29 42 -47.5t1 -20.5q0 -35 -33 -65q-49 -47 -105.5 -83t-111.5 -73l-25 -16q16 -8 28.5 -14.5t27.5 -10.5q31 -8 53 -29.5t41 -46.5q12 -16 12 -32q0 -2 -1 -13.5t-9 -29.5 q-4 -10 -10.5 -19.5t-14.5 -21.5l-19 19t-20 18q-51 41 -109.5 67.5t-119.5 42.5q-27 6 -31 15.5t-4 33.5z" />
<glyph unicode="=" horiz-adv-x="608" d="M76 473q10 37 41 39q14 2 28.5 4t28.5 6l55 6l246 17q59 0 53 -51q-4 -23 -11 -44.5t-32 -25.5q-45 0 -88 -1t-88 -3h-151q-14 0 -28.5 1t-29.5 5q-36 6 -24 47zM98 627q-6 45 11 73q6 -2 20 -2q6 -2 18 -2l246 -16q14 -2 28.5 -3t29.5 -3q14 -2 27.5 -5t27.5 -5 q31 -2 41 -39q12 -39 -25 -47q-8 -2 -52 -2.5t-130 -2.5h-51q10 -2 22.5 -2h26.5h-152q-6 0 19.5 0t83.5 2h-33.5t-30.5 2h-88q-37 7 -39 52z" />
<glyph unicode="&#x3e;" horiz-adv-x="507" d="M20 319q-6 53 20 83t71 44q57 16 113.5 32t115.5 32q-2 2 -6 5t-8 7q-25 25 -52.5 45.5t-52.5 44.5q-16 16 -27.5 36t-25.5 36q-23 29 2 59q10 12 17.5 24.5t27.5 16.5q4 -25 20.5 -41t32.5 -32q41 -35 78 -71t78 -77q14 -14 28.5 -24.5t30.5 -26.5q4 -4 7.5 -7t5.5 -7 q6 -16 -10.5 -44t-36.5 -34q-59 -18 -117 -29.5t-117 -25.5q-41 -10 -90 -29t-78 -53q-27 8 -27 36z" />
<glyph unicode="?" horiz-adv-x="804" d="M70 737q4 25 10 47q61 229 170.5 259t152.5 32q39 2 69 -34.5t48.5 -83t18.5 -95.5v-10q0 -37 -9.5 -72t-19.5 -67q-207 -500 -219 -604q-4 -43 -12 -80q-2 -14 -17 -21h-6q-12 0 -23 12q-43 51 -40 130v14q0 129 35.5 243.5t103 272.5t89 206t21.5 60q0 16 -14 17 q-8 0 -18 -5q-6 0 -10.5 -3t-8.5 -3q-125 -37 -229 -229q-35 -63 -49 -64l-5 1l-12 2l-4 4q-31 31 -22 71zM154 -156q0 14 5 57.5t15 57.5q4 6 9 9t5 5h17q25 0 54.5 -5t47.5 -23q2 -2 5 -10.5t3 -14.5q-2 -10 -10 -40t-21.5 -61.5t-30.5 -56t-38 -24.5q-18 0 -39 26 q-23 31 -22 80z" />
<glyph unicode="@" horiz-adv-x="987" d="M61 338q0 57 21.5 180t100.5 246t138.5 185.5t141.5 105.5t174 43h25h8q201 0 260 -89t59 -180q0 -39 -21 -129l-20 -90l-70 -76q-71 -77 -106 -102.5t-70 -25.5q-49 0 -73 38q-12 20 -23.5 39t-23.5 39q-6 -4 -11.5 -10t-11.5 -12q-29 -29 -50.5 -63t-49.5 -64 q-6 -8 -20.5 -21.5t-30 -27t-32 -22.5t-28.5 -9q-18 0 -49 22q-43 33 -43 84q0 14 4 31q16 86 51 172t86 154q41 55 101.5 54t89 -16.5t51.5 -37.5q14 14 18 16q8 4 37 41q20 8 33 8q25 0 25 -28q0 -6 -4.5 -40t-14.5 -61q-10 -29 -20.5 -57.5t-20.5 -56.5q-6 -16 -9 -31 t-7 -27q16 8 31.5 16.5t25.5 20.5q119 143 129 258q0 6 -4 72.5t-72.5 82t-107.5 15.5q-45 0 -100.5 -19.5t-100.5 -56.5q-94 -78 -150.5 -166t-97.5 -198q-41 -113 -41 -199q0 -53 29 -131t73 -80t46 -2q86 0 289 219q25 12 43 13q37 0 59 -50q6 -14 6 -24q0 -4 -2 -14.5 t-12 -24.5q-76 -106 -165 -165.5t-175 -59.5q-43 0 -137.5 23.5t-137.5 108.5t-43 179zM381 444q104 139 134 169t75 77q-20 12 -68 29q-35 -10 -81 -107.5t-60 -167.5z" />
<glyph unicode="A" horiz-adv-x="569" d="M51 10v2q0 266 64.5 526.5t146.5 508.5q4 10 20.5 15t36.5 5q25 0 45.5 -7t24.5 -24q66 -264 96.5 -531t38.5 -536q0 -14 -15 -20t-38 -6q-25 0 -47.5 9t-26.5 25q-2 78 -8 158t-14 164q-41 -10 -79 -15t-79 -20q0 -2 -1 -3t-1 -3h-4q-12 -61 -18.5 -125.5t-14.5 -126.5 q-2 -14 -17.5 -20t-37.5 -6q-27 0 -49.5 8t-22.5 22zM225 336q35 8 73 15t73 7q-10 102 -25.5 204t-32.5 208q-27 -111 -50.5 -217t-37.5 -217z" />
<glyph unicode="B" horiz-adv-x="552" d="M18 4q-1 32 -1 64q1 92 9 184q12 123 21 246q20 244 37 495q0 8 19.5 18.5t50 19.5t70.5 16.5t79 7.5q68 0 130.5 -25.5t86.5 -91.5q10 -27 10 -54q0 -34 -16 -68q-29 -60 -70 -107q-35 -41 -65.5 -80t-65.5 -76q20 6 27.5 7t17.5 1h21h8q27 0 54.5 -5t50 -17.5t36 -33 t9.5 -48.5q-6 -47 -46 -118t-93.5 -141.5t-107.5 -131t-89 -86.5q-6 -4 -24.5 -5.5t-41.5 -1.5q-41 0 -79 7.5t-38 23.5zM150 70q18 18 64 71.5t93 117t79 121.5q24 44 24 72q0 9 -2 15q-8 25 -46 25q-18 0 -39.5 -6.5t-42 -14.5t-38 -17.5t-27.5 -13.5t-18.5 -9t-18.5 -5 q-6 -88 -12 -178t-16 -178zM184 567q45 49 87 99.5t77 107.5q12 18 24.5 42t18.5 47.5t3 47t-21 43.5q-25 27 -76 27q-16 0 -36.5 -2t-43.5 -4q-10 -104 -16 -203.5t-17 -204.5z" />
<glyph unicode="C" horiz-adv-x="624" d="M29 268q0 10 2 62.5t16 140.5t34.5 165t39.5 120q23 53 50.5 107.5t66 98.5t87.5 71.5t115 27.5q68 -6 107 -38t56.5 -79t18.5 -83t1 -54q0 -35 -2 -70q0 -12 -17.5 -17t-38.5 -5q-23 0 -42 7t-19 17v2q0 31 2 62q2 23 -1 62.5t-30 86.5q-25 37 -55 37q-37 0 -75 -55 t-69.5 -140t-56 -190.5t-33 -186.5t-8.5 -136q0 -33 4 -90.5t33 -98.5q23 -33 51 -33q31 0 60.5 37t56.5 85t50.5 96.5t39.5 70.5q4 4 14.5 7t22.5 3q23 0 39 -5t16 -15v-4q0 -57 -29.5 -123t-67.5 -122t-89 -93t-117 -37h-6h-14q-82 0 -129 47t-65.5 115.5t-18.5 146.5z " />
<glyph unicode="D" horiz-adv-x="542" d="M8 0q0 254 40 503t71 496q2 16 13 27.5t27.5 21t33 14.5t28.5 5q135 -16 211 -85t98.5 -147.5t22.5 -146.5q0 -43 -12.5 -124t-63.5 -196.5t-132 -219t-181 -171.5q-18 -12 -64 -12q-35 0 -63.5 9.5t-28.5 23.5v2zM139 80q33 35 66.5 67.5t66.5 73.5q43 55 78 122 t56.5 137.5t24.5 117.5t3 68q0 51 -8 98q-6 33 -20.5 70.5t-37 70.5t-52 54.5t-70.5 21.5q-29 -225 -50.5 -451.5t-56.5 -449.5z" />
<glyph unicode="E" horiz-adv-x="569" d="M33 25q2 27 8 105.5t14 182t19.5 219t24 215t25.5 171t26 86.5q23 23 91 31.5t144 8.5q55 0 98 -6t47 -18q6 -18 -11 -24.5t-34 -6.5h-65q-45 0 -90 -5t-60 -26q-4 -10 -12 -70.5t-16.5 -134t-15.5 -146t-9 -107.5q33 12 74 17t80 5q53 0 91 -8t34 -25 q-6 -20 -22.5 -32.5t-33.5 -12.5q-59 0 -115.5 -3t-115.5 -3q-10 -104 -21.5 -199.5t-19.5 -193.5q57 8 116.5 13t112.5 12h6q16 0 35 -6.5t30 -15.5t10 -17t-25 -13q-88 -14 -170 -25t-168 -26q-6 0 -19.5 5t-27 14.5t-24.5 20t-11 18.5z" />
<glyph unicode="F" horiz-adv-x="544" d="M6 -14q4 27 14.5 109.5t23.5 192t28.5 232.5t33 228.5t34 181.5t30.5 92q12 14 45 25.5t75 18.5t89 11t86 4q43 0 71.5 -5t32.5 -15q6 -20 -11 -27.5t-34 -7.5q-14 -2 -47 -3t-69.5 -4t-67.5 -11.5t-43 -26.5q-4 -8 -10 -40t-14.5 -78t-16.5 -99t-15.5 -105.5 t-12.5 -95.5t-7 -67q41 16 93.5 24t99.5 8q45 0 74.5 -7t25.5 -21q-4 -23 -24.5 -36t-36.5 -15q-63 -6 -124 -11.5t-120 -9.5q-16 -106 -32.5 -207.5t-29.5 -208.5q-8 -25 -16 -53.5t-41 -28.5q-6 0 -20.5 4.5t-27.5 12.5t-24.5 18t-11.5 21z" />
<glyph unicode="G" horiz-adv-x="675" d="M4 348q0 102 26.5 218t78 219.5t122 175.5t154.5 86q10 2 20.5 3t20.5 1q57 0 98 -27t69 -71t41 -100t15 -114q0 -16 -18.5 -23t-40.5 -7q-25 0 -46.5 9t-21.5 27q-2 41 -9 82t-19.5 75t-31 54.5t-42.5 20.5q-23 0 -53.5 -22.5t-69.5 -75.5q-43 -59 -84 -166 t-58.5 -209.5t-17.5 -184.5q0 -31 4 -99t54 -136q40 -55 87 -55h3q37 2 70.5 32.5t62 78.5t49 106.5t33 111t12.5 91t-14 51.5q-14 12 -47 12t-72 -9t-57 -18q-6 0 -21.5 5.5t-29 12.5t-15.5 12t-2 7q0 6 10 10q41 16 85 24.5t91 8.5q18 -2 42 -4t46.5 -5t43 -10t34.5 -20 q18 -16 20.5 -46.5t4.5 -43.5q2 -12 2 -25q0 -32 -11 -71q-14 -55 -40.5 -124t-68.5 -127t-97.5 -96t-124.5 -38q-59 0 -133 37q-78 39 -114 130t-38 153.5t-2 72.5z" />
<glyph unicode="H" horiz-adv-x="632" d="M35 16q-2 16 -2 42t2 63q4 74 12 169t19.5 202.5t22.5 207t21.5 180.5t16.5 124q4 16 20.5 23t38.5 7q29 0 53.5 -10t24.5 -29q-14 -104 -28.5 -223t-24.5 -225q12 6 43 10.5t66.5 6t69.5 2.5t52 1q10 117 21.5 246t15.5 246q4 16 21.5 22t40.5 6q27 0 49 -9t22 -25 q-20 -264 -40.5 -538.5t-59.5 -532.5q-10 -35 -61 -35q-25 0 -46.5 10t-21.5 31q14 129 24.5 255t24.5 257q-61 -4 -117.5 -8.5t-109.5 -4.5q-8 -123 -25.5 -239.5t-25.5 -245.5q0 -14 -13.5 -20.5t-31.5 -6.5q-23 0 -46.5 11.5t-27.5 29.5z" />
<glyph unicode="I" horiz-adv-x="251" d="M55 78q0 23 1 75t3 149t6.5 204.5t8.5 207t9 181.5t9 127q2 18 23.5 27.5t46.5 9.5q23 0 40 -7.5t17 -19.5v-4q0 -117 -9 -250t-12 -269t-10.5 -268t-23.5 -245q-2 -14 -16.5 -21.5t-30.5 -7.5q-20 0 -39 10.5t-21 26.5q-3 19 -3 46q0 13 1 28z" />
<glyph unicode="J" horiz-adv-x="565" d="M29 195q0 12 2 39.5t22 64.5q10 20 43 20q23 0 41.5 -12t18.5 -33v-4q0 -25 -1 -62v-11q0 -32 5 -63q6 -36 20.5 -61.5t40.5 -25.5q12 0 27 6q33 14 57.5 82t42 164t29.5 209t22.5 216t18.5 187t18 123q4 16 20.5 22.5t37.5 6.5q23 0 40 -7t19 -22q4 -23 4 -59 q0 -18 -2 -60.5t-8 -119t-16.5 -160.5t-20.5 -161t-19.5 -140.5t-15.5 -100.5q-8 -47 -27.5 -92t-50 -80.5t-71.5 -57t-95 -21.5q-61 0 -118 28q-27 12 -47.5 45t-28.5 70t-8 70z" />
<glyph unicode="K" horiz-adv-x="632" d="M29 16q6 115 17 244t25.5 260t30 261t29.5 247q4 18 25.5 27.5t46.5 9.5t44 -8t17 -25q-10 -100 -22.5 -210.5t-22.5 -215.5q39 39 78 87t77 100.5t74.5 104.5t69.5 97q8 10 25.5 15.5t36.5 5.5q29 0 46 -11.5t1 -33.5q-82 -111 -166 -225.5t-154 -231.5l279 -451 q4 -18 -10.5 -25t-34.5 -7q-18 0 -35 4t-21 8q-27 29 -66.5 80t-80.5 109.5t-78 116t-59 95.5q-10 -111 -23.5 -217t-36.5 -213q-4 -14 -20.5 -21t-34.5 -7q-23 0 -39 8t-18 22z" />
<glyph unicode="L" horiz-adv-x="385" d="M-22.5 19q0.5 28 4.5 55q33 242 72.5 471t86.5 469q4 16 26.5 25.5t47.5 9.5q29 0 52.5 -9.5t19.5 -25.5q-45 -231 -86 -484.5t-73 -484.5v-14q39 6 76.5 10t76.5 4q16 0 32.5 -6t25.5 -15.5t5 -18.5t-31 -15q-53 -10 -118.5 -21.5t-120.5 -11.5q-18 0 -37 4t-35 14 q-25 16 -24.5 44z" />
<glyph unicode="M" horiz-adv-x="747" d="M-6 6v4q0 35 11 118t24.5 189.5t31 223t38 216t45 170t49.5 87.5q27 16 47 16q33 0 57 -33q18 -25 27.5 -100.5t12.5 -163.5t4 -169t3 -118q18 59 46 151.5t63.5 184.5t80 167t93.5 100q16 8 39 8t43 -9.5t22 -33.5v-56q0 -113 -7 -239.5t-20.5 -256.5t-31 -244 t-31.5 -198q-4 -23 -31.5 -34t-56.5 -11q-18 0 -30.5 5.5t-12.5 15.5v4q0 113 22.5 219.5t38 214t27.5 217t14 226.5q-14 -29 -33.5 -81.5t-42 -116t-45 -133t-43 -134t-38 -119.5t-27.5 -88q-4 -14 -18.5 -20.5t-32.5 -6.5q-23 0 -44.5 11.5t-21.5 29.5q-12 156 -16 310.5 t-19 310.5q-37 -207 -66.5 -415t-55.5 -415q-2 -18 -19.5 -26.5t-38.5 -8.5q-23 0 -40 9.5t-17 21.5z" />
<glyph unicode="N" horiz-adv-x="708" d="M10 18q29 248 57.5 498t63.5 498q4 20 23.5 29.5t42.5 9.5t41 -7.5t22 -23.5q51 -186 106.5 -370.5t98.5 -377.5q29 193 47 385.5t31 391.5q0 18 21.5 27t45.5 9q27 0 49.5 -10t18.5 -26q-16 -283 -52 -551.5t-83 -540.5q-4 -18 -23.5 -26.5t-42.5 -8.5q-20 0 -36.5 6.5 t-20.5 20.5q-47 197 -96.5 381t-102.5 375q-20 -180 -48 -351.5t-42 -345.5q-2 -18 -19.5 -26.5t-39.5 -8.5q-25 0 -45.5 10t-16.5 33z" />
<glyph unicode="O" horiz-adv-x="634" d="M27 258v29q0 57 7 136t25.5 165t48 170t72.5 150.5t102.5 107.5t135.5 41q53 0 97 -23.5t65 -77.5q25 -66 35 -145.5t10 -146.5q0 -33 -3.5 -100.5t-25 -173t-60 -192.5t-98 -147.5t-139.5 -75.5q-12 -2 -23.5 -3t-23.5 -1q-57 0 -101.5 26t-73 70t-39.5 94t-11 97z M166 211q0 -35 4 -64q0 -45 23.5 -67.5t58.5 -22.5q12 0 33 4q47 10 77.5 56.5t49 104t29 117.5t16.5 103q2 14 6 58.5t6 93.5t2 90q0 20 -1 62t-8 96.5t-20.5 89.5t-35.5 35q-16 0 -36 -19.5t-36.5 -46.5t-29.5 -53.5t-19 -40.5q-25 -57 -48.5 -146.5t-41 -184.5 t-23.5 -161.5t-6 -103.5z" />
<glyph unicode="P" horiz-adv-x="522" d="M18 -2q20 223 37 443.5t43 443.5q4 33 11.5 62.5t22.5 53t40 37t64 13.5q27 0 52 -7.5t48 -17.5q57 -31 91 -82t51.5 -111.5t19.5 -122.5v-31q0 -45 -4 -85q-6 -55 -30 -115.5t-61.5 -112t-91 -85t-121.5 -33.5h-16q-6 -61 -11 -125t-13 -131q-2 -12 -20.5 -18.5 t-41.5 -6.5q-27 0 -49.5 7.5t-20.5 23.5zM180 342q45 14 83 55t63 97q26 56 38 122q7 38 6 75q0 27 -4 55q-8 64 -37.5 119.5t-84.5 92.5q-4 -10 -5 -16t1 -16q-6 -20 -12.5 -81t-12.5 -129.5t-10 -132t-8 -89.5q-4 -43 -8.5 -73t-8.5 -79z" />
<glyph unicode="Q" horiz-adv-x="671" d="M14 221q0 57 8.5 141t27 176.5t49 183.5t75.5 165t104.5 119t137.5 45q80 0 125 -53.5t65.5 -136.5t20.5 -184.5t-12.5 -198.5t-34 -178t-41.5 -122q4 -10 11 -18t17 -19q14 -14 34 -30.5t39 -36t33.5 -41t16.5 -43.5q0 -16 -13 -21.5t-30 -5.5q-35 0 -51 10 q-35 20 -61.5 45t-55.5 58q-41 -59 -106.5 -95t-136.5 -36q-61 0 -104.5 22.5t-69 60.5t-37 88t-11.5 105zM160 127q4 -49 23.5 -69.5t43.5 -20.5q20 0 45 12t47.5 32.5t40 45.5t25.5 51q-23 29 -47.5 57.5t-54.5 59.5q-12 12 -9.5 24.5t14 20.5t28 13t30.5 5q23 0 33 -10 q2 -2 9 -10t15.5 -16.5t15.5 -16.5t9 -10q20 41 33.5 105.5t18.5 137.5q3 46 3 93q0 28 -1 56q-3 75 -13 134.5t-27.5 97t-44.5 37.5q-23 0 -51.5 -36.5t-62.5 -122.5q-20 -49 -46 -143.5t-46.5 -196t-30.5 -192.5q-5 -45 -5 -80t5 -58z" />
<glyph unicode="R" horiz-adv-x="522" d="M35 8q12 256 23.5 504t33.5 506q2 18 25.5 27.5t46.5 9.5q20 0 29 -6q61 -12 117.5 -47t98.5 -84q41 -50 63 -112q15 -43 16 -88q0 -19 -3 -38q-10 -88 -62 -158.5t-126 -115.5q14 -14 43 -65.5t58.5 -110t55 -111.5t33.5 -74q4 -10 -1 -19.5t-17 -15.5t-28.5 -9 t-32.5 -3q-41 0 -54 18q-51 78 -84.5 166t-74.5 172l-25 -338q-2 -18 -24.5 -27t-51.5 -9q-23 0 -41 7t-18 21zM197 451q78 39 112.5 104.5t42.5 151.5q-2 66 -34.5 131t-94.5 106q-6 -125 -12 -247.5t-14 -245.5z" />
<glyph unicode="S" horiz-adv-x="489" d="M-6 178q2 12 17.5 18.5t35.5 6.5t36.5 -6.5t20.5 -16.5q4 -31 19.5 -71.5t48.5 -53.5q8 0 14 2q16 6 26.5 13.5t20.5 17.5q73 64 87 158q3 23 4 46q0 70 -31 134q-27 59 -75 114.5t-87 113.5q-39 56 -53 120q-4 17 -4 36q0 49 28 103q31 59 94.5 92t131.5 33q47 0 92 -17 t74 -58q12 -16 -13.5 -25.5t-56.5 -9.5q-18 0 -34.5 3t-24.5 13q-23 23 -43 23q-23 0 -41.5 -16.5t-32.5 -39.5q-16 -29 -18 -65q0 -10 1 -20q0 -26 2 -50q8 -39 28 -72.5t44.5 -63.5t50 -58.5t45.5 -59.5q59 -86 71 -181q2 -18 2 -36q0 -76 -40 -147q-45 -78 -117.5 -126 t-158.5 -48q-92 0 -133 54q-33 43 -33 108q0 15 2 32z" />
<glyph unicode="T" horiz-adv-x="473" d="M18 993v2q2 16 30 28.5t72 20t97 10.5t105 3q72 0 127 -5.5t65 -11.5q12 -10 12 -18q0 -6 -7 -16.5t-27 -18.5q-35 -14 -74 -19t-80 -7q-4 -88 -11 -208t-16.5 -248t-20.5 -251t-28 -219q-4 -23 -36.5 -37t-61.5 -14q-16 0 -26.5 5t-10.5 17q0 57 5 136t12.5 168 t15.5 182.5t15 180.5t14.5 159.5t9.5 119.5q-23 0 -58 1t-55 1h-4q-20 0 -42 14.5t-22 24.5z" />
<glyph unicode="U" horiz-adv-x="606" d="M25 264q0 16 2 35q20 180 30.5 359.5t26.5 359.5q0 18 19.5 26.5t43.5 8.5q29 0 55.5 -11.5t26.5 -31.5q-6 -86 -19 -192.5t-23.5 -217.5t-14.5 -186.5t-4 -116.5q0 -53 4 -100q2 -16 9 -40t18.5 -46.5t27 -39t33.5 -16.5q14 0 35 17q37 31 59.5 97.5t39 152.5t26.5 185 t18 198.5t16.5 192.5t18.5 167q2 12 17.5 18.5t35.5 6.5q23 0 43.5 -8.5t20.5 -22.5v-2q-4 -289 -16.5 -487.5t-41 -325.5t-80 -189.5t-135.5 -77.5q-10 -2 -22 -3t-23 -1q-49 0 -95 17.5t-79 52.5q-53 57 -63 114.5t-10 106.5z" />
<glyph unicode="V" horiz-adv-x="649" d="M78 1006q-2 16 18 23t45 7q29 0 53.5 -9t26.5 -30q16 -199 37 -390t43 -384q0 10 4 20.5t4 14.5q25 80 51.5 193.5t54 229.5t57.5 215t60 151q10 10 29 10q20 0 41 -10.5t25 -22.5q2 -7 2 -20q-1 -23 -7 -65q-10 -65 -29.5 -151t-45 -186t-51 -193.5t-49 -170 t-37.5 -117.5q-20 -57 -54 -101.5t-102 -44.5q-23 0 -43.5 8.5t-24.5 28.5q-35 248 -60.5 494t-47.5 500z" />
<glyph unicode="W" horiz-adv-x="833" d="M55 281q2 18 2 85.5t9.5 192.5t19.5 243t16 204q0 16 18.5 24t41.5 8q27 0 49 -10t22 -27v-4q0 -215 -22.5 -448.5t-22.5 -448.5q25 61 47.5 163t44 212.5t40 215t30.5 171.5q2 16 18.5 23.5t34.5 7.5q23 0 45.5 -10.5t26.5 -28.5q35 -160 49.5 -334t61.5 -334 q4 -16 9 -28.5t11 -28.5q18 111 26.5 220.5t13.5 220t9.5 223t16.5 227.5q2 16 18.5 23.5t38.5 7.5q27 0 50.5 -10.5t23.5 -28.5q-4 -223 -19.5 -442.5t-54.5 -440.5q-8 -49 -27.5 -88t-62.5 -43h-14q-47 0 -81 36t-56.5 92t-36 126t-21.5 137.5t-12 125.5t-6 93 q-20 -117 -38 -226.5t-34 -180.5q-8 -39 -19.5 -80t-30 -74t-45 -53.5t-67.5 -20.5q-8 0 -16 1t-19 3q-25 4 -39 19.5t-22 36t-11 44t-8 44.5q-10 48 -10 107q0 25 2 53z" />
<glyph unicode="X" horiz-adv-x="577" d="M-6 -4q0 6 2 10q59 121 113.5 250t107.5 258q-41 106 -80 217t-92 221q-4 6 -4 13q0 14 23.5 26.5t56.5 12.5q18 0 33.5 -6.5t21.5 -16.5q39 -63 66.5 -132t56.5 -134q31 94 70 185t86 179q4 10 22.5 15.5t38.5 5.5q23 0 38 -5t15 -18v-6q0 -139 -71.5 -274t-126.5 -265 v-6q43 -129 77.5 -258t57.5 -264v-4q0 -12 -18.5 -19.5t-43.5 -7.5q-23 0 -39 6.5t-20 16.5q-33 80 -54.5 162t-47.5 164q-39 -84 -76 -163t-76 -157q-8 -16 -31.5 -24.5t-48.5 -8.5q-27 0 -42 8.5t-15 18.5z" />
<glyph unicode="Y" horiz-adv-x="499" d="M43 940v2q0 23 28.5 38t57.5 15q14 0 24.5 -5t12.5 -17q16 -94 34.5 -184.5t32.5 -182.5q16 35 37 90.5t44.5 118t51 126t58.5 116.5q10 12 29 12q14 0 30.5 -5t28.5 -14.5t16 -18.5t7 -15q2 -6 -5 -12q-61 -61 -76.5 -137t-45 -138.5t-61.5 -127t-71 -142.5 q-4 -37 -14 -105.5t-22.5 -143.5t-24.5 -142.5t-20 -102.5q-4 -20 -37 -20q-23 0 -43.5 9t-24.5 26q-4 18 -4 43q0 29 7 78t21.5 116.5t26 123.5t11.5 89v10z" />
<glyph unicode="Z" horiz-adv-x="632" d="M39 0q41 129 89 245.5t99.5 229.5t101.5 228.5t95 242.5q-31 0 -69 1t-77.5 2t-78.5 2t-70 1q-16 0 -29.5 13.5t-16.5 31t7 30.5t41 13q41 0 93 -1t107.5 -3t109 -4t91.5 -4q16 0 41 -9t17 -32q-43 -129 -91 -245.5t-98.5 -231.5t-99.5 -230.5t-94 -242.5q82 6 162 14 t161 12h11q25 0 40 -9t18 -20t-7 -22.5t-41 -15.5q-111 -18 -222.5 -28.5t-222.5 -10.5q-10 0 -24 2t-24.5 6t-16.5 13.5t-2 21.5z" />
<glyph unicode="[" horiz-adv-x="512" d="M-20 -231q92 465 162.5 801.5t121.5 553.5l-28 33q0 29 30 37q59 18 117.5 31.5t116.5 31.5q16 6 35 7q31 0 53 -23q37 -37 16 -88q-43 -12 -87 -23.5t-89 -25.5q-6 -33 -12 -68t-17 -67q-33 -141 -66.5 -277.5t-66.5 -279.5l-114 -467q-2 -4 -2 -10.5t-3 -12.5 q27 6 53.5 11.5t51.5 9.5q10 2 31 2h18t18 -4q61 -2 68 -64q0 -6 -113 -51q-57 -23 -95 -37t-56 -22q-16 -8 -49 -16.5t-54 -8.5q-27 0 -40 27z" />
<glyph unicode="\" horiz-adv-x="598" d="M41 1176q-4 27 12 47t43 28q6 -4 10 -16q23 -66 43.5 -131.5t43.5 -128.5q49 -135 98 -267.5t90 -269.5q20 -74 46 -141.5t46 -136.5q18 -66 40 -128.5t44 -125.5q27 -74 29 -139q4 -41 -16.5 -68t-55.5 -49q-8 -6 -16 -6q-23 -4 -27 26q-4 16 -6 30.5t-6 29.5 q-8 33 -19.5 63.5t-19.5 65.5q-25 111 -57.5 218t-69.5 218q-66 193 -126.5 383t-107.5 389q-6 27 -10 54.5t-8 54.5z" />
<glyph unicode="]" horiz-adv-x="501" d="M-86 -141q45 14 89 25.5t87 23.5q8 35 14.5 69.5t14.5 69.5q31 141 65.5 277.5t65.5 277.5l108 459v10t4 12q-31 -8 -60.5 -13t-59.5 -5q-18 0 -38 1t-35 7t-26.5 19.5t-13.5 37.5q0 4 111 48q53 23 90 37t55 20t39.5 10t42.5 8h14q14 0 23.5 -4t19.5 -20 q-168 -905 -270 -1340l31 -34q-2 -29 -31 -37q-59 -20 -119.5 -28.5t-116.5 -37.5q-4 -2 -16 -4t-16 -2q-31 0 -54 23q-38 39 -18 90z" />
<glyph unicode="_" horiz-adv-x="700" d="M10 5q-8 15 4 40q23 47 78 49q221 12 440 12q25 0 49.5 2.5t49.5 4.5q10 -33 -1.5 -68t-33.5 -49q-4 -4 -18 -4q-104 0 -204 -1t-204 -1h-123q-29 0 -37 15z" />
<glyph unicode="`" horiz-adv-x="370" d="M25 1303q0 18 16 40q14 20 45 19q8 0 25 -4q8 -2 20 -17q27 -33 49.5 -59.5t40.5 -46.5t33.5 -36.5t28.5 -27.5q12 -10 20 -19t14 -13q13 -9 13 -11q16 -16 16 -43t-16 -43t-45 -18q-27 -2 -45 18q-100 111 -201 220q-14 14 -14 41z" />
<glyph unicode="a" horiz-adv-x="569" d="M51 10v2q0 266 64.5 526.5t146.5 508.5q4 10 20.5 15t36.5 5q25 0 45.5 -7t24.5 -24q66 -264 96.5 -531t38.5 -536q0 -14 -15 -20t-38 -6q-25 0 -47.5 9t-26.5 25q-2 78 -8 158t-14 164q-41 -10 -79 -15t-79 -20q0 -2 -1 -3t-1 -3h-4q-12 -61 -18.5 -125.5t-14.5 -126.5 q-2 -14 -17.5 -20t-37.5 -6q-27 0 -49.5 8t-22.5 22zM225 336q35 8 73 15t73 7q-10 102 -25.5 204t-32.5 208q-27 -111 -50.5 -217t-37.5 -217z" />
<glyph unicode="b" horiz-adv-x="552" d="M18 4q-1 32 -1 64q1 92 9 184q12 123 21 246q20 244 37 495q0 8 19.5 18.5t50 19.5t70.5 16.5t79 7.5q68 0 130.5 -25.5t86.5 -91.5q10 -27 10 -54q0 -34 -16 -68q-29 -60 -70 -107q-35 -41 -65.5 -80t-65.5 -76q20 6 27.5 7t17.5 1h21h8q27 0 54.5 -5t50 -17.5t36 -33 t9.5 -48.5q-6 -47 -46 -118t-93.5 -141.5t-107.5 -131t-89 -86.5q-6 -4 -24.5 -5.5t-41.5 -1.5q-41 0 -79 7.5t-38 23.5zM150 70q18 18 64 71.5t93 117t79 121.5q24 44 24 72q0 9 -2 15q-8 25 -46 25q-18 0 -39.5 -6.5t-42 -14.5t-38 -17.5t-27.5 -13.5t-18.5 -9t-18.5 -5 q-6 -88 -12 -178t-16 -178zM184 567q45 49 87 99.5t77 107.5q12 18 24.5 42t18.5 47.5t3 47t-21 43.5q-25 27 -76 27q-16 0 -36.5 -2t-43.5 -4q-10 -104 -16 -203.5t-17 -204.5z" />
<glyph unicode="c" horiz-adv-x="624" d="M29 268q0 10 2 62.5t16 140.5t34.5 165t39.5 120q23 53 50.5 107.5t66 98.5t87.5 71.5t115 27.5q68 -6 107 -38t56.5 -79t18.5 -83t1 -54q0 -35 -2 -70q0 -12 -17.5 -17t-38.5 -5q-23 0 -42 7t-19 17v2q0 31 2 62q2 23 -1 62.5t-30 86.5q-25 37 -55 37q-37 0 -75 -55 t-69.5 -140t-56 -190.5t-33 -186.5t-8.5 -136q0 -33 4 -90.5t33 -98.5q23 -33 51 -33q31 0 60.5 37t56.5 85t50.5 96.5t39.5 70.5q4 4 14.5 7t22.5 3q23 0 39 -5t16 -15v-4q0 -57 -29.5 -123t-67.5 -122t-89 -93t-117 -37h-6h-14q-82 0 -129 47t-65.5 115.5t-18.5 146.5z " />
<glyph unicode="d" horiz-adv-x="542" d="M8 0q0 254 40 503t71 496q2 16 13 27.5t27.5 21t33 14.5t28.5 5q135 -16 211 -85t98.5 -147.5t22.5 -146.5q0 -43 -12.5 -124t-63.5 -196.5t-132 -219t-181 -171.5q-18 -12 -64 -12q-35 0 -63.5 9.5t-28.5 23.5v2zM139 80q33 35 66.5 67.5t66.5 73.5q43 55 78 122 t56.5 137.5t24.5 117.5t3 68q0 51 -8 98q-6 33 -20.5 70.5t-37 70.5t-52 54.5t-70.5 21.5q-29 -225 -50.5 -451.5t-56.5 -449.5z" />
<glyph unicode="e" horiz-adv-x="569" d="M33 25q2 27 8 105.5t14 182t19.5 219t24 215t25.5 171t26 86.5q23 23 91 31.5t144 8.5q55 0 98 -6t47 -18q6 -18 -11 -24.5t-34 -6.5h-65q-45 0 -90 -5t-60 -26q-4 -10 -12 -70.5t-16.5 -134t-15.5 -146t-9 -107.5q33 12 74 17t80 5q53 0 91 -8t34 -25 q-6 -20 -22.5 -32.5t-33.5 -12.5q-59 0 -115.5 -3t-115.5 -3q-10 -104 -21.5 -199.5t-19.5 -193.5q57 8 116.5 13t112.5 12h6q16 0 35 -6.5t30 -15.5t10 -17t-25 -13q-88 -14 -170 -25t-168 -26q-6 0 -19.5 5t-27 14.5t-24.5 20t-11 18.5z" />
<glyph unicode="f" horiz-adv-x="544" d="M6 -14q4 27 14.5 109.5t23.5 192t28.5 232.5t33 228.5t34 181.5t30.5 92q12 14 45 25.5t75 18.5t89 11t86 4q43 0 71.5 -5t32.5 -15q6 -20 -11 -27.5t-34 -7.5q-14 -2 -47 -3t-69.5 -4t-67.5 -11.5t-43 -26.5q-4 -8 -10 -40t-14.5 -78t-16.5 -99t-15.5 -105.5 t-12.5 -95.5t-7 -67q41 16 93.5 24t99.5 8q45 0 74.5 -7t25.5 -21q-4 -23 -24.5 -36t-36.5 -15q-63 -6 -124 -11.5t-120 -9.5q-16 -106 -32.5 -207.5t-29.5 -208.5q-8 -25 -16 -53.5t-41 -28.5q-6 0 -20.5 4.5t-27.5 12.5t-24.5 18t-11.5 21z" />
<glyph unicode="g" horiz-adv-x="675" d="M4 348q0 102 26.5 218t78 219.5t122 175.5t154.5 86q10 2 20.5 3t20.5 1q57 0 98 -27t69 -71t41 -100t15 -114q0 -16 -18.5 -23t-40.5 -7q-25 0 -46.5 9t-21.5 27q-2 41 -9 82t-19.5 75t-31 54.5t-42.5 20.5q-23 0 -53.5 -22.5t-69.5 -75.5q-43 -59 -84 -166 t-58.5 -209.5t-17.5 -184.5q0 -31 4 -99t54 -136q40 -55 87 -55h3q37 2 70.5 32.5t62 78.5t49 106.5t33 111t12.5 91t-14 51.5q-14 12 -47 12t-72 -9t-57 -18q-6 0 -21.5 5.5t-29 12.5t-15.5 12t-2 7q0 6 10 10q41 16 85 24.5t91 8.5q18 -2 42 -4t46.5 -5t43 -10t34.5 -20 q18 -16 20.5 -46.5t4.5 -43.5q2 -12 2 -25q0 -32 -11 -71q-14 -55 -40.5 -124t-68.5 -127t-97.5 -96t-124.5 -38q-59 0 -133 37q-78 39 -114 130t-38 153.5t-2 72.5z" />
<glyph unicode="h" horiz-adv-x="632" d="M35 16q-2 16 -2 42t2 63q4 74 12 169t19.5 202.5t22.5 207t21.5 180.5t16.5 124q4 16 20.5 23t38.5 7q29 0 53.5 -10t24.5 -29q-14 -104 -28.5 -223t-24.5 -225q12 6 43 10.5t66.5 6t69.5 2.5t52 1q10 117 21.5 246t15.5 246q4 16 21.5 22t40.5 6q27 0 49 -9t22 -25 q-20 -264 -40.5 -538.5t-59.5 -532.5q-10 -35 -61 -35q-25 0 -46.5 10t-21.5 31q14 129 24.5 255t24.5 257q-61 -4 -117.5 -8.5t-109.5 -4.5q-8 -123 -25.5 -239.5t-25.5 -245.5q0 -14 -13.5 -20.5t-31.5 -6.5q-23 0 -46.5 11.5t-27.5 29.5z" />
<glyph unicode="i" horiz-adv-x="251" d="M55 78q0 23 1 75t3 149t6.5 204.5t8.5 207t9 181.5t9 127q2 18 23.5 27.5t46.5 9.5q23 0 40 -7.5t17 -19.5v-4q0 -117 -9 -250t-12 -269t-10.5 -268t-23.5 -245q-2 -14 -16.5 -21.5t-30.5 -7.5q-20 0 -39 10.5t-21 26.5q-3 19 -3 46q0 13 1 28z" />
<glyph unicode="j" horiz-adv-x="565" d="M29 195q0 12 2 39.5t22 64.5q10 20 43 20q23 0 41.5 -12t18.5 -33v-4q0 -25 -1 -62v-11q0 -32 5 -63q6 -36 20.5 -61.5t40.5 -25.5q12 0 27 6q33 14 57.5 82t42 164t29.5 209t22.5 216t18.5 187t18 123q4 16 20.5 22.5t37.5 6.5q23 0 40 -7t19 -22q4 -23 4 -59 q0 -18 -2 -60.5t-8 -119t-16.5 -160.5t-20.5 -161t-19.5 -140.5t-15.5 -100.5q-8 -47 -27.5 -92t-50 -80.5t-71.5 -57t-95 -21.5q-61 0 -118 28q-27 12 -47.5 45t-28.5 70t-8 70z" />
<glyph unicode="k" horiz-adv-x="632" d="M29 16q6 115 17 244t25.5 260t30 261t29.5 247q4 18 25.5 27.5t46.5 9.5t44 -8t17 -25q-10 -100 -22.5 -210.5t-22.5 -215.5q39 39 78 87t77 100.5t74.5 104.5t69.5 97q8 10 25.5 15.5t36.5 5.5q29 0 46 -11.5t1 -33.5q-82 -111 -166 -225.5t-154 -231.5l279 -451 q4 -18 -10.5 -25t-34.5 -7q-18 0 -35 4t-21 8q-27 29 -66.5 80t-80.5 109.5t-78 116t-59 95.5q-10 -111 -23.5 -217t-36.5 -213q-4 -14 -20.5 -21t-34.5 -7q-23 0 -39 8t-18 22z" />
<glyph unicode="l" horiz-adv-x="385" d="M-22.5 19q0.5 28 4.5 55q33 242 72.5 471t86.5 469q4 16 26.5 25.5t47.5 9.5q29 0 52.5 -9.5t19.5 -25.5q-45 -231 -86 -484.5t-73 -484.5v-14q39 6 76.5 10t76.5 4q16 0 32.5 -6t25.5 -15.5t5 -18.5t-31 -15q-53 -10 -118.5 -21.5t-120.5 -11.5q-18 0 -37 4t-35 14 q-25 16 -24.5 44z" />
<glyph unicode="m" horiz-adv-x="747" d="M-6 6v4q0 35 11 118t24.5 189.5t31 223t38 216t45 170t49.5 87.5q27 16 47 16q33 0 57 -33q18 -25 27.5 -100.5t12.5 -163.5t4 -169t3 -118q18 59 46 151.5t63.5 184.5t80 167t93.5 100q16 8 39 8t43 -9.5t22 -33.5v-56q0 -113 -7 -239.5t-20.5 -256.5t-31 -244 t-31.5 -198q-4 -23 -31.5 -34t-56.5 -11q-18 0 -30.5 5.5t-12.5 15.5v4q0 113 22.5 219.5t38 214t27.5 217t14 226.5q-14 -29 -33.5 -81.5t-42 -116t-45 -133t-43 -134t-38 -119.5t-27.5 -88q-4 -14 -18.5 -20.5t-32.5 -6.5q-23 0 -44.5 11.5t-21.5 29.5q-12 156 -16 310.5 t-19 310.5q-37 -207 -66.5 -415t-55.5 -415q-2 -18 -19.5 -26.5t-38.5 -8.5q-23 0 -40 9.5t-17 21.5z" />
<glyph unicode="n" horiz-adv-x="708" d="M10 18q29 248 57.5 498t63.5 498q4 20 23.5 29.5t42.5 9.5t41 -7.5t22 -23.5q51 -186 106.5 -370.5t98.5 -377.5q29 193 47 385.5t31 391.5q0 18 21.5 27t45.5 9q27 0 49.5 -10t18.5 -26q-16 -283 -52 -551.5t-83 -540.5q-4 -18 -23.5 -26.5t-42.5 -8.5q-20 0 -36.5 6.5 t-20.5 20.5q-47 197 -96.5 381t-102.5 375q-20 -180 -48 -351.5t-42 -345.5q-2 -18 -19.5 -26.5t-39.5 -8.5q-25 0 -45.5 10t-16.5 33z" />
<glyph unicode="o" horiz-adv-x="634" d="M27 258v29q0 57 7 136t25.5 165t48 170t72.5 150.5t102.5 107.5t135.5 41q53 0 97 -23.5t65 -77.5q25 -66 35 -145.5t10 -146.5q0 -33 -3.5 -100.5t-25 -173t-60 -192.5t-98 -147.5t-139.5 -75.5q-12 -2 -23.5 -3t-23.5 -1q-57 0 -101.5 26t-73 70t-39.5 94t-11 97z M166 211q0 -35 4 -64q0 -45 23.5 -67.5t58.5 -22.5q12 0 33 4q47 10 77.5 56.5t49 104t29 117.5t16.5 103q2 14 6 58.5t6 93.5t2 90q0 20 -1 62t-8 96.5t-20.5 89.5t-35.5 35q-16 0 -36 -19.5t-36.5 -46.5t-29.5 -53.5t-19 -40.5q-25 -57 -48.5 -146.5t-41 -184.5 t-23.5 -161.5t-6 -103.5z" />
<glyph unicode="p" horiz-adv-x="522" d="M18 -2q20 223 37 443.5t43 443.5q4 33 11.5 62.5t22.5 53t40 37t64 13.5q27 0 52 -7.5t48 -17.5q57 -31 91 -82t51.5 -111.5t19.5 -122.5v-31q0 -45 -4 -85q-6 -55 -30 -115.5t-61.5 -112t-91 -85t-121.5 -33.5h-16q-6 -61 -11 -125t-13 -131q-2 -12 -20.5 -18.5 t-41.5 -6.5q-27 0 -49.5 7.5t-20.5 23.5zM180 342q45 14 83 55t63.5 97.5t37.5 121.5q6 38 6 75q0 28 -4 55q-8 63 -37.5 119t-84.5 93q-4 -10 -5 -16t1 -16q-6 -20 -12.5 -81t-12.5 -129.5t-10 -132t-8 -89.5q-4 -43 -8.5 -73t-8.5 -79z" />
<glyph unicode="q" horiz-adv-x="671" d="M14 221q0 57 8.5 141t27 176.5t49 183.5t75.5 165t104.5 119t137.5 45q80 0 125 -53.5t65.5 -136.5t20.5 -184.5t-12.5 -198.5t-34 -178t-41.5 -122q4 -10 11 -18t17 -19q14 -14 34 -30.5t39 -36t33.5 -41t16.5 -43.5q0 -16 -13 -21.5t-30 -5.5q-35 0 -51 10 q-35 20 -61.5 45t-55.5 58q-41 -59 -106.5 -95t-136.5 -36q-61 0 -104.5 22.5t-69 60.5t-37 88t-11.5 105zM160 127q4 -49 23.5 -69.5t43.5 -20.5q20 0 45 12t47.5 32.5t40 45.5t25.5 51q-23 29 -47.5 57.5t-54.5 59.5q-12 12 -9.5 24.5t14 20.5t28 13t30.5 5q23 0 33 -10 q2 -2 9 -10t15.5 -16.5t15.5 -16.5t9 -10q20 41 33.5 105.5t18.5 137.5q3 46 3 93q0 28 -1 56q-3 75 -13 134.5t-27.5 97t-44.5 37.5q-23 0 -51.5 -36.5t-62.5 -122.5q-20 -49 -46 -143.5t-46.5 -196t-30.5 -192.5q-5 -45 -5 -80t5 -58z" />
<glyph unicode="r" horiz-adv-x="522" d="M35 8q12 256 23.5 504t33.5 506q2 18 25.5 27.5t46.5 9.5q20 0 29 -6q61 -12 117.5 -47t98.5 -84q41 -50 63 -112q15 -43 16 -88q0 -19 -3 -38q-10 -88 -62 -158.5t-126 -115.5q14 -14 43 -65.5t58.5 -110t55 -111.5t33.5 -74q4 -10 -1 -19.5t-17 -15.5t-28.5 -9 t-32.5 -3q-41 0 -54 18q-51 78 -84.5 166t-74.5 172l-25 -338q-2 -18 -24.5 -27t-51.5 -9q-23 0 -41 7t-18 21zM197 451q78 39 112.5 104.5t42.5 151.5q-2 66 -34.5 131t-94.5 106q-6 -125 -12 -247.5t-14 -245.5z" />
<glyph unicode="s" horiz-adv-x="489" d="M-6 178q2 12 17.5 18.5t35.5 6.5t36.5 -6.5t20.5 -16.5q4 -31 19.5 -71.5t48.5 -53.5q8 0 14 2q16 6 26.5 13.5t20.5 17.5q73 64 87 158q3 23 4 46q0 70 -31 134q-27 59 -75 114.5t-87 113.5q-39 56 -53 120q-4 17 -4 36q0 49 28 103q31 59 94.5 92t131.5 33q47 0 92 -17 t74 -58q12 -16 -13.5 -25.5t-56.5 -9.5q-18 0 -34.5 3t-24.5 13q-23 23 -43 23q-23 0 -41.5 -16.5t-32.5 -39.5q-16 -29 -18 -65q0 -10 1 -20q0 -26 2 -50q8 -39 28 -72.5t44.5 -63.5t50 -58.5t45.5 -59.5q59 -86 71 -181q2 -18 2 -36q0 -76 -40 -147q-45 -78 -117.5 -126 t-158.5 -48q-92 0 -133 54q-33 43 -33 108q0 15 2 32z" />
<glyph unicode="t" horiz-adv-x="473" d="M18 993v2q2 16 30 28.5t72 20t97 10.5t105 3q72 0 127 -5.5t65 -11.5q12 -10 12 -18q0 -6 -7 -16.5t-27 -18.5q-35 -14 -74 -19t-80 -7q-4 -88 -11 -208t-16.5 -248t-20.5 -251t-28 -219q-4 -23 -36.5 -37t-61.5 -14q-16 0 -26.5 5t-10.5 17q0 57 5 136t12.5 168 t15.5 182.5t15 180.5t14.5 159.5t9.5 119.5q-23 0 -58 1t-55 1h-4q-20 0 -42 14.5t-22 24.5z" />
<glyph unicode="u" horiz-adv-x="606" d="M25 264q0 16 2 35q20 180 30.5 359.5t26.5 359.5q0 18 19.5 26.5t43.5 8.5q29 0 55.5 -11.5t26.5 -31.5q-6 -86 -19 -192.5t-23.5 -217.5t-14.5 -186.5t-4 -116.5q0 -53 4 -100q2 -16 9 -40t18.5 -46.5t27 -39t33.5 -16.5q14 0 35 17q37 31 59.5 97.5t39 152.5t26.5 185 t18 198.5t16.5 192.5t18.5 167q2 12 17.5 18.5t35.5 6.5q23 0 43.5 -8.5t20.5 -22.5v-2q-4 -289 -16.5 -487.5t-41 -325.5t-80 -189.5t-135.5 -77.5q-10 -2 -22 -3t-23 -1q-49 0 -95 17.5t-79 52.5q-53 57 -63 114.5t-10 106.5z" />
<glyph unicode="v" horiz-adv-x="649" d="M78 1006q-2 16 18 23t45 7q29 0 53.5 -9t26.5 -30q16 -199 37 -390t43 -384q0 10 4 20.5t4 14.5q25 80 51.5 193.5t54 229.5t57.5 215t60 151q10 10 29 10q20 0 41 -10.5t25 -22.5q2 -7 2 -20q-1 -23 -7 -65q-10 -65 -29.5 -151t-45 -186t-51 -193.5t-49 -170 t-37.5 -117.5q-20 -57 -54 -101.5t-102 -44.5q-23 0 -43.5 8.5t-24.5 28.5q-35 248 -60.5 494t-47.5 500z" />
<glyph unicode="w" horiz-adv-x="833" d="M55 281q2 18 2 85.5t9.5 192.5t19.5 243t16 204q0 16 18.5 24t41.5 8q27 0 49 -10t22 -27v-4q0 -215 -22.5 -448.5t-22.5 -448.5q25 61 47.5 163t44 212.5t40 215t30.5 171.5q2 16 18.5 23.5t34.5 7.5q23 0 45.5 -10.5t26.5 -28.5q35 -160 49.5 -334t61.5 -334 q4 -16 9 -28.5t11 -28.5q18 111 26.5 220.5t13.5 220t9.5 223t16.5 227.5q2 16 18.5 23.5t38.5 7.5q27 0 50.5 -10.5t23.5 -28.5q-4 -223 -19.5 -442.5t-54.5 -440.5q-8 -49 -27.5 -88t-62.5 -43h-14q-47 0 -81 36t-56.5 92t-36 126t-21.5 137.5t-12 125.5t-6 93 q-20 -117 -38 -226.5t-34 -180.5q-8 -39 -19.5 -80t-30 -74t-45 -53.5t-67.5 -20.5q-8 0 -16 1t-19 3q-25 4 -39 19.5t-22 36t-11 44t-8 44.5q-10 48 -10 107q0 25 2 53z" />
<glyph unicode="x" horiz-adv-x="577" d="M-6 -4q0 6 2 10q59 121 113.5 250t107.5 258q-41 106 -80 217t-92 221q-4 6 -4 13q0 14 23.5 26.5t56.5 12.5q18 0 33.5 -6.5t21.5 -16.5q39 -63 66.5 -132t56.5 -134q31 94 70 185t86 179q4 10 22.5 15.5t38.5 5.5q23 0 38 -5t15 -18v-6q0 -139 -71.5 -274t-126.5 -265 v-6q43 -129 77.5 -258t57.5 -264v-4q0 -12 -18.5 -19.5t-43.5 -7.5q-23 0 -39 6.5t-20 16.5q-33 80 -54.5 162t-47.5 164q-39 -84 -76 -163t-76 -157q-8 -16 -31.5 -24.5t-48.5 -8.5q-27 0 -42 8.5t-15 18.5z" />
<glyph unicode="y" horiz-adv-x="499" d="M43 940v2q0 23 28.5 38t57.5 15q14 0 24.5 -5t12.5 -17q16 -94 34.5 -184.5t32.5 -182.5q16 35 37 90.5t44.5 118t51 126t58.5 116.5q10 12 29 12q14 0 30.5 -5t28.5 -14.5t16 -18.5t7 -15q2 -6 -5 -12q-61 -61 -76.5 -137t-45 -138.5t-61.5 -127t-71 -142.5 q-4 -37 -14 -105.5t-22.5 -143.5t-24.5 -142.5t-20 -102.5q-4 -20 -37 -20q-23 0 -43.5 9t-24.5 26q-4 18 -4 43q0 29 7 78t21.5 116.5t26 123.5t11.5 89v10z" />
<glyph unicode="z" horiz-adv-x="632" d="M39 0q41 129 89 245.5t99.5 229.5t101.5 228.5t95 242.5q-31 0 -69 1t-77.5 2t-78.5 2t-70 1q-16 0 -29.5 13.5t-16.5 31t7 30.5t41 13q41 0 93 -1t107.5 -3t109 -4t91.5 -4q16 0 41 -9t17 -32q-43 -129 -91 -245.5t-98.5 -231.5t-99.5 -230.5t-94 -242.5q82 6 162 14 t161 12h11q25 0 40 -9t18 -20t-7 -22.5t-41 -15.5q-111 -18 -222.5 -28.5t-222.5 -10.5q-10 0 -24 2t-24.5 6t-16.5 13.5t-2 21.5z" />
<glyph unicode="{" horiz-adv-x="573" d="M8 545q0 193 211 213q4 43 6 57q2 8 8.5 69.5t20.5 178.5q27 231 43 278q23 66 60.5 112t93.5 46q61 0 161 -51q51 -27 46 -44.5t-64 -29.5l-119 -24h-24q-23 -18 -25 -52q-8 -18 -12 -245q-2 -78 -2 -156v-156q0 -23 -4.5 -49t-12.5 -50t-21.5 -39t-33.5 -15h-84 q-51 0 -51 -39q0 -23 14 -43q33 -23 57.5 -34t40.5 -15q29 -4 42.5 -24.5t15.5 -49.5q0 -12 -3 -54t-7.5 -106.5t-6.5 -150.5t2 -187q2 -61 13 -114q4 -8 6 -14.5t4 -10.5h2q14 0 54 -2t106 -6q131 -6 47 -141h-207q-76 0 -137 102q-63 102 -64 561q-2 10 -2 20.5t-2 20.5 l2 35q-37 16 -67 61q-107 64 -107 148z" />
<glyph unicode="|" horiz-adv-x="325" d="M34 179q-1 44 1 85v240q0 168 6 340t35 338q66 240 119 239q27 0 41 -16t18 -41q12 -94 19.5 -189.5t5.5 -195.5t-3.5 -196.5t-1.5 -190.5v-127v-91t2 -102v-221q-4 -104 -6 -201.5t-6 -201.5q-4 -80 -12 -113q-8 -27 -19.5 -43t-42.5 -16q-35 0 -59.5 35.5t-40.5 93 t-26.5 127t-15.5 137.5t-7 125t-4 90q-2 51 -3 95z" />
<glyph unicode="}" horiz-adv-x="581" d="M-33 1448q102 51 162 51q55 0 94 -46t62 -112q8 -23 17 -92t24 -186q14 -117 20 -178.5t8 -69.5q2 -14 6 -57q211 -20 211 -213q0 -84 -106 -148q-31 -45 -68 -61l2 -35q-2 -10 -2 -20.5t-2 -20.5q0 -229 -14 -369.5t-47 -191.5q-66 -102 -139 -102h-207q-82 133 47 141 q66 4 105.5 6t54.5 2h2q2 4 4 10t6 15q10 53 12 114q4 100 2 186.5t-6 151t-7 106.5t-3 54q2 29 15 49.5t42 24.5q16 4 41 15t57 34q14 20 15 43q0 39 -51 39h-84q-20 0 -33.5 15t-21 39t-11.5 50.5t-6 48.5q-2 33 0 58q2 12 1 74.5t-3 179.5q-2 227 -12 245q-2 33 -25 52 h-25q-12 4 -28 6q-33 10 -90 18q-121 23 -19 74z" />
<glyph unicode="~" horiz-adv-x="890" d="M-17.5 466.5q-12.5 20.5 3.5 51.5q51 88 139 141.5t186 53.5q47 0 83 -10.5t68 -29t61.5 -44t62.5 -54.5t63 -28q27 0 52.5 16.5t49 39t43 47t35.5 40.5q6 6 15 6q27 0 26 -20q0 -55 -14 -105.5t-44 -89.5t-74 -62.5t-103 -23.5q-72 0 -135 51q-31 25 -53.5 45.5t-45 36 t-50 24.5t-64.5 9q-66 0 -124.5 -21.5t-90.5 -64.5q-23 -29 -52 -29q-25 0 -37.5 20.5z" />
<glyph unicode="&#xad;" horiz-adv-x="526" d="M51 565q8 33 41 39q29 4 56.5 9t56.5 8q61 4 122.5 8t123.5 8q10 0 19 1t19 3q16 -29 12.5 -55.5t-14.5 -53.5q-4 -10 -10 -12t-16 -4q-45 0 -88 -1t-88 -3h-152q-14 0 -28.5 2t-28.5 4q-37 8 -25 47z" />
<glyph unicode="&#xdb;" />
<glyph unicode="&#xdc;" />
<glyph unicode="&#xdd;" />
<glyph unicode="&#xff;" horiz-adv-x="1941" d="M51 242.5q-4 23.5 21 38.5q8 4 15 7t15 7q4 10 7.5 20.5t7.5 20.5q8 20 14 40.5t16 43.5q-10 0 -19 -1t-19 -1t-21.5 7t-19 16.5t-6 20.5t15.5 19q29 16 58.5 27.5t62.5 19.5q12 14 30 15q4 0 21 -4q8 2 14 3t15 1q37 8 75.5 13t77.5 5q49 0 80 -8q10 -2 19.5 -12.5 t12.5 -20.5t0 -20.5t-20 -14.5q-47 -16 -97 -22t-99 -10q-33 -2 -68 -13q-8 -29 -18.5 -54.5t-20.5 -51.5q35 8 69 13t64 9h6q29 0 37.5 -24.5t-20.5 -40.5q-43 -23 -93.5 -40.5t-101.5 -29.5q-10 -29 -23.5 -57.5t-29.5 -57.5q-8 -14 -25 -14q-16 0 -29.5 11.5t-11.5 27.5 q2 23 6.5 43.5t8.5 36.5q-23 8 -27 31.5zM248 961q8 66 30.5 133t53 131.5t68.5 124t77 110.5q23 29 55 29q23 0 43.5 -10.5t34 -27.5t15.5 -37.5t-13 -41.5q-39 -74 -77.5 -146.5t-67.5 -148.5q-8 -23 -18.5 -62.5t-15.5 -79.5t0 -68.5t28 -28.5t67 41q55 53 92 120.5 t64 141t50.5 148.5t53.5 143q20 43 70 43q33 0 59.5 -21.5t22.5 -58.5q-6 -55 -25.5 -131t-50 -158t-71.5 -163t-94.5 -144.5t-116 -102.5t-133.5 -39h-19q-55 4 -92 35t-58.5 75t-28.5 96.5t-3 97.5zM440 324q16 47 47 82.5t72 59t88 35t96 11.5q53 -2 87 -23.5t49.5 -55.5 t9.5 -75t-35 -82q-20 -31 -52 -58.5t-68 -49t-76 -34.5t-80 -13q-16 0 -29.5 2t-26.5 6q-63 16 -78.5 63.5t0.5 100.5q-10 12 -4 31zM532 276q-8 -35 6 -48t37 -13q31 0 50 8q88 23 139 92q12 14 20.5 33t7.5 34t-12.5 27.5t-38.5 14.5q-47 0 -82.5 -10.5t-74.5 -34.5 q0 -8 -6 -19q-14 -23 -27.5 -42t-18.5 -42zM848 649q6 76 25.5 148.5t47 142.5t60.5 137.5t66 134.5q12 25 29.5 73t42 95t55 82t69.5 35q18 0 33 -8q18 -6 33.5 -24.5t11.5 -41.5q2 -2 -2 -13t-9 -23.5t-10.5 -23.5t-5.5 -15q-10 -29 -23.5 -54.5t-27.5 -54.5 q-23 -47 -46 -95t-46 -97q-49 -104 -95 -211t-95 -215q-14 -33 -54 -33q-25 0 -44 16t-15 45zM926 223q16 74 42.5 145.5t57.5 141.5q12 29 43 29q35 0 51 -29q23 -43 47.5 -84t46.5 -82l19 68q16 37 32.5 75.5t45.5 67.5q16 16 35 16q23 0 37 -16t8 -43q-10 -45 -33 -87 t-39 -87q-12 -37 -20.5 -75t-36.5 -66q-18 -18 -41 -19q-33 0 -50 29q-25 45 -46 87t-44 85q-18 -45 -38.5 -88t-36.5 -88q-4 -12 -15.5 -17.5t-23.5 -5.5q-16 0 -30.5 11.5t-10.5 31.5zM1153 715q0 4 1 11t3 17q-2 12 4 29q16 76 49 148.5t62 144.5q33 78 66.5 158 t95.5 141q14 14 36 14q29 0 50 -24q55 25 125 24q53 0 106 -17.5t90 -53.5q37 -37 48.5 -79t6 -86t-23 -88t-39.5 -83q-37 -66 -82 -128.5t-100.5 -110.5t-122 -76.5t-148.5 -28.5q-76 0 -131 26q-14 -6 -28 -6q-29 0 -50.5 17.5t-17.5 50.5zM1350 793q154 8 254 153 q25 35 58.5 80t43.5 86q10 35 2 56.5t-26.5 32.5t-45 15.5t-53.5 4.5h-17t-18 -2q-4 0 -8 1t-8 1q-16 -63 -47 -124t-55 -118q-18 -47 -37.5 -93t-42.5 -93zM1430.5 490.5q-3.5 13.5 2 25.5t19.5 16q27 6 63.5 12.5t74.5 12.5t75 9t66 3q33 0 59 -6q29 -6 36 -33.5 t-22 -40.5q-27 -10 -53.5 -13t-54.5 -7q-2 -18 -17.5 -67.5t-37 -100.5t-46 -90t-47.5 -39q-18 0 -33.5 15.5t-5.5 33.5q-2 -4 -2 6.5v12.5q2 10 5.5 17t7.5 17q20 47 35.5 93.5t31.5 93.5q-29 -2 -59.5 -3t-59.5 -1q-14 0 -24 10t-13.5 23.5z" />
<glyph unicode="&#xe01;" horiz-adv-x="909" d="M53.5 856.5q26.5 63.5 95 112.5t166 77.5t195.5 28.5q66 0 126 -13t109.5 -44t83 -79t45.5 -116q8 -43 5.5 -113.5t-15 -154.5t-31 -173t-41 -171t-48 -147.5t-48.5 -102.5q-12 -18 -43 -18q-27 0 -49 13t-18 36q16 76 36.5 169t41 191.5t37 193.5t24.5 171q4 31 4 66.5 t-7 68.5t-26.5 60.5t-54.5 43.5q-23 10 -49.5 15.5t-54.5 5.5q-74 0 -151 -25.5t-129 -64.5t-66.5 -84t36.5 -82q18 -14 39 -21.5t40.5 -15.5t35.5 -21.5t27 -37.5q4 -10 -2.5 -50t-18.5 -96.5t-28.5 -124t-31 -134t-23.5 -125t-9 -99.5q0 -18 -13.5 -25.5t-31.5 -7.5 q-29 0 -59.5 16.5t-30.5 40.5q0 31 8 84.5t20.5 116t26.5 127t24.5 118.5t16.5 92t4 46q-10 25 -20.5 27t-32.5 12q-29 12 -55.5 30.5t-42.5 47.5q-43 72 -16.5 135.5z" />
<glyph unicode="&#xe02;" horiz-adv-x="774" d="M45 803q4 31 16.5 60.5t26.5 54.5q14 23 39 51t55.5 53t64.5 41t64 16q29 0 52.5 -15t39.5 -56q10 -27 10.5 -82.5t-6 -119t-14.5 -120.5t-12 -86q-27 -201 -32 -284t9 -83q12 0 33 49.5t47.5 125t55 168t55 180.5t49.5 159.5t37 106.5q10 25 49 25q23 0 41 -10.5 t18 -28.5q0 -53 -13 -143.5t-35.5 -195t-53.5 -214t-66.5 -203.5t-75.5 -161.5t-79 -90.5q-33 -16 -62 -16q-45 0 -83 26.5t-56 67.5q-20 47 -21 125t6 165t20.5 168.5t21.5 133.5q-31 -8 -68 -8q-59 0 -96 30q-27 23 -34 51.5t-3 59.5zM170 779.5q8 -11.5 23 -11.5 q25 0 54 29.5t36 95.5q4 37 1 52.5t-14 15.5q-10 0 -26.5 -18.5t-31.5 -43.5t-26.5 -50.5t-15.5 -37.5q-8 -20 0 -31.5z" />
<glyph unicode="&#xe03;" horiz-adv-x="747" d="M-20 1044q-4 16 5 23.5t23 7.5q25 0 52.5 -15t33.5 -38q6 -29 14.5 -56.5t14.5 -56.5q12 20 27.5 44t35 44.5t42 33.5t48.5 13q47 0 80 -38q16 -20 22.5 -48t7.5 -57t-2 -55.5t-3 -48.5q0 -8 -8 -58.5t-18.5 -120t-20.5 -148.5t-15.5 -144.5t-3.5 -109.5t17 -44 q16 0 49 68q47 100 73.5 199.5t48 197.5t44 194.5t61.5 190.5q8 18 37 18q25 0 48.5 -13t23.5 -36q0 -76 -16.5 -179t-42 -209.5t-57.5 -206t-60 -171.5q-12 -31 -27.5 -69.5t-37 -74.5t-50.5 -59.5t-70 -23.5q-68 0 -112.5 51t-59.5 117q-20 98 -5.5 202.5t30.5 196.5 q6 53 14 108.5t19 108.5q4 16 6 37t2 43q0 -2 -1 -2t-1 -2q-23 -35 -43.5 -69.5t-34.5 -73.5q-8 -23 -37 -23q-23 0 -48.5 16.5t-31.5 41.5q-18 74 -37.5 146.5t-35.5 147.5z" />
<glyph unicode="&#xe04;" horiz-adv-x="978" d="M72 460.5q4 104.5 33.5 205t78.5 180.5q31 49 74 93t95.5 78t110.5 53.5t120 19.5q98 0 186 -58q74 -47 113 -121.5t52 -164t8 -187.5t-19.5 -195.5t-30.5 -188.5t-27 -163q-2 -18 -30 -18q-29 0 -61 16.5t-32 34.5q0 55 8.5 124t18.5 144.5t18.5 154.5t8.5 155.5 t-12.5 147.5t-45.5 128q-25 45 -57.5 63.5t-71.5 18.5q-41 0 -85 -18.5t-84 -47t-72.5 -62.5t-53.5 -65q-35 -51 -60.5 -119.5t-39.5 -141t-15 -146.5t11 -137q16 37 24.5 71.5t17.5 68.5t20.5 66.5t33.5 63.5q23 31 46.5 61.5t51 56t60.5 42t72 16.5q23 0 47 -6 q37 -8 66.5 -31.5t45 -53.5t15.5 -64.5t-23 -69.5t-51.5 -48.5t-58.5 -13.5q-39 0 -79 14.5t-75 33.5q-6 -8 -11 -15.5t-10 -13.5q-25 -47 -40 -92t-27 -91t-24.5 -93.5t-28.5 -96.5q-6 -25 -39 -24q-23 0 -46.5 11t-33.5 27q-53 88 -74.5 190.5t-17.5 207zM467 514 q16 -6 31.5 -11t29.5 -5q18 0 31.5 9t22.5 34q8 25 0.5 34t-21.5 9q-31 0 -55 -25q-8 -10 -18.5 -22.5t-20.5 -22.5z" />
<glyph unicode="&#xe05;" horiz-adv-x="935" d="M31 335.5q-4 108.5 1 226.5t25.5 218.5t57.5 174.5t94 94q16 6 33 6q23 0 55.5 -11.5t67 -29t64.5 -39t46 -39.5q4 2 11.5 4t9.5 2q20 12 38.5 27.5t34.5 31.5q33 29 71 50.5t79 21.5q47 0 77.5 -21.5t51 -55t30 -74.5t11.5 -80q6 -98 1 -206t-12.5 -218.5t-15.5 -219 t-8 -206.5q0 -20 -14.5 -28.5t-32.5 -8.5q-31 0 -63.5 18.5t-32.5 46.5q0 109 10 219.5t19.5 221t15.5 221.5t-4 215q-2 16 -3 36.5t-12 37.5q0 2 -1 2t-1 2q-10 -6 -19 -12.5t-18 -12.5q-31 -25 -60.5 -50.5t-64.5 -41.5q-51 -23 -88 -22q-55 0 -110 57q-39 45 -72 45 q-35 0 -60.5 -44t-43 -113.5t-27.5 -152.5t-15 -160t-6 -139.5t1 -86.5q6 25 29.5 72.5t53 100t58.5 97.5t47 63q35 35 89 68t108 33q45 0 79 -27q23 -18 31 -40.5t7 -47t-11 -48.5t-27 -42q-25 -29 -54.5 -40t-61.5 -11q-29 0 -55.5 8t-53.5 21q-20 -43 -49 -104.5 t-58.5 -127t-55 -127t-38.5 -106.5q-6 -23 -34 -23q-23 0 -48.5 14.5t-31.5 30.5q-16 45 -28.5 133t-16.5 196.5zM428 504q25 -10 41 -10q47 0 72 51q6 12 6 24.5t2 22.5q-6 -4 -12.5 -5t-12.5 -5q-61 -31 -96 -78z" />
<glyph unicode="&#xe06;" horiz-adv-x="862" d="M-6.5 190.5q12.5 57.5 52.5 100.5t99.5 68.5t118.5 25.5h10q6 29 10.5 84t7.5 114.5t4 115t1 83.5q-23 -33 -39 -68.5t-35 -62.5q-8 -14 -33 -14q-29 0 -58.5 18.5t-29.5 40.5q4 72 -10 140.5t-39 140.5q-8 20 3.5 28.5t29.5 8.5q23 0 45.5 -10.5t28.5 -26.5 q10 -27 18 -51.5t15 -46.5q23 37 52 70.5t70 54.5q10 8 27 8q23 0 41 -20.5t31 -47.5q20 -41 25 -117.5t2 -164t-10 -171t-13 -143.5q53 -23 91 -59.5t56 -71.5q8 39 20.5 101.5t27 137t30.5 152.5t33.5 148.5t36 125t35.5 81.5q8 14 32 14q12 0 26.5 -5t26 -12.5 t18.5 -17.5t5 -22q0 -31 -10 -94.5t-26.5 -145.5t-36 -174t-37 -180t-33 -164t-21.5 -125q-4 -25 -18.5 -34t-34.5 -9q-25 0 -51.5 13t-38.5 30q-41 53 -79 97t-71 75q-10 -35 -16 -55.5t-18 -55.5q-27 -63 -76 -96t-105 -33q-47 0 -91 24.5t-75 78.5q-37 61 -24.5 118.5z M145 130q0 -15 3.5 -27.5t11.5 -12.5q16 0 30.5 23.5t24.5 53.5t17.5 58.5t9.5 40.5q-51 -16 -86 -82q-4 -8 -7.5 -23.5t-3.5 -30.5z" />
<glyph unicode="&#xe07;" horiz-adv-x="620" d="M39 612q-2 20 18.5 30.5t42.5 10.5q39 0 45 -20q33 -115 60.5 -242t75.5 -231q41 55 74.5 130t58 149.5t38 142t13.5 110.5q-10 -2 -22.5 -3t-22.5 -1q-66 0 -119 31t-61 104q-4 39 10 71t40.5 55.5t62.5 35.5t73 12q45 0 84 -18q55 -25 74.5 -100.5t14.5 -177 t-32.5 -215t-68.5 -214t-91.5 -175t-101.5 -97.5q-12 -6 -26 -6q-51 0 -78 47q-33 59 -61.5 130t-50 146.5t-34 151.5t-16.5 143zM358 825q-4 -31 5.5 -44t25.5 -13q18 0 40 13.5t35 35t13.5 46t-22.5 44.5q-6 6 -17 6q-12 0 -24.5 -10t-24.5 -23.5t-20.5 -28.5t-10.5 -26z " />
<glyph unicode="&#xe08;" horiz-adv-x="673" d="M23.5 393.5q-0.5 34.5 15.5 67.5t47 60.5t61 39.5q47 20 86 21q45 0 80 -21.5t60.5 -56.5t44 -81t31.5 -95q18 53 38.5 120.5t27.5 137t-7 132t-64 105.5q-27 23 -58.5 38.5t-64 27.5t-66.5 22.5t-65 22.5q-12 6 -21 16.5t-11 21.5t4 18t24 7q170 -8 268.5 -58 t143.5 -129t45 -180.5t-28.5 -209t-77 -217t-99.5 -205.5q-14 -25 -51 -25q-31 0 -60.5 17.5t-27.5 46.5q2 25 9 60.5t13.5 73.5t10.5 77t-2 69q-41 -10 -80 -22t-78 -12q-31 0 -59.5 10t-57.5 37q-31 29 -31.5 63.5zM154 394.5q-4 -15.5 10 -25.5h4q10 0 28.5 6t38 13 t38 15.5t26.5 10.5q0 2 -2 4q-10 16 -27.5 34.5t-44.5 18.5q-8 0 -12 -2q-6 -2 -19.5 -14.5t-24.5 -28.5t-15 -31.5z" />
<glyph unicode="&#xe09;" horiz-adv-x="823" d="M24.5 595.5q14.5 76.5 71.5 131.5q53 49 125 49q55 0 102.5 -30.5t57.5 -90.5q6 -33 6 -81t-3 -97t-10 -96t-18 -82q47 43 96.5 80t106.5 55q8 49 15.5 107.5t6.5 117t-13.5 112.5t-43.5 97q-29 41 -65.5 57.5t-77.5 16.5q-47 0 -96 -15.5t-95 -31.5q-4 -2 -12 -2 q-14 0 -34.5 6t-36 16.5t-20.5 23.5t9 28q49 47 113.5 70.5t132.5 23.5q96 0 186 -45t138 -129q63 -111 67 -223.5t-18 -229.5q88 -29 115.5 -84t15.5 -118.5t-55 -125t-97 -102.5q-20 -16 -46.5 -28.5t-55.5 -12.5q-20 0 -38.5 9.5t-33.5 31.5q-10 16 -11 51t3 73t9 76 t7 60q-66 -51 -120 -117.5t-111 -132.5q-12 -14 -39 -14q-31 0 -63.5 19.5t-30.5 48.5t7 69.5t11 85.5t14.5 87t14.5 71q-31 -10 -55 -10q-33 0 -60.5 17.5t-50.5 60.5q-35 70 -20.5 146.5zM150 573q0 -51 12 -72.5t28 -21.5t33 20.5t21 49.5q8 57 12 87t-31 36q-4 0 -6 1 t-6 1q-18 0 -30.5 -10.5t-19.5 -25.5t-10 -32.5t-3 -32.5zM653 166q12 16 26.5 37.5t26 44t13.5 43.5t-10 35t-29 14q-6 -43 -13.5 -88t-13.5 -86z" />
<glyph unicode="&#xe0a;" horiz-adv-x="749" d="M-18.5 810.5q-22.5 54.5 0.5 113.5t66.5 85.5t94.5 26.5q37 0 73 -12t65.5 -34.5t51 -54.5t27.5 -71q6 -35 -5 -105.5t-26.5 -155.5t-30.5 -175t-18.5 -164t10 -122t54.5 -50q61 -2 98 57.5t57.5 140.5t29 161.5t8.5 119.5q4 98 -30 172t-108 142q-23 23 -22.5 45 t37.5 33q137 35 270 111.5t238 166.5q16 12 41 12q23 0 47 -9t41.5 -23.5t21.5 -30.5t-12 -31q-104 -88 -229 -161.5t-261 -118.5q47 -53 82 -111.5t45 -130.5q6 -49 4 -115.5t-15 -139.5t-36.5 -142.5t-60.5 -126t-87 -90t-116 -33.5q-53 0 -121 28q-61 27 -91 76 t-38 112.5t1 135.5t24.5 141.5t33 135t25.5 114.5q-37 -12 -76 -12t-75 12q-66 23 -88.5 77.5zM94 844q-2 -41 33 -41q23 0 51.5 14.5t44.5 28.5q2 2 10 6q0 14 -1 31.5t-7 32t-16 23.5t-29 9q-41 0 -62.5 -33.5t-23.5 -70.5z" />
<glyph unicode="&#xe0b;" horiz-adv-x="780" d="M35 774q4 49 24.5 101.5t34.5 89.5q10 25 45 24q35 0 67 -20.5t21 -48.5q-35 -88 -39 -126t9 -38q12 0 38.5 33.5t57.5 89.5q25 45 52.5 87t62.5 78q12 12 38 13q33 0 64 -16.5t27 -41.5q-2 -16 -5.5 -28.5t-5.5 -28.5q117 92 244 177t254 163q10 8 31 8q20 0 42.5 -8 t38 -21.5t20.5 -29t-9 -31.5q-45 -51 -103.5 -93t-121 -81t-126 -77t-118.5 -79q25 -70 40 -150.5t18 -162.5t-8 -163t-40 -152q-14 -37 -39.5 -80t-60.5 -80t-78 -61.5t-90 -24.5q-35 0 -76 18q-43 20 -66.5 57.5t-35 82.5t-12.5 91t1 85q2 35 12.5 85t24 103t27.5 102.5 t22 81.5q-29 -27 -64.5 -49t-78.5 -22q-8 0 -15 1t-18 3q-68 12 -89 51t-17 88zM376 262q-3 -51 5 -81.5t31 -30.5q22 -1 57 32q57 61 79.5 154.5t22.5 194t-16 196.5t-41 166q0 -4 -10 -38t-24.5 -86t-32 -118.5t-32 -135.5t-25.5 -135.5t-14 -117.5z" />
<glyph unicode="&#xe0c;" horiz-adv-x="1173" d="M11 127.5q-7 65.5 22.5 141t74.5 146t70 113.5q20 43 23.5 61.5t-8 28t-33 17.5t-47.5 29q-53 41 -60 104q-8 59 28 111.5t97.5 90.5t141 60.5t161.5 22.5q102 0 191.5 -41t132.5 -138q25 -53 24.5 -115.5t-10.5 -127t-27.5 -128t-29.5 -120.5q47 -29 81 -72t62 -90 q18 96 32.5 193.5t30 194t36 191.5t53.5 187q4 14 18.5 20.5t30.5 6.5q33 0 65.5 -19.5t28.5 -46.5q-23 -121 -45 -240.5t-45 -238.5q-23 -111 -44.5 -220.5t-70.5 -213.5q-10 -23 -41 -23q-23 0 -47 14.5t-33 30.5q-27 57 -58.5 121t-78.5 111q-16 -59 -36.5 -119.5 t-53.5 -116.5q-25 -39 -65 -39q-33 0 -70 23.5t-64.5 64.5t-39 94.5t5.5 110.5q20 72 79.5 96.5t124.5 24.5q10 35 23.5 86t24 109.5t12.5 116t-11.5 104.5t-46 75.5t-94.5 28.5q-37 0 -82 -8t-89 -25.5t-80.5 -42t-57.5 -57.5q-25 -43 -16.5 -66.5t32 -39t52 -30.5 t47.5 -44q16 -27 17 -53.5t-6 -51t-21.5 -49t-28.5 -47.5q-8 -14 -22.5 -36.5t-28 -45t-26.5 -45t-23 -39.5q31 -8 60.5 -23.5t50 -38t28.5 -51t-6 -63.5q-18 -45 -57.5 -63.5t-84.5 -18.5t-84 17q-82 35 -89 100.5zM521 217.5q5 -34.5 28 -63.5q10 47 20.5 91t22.5 91 q-16 -6 -32.5 -17.5t-27.5 -31.5q-16 -35 -11 -69.5z" />
<glyph unicode="&#xe0d;" horiz-adv-x="1169" d="M25 797q0 74 47 128t116.5 91t146.5 54t134 17q78 0 140.5 -26.5t105.5 -73.5t65.5 -112.5t22.5 -145.5q0 -78 -15.5 -154.5t-35 -148.5t-35 -137.5t-15.5 -120.5q0 -37 13.5 -69.5t60.5 -32.5q31 0 55 24q18 18 33 85t27 158t23.5 197.5t24.5 206t28.5 180t36.5 121.5 q12 23 34 23q20 0 48 -15.5t28 -37.5q0 -33 -5 -111t-14.5 -177t-21.5 -210t-26.5 -207t-31 -169t-32.5 -97q-31 -47 -77 -64.5t-99 -17.5q-51 0 -98 16.5t-82 47t-56.5 73.5t-21.5 96q0 66 16.5 139.5t37 150.5t36.5 155t16 151q0 78 -33.5 126t-119.5 48q-37 0 -93.5 -12 t-108.5 -36.5t-89 -60.5t-37 -83q0 -33 23.5 -53.5t51 -40t51.5 -43t24 -62.5t-10.5 -84t-21.5 -91t-21.5 -90t-10.5 -79q23 -6 47.5 -20.5t46 -32.5t34.5 -41t13 -49q0 -29 -14 -52.5t-35.5 -40t-48.5 -24.5t-53 -8q-72 0 -126 43t-54 119q0 53 16 120.5t36.5 133t37 124 t16.5 91.5q0 18 -23.5 31.5t-52 34t-52 54t-23.5 91.5zM207 84q0 -15 6 -25l12 -4q16 0 27.5 23.5t11.5 36.5q0 12 -17.5 19t-25.5 13q-14 -33 -14 -63zM476 -130q1 40 42 85q12 14 37 14q18 0 35.5 -7t30 -18.5t16.5 -24.5t-6 -28q-31 -39 -18.5 -58t46.5 -19q31 0 69 13 t67 26q47 23 91 50t97 38h8q23 0 50.5 -16.5t19.5 -39.5q-12 -41 -52 -72.5t-92.5 -55t-107.5 -36t-102 -12.5q-27 0 -37 2q-51 10 -96.5 33t-72 54.5t-25.5 71.5z" />
<glyph unicode="&#xe0e;" horiz-adv-x="897" d="M-14 -276q0 47 20.5 80.5t54 56t74.5 34t82 11.5q18 0 34.5 -2t33.5 -6q16 0 30.5 -6.5t30.5 -16.5q25 37 51.5 76.5t57.5 68.5q14 10 32 11q16 0 34 -5.5t30 -14.5t17 -21.5t-3 -26.5q-25 -45 -46 -88t-46 -80q-2 -8 4 -10t4 -10q29 -25 56.5 -49.5t56.5 -57.5 q18 47 38.5 150.5t39 233.5t30 270.5t10.5 264.5t-19.5 214t-59.5 119q-27 18 -84 18q-39 0 -85 -9t-84 -21.5t-63.5 -27t-25.5 -24.5q16 -8 31.5 -15t27.5 -18q33 -27 47.5 -90t14.5 -143t-11.5 -168t-32 -168t-48 -141.5t-58.5 -85.5q-39 -31 -82 -31q-47 0 -89 31.5 t-68 81.5q-18 37 -19.5 75.5t11 75.5t38 67.5t58.5 51.5q35 20 71 20q39 0 70 -18q23 86 22.5 176t-10.5 178q-4 16 -8 25.5t-9 13.5t-15.5 5t-26.5 1q-33 18 -47.5 44t-11 52.5t21.5 52t49 44.5q59 35 133 55.5t150 20.5q78 0 147.5 -25t118.5 -84q49 -57 71.5 -170 t25.5 -251t-11 -290.5t-39 -291t-56.5 -250t-64.5 -168.5q-14 -25 -47 -25q-18 0 -35.5 6t-31.5 15q-49 35 -89 85t-83 99q-47 -66 -120 -105.5t-155 -39.5q-68 0 -108.5 39.5t-36.5 130.5zM111 -315q23 -25 34 -25q16 0 35 18.5t53 49.5q47 43 42 64.5t-33 21.5 q-16 0 -39 -8.5t-42.5 -25t-33.5 -40.5t-16 -55zM139 172q-6 -37 11 -37q12 0 31.5 21.5t29.5 42.5q12 29 14 52t-12 23q-16 0 -39 -22q-10 -14 -21.5 -35.5t-13.5 -44.5z" />
<glyph unicode="&#xe0f;" horiz-adv-x="946" d="M-76 -323.5q-6 34.5 2 71.5q8 39 29.5 69.5t52.5 51t68 32t76 11.5t65 -8q14 16 26.5 35.5t35.5 35.5q10 8 30 9q27 0 49.5 -15.5t12.5 -44.5q-10 -23 -21.5 -46t-19.5 -46q16 -16 25.5 -32.5t25.5 -41.5q4 16 17.5 52t30.5 72t38.5 63.5t42.5 27.5q23 0 45.5 -14 t32.5 -25q23 -23 41 -47t41 -55q2 63 15 170t24.5 232.5t14.5 261t-15 254.5q-16 106 -66.5 149t-118.5 43q-53 0 -114.5 -22.5t-120.5 -55.5h10q51 -23 81 -89t40 -154.5t4 -187.5t-25.5 -186t-50.5 -150.5t-69 -80.5q-37 -16 -72 -16q-57 0 -107.5 33t-70.5 86 q-18 49 -9 99t38.5 89t72.5 63.5t92 24.5q23 0 43 -6q25 86 13.5 189.5t-31.5 193.5q-27 12 -54.5 24.5t-46 31t-21.5 45t17 65.5q16 31 69.5 57.5t122 46t142.5 29.5t131 10q61 0 92 -12q78 -33 119 -121t57.5 -206.5t12.5 -257t-17.5 -269.5t-30 -242.5t-26.5 -181.5 q-6 -55 -5 -114.5t-15 -114.5q-6 -25 -35 -25q-16 0 -34.5 7t-33.5 18q-8 8 -16 15t-17 17q-16 61 -44.5 117t-67.5 111q-33 -72 -56.5 -153t-58.5 -148q-12 -25 -45 -25q-29 0 -58.5 19.5t-29.5 46.5q0 39 -4 83t-29 83q-27 -66 -79 -118t-126 -52q-37 0 -65.5 15t-47 42 t-24.5 61.5zM51 -334v-10q8 8 14.5 15.5t16.5 13.5q23 25 39 53.5t33 52.5q8 6 10 13.5t12 17.5q-47 -10 -82 -59.5t-43 -96.5zM164 162q0 -53 14 -53q12 0 29.5 29.5t28.5 54.5q20 47 20 65t-12 18q-8 0 -22.5 -10t-27 -26.5t-21.5 -37t-9 -40.5z" />
<glyph unicode="&#xe10;" horiz-adv-x="747" d="M31 736.5q-8 15.5 0 33.5q57 133 132 212t193 79q23 0 47.5 -4t53.5 -10t49 -11.5t35 -5.5q20 0 29.5 14.5t15.5 49.5q4 18 17 26t32 8q33 0 65.5 -21.5t30.5 -51.5q-8 -74 -36.5 -104.5t-94.5 -30.5q-20 0 -44 3t-52 7q-35 6 -63.5 10t-51.5 4q-45 0 -79 -23.5 t-72 -91.5q47 12 98 21.5t98 9.5q80 0 144.5 -36t93.5 -132q14 -45 17 -95t0 -101.5t-11 -100.5t-16 -96q-16 -86 -40 -174t-81 -156q-16 -16 -37 -16q-29 0 -56.5 19.5t-33.5 41.5q-29 76 -41.5 149t-22.5 159q-41 -14 -86 -15q-55 0 -104 26.5t-78 92.5q-14 29 -12 60.5 t16 59t37.5 50t52.5 31.5q49 14 96 14q80 0 128.5 -44t74 -108.5t34.5 -136t13 -127.5q4 16 8.5 56.5t7.5 94.5t4 113.5t-2 111.5t-11.5 90t-22.5 50q-12 12 -43 13q-23 0 -46.5 -5.5t-39.5 -9.5q-63 -10 -120.5 -26.5t-119.5 -26.5h-8q-16 0 -36.5 6t-37 17.5t-24.5 27z M47 -215q-2 51 1 105t15 122q4 20 17.5 29.5t32.5 9.5q33 0 64.5 -21.5t33.5 -49.5q4 -37 4 -56.5v-35t-1 -34t-1 -53.5q12 10 32.5 27.5t42 34t45 28t42.5 11.5h8q27 -2 47.5 -25.5t35.5 -55.5t28.5 -64.5t25.5 -51.5l4 154q4 20 24.5 28.5t47.5 8.5t49.5 -9.5t20.5 -25.5 q-4 -39 -12.5 -84t-15.5 -91t-14.5 -91.5t-9.5 -81.5q-2 -23 -14 -31t-29 -8q-27 0 -56.5 15t-39.5 32q-29 41 -59.5 95t-53.5 114q-6 0 -28.5 -31t-47 -71t-46 -76.5t-29.5 -49.5q-16 -25 -53 -24q-35 0 -67 22.5t-32 55.5q-2 68 -6 123t-6 106zM196 431q9 -15 29 -15 q25 0 53.5 21t24.5 52q-6 43 -39 43q-37 0 -63 -51q-14 -35 -5 -50z" />
<glyph unicode="&#xe11;" horiz-adv-x="1052" d="M43 1030q-6 33 6 46.5t31 13.5q38 0 67 -35l27 -129q29 63 45.5 99t46.5 52q14 8 41 8q29 0 54.5 -11t35.5 -34q23 -55 27 -113.5t10 -111.5q29 45 65 97.5t81 97.5t96 75.5t110 32.5q102 4 152.5 -65.5t66 -181t1 -247t-41 -262t-58.5 -229t-52 -147.5 q-4 -10 -15.5 -15.5t-23.5 -5.5q-27 0 -52.5 16.5t-23.5 38.5q2 27 15.5 108t30 186.5t33 221t24.5 216t5 170t-24 79.5q-4 2 -4 3q-16 0 -37.5 -18.5t-29.5 -27.5q-193 -193 -298.5 -433t-146.5 -496q-6 -31 -47 -31q-18 0 -38.5 7t-38 18.5t-27 27t-4.5 33.5 q20 96 42.5 188.5t42 185.5t34 193.5t18.5 214.5q-2 12 -4 13q-4 0 -11.5 -18.5t-15.5 -44t-19.5 -54.5t-25.5 -47q-16 -23 -47 -23q-29 0 -54.5 18.5t-29.5 47.5q-8 70 -16.5 130t-22.5 142z" />
<glyph unicode="&#xe12;" horiz-adv-x="1275" d="M33 379q0 57 10 131t31.5 153.5t55.5 156.5t80 137.5t104 97.5t132 37q49 0 91.5 -24t68.5 -67q23 41 58.5 63.5t83.5 22.5q61 0 98 -26.5t56.5 -68.5t25.5 -93t6 -100q0 -117 -16.5 -232.5t-38.5 -228.5q47 -29 82.5 -71t64.5 -89q18 156 30.5 311.5t26.5 313.5 q6 68 13.5 140.5t19.5 137.5q4 16 16.5 22.5t28.5 6.5q29 0 60.5 -16.5t31.5 -49.5q0 -45 -5 -131t-14 -190.5t-22.5 -218t-28 -215t-29.5 -181t-32 -114.5q-12 -27 -41 -27q-23 0 -43 11.5t-30 29.5q-31 61 -62 121.5t-84 110.5q-4 -27 -14 -74t-26.5 -94t-40 -82 t-56.5 -35q-39 0 -71.5 20.5t-57.5 53t-39 70.5t-14 73q0 41 13 82t37.5 74.5t60.5 55.5t81 22q18 115 35.5 231.5t17.5 232.5v16.5t-1 27t-5 24.5t-12 10q-20 0 -45 -27.5t-46.5 -63.5t-36.5 -71.5t-19 -52.5q-8 -45 -58 -45q-27 0 -57.5 15.5t-30.5 46.5q0 23 7.5 62.5 t10.5 80.5t-5.5 70.5t-40.5 29.5q-45 0 -84 -44t-70 -112.5t-54.5 -152.5t-39 -165t-23.5 -147.5t-8 -99.5q0 -12 1 -36.5t6 -50t15.5 -45t28.5 -19.5q33 0 67 34.5t62.5 81t49 95.5t26.5 76q-23 -6 -45.5 -13.5t-44.5 -7.5q-27 0 -48.5 13.5t-36.5 35t-22.5 47t-7.5 49.5 q0 29 9.5 57.5t25.5 51.5t41 38t55 15q102 0 154.5 -64.5t52.5 -160.5q0 -61 -22.5 -139t-64.5 -146.5t-101.5 -114.5t-132.5 -46q-63 0 -104.5 37.5t-63 92t-29.5 116t-8 110.5zM328 518q0 -10 4 -17t14 -7q8 0 20.5 6t24.5 14t20.5 19.5t8.5 19.5q0 16 -12.5 26.5 t-28.5 10.5q-29 0 -40 -24.5t-11 -47.5zM657 178q0 -23 9.5 -45t23.5 -41q12 90 31 189q-31 -10 -47.5 -41t-16.5 -62z" />
<glyph unicode="&#xe13;" horiz-adv-x="1181" d="M6 139q-2 47 10.5 99.5t32 102.5t41 94t37.5 73q20 45 25.5 70.5t-1 43t-23.5 33t-44 35.5q-51 39 -61 109q-6 43 8 79.5t40.5 66.5t61.5 52.5t72 38.5q59 27 126.5 42.5t133.5 15.5q96 0 181 -42t128 -145q25 -53 26 -118.5t-10.5 -135t-29 -137t-29.5 -125.5 q33 29 69 51.5t77 32.5q18 66 37.5 143.5t43 155.5t49 151t54.5 128q12 23 41 22q29 0 55.5 -20.5t22.5 -48.5q-20 -131 -68.5 -264.5t-89.5 -262.5q59 -14 85 -55t27 -91t-16.5 -103.5t-42.5 -94.5q-29 -47 -66.5 -86t-99.5 -39q-35 0 -57.5 15.5t-33.5 40t-13 54.5t2 58 q6 47 17.5 91t21.5 91q-55 -41 -103.5 -98t-83.5 -112q-10 -23 -19 -45.5t-22 -45.5q-6 -10 -17 -14t-23 -4q-25 0 -48.5 14.5t-21.5 36.5q6 41 28.5 123t48 181.5t45 202.5t16.5 189t-38 140.5t-114 54.5q-37 0 -82 -9t-88 -26.5t-80 -42t-56 -57.5q-25 -45 -16.5 -68.5 t31 -41t52.5 -34t48 -45.5q10 -16 8 -48.5t-11 -71.5t-25.5 -83t-33 -84t-31.5 -73t-26 -49q31 -8 60.5 -24.5t51 -40t29 -53.5t-7.5 -64q-18 -45 -58 -64.5t-85 -19.5q-43 0 -82 16q-45 18 -64.5 55t-21.5 84zM137 104q6 -25 19 -24q10 0 19 9t15.5 21.5t5.5 26t-14 21.5 q-14 12 -28 12q-29 0 -17 -66zM932 123q10 0 33.5 41t42 92t21.5 96t-30 54q-16 -53 -30.5 -109t-30.5 -109q-20 -66 -6 -65z" />
<glyph unicode="&#xe14;" horiz-adv-x="856" d="M10.5 409q14.5 126 57.5 232q31 74 78 150.5t105 138t126.5 101.5t142.5 40q39 0 78 -11t78 -40q66 -47 99.5 -121t42.5 -160t-1 -181t-31.5 -186t-51 -173t-58.5 -144q-12 -25 -41 -24q-29 0 -54.5 22.5t-19.5 55.5q16 86 41 174t44.5 177t25.5 179t-13 180 q-16 72 -42.5 100.5t-61.5 28.5q-29 0 -60.5 -16.5t-63.5 -43t-62.5 -59t-55.5 -65.5q8 2 15.5 3t17.5 1q12 0 33 -4q49 -14 75.5 -51t37 -85t9.5 -103.5t-5 -104.5q-4 -51 -16.5 -123t-39 -138.5t-70.5 -113.5t-112 -47q-70 0 -131 50t-90 124q-41 111 -26.5 237zM147 340 q0 -33 1.5 -80t19.5 -76q14 -23 27.5 -32t25.5 -9q23 0 41.5 27.5t32.5 62.5q16 41 27.5 82t17.5 86q-10 -2 -22.5 -3t-22.5 -1q-41 0 -75 15.5t-56 52.5q-6 -31 -10 -61.5t-7 -63.5zM274.5 528.5q4.5 -24.5 24.5 -24.5q18 0 37.5 16t19.5 45q4 31 4 53.5t-10 22.5 q-12 0 -41 -37q-39 -51 -34.5 -75.5z" />
<glyph unicode="&#xe15;" horiz-adv-x="880" d="M26 329.5q-1 67.5 4 132t15 113.5q12 59 32.5 131t52.5 142t76 126t101 85q41 20 76 20q55 0 90 -44t53 -105q47 45 101.5 79.5t107.5 34.5q35 0 65.5 -18t57.5 -59q18 -27 19.5 -101.5t-8 -172t-27 -205t-37 -204t-37.5 -168t-31 -93.5q-12 -23 -43 -23q-27 0 -50 15.5 t-19 39.5q6 76 21.5 171.5t33.5 196.5t34.5 204.5t26.5 195.5q4 61 -6 87t-28 26t-43 -19.5t-51.5 -49t-52 -62.5t-48.5 -57q-18 -20 -45 -21q-23 0 -41 15.5t-20 43.5q-6 104 -17.5 147.5t-28.5 43.5q-14 0 -32.5 -31t-37 -77t-34.5 -99t-27 -96q16 20 42 32.5t55 12.5 q41 0 86 -27q49 -29 65.5 -81t11 -114.5t-27 -130t-52 -129t-65.5 -109.5t-63 -73q-31 -23 -62 -36t-59 -13q-29 0 -54.5 18.5t-42.5 61.5q-18 49 -27 112.5t-10 131zM155 231.5q-1 -51.5 5 -88.5q25 18 51.5 50t51 69t45 75t32.5 64q-12 -6 -29 -6q-23 0 -44 13.5t-37.5 34 t-28 43t-15.5 42.5q-6 -37 -14 -88t-12 -104t-5 -104.5zM305 530.5q0 -20.5 7.5 -37t19.5 -24.5q12 -6 20 -6q16 0 21.5 21.5t1.5 48t-14.5 48t-24.5 21.5q-2 0 -10 -4q-10 -10 -15.5 -28.5t-5.5 -39z" />
<glyph unicode="&#xe16;" horiz-adv-x="888" d="M16.5 173q8.5 54 33 113.5t53 115t54 104.5t33.5 82q6 29 -3 45t-26.5 28.5t-38 24.5t-34.5 31q-20 29 -27.5 62.5t-1.5 68.5q12 66 60.5 113t113 76.5t136 44t129.5 14.5q59 0 114.5 -12.5t101.5 -40t79.5 -71.5t48.5 -108q23 -92 3 -188t-44 -189q-33 -117 -70 -235.5 t-104 -220.5q-14 -20 -41 -21q-27 0 -49.5 17.5t-18.5 44.5q16 86 45 171t57.5 170t51 171t28.5 174q4 43 -1 83t-20 71.5t-45 52t-79 22.5q-37 0 -79 -5t-83 -17.5t-77.5 -32t-65.5 -47.5q-35 -35 -43 -77t33 -77q20 -16 40.5 -27.5t36.5 -33.5q37 -51 22 -102.5 t-42 -102.5q-8 -18 -22.5 -48t-28 -61.5t-26.5 -62.5t-23 -49q39 0 67.5 -18.5t45 -46t18.5 -60.5t-13 -66q-16 -39 -53 -57.5t-78 -18.5q-49 0 -90 23q-53 29 -69.5 74t-8 99zM146.5 76.5q3.5 -15.5 15.5 -15.5q10 0 18 14.5t11.5 32t1 34t-12.5 18.5q-2 2 -6 2 q-10 0 -17 -16.5t-10.5 -35t0 -34z" />
<glyph unicode="&#xe17;" horiz-adv-x="956" d="M10 752q-8 41 3.5 94t38 99t66.5 78t89 32h13t13 -2q41 -8 74 -24.5t54.5 -47.5t28.5 -78t-5 -119q25 49 59.5 103.5t76.5 100.5t89 76t99 32q74 2 118.5 -37t68.5 -105.5t28 -153.5t-4.5 -182.5t-25.5 -191.5t-38.5 -180t-43 -148.5t-38.5 -97.5q-4 -10 -15 -15t-24 -5 q-23 0 -46 14t-21 35q4 57 19 146t33.5 190.5t35 206t22.5 190.5t-1 144.5t-36 68.5q-6 2 -16 -3t-19.5 -13.5t-17.5 -16.5t-12 -10q-113 -84 -176.5 -193.5t-103.5 -230.5t-68.5 -249t-69.5 -249q-8 -29 -47 -28q-16 0 -34.5 7t-33 19t-22.5 27.5t-4 34.5q12 57 28.5 129.5 t33 148.5t32.5 149.5t31 131.5q-35 -14 -68 -15q-59 0 -105 41t-59 97zM135 756q0 -35 27 -35q20 0 59 31q18 14 29.5 46.5t12.5 66.5t-9 59.5t-33 23.5q-16 0 -37.5 -35.5t-35 -78.5t-13.5 -78z" />
<glyph unicode="&#xe18;" horiz-adv-x="716" d="M56.5 440q17.5 133 70.5 244q6 14 18.5 19.5t28.5 5.5t34.5 -6.5t32 -16.5t19.5 -22.5t0 -26.5q-35 -80 -46 -170t-9 -176q0 -27 3 -65t13 -72.5t28.5 -59t49.5 -24.5q27 0 66 26q29 20 56.5 77.5t46.5 133.5t28.5 160t-2 155.5t-44 121t-96.5 55.5q-59 6 -117.5 8 t-115.5 24q-12 4 -26.5 13.5t-24 21t-11.5 24.5t11 25q33 35 66.5 69t70.5 59.5t80 42t94 16.5q6 0 13 -1t16 -1q33 0 63.5 -17.5t56.5 -17.5q25 0 43 20q14 16 21.5 37t14.5 42.5t15.5 41t24.5 35.5q10 10 33 10q18 0 37.5 -8t28.5 -20q20 -33 21 -76t-15.5 -84t-47 -73 t-71.5 -44q-10 -4 -19.5 -4h-17.5q-41 0 -71.5 16.5t-71.5 28.5q-18 6 -37 6q-45 0 -84 -26.5t-72 -61.5q66 -4 127.5 -7t122.5 -38q66 -37 101.5 -110.5t46 -163.5t-3 -188.5t-44 -184.5t-77 -149.5t-101.5 -83.5q-51 -18 -100 -19q-100 0 -173 65.5t-95 161.5 q-27 119 -9.5 252z" />
<glyph unicode="&#xe19;" horiz-adv-x="915" d="M43 920q-2 29 9 51t31.5 38.5t46.5 24.5t52 8q78 0 130.5 -50t62.5 -126q4 -23 1 -72t-9.5 -111t-16.5 -131t-19 -132.5t-19.5 -116.5t-16.5 -82q35 20 63.5 40t59.5 41.5t67.5 43t89.5 45.5q4 59 20.5 150.5t38 187.5t45 184t42.5 144q8 25 41 24q29 0 55.5 -17 t26.5 -42q-6 -61 -21.5 -146t-35 -174.5t-37 -174.5t-25.5 -146h18q53 0 95.5 -23.5t67 -64.5t28.5 -97.5t-19 -121.5q-18 -27 -34.5 -50.5t-35 -40t-42 -26.5t-58.5 -10h-14q-57 0 -91 21.5t-51.5 54t-21.5 71.5t-4 72t2 55.5t-4 22.5q-4 0 -41 -19.5t-86 -51.5t-99 -69.5 t-81 -74.5q-14 -16 -41 -17q-35 0 -66.5 24.5t-25.5 57.5q10 49 23.5 140.5t28.5 190.5t29.5 190.5t22.5 138.5l6 18q-33 0 -65.5 9.5t-59 27.5t-44 46t-19.5 65zM154 904.5q-2 -19.5 7 -36t32 -16.5q10 0 16 2h8q8 0 25 -4q4 35 -2 64.5t-31 39.5q-4 2 -12 2 q-18 0 -29.5 -16t-13.5 -35.5zM709 168q0 -12 1 -30.5t4 -36t10 -30t17 -12.5q18 0 41 35q18 31 24.5 54.5t2.5 40t-15.5 25.5t-25.5 9q-16 0 -32.5 -13t-26.5 -42z" />
<glyph unicode="&#xe1a;" horiz-adv-x="768" d="M31 834q0 35 10 68.5t30.5 60t50.5 43t66 16.5q41 0 70 -16.5t47.5 -44t26.5 -62.5t8 -70q0 -70 -8 -141.5t-17.5 -142t-17.5 -141t-8 -142.5q0 -31 4 -62.5t16.5 -56t36 -41t62.5 -16.5q27 0 47 6q43 12 71.5 82t49 168t38 210t36 206t40 156.5t53.5 62.5 q29 0 48.5 -16.5t19.5 -45.5q0 -68 -14.5 -171t-38 -212.5t-51 -211t-52.5 -164.5q-16 -41 -35.5 -75t-45 -58.5t-61.5 -38t-83 -13.5q-154 0 -216 70t-62 217q0 31 4 85t10 112.5t13 112t14 83.5q-74 6 -118 58.5t-44 124.5zM143 811q0 -25 4.5 -36t12.5 -16t20.5 -8 t28.5 -12q4 29 8 43.5t4 42.5q0 6 -1 20.5t-3 29t-7 24.5t-15 10q-14 0 -23.5 -11t-15.5 -27.5t-9.5 -33t-3.5 -26.5z" />
<glyph unicode="&#xe1b;" horiz-adv-x="997" d="M51 864q2 41 22.5 75t50.5 60.5t66.5 41t73.5 14.5t70 -17.5t55 -58.5q18 -33 16 -103.5t-11 -159.5t-23.5 -185.5t-21.5 -180.5t-4 -146.5t26 -82.5q16 -14 47 -15q49 0 113.5 35t107.5 90q43 84 74.5 201t57.5 249t46.5 270.5t44 265t49 232t62.5 175.5q8 16 28 16 q25 0 50.5 -20.5t27.5 -42.5q4 -33 -1 -75t-12 -85t-17.5 -85t-20.5 -75q-23 -82 -42 -202.5t-43.5 -253.5t-57.5 -268.5t-81 -247t-117 -189.5t-165 -96q-25 -4 -47 -6t-43 -2q-84 0 -133 34.5t-73.5 93t-30 133.5t1 153.5t17.5 155.5t17 138q-10 -4 -30 -4q-12 0 -25.5 2 t-25.5 9q-45 23 -74 63.5t-25 93.5zM170 803q2 -6 2 -12v-5l2 2q2 0 4 1.5t6 1.5q23 2 42.5 23.5t29.5 35.5l6 6l4 4q10 25 15.5 48.5t1.5 29.5q-6 10 -19 10q-14 0 -27.5 -9t-23.5 -19q-23 -23 -38 -52.5t-5 -64.5z" />
<glyph unicode="&#xe1c;" horiz-adv-x="958" d="M27 358q-2 117 18.5 229.5t63.5 219.5q12 31 28.5 68.5t38 69.5t51 53.5t68.5 21.5q61 0 107.5 -44t50.5 -106q2 -45 -11.5 -81.5t-38 -64.5t-57.5 -43t-70 -15q-33 0 -63 12q-18 -63 -27.5 -130t-13.5 -132q0 -25 -3 -66t-3 -81t4 -69.5t16 -29.5q10 0 26.5 25.5 t41.5 89.5q20 51 37.5 102t36 101.5t41 99.5t53.5 94q10 18 37 18q16 0 32.5 -7t31 -17t24.5 -22.5t12 -24.5q33 -160 41 -250t23 -90q10 0 41 98q20 76 35.5 157t34 160.5t41 157.5t56.5 150q8 20 41 20q25 0 50.5 -15.5t23.5 -37.5q0 -37 -10 -106.5t-26.5 -156.5 t-39 -180.5t-48 -174t-54 -142t-57.5 -84.5q-35 -29 -82 -29q-39 0 -75 22t-54 60q-23 47 -28 103.5t-15 107.5q-20 -57 -39 -113.5t-45 -109.5q-14 -27 -31.5 -55.5t-38 -51t-46.5 -37t-54 -14.5q-31 0 -66 19q-41 23 -62.5 60.5t-32.5 82.5t-13 92t-2 86zM238 766 q8 -8 18 -8q16 0 27.5 14t20.5 33.5t14.5 40t7.5 33.5v16t-2 18q-2 8 -9 9q-8 0 -20 -21.5t-24.5 -49.5t-21.5 -53.5t-11 -31.5z" />
<glyph unicode="&#xe1d;" horiz-adv-x="937" d="M12 362.5q6 81.5 19.5 158.5t31 141.5t31.5 103.5q12 31 28.5 68.5t38 70.5t51.5 54.5t69 21.5q61 0 106 -44t49 -106q4 -88 -49 -145t-125 -57q-37 0 -67 14q-4 -12 -10.5 -55t-13.5 -99.5t-12 -118t-6 -113.5t3 -86t16 -34q10 0 26.5 24.5t41.5 84.5q43 102 74.5 203.5 t91.5 193.5q12 20 38 21q31 0 64 -25t37 -47q8 -57 18 -112.5t21 -110.5q10 -59 17 -85t15 -26t16.5 28.5t18.5 75.5q10 49 22.5 98.5t22.5 98.5q20 92 42 209t48.5 236.5t58.5 229t73 189.5q12 20 43 21q29 0 53 -15.5t22 -37.5q-2 -35 -19.5 -126t-42 -210t-53 -251 t-57 -251t-52.5 -208t-36 -124q-10 -29 -28.5 -56.5t-41 -50t-48 -35.5t-54.5 -13q-49 0 -92 45q-18 18 -27.5 44.5t-14.5 56.5t-9 58.5t-10 53.5q-4 10 -4.5 21t-4.5 22q-20 -59 -38.5 -116.5t-47.5 -113.5q-27 -55 -69.5 -105t-102.5 -50q-33 0 -63 16q-47 27 -72.5 83 t-34 128t-2.5 153.5zM223 727q8 -8 17 -8q10 0 20 9t19.5 23.5t15.5 29t8 22.5q4 12 6 25.5t0 27.5q-2 16 -6 16q-6 0 -19.5 -20.5t-25.5 -46t-22.5 -49t-12.5 -29.5z" />
<glyph unicode="&#xe1e;" horiz-adv-x="1101" d="M28 873q3 42 58 85q37 29 82 29q49 0 92 -31.5t70 -74.5q16 -29 27.5 -84.5t19.5 -118t13 -120.5t9 -93q37 90 83 174t108 162q16 18 39 18q29 0 59.5 -23.5t34.5 -45.5q20 -98 41.5 -193.5t44.5 -194.5q35 158 75 313.5t91 309.5q6 20 35 21q27 0 52 -15.5t23 -38.5 q-8 -117 -29.5 -233.5t-48 -231t-57 -229.5t-57.5 -229q-4 -16 -15.5 -22.5t-27.5 -6.5q-31 0 -64.5 18.5t-37.5 38.5q-84 260 -134 521q-72 -129 -116.5 -267.5t-83.5 -279.5q-8 -27 -41 -27q-31 0 -65 23.5t-32 56.5q0 25 -1 92.5t-4 155.5t-8 183t-13 173q-6 0 -23 4 q-49 12 -98 39t-76.5 63.5t-24.5 78.5zM161 847.5q3 -20.5 18 -41t46 -28.5q4 -2 8.5 -3t8.5 -3q-4 29 -8.5 48.5t-8.5 29.5q-10 25 -20 37q-4 4 -9.5 8t-0.5 4q-18 0 -27.5 -15.5t-6.5 -36z" />
<glyph unicode="&#xe1f;" horiz-adv-x="1062" d="M28 873q3 42 58 85q37 29 82 29q49 0 92 -31.5t70 -74.5q16 -29 27.5 -84.5t19.5 -118t13 -120.5t9 -93q37 90 83 174t108 162q16 18 39 18q29 0 59.5 -23.5t34.5 -45.5q20 -98 41.5 -193.5t44.5 -194.5q12 53 26.5 134.5t31 177.5t35 199.5t36.5 198.5t36.5 176 t35.5 132q6 20 34 21q27 0 53.5 -15.5t22.5 -37.5q-6 -78 -21.5 -184.5t-35 -228.5t-42 -250t-45 -249t-44 -226.5t-39.5 -180.5q-4 -16 -15.5 -22.5t-27.5 -6.5q-31 0 -64.5 18.5t-37.5 38.5q-84 260 -134 521q-72 -129 -116.5 -267.5t-83.5 -279.5q-8 -27 -41 -27 q-31 0 -65 23.5t-32 56.5q0 25 -1 92.5t-4 155.5t-8 183t-13 173q-6 0 -23 4q-49 12 -98 39t-76.5 63.5t-24.5 78.5zM161 847.5q3 -20.5 18 -41t46 -28.5q4 -2 8.5 -3t8.5 -3q-4 29 -8.5 48.5t-8.5 29.5q-10 25 -20 37q-4 4 -9.5 8t-0.5 4q-18 0 -27.5 -15.5t-6.5 -36z" />
<glyph unicode="&#xe20;" horiz-adv-x="907" d="M-62 165q9 36 32.5 64.5t58 46t71.5 17.5q35 -1 60 -17q4 14 16 64.5t26.5 108t25 107.5t5.5 62q-10 27 -21 32t-34 18q-63 37 -82 106q-20 84 26 148.5t116 101.5q61 33 140 52.5t157 19.5q55 0 107 -11.5t96 -36t79 -63.5t53 -94q14 -43 12.5 -117t-16 -161t-37 -180 t-49 -177t-54.5 -151.5t-50 -104.5q-12 -20 -41 -20q-27 0 -49.5 17t-18.5 44q8 43 35 129t55.5 191.5t50 217t18.5 202.5t-37 149.5t-118 56.5q-25 0 -67.5 -10t-89.5 -26.5t-90 -40t-67 -53.5t-20.5 -62.5t48.5 -69.5q31 -25 56.5 -44t35.5 -63q6 -29 1 -82t-19.5 -116.5 t-36 -131t-49 -125t-58.5 -99t-63 -54.5q-27 -10 -54 -10q-47 0 -91 25.5t-62 66.5q-16 37 -7 73z" />
<glyph unicode="&#xe21;" horiz-adv-x="899" d="M0 240q2 47 29 92q43 68 105 89t138 21q2 23 5.5 65t6.5 89t4 90t-1 64h-11q-35 4 -79.5 14t-83.5 33.5t-61.5 59.5t-14.5 89q10 66 61.5 99.5t108.5 33.5q47 0 82 -20q55 -33 88 -112t48 -175t17 -194.5t-4 -171.5q111 -45 203 -130q31 197 59 357q12 68 24.5 134.5 t24 120.5t20.5 90t15 44q12 14 37 14q29 0 56.5 -18.5t23.5 -42.5q-20 -111 -42.5 -247t-42 -263t-36 -227.5t-22.5 -141.5q-8 -37 -43 -37q-25 0 -51.5 14.5t-36.5 28.5q-35 49 -88.5 102.5t-114.5 86.5q-8 -45 -21.5 -93t-38 -89t-61.5 -68t-92 -27q-31 0 -66 13 q-43 16 -76.5 49t-52 75t-16.5 89zM159 182.5q-1 -22.5 13 -22.5q11 0 21 8q25 16 38 59t19 80q-27 -10 -49.5 -30.5t-32.5 -51.5q-8 -20 -9 -42.5zM162 907q0 -20 10 -32.5t25.5 -20.5t32 -11t28.5 -3q16 0 16 19.5t-7 43t-19 45t-19 23.5q-2 0 -4 1t-4 1 q-20 0 -37.5 -19.5t-21.5 -46.5z" />
<glyph unicode="&#xe22;" horiz-adv-x="901" d="M-4 700.5q4 63.5 23.5 128t53 119.5t70.5 88q29 25 67 37t77 12q70 0 127 -36.5t67 -114.5q6 -53 -19.5 -103.5t-76.5 -70.5q-16 -6 -31.5 -8t-31.5 -2q-39 0 -78 9t-76 17q0 2 -4 2q-10 -35 -13.5 -70.5t-3.5 -70.5q2 -45 21 -45q12 0 49 16q25 10 50.5 24.5t49.5 24.5 q12 4 25 5q23 0 48.5 -11.5t43 -27t19.5 -34t-23 -30.5q-31 -16 -61.5 -57t-55 -94.5t-41 -111.5t-19.5 -106.5t12.5 -79t51.5 -30.5q35 0 82 26q55 31 96.5 98.5t74 157t58 191.5t50 200.5t49.5 185.5t55 146q8 16 35 17q23 0 43.5 -12.5t20.5 -32.5q0 -66 -13.5 -172.5 t-40 -226t-68.5 -241.5t-100.5 -220.5t-135.5 -160t-173 -61.5q-10 0 -22.5 1t-22.5 4q-70 10 -111.5 38.5t-62 69.5t-24 91t5 102.5t26 104.5t37.5 95q-123 0 -164 109q-20 47 -16 110.5zM193 862q18 -4 39.5 -8t43.5 -4q35 0 58.5 17.5t17.5 66.5q-4 29 -14 39t-25 10 q-20 0 -39.5 -12.5t-35 -30.5t-27.5 -38.5t-18 -39.5z" />
<glyph unicode="&#xe23;" horiz-adv-x="569" d="M38 893.5q-7 15.5 5 32.5q139 152 305 151q80 0 178 -35q12 -4 21.5 -15t12.5 -22.5t-2 -19.5t-21 -8h-9q-35 4 -64.5 6t-57.5 2q-53 0 -100.5 -16.5t-94.5 -69.5q49 -47 94 -128t79 -177t49.5 -196.5t4 -185.5t-54.5 -142.5t-127 -69.5q-10 -2 -31 -2q-49 0 -91 21.5 t-66.5 57.5t-26.5 83t31 98q23 33 49 46t55 13q35 0 73 -14t77 -35q-10 100 -37 186.5t-64 160t-81 136t-89 113.5q-10 14 -17 29.5zM167 139.5q13 -22.5 40 -22.5q23 0 47 18q23 14 26 30.5t-4.5 31t-23.5 24.5t-33 10q-33 1 -49 -34t-3 -57.5z" />
<glyph unicode="&#xe24;" horiz-adv-x="989" d="M84 232.5q6 46.5 28.5 94.5t48 95t50.5 90t33 76q6 29 -3.5 45t-25.5 28.5t-36.5 24.5t-35.5 31q-23 29 -30 62.5t0 68.5q12 66 60 113t113.5 76.5t137.5 44t129 14.5q59 0 114.5 -12.5t101.5 -40t80 -71.5t48 -108q12 -53 -2 -159.5t-44 -236.5t-71 -272.5t-82 -266.5 t-76.5 -218t-58.5 -129q-12 -20 -41 -20q-25 0 -48 17.5t-19 43.5q12 57 37.5 147.5t57.5 197t65.5 221t63.5 221t50.5 197.5t24.5 151q4 43 0 83t-19.5 71.5t-45.5 52t-79 22.5q-37 0 -80 -5t-83.5 -17.5t-77.5 -32t-66 -47.5q-35 -35 -43 -78t33 -76q23 -16 43 -27.5 t37 -33.5q37 -51 20.5 -102.5t-43.5 -102.5q-18 -35 -40.5 -71t-41.5 -72q39 -2 69 -19.5t46 -45.5t19.5 -61.5t-13.5 -66.5q-18 -39 -53 -56.5t-76 -17.5q-51 0 -92 23q-53 29 -71.5 68.5t-12.5 86zM218 152.5q3 -15.5 15 -15.5q10 0 18.5 15.5t12.5 33t2 34t-14 18.5 q-2 0 -3 1t-3 1q-10 0 -17.5 -16.5t-10.5 -36t0 -35z" />
<glyph unicode="&#xe25;" horiz-adv-x="907" d="M3 176.5q-9 51.5 7 102.5q18 68 59.5 123t95.5 96t118.5 63.5t132.5 22.5q78 0 154.5 -36t138.5 -114q14 96 5 191.5t-40 171t-81 123t-120 47.5q-57 0 -125.5 -39t-150.5 -129q-12 -12 -31 -13q-25 0 -47.5 17.5t-16.5 44.5q29 121 118 173t200 52q90 0 176 -31.5 t141 -87.5q80 -80 104.5 -195.5t18.5 -243.5t-30.5 -254t-43.5 -226q-6 -33 -45 -33q-18 0 -36.5 7t-35 18.5t-25.5 26t-9 30.5q4 76 -12.5 143.5t-47 117.5t-73.5 80t-94 30q-47 0 -97.5 -30t-101.5 -95q45 -8 83 -40t52 -81q16 -53 0 -105.5t-57 -80.5 q-25 -16 -50.5 -23.5t-48.5 -7.5q-47 0 -86 25.5t-64.5 66.5t-34.5 92.5zM127 136.5q6 -23.5 39 -48.5q14 0 28.5 12.5t22.5 28.5q25 49 15.5 69.5t-31.5 20.5q-18 0 -39 -11t-31 -29.5t-4 -42z" />
<glyph unicode="&#xe26;" horiz-adv-x="944" d="M-27 165q9 36 32.5 64.5t58 46t69.5 17.5q35 -1 60 -17q12 43 32.5 99.5t32.5 112t5 104.5t-50 76q-63 37 -82 106q-20 84 26 148.5t115 101.5q61 33 140.5 52.5t156.5 19.5q55 0 107.5 -11.5t96.5 -36t79 -63.5t53 -94q12 -37 10 -107.5t-15 -162t-35.5 -198t-48 -215 t-54.5 -210.5t-55.5 -187t-50 -145.5t-38.5 -83.5q-14 -20 -40 -20q-27 0 -49.5 17.5t-18.5 43.5q6 33 27.5 108.5t51 178t61.5 222.5t56.5 241t38 232.5t5 196.5t-42 136t-101.5 49q-25 0 -67.5 -9t-90 -26.5t-91.5 -41t-67.5 -52.5t-20.5 -62.5t50 -70.5q31 -25 56.5 -44 t36.5 -63q6 -29 1 -82t-19.5 -116.5t-37 -131t-49 -125t-57.5 -99t-64 -54.5q-27 -10 -53 -10q-47 0 -91 25.5t-62 66.5q-16 37 -7 73z" />
<glyph unicode="&#xe27;" horiz-adv-x="749" d="M52 874.5q-3 14.5 11 26.5q57 47 124 71.5t137 24.5q55 0 109 -16t100.5 -47t81 -77t53.5 -107q27 -88 27.5 -192.5t-28 -203t-87 -179.5t-150.5 -126q-70 -33 -139 -33q-82 0 -152 45q-55 37 -68.5 83t27.5 106q31 47 72 67.5t84 20.5q53 0 101 -28.5t77 -78.5 q43 47 70.5 111t40 134.5t10.5 140t-16 128.5q-20 78 -59.5 106t-92.5 28q-57 0 -122.5 -20.5t-127.5 -33.5h-4q-12 0 -29.5 7.5t-32 17.5t-17.5 24.5zM196 160.5q1 -17.5 13 -29.5q23 -18 47 -18q23 0 41 16t10 43q-10 35 -24.5 49.5t-28.5 14.5t-28.5 -11.5t-22.5 -29 t-7 -35z" />
<glyph unicode="&#xe28;" horiz-adv-x="950" d="M38 443.5q11 103.5 48 202.5t92 185q35 53 77 99.5t90 81.5t101.5 55t108.5 20q53 0 115.5 -25.5t97.5 -66.5q10 6 32.5 21.5t47 31t47.5 27.5t33 12q12 0 30.5 -7t30.5 -17t16.5 -24.5t-10.5 -26.5q-23 -20 -65.5 -53t-93.5 -68q37 -90 45 -209t-0.5 -241t-25.5 -234.5 t-32 -190.5q-2 -20 -26 -20q-23 0 -46.5 16.5t-25.5 34.5q-10 92 -2 190.5t17.5 196.5t10.5 195.5t-28 185.5q-29 -16 -50.5 -29.5t-37.5 -21.5q-6 -4 -23 -4q-18 0 -35.5 10t-26.5 25.5t-6 32t23 28.5q29 16 53.5 33.5t49.5 34.5q-39 47 -90 47q-37 0 -75 -19.5t-74 -50.5 t-66.5 -66.5t-53.5 -68.5q-37 -55 -66.5 -118.5t-48 -131t-24.5 -137.5t4 -137q23 80 43.5 155.5t52.5 134.5q18 35 44 70t55.5 61.5t65.5 43t77 16.5q14 0 26.5 -2t26.5 -6q39 -8 68 -33t42 -57.5t10 -70.5t-28 -75t-54.5 -52t-61.5 -15q-39 0 -79 15t-77 36 q-4 -6 -11 -12.5t-11 -16.5q-27 -76 -42.5 -128t-26.5 -95t-22.5 -85t-31.5 -95q-8 -27 -43 -27q-23 0 -46.5 12.5t-33.5 28.5q-55 92 -73.5 193.5t-7.5 205zM436 532q16 -8 31.5 -13t32.5 -5q16 0 31.5 10.5t23.5 36.5q14 47 -18 47q-31 1 -58 -26q-12 -10 -22.5 -22.5 t-20.5 -27.5z" />
<glyph unicode="&#xe29;" horiz-adv-x="825" d="M32 864.5q7 53.5 40 98.5q23 29 52.5 44t63.5 15q37 0 76 -23q31 -18 47.5 -45.5t22.5 -59.5t5 -65.5t-3 -64.5q-6 -92 -22.5 -180t-22.5 -181q0 -25 3 -71.5t14 -92.5t30.5 -81t50.5 -35q37 0 68.5 38t56.5 88t41 101t23 78q-18 -2 -35 -3t-35 -1q-49 0 -98.5 26.5 t-65.5 77.5q-8 27 -5 53.5t15.5 51t28.5 46t33 40.5q14 14 39 14q16 0 34.5 -7t30.5 -18.5t15.5 -25.5t-7.5 -27q-12 -16 -30.5 -36.5t-22.5 -40.5q4 -23 19.5 -33t35.5 -10q33 0 76 16q10 51 24.5 115.5t30 132t32 133t34.5 117.5q6 20 35 20q23 0 46 -14.5t23 -36.5 q0 -37 -6 -87t-16 -102.5t-22.5 -104.5t-22.5 -95q12 4 16 6t13 2q12 0 28.5 -5t28.5 -13.5t15 -18.5t-9 -20q-31 -27 -61.5 -50.5t-61.5 -42.5q-16 -70 -41.5 -152.5t-63.5 -155.5t-88.5 -121t-115.5 -48q-61 0 -133 51q-61 43 -91 105.5t-39 132.5t-3 142.5t18 136.5 q4 16 8 34.5t9 38.5q-57 6 -96.5 38t-55.5 77t-9 98.5zM143 780.5q2 -20.5 9.5 -36t25.5 -17.5q10 2 18.5 17.5t14.5 37t8 47t-2 45.5q-8 35 -22 35q-12 0 -24.5 -18.5t-18.5 -40.5q-2 -10 -6.5 -29.5t-2.5 -40z" />
<glyph unicode="&#xe2a;" horiz-adv-x="847" d="M-14 170q0 39 16 95.5t45 118.5t68 122.5t82 110t90 80t92 30.5q37 0 68.5 -15.5t59.5 -40t50.5 -54t40.5 -58.5q8 35 16.5 71t8.5 70q0 20 -2.5 40t-4.5 40q-92 -12 -186 -12q-39 0 -100.5 4t-118.5 19.5t-98 47t-41 89.5q0 49 36.5 88t88 66.5t108.5 43t96 15.5 q106 0 191.5 -54.5t130.5 -150.5v-2q31 10 62.5 36.5t60 55.5t55.5 51.5t47 22.5q6 0 18.5 -3t25 -8.5t21.5 -12.5t9 -17q0 -6 5 -25.5t-1 -23.5q-33 -25 -59.5 -49.5t-55 -48t-63.5 -48t-84 -53.5q8 -35 10 -72t2 -71q0 -59 -8 -151.5t-23.5 -191t-37 -186.5t-50.5 -139 q-16 -29 -51 -29q-10 0 -26.5 4.5t-32 11.5t-26.5 18t-11 26q0 57 11 114.5t11 116.5q0 31 -5 83t-19 102.5t-41 86t-72 35.5q-37 0 -68.5 -26.5t-56 -65.5t-43 -80t-28.5 -71q59 -16 95 -53t36 -101q0 -37 -11.5 -74t-33 -67.5t-53 -49t-72.5 -18.5q-39 0 -72 18.5 t-55.5 48t-34.5 66.5t-12 74zM100 141q0 -20 15.5 -43.5t38.5 -23.5q14 0 23 10t14.5 24.5t7.5 31t2 26.5q0 12 -4 31.5t-21 19.5q-25 0 -50.5 -25.5t-25.5 -50.5zM223 930q0 -14 25.5 -22.5t59.5 -11.5t65 -4t39 -1q43 0 88 1t88 9q-18 51 -54 90t-96 39q-14 0 -50 -9 t-72.5 -24.5t-64.5 -33t-28 -33.5z" />
<glyph unicode="&#xe2b;" horiz-adv-x="993" d="M18.5 790.5q-8.5 55.5 15.5 114t79 99.5q41 33 98 32q29 0 55.5 -9t48.5 -32q47 -45 49.5 -111.5t-8.5 -125.5q-8 -47 -26.5 -132t-34.5 -174.5t-23.5 -169t7.5 -116.5q8 -23 28 -23t46 19.5t55.5 50.5t58.5 66.5t52.5 68.5t41 56.5t21.5 29.5q-6 45 -17.5 103.5 t-16.5 121t-2 123t23.5 109.5t60.5 82t109 37q47 0 89 -16.5t74 -45t50.5 -69.5t18.5 -91q0 -55 -20.5 -106t-51.5 -99t-68.5 -93.5t-72.5 -86.5q23 -100 42 -200.5t25 -202.5q2 -20 -10 -28.5t-31 -8.5q-29 0 -60.5 15.5t-37.5 35.5q-16 53 -31.5 107.5t-29.5 109.5 q-31 -39 -67 -78.5t-75 -70.5t-80 -50.5t-84 -19.5q-39 0 -78.5 20.5t-78.5 67.5q-39 49 -48.5 116t-1 139.5t28 145t33.5 132.5q-70 12 -108.5 57t-47 100.5zM141 756.5q6 -31.5 37 -37.5q4 0 7 -1t8 -1q8 31 14 60.5t12 60.5q6 29 6 53q4 23 7.5 35t-7.5 8q-25 -6 -46 -39 t-32.5 -70t-5.5 -68.5zM697.5 692q5.5 -47 15.5 -92q29 35 55.5 72t38.5 82q4 12 7 35.5t2 47t-9 41t-27 17.5q-18 0 -32.5 -11.5t-23.5 -28.5t-14 -35.5t-10 -35.5q-8 -45 -2.5 -92z" />
<glyph unicode="&#xe2c;" horiz-adv-x="1126" d="M33 758q0 37 16.5 81t44 80.5t61 61.5t66.5 25q35 0 66.5 -34t54.5 -116q6 -25 13 -76t14.5 -108.5t12.5 -109.5t7 -77q37 104 85 199.5t114 185.5q12 18 39 19q29 0 58.5 -22.5t33.5 -49.5q29 -156 55.5 -308.5t69.5 -301.5q16 37 30.5 98.5t26.5 138t23.5 159.5 t19.5 162t12.5 145.5t4.5 109.5q-47 -23 -96.5 -36t-98.5 -13q-45 0 -88 11t-84 38q-72 47 -90.5 117.5t28.5 144.5q41 66 105.5 102.5t136.5 36.5q86 0 158 -49t112 -121q61 61 101 131q12 20 41 21q14 0 28.5 -5t24.5 -14.5t15.5 -21.5t0.5 -25q-23 -59 -63.5 -117.5 t-93.5 -105.5q4 -59 3 -161.5t-10.5 -222.5t-26.5 -242.5t-45 -226t-68 -174.5t-91 -83q-6 -2 -18 -2q-27 0 -51.5 15.5t-34.5 39.5q-53 141 -85 286.5t-59 293.5q-72 -137 -117.5 -287.5t-86.5 -304.5q-6 -27 -39 -27q-29 0 -61 21.5t-34 48.5q-2 53 -5 136t-7 172t-8 171 t-8 135q-41 -16 -72 -23t-53 -7q-47 0 -67.5 24.5t-20.5 61.5zM147.5 775.5q2.5 -17.5 16.5 -17.5q2 0 3 1t5 1q31 0 48.5 18.5t20.5 40t-7.5 38.5t-30.5 17h-8q-12 -2 -24.5 -20t-19 -39.5t-4 -39zM651 1123.5q8 -21.5 45 -31.5q8 -2 15.5 -3.5t17.5 -1.5q35 0 74.5 13.5 t68.5 25.5l33 16.5t33 18.5q-16 59 -47 102.5t-78 43.5q-43 0 -96 -45q-18 -14 -38 -40t-28 -51.5t0 -47z" />
<glyph unicode="&#xe2d;" horiz-adv-x="831" d="M51 256q-4 41 2 96.5t21.5 113.5t40 115.5t57.5 101.5t75 71.5t91 27.5q58 0 115 -37q27 -16 49 -43.5t33.5 -59.5t5.5 -63.5t-35 -58.5q-29 -25 -66 -34t-78 -9q-35 0 -67.5 4t-61.5 8q-8 -18 -12 -33.5t-8 -23.5q-8 -39 -15.5 -95t1 -108.5t36 -88.5t87.5 -36 q66 0 122 28t101 77q37 41 60.5 112.5t32.5 155.5t3 171t-31.5 158t-70.5 116t-113 45q-37 0 -78 -15q-4 -2 -12 -2q-12 0 -28.5 5.5t-28 14.5t-13.5 19t13 19q84 49 157 49q68 0 124 -34t99 -87t71 -122t40 -138q12 -74 15 -155t-11 -157.5t-49 -146.5t-100 -121 q-55 -45 -128 -68.5t-147 -23.5q-55 0 -106 14.5t-92 45t-68 78.5t-33 114zM264 565q14 -2 28.5 -3t31.5 -1q27 0 50 4t36.5 14.5t15.5 29t-14 44.5q-16 33 -41 33q-29 0 -56.5 -37t-50.5 -84z" />
<glyph unicode="&#xe2e;" horiz-adv-x="851" d="M2 461q10 59 40 107t73 82t94 52.5t104 20.5q47 2 81 -21.5t50.5 -61.5t11.5 -85t-36 -94q-29 -45 -68 -64.5t-80 -19.5q-35 0 -72.5 11t-72.5 30q-12 -72 19.5 -141.5t91.5 -106.5q45 -27 96 -27q49 0 95 22.5t83 59.5q49 47 89 122t61.5 158t21.5 166t-31 150 q-49 -29 -106.5 -46t-116.5 -17q-45 0 -100.5 10t-99.5 35.5t-65.5 67.5t-2.5 104q10 33 32.5 54.5t52 34.5t64.5 18t70 5q78 0 140.5 -22.5t127.5 -63.5q41 47 72 103.5t61 116.5q12 20 35 20q29 0 56.5 -23.5t23.5 -52.5q-16 -86 -54 -154.5t-93 -121.5q47 -70 62 -162 t4 -187.5t-48 -187.5t-93.5 -164.5t-131 -116.5t-160.5 -44q-72 0 -143 32q-53 25 -101.5 66t-82 93t-49 113.5t-5.5 129.5zM187 511q3 -15 18.5 -23.5t34.5 -8.5q20 0 34 8q20 12 37 34t25 41.5t4 34.5t-23 15q-20 1 -65 -26q-39 -20 -53.5 -40t-11.5 -35zM287.5 910.5 q-5.5 -19.5 23.5 -33.5q27 -10 56 -11q47 0 101 17.5t89 38.5q4 2 6 4t6 2q-57 39 -127 41q-29 0 -61.5 -3t-58.5 -20q-29 -16 -34.5 -35.5z" />
<glyph unicode="&#xe2f;" horiz-adv-x="825" d="M74 713q29 74 88 126t133 79q2 2 18 2t31.5 -5.5t26 -14.5t9.5 -21.5t-20 -24.5q-35 -25 -67.5 -56.5t-50.5 -72.5q-4 -6 -10.5 -19.5t-9.5 -28.5t-1 -28.5t12 -19.5q16 -2 36 8t26 14q92 41 169 104.5t146 133.5q33 33 74 33q18 0 33 -9q18 -6 39.5 -26.5t9.5 -46.5 q-25 -43 -55.5 -116t-63.5 -158t-66.5 -175t-65.5 -168t-58.5 -135t-44.5 -80q-23 -27 -47 -26q-35 0 -46 55q-4 39 7.5 100.5t32 134t48 151.5t58.5 152q-51 -31 -108.5 -55t-118.5 -24q-12 0 -26.5 1t-29.5 5q-78 18 -107.5 78.5t-0.5 132.5z" />
<glyph unicode="&#xe30;" horiz-adv-x="669" d="M23.5 312.5q5.5 56.5 46.5 100.5t108 44q31 0 58 -8q74 -23 103.5 -62t25.5 -106q47 16 81.5 30.5t81.5 24.5h4q12 0 26.5 -7t25 -18.5t12.5 -21.5t-12 -17q-41 -18 -85 -41.5t-89 -45t-91.5 -36t-93.5 -14.5h-19t-20 2q-92 16 -130 67.5t-32.5 108zM93 746.5 q5 56.5 46 100.5t109 44q12 0 26.5 -2t28.5 -6q76 -23 105.5 -62t23.5 -104q49 14 84 28.5t80 24.5h4q12 0 27.5 -7t26 -18.5t12.5 -21.5t-13 -16q-43 -18 -86 -42t-88 -45.5t-91 -36t-93 -14.5h-19.5t-19.5 2q-92 16 -130 67.5t-33 108zM134 297q1 -16 14 -28.5t40 -16.5 q8 -2 23 -2q31 0 43 18.5t10 41t-16.5 41t-38.5 18.5q-14 0 -37 -13q-18 -10 -28.5 -26.5t-9.5 -32.5zM205 730q0 -15 13 -27.5t40 -14.5q8 -2 23 -2q31 0 43 18.5t10 41t-16.5 41t-38.5 18.5q-16 0 -35 -12q-18 -12 -28.5 -30t-10.5 -33z" />
<glyph unicode="&#xe31;" d="M-492.5 1338q3.5 40 23.5 73t55 54.5t82 21.5q31 0 58 -8q80 -23 110.5 -64t26.5 -112q25 8 67.5 21t89 28.5t88.5 28t66 18.5h4q12 0 27.5 -7.5t27 -18.5t13.5 -22.5t-13 -17.5q-45 -20 -111.5 -51t-138 -60.5t-144 -51t-130.5 -21.5q-23 0 -33 2q-63 12 -101 42 t-54.5 67.5t-13 77.5zM-378 1319q1 -16 14 -28.5t42 -16.5q16 -4 25 -4q31 0 44 19.5t11 42t-17 42t-40 19.5q-18 0 -39 -13q-18 -10 -29.5 -27.5t-10.5 -33.5z" />
<glyph unicode="&#xe32;" horiz-adv-x="577" d="M28 849q-5 13 1 25q35 72 90 104t121 32q74 0 145.5 -40t114.5 -112q25 -43 36 -88t12 -92t-5 -94t-15 -95q-20 -119 -44.5 -240.5t-84.5 -228.5q-12 -20 -41 -20q-27 0 -51 15.5t-22 37.5q8 127 38.5 250t51.5 246q10 68 16 140.5t-22 137.5q-16 37 -44 55.5t-57 18.5 q-31 0 -59.5 -19.5t-48.5 -56.5q-6 -12 -18.5 -17t-28.5 -5t-35 6t-32 16.5t-18 23.5z" />
<glyph unicode="&#xe33;" horiz-adv-x="649" d="M-439 1253.5q5 59.5 49 108.5t116 49q30 0 55 -8q78 -23 108.5 -65t26.5 -113q-6 -27 -17.5 -51.5t-32 -41t-52 -26.5t-80.5 -10q-98 0 -138 49t-35 108.5zM-323 1243.5q1 -16.5 14.5 -30t42.5 -17.5q8 -2 22 -2q31 0 44.5 19.5t11.5 42t-16.5 42t-39.5 19.5 q-18 0 -39 -12q-18 -10 -29.5 -27.5t-10.5 -34zM85 849q-5 13 1 25q35 72 90 104t121 32q74 0 145.5 -40t114.5 -112q25 -43 36 -88t12 -92t-5 -94t-14 -95q-20 -119 -45 -240.5t-84 -228.5q-12 -20 -41 -20q-27 0 -51.5 15.5t-22.5 37.5q8 127 39 250t51 246 q10 68 16.5 140.5t-22.5 137.5q-16 37 -44 55.5t-56 18.5q-31 0 -59.5 -19.5t-49.5 -56.5q-6 -12 -18.5 -17t-28.5 -5t-34.5 6t-32 16.5t-18.5 23.5z" />
<glyph unicode="&#xe34;" d="M-682 1245v4q0 57 36 100.5t80 72t97 43t107 14.5q74 0 133 -29t105 -74t76 -106.5t46 -126.5q2 -6 2 -13q0 -20 -15.5 -31.5t-37.5 -11.5q-27 1 -68 13q-76 23 -135 44t-127 32q-63 10 -127.5 15t-128.5 17q-12 2 -27.5 12.5t-15.5 24.5zM-555 1284q61 -8 122.5 -13 t125.5 -20q33 -8 68.5 -17.5t70.5 -25.5q-29 61 -66.5 113.5t-103.5 64.5q-18 4 -39 5q-55 0 -105 -27t-73 -80z" />
<glyph unicode="&#xe35;" d="M-711 1192q0 6 2 14q12 43 46 72t76 48.5t88 27.5t85 8q80 0 145.5 -32t125.5 -77q10 39 21 79t24 77q6 18 25.5 25.5t39.5 7.5q23 0 40.5 -10.5t17.5 -26.5v-8q0 -68 -18.5 -132.5t-37.5 -129.5q-6 -20 -23.5 -29.5t-64.5 -9.5q-14 0 -59 2l-45 2l-189 22 q-188 21 -258 31q-18 2 -29.5 14.5t-11.5 24.5zM-528 1235q0 -18 121.5 -29.5t162.5 -11.5q10 0 15.5 1t5.5 5q0 8 0 2t0 -2q0 8 -65.5 44t-125.5 36q-41 0 -77.5 -18.5t-36.5 -26.5z" />
<glyph unicode="&#xe36;" d="M-788 1217q0 25 33.5 91t217.5 66q57 0 116 -31.5t95 -62.5q37 78 101 78q23 0 84 -24.5t63 -56.5t2 -40q0 -43 -14 -72.5t-44 -52t-67 -22.5q-16 0 -81 17l-66 17l-182 18q-183 19 -187 19l1 -1l1 -1q0 2 -20 6q-53 10 -53 52zM-668 1227h35q70 0 130 -4.5t126 -22.5 q-37 39 -74.5 60.5t-93.5 21.5q-37 0 -70.5 -12.5t-52.5 -42.5zM-260 1223q0 -20 21.5 -41t33.5 -21t21.5 17.5t9.5 35.5q0 14 -6 29q-14 31 -37 31q-16 0 -29.5 -20.5t-13.5 -30.5z" />
<glyph unicode="&#xe37;" d="M-707 1212v7q0 31 28 61.5t63.5 54t79.5 37.5t100 14q12 0 53 -2t75 -32.5t58 -69.5q8 27 12.5 53.5t14.5 53.5q6 14 18 20t29 6q18 0 33.5 -9t15.5 -26q-2 -61 -17.5 -158.5t-64.5 -103.5t-82 -6q-29 0 2 0t-2 0q-29 0 -72 5t-102 16.5t-114.5 22.5t-94.5 20 q-16 4 -24.5 14t-8.5 22zM-567 1249q0 -25 90 -38t125 -13q45 0 45 16q0 4 -12.5 27t-12 23t-26.5 10q-55 20 -101 24q-47 4 -77.5 -18.5t-30.5 -30.5zM-123 1153q0 4 8.5 96t12.5 121q0 14 15 21.5t34 7.5q18 0 35.5 -8.5t17.5 -20.5v-2q0 -166 -53 -227q-10 -12 -21 -15 q-8 -2 -28.5 6.5t-20.5 20.5z" />
<glyph unicode="&#xe38;" d="M-469 -219q2 29 16 54.5t43 41.5q33 18 72 19q47 0 91 -26t61 -71q31 -80 14.5 -171t-51.5 -165q-8 -16 -33 -16q-14 0 -29.5 5t-28 13.5t-17.5 18.5t-1 22q10 29 22.5 57.5t18.5 59.5q-39 0 -71.5 10.5t-61.5 38.5q-23 23 -35 51.5t-10 57.5zM-348 -248q-2 -43 33 -43 q18 0 34 8q-2 10 -3 22.5t-3 22.5q-4 20 -12 29.5t-18 9.5q-12 0 -21.5 -13t-9.5 -36z" />
<glyph unicode="&#xe39;" d="M-685 -228.5q7 31.5 28.5 57.5t52.5 43t61 17q43 0 77 -40t34 -140q-4 -78 0 -110.5t14 -32.5q8 0 22.5 30.5t30 74.5t29.5 91.5t25 79.5q4 14 19.5 20.5t31.5 6.5t30.5 -6t14.5 -21q0 -39 -16.5 -105.5t-45 -131t-68.5 -111.5t-87 -47q-37 0 -58.5 25.5t-33 61.5 t-13.5 75t-2 65q-31 -10 -57 -10q-23 0 -44.5 9.5t-35.5 35.5q-16 31 -9 62.5zM-598 -242q0 8 5 -6t22 -14q16 0 31.5 18.5t15.5 34.5q-6 14 -23 14q-16 0 -33.5 -15t-17.5 -32z" />
<glyph unicode="&#xe3a;" d="M-143 -125q0 18 12.5 31.5t30.5 13.5q16 0 30.5 -14.5t14.5 -30.5q0 -18 -14.5 -30.5t-30.5 -12.5q-18 0 -30.5 12.5t-12.5 30.5z" />
<glyph unicode="&#xe3e;" />
<glyph unicode="&#xe3f;" horiz-adv-x="645" d="M28 213q-1 82 4 170t16 170t28.5 151.5t42.5 114.5q12 27 33.5 42.5t48 24.5t56.5 14t60 11v27q10 20 20.5 47t18.5 47q16 29 20.5 50.5t35.5 31.5q10 0 25.5 -2t15.5 -12q18 -31 13 -51.5t-13 -42.5q-14 -29 -21.5 -51.5t-7.5 -43.5l-12 -14q49 -14 88 -43t63.5 -67.5 t31.5 -86t-9 -98.5q-23 -82 -77 -128t-124 -87q61 -31 99 -80t48 -123q0 -98 -57 -175t-143 -120q-10 -49 -7 -99t-8 -103q0 -18 -10 -35t-31 -17q-8 -12 -18 -12t-22 12q-10 0 -20.5 8.5t-18.5 30.5q-14 41 -12.5 99.5t10.5 99.5q-18 0 -29.5 -13.5t-24.5 -13.5q-8 0 -12 2 h-8q-10 0 -22.5 10.5t-22.5 25t-17.5 30.5t-7.5 31q-10 47 -16 116.5t-7 151.5zM143 293q0 -82 1.5 -162t11.5 -160q20 8 65 18.5t91 31t82 53t36 86.5q6 39 -14.5 64.5t-56 42t-78.5 23.5t-84 7q-14 0 -27.5 -1t-26.5 -3zM156 440q41 10 88 25.5t92 38t82 50t57 62.5 q18 31 10 60t-32.5 51.5t-58.5 36.5t-68 14q-20 0 -40 -6t-36 -22q-23 -10 -38 -50.5t-25.5 -89.5t-17.5 -96t-13 -74z" />
<glyph unicode="&#xe40;" horiz-adv-x="385" d="M18 340q2 92 11.5 173t21.5 161t25.5 159.5t23.5 167.5q2 18 14.5 25.5t28.5 7.5q35 0 69 -22.5t30 -50.5q-12 -80 -24.5 -151t-23 -139.5t-19.5 -141t-15 -154.5q31 10 57 10q47 0 92 -23.5t72 -68.5q23 -39 18.5 -87t-28 -91t-62.5 -73t-88 -32h-10q-70 0 -110 34 t-58 84t-21.5 107.5t-3.5 104.5zM154 145.5q2 -26.5 20 -26.5q16 -1 43 26q8 8 17.5 24.5t16.5 35t10 36t-3 25.5q-16 25 -35 25q-20 0 -37.5 -26.5t-25.5 -59.5t-6 -59.5z" />
<glyph unicode="&#xe41;" horiz-adv-x="755" d="M27 315q-2 90 4 181.5t17 181.5t21.5 180t16.5 178q2 20 16.5 29.5t34.5 9.5q29 0 59.5 -17.5t26.5 -45.5q-18 -160 -37.5 -320t-23.5 -325q37 16 76 16q41 0 79.5 -18.5t63.5 -55.5t22.5 -85t-24 -93t-59 -79t-84.5 -42q-10 -2 -18.5 -2h-16.5q-57 0 -91 32t-52.5 78 t-23.5 99t-7 98zM166 140.5q2 -27.5 18 -27.5q14 -1 41 30q6 8 15.5 25.5t16.5 37t9 37t-4 25.5q-16 23 -33 23q-20 0 -35.5 -27.5t-22.5 -61.5t-5 -61.5zM446 315q-2 90 5.5 181.5t17.5 181.5t20.5 180t16.5 178q2 20 16.5 29.5t34.5 9.5q31 0 60.5 -17.5t27.5 -45.5 q-16 -160 -37.5 -320t-25.5 -325q37 16 73 16q41 0 80 -18.5t64 -55.5t22.5 -85t-23 -93t-58.5 -79t-85 -42q-10 -2 -18 -2h-16q-57 0 -92 32t-52.5 78t-24 99t-6.5 98zM585 140.5q3 -27.5 19 -27.5q16 -1 43 30q6 8 15.5 25.5t16.5 37t9 37t-4 25.5q-16 23 -33 23 q-20 0 -36.5 -27.5t-24.5 -61.5t-5 -61.5z" />
<glyph unicode="&#xe42;" horiz-adv-x="448" d="M-87 1226q-5 50 23.5 97t84 84t118.5 49q90 18 146.5 25.5t92.5 14.5t60.5 19.5t49 41t57.5 80t88 135.5q12 18 41 18q27 0 49 -14.5t18 -36.5q-31 -147 -87 -216t-133 -96.5t-169 -36t-190 -34.5q-74 -20 -98.5 -58t32.5 -100q29 -31 56.5 -38t51 -16t39 -33t19.5 -85 q6 -70 2 -154t-13 -171t-20.5 -172t-23.5 -156q8 2 24 2q49 0 89 -31t59.5 -77t16.5 -100t-38 -101q-27 -35 -63.5 -54.5t-77.5 -19.5q-43 0 -78 20q-37 20 -52 83t-17 147t6 179t19 182t21.5 156.5t12.5 100.5q6 90 -3 135t-29.5 67.5t-51.5 35t-68 37.5q-59 41 -64 91z M190 139q0 -41 17 -41q10 0 21.5 10.5t21.5 26t17 32t7 30.5q4 41 -7 64.5t-27 23.5q-18 0 -36 -34t-14 -112z" />
<glyph unicode="&#xe43;" horiz-adv-x="446" d="M-121 1188q0 45 26.5 120.5t68.5 148.5t94.5 126t103.5 53q53 0 81 -34.5t40 -83t13 -100.5t3 -89q2 -31 4 -62.5t2 -62.5q31 16 58.5 37t60.5 37q8 4 17 4q16 0 38.5 -12.5t22.5 -30.5q0 -8 -26.5 -31.5t-61.5 -48t-67.5 -46t-43.5 -28.5q-2 -16 -2 -29.5v-29.5 q-2 -82 -7 -170t-13 -177t-20.5 -176t-28.5 -167q72 0 121 -33t49 -110q0 -33 -13.5 -71t-37 -68.5t-55.5 -51t-68 -20.5q-37 0 -64 18t-42 46t-22.5 60.5t-7.5 63.5q0 49 6.5 97t10.5 98q16 166 35.5 331.5t25.5 333.5q-43 -14 -96 -14q-37 0 -74 11t-66.5 32.5t-47 54.5 t-17.5 74zM0 1171q0 -29 16 -50t47 -21q33 0 62 14t59 25v47q0 82 -3 158.5t-17 158.5l-14 -14q-20 -25 -46 -66t-49.5 -86t-39 -89t-15.5 -77zM219 141q0 -6 1 -16t4 -20.5t9.5 -17.5t14.5 -7q12 0 22.5 13t16.5 30.5t9 36t3 26.5v7q-4 10 -14.5 26.5t-22.5 16.5 t-20.5 -11.5t-13.5 -27t-7 -32t-2 -24.5z" />
<glyph unicode="&#xe44;" horiz-adv-x="481" d="M-246 1417q0 23 4 69t10.5 95t15.5 92t19 64q8 14 19.5 16t25.5 2q8 0 22.5 -2t30 -6t27 -12.5t11.5 -18.5q0 -25 -6.5 -53.5t-10.5 -52.5q-12 -68 -21.5 -136.5t-9.5 -136.5q0 -10 2.5 -29.5t7.5 -38t14 -32.5t24 -14q20 0 42.5 20.5t48 50t54.5 65.5t59.5 65.5t63.5 50 t69 20.5q12 0 31 -4t36 -12.5t28.5 -20.5t11.5 -28q0 -57 -10.5 -119t-16.5 -119q-16 -145 -34.5 -288.5t-38.5 -289.5q-10 -70 -18.5 -138t-14.5 -138q31 0 62.5 -8t58 -25.5t44 -44.5t17.5 -61q0 -39 -17.5 -78t-46 -70t-65.5 -50t-76 -19q-72 0 -106.5 49t-34.5 114 q0 119 17.5 247t33.5 247q23 170 44.5 339t43.5 339q-29 -31 -58.5 -64.5t-63 -62.5t-71.5 -47.5t-83 -18.5q-82 0 -123 47.5t-56.5 111.5t-15.5 134zM221 109q0 -4 1 -13.5t7 -9.5q12 0 25.5 15.5t23 35t15.5 40t6 32.5q0 10 -4 27.5t-19 17.5q-14 0 -24 -19.5t-17.5 -44 t-10.5 -48t-3 -33.5z" />
<glyph unicode="&#xe45;" horiz-adv-x="577" d="M28 849q-5 13 1 25q35 72 90 104t121 32q74 0 145.5 -40t114.5 -112q25 -43 36 -88t12 -92t-5 -94t-15 -95q-20 -119 -44.5 -240.5t-84.5 -228.5q-12 -20 -41 -20q-27 0 -51 15.5t-22 37.5q8 127 38.5 250t51.5 246q10 68 16 140.5t-22 137.5q-16 37 -44 55.5t-57 18.5 q-31 0 -59.5 -19.5t-48.5 -56.5q-6 -12 -18.5 -17t-28.5 -5t-35 6t-32 16.5t-18 23.5z" />
<glyph unicode="&#xe46;" horiz-adv-x="585" d="M18 514q0 41 16.5 81t45 70.5t59.5 34.5q2 2 17 2q35 0 67.5 -21.5t55.5 -53.5q29 37 56 62.5t81 25.5q20 0 39 -6q43 -14 65.5 -51t28.5 -81.5t-2 -90.5t-29 -78q-45 -63 -83 -92t-65.5 -59t-44 -81t-20.5 -160q-2 -45 -4 -86t-25 -80q-8 -12 -29.5 -24t-45.5 -12 q-14 0 -24.5 8t-12.5 28q-10 133 3 219.5t41 144.5t67.5 97t84.5 78q14 14 32 33.5t31 44.5t20.5 54.5t-1.5 62.5q-6 27 -16 26q-6 0 -13 -10t-14.5 -25.5t-14.5 -30t-13 -24.5q-23 -31 -46.5 -52.5t-64.5 -21.5q-20 0 -39.5 9.5t-19.5 31.5q0 8 -2 29t-7.5 41.5t-13.5 36.5 t-18 16q-14 -8 -20.5 -28.5t-9.5 -44t-3 -44v-30.5q0 -16 -12.5 -23.5t-26.5 -7.5q-29 0 -43 14q-27 27 -27 68z" />
<glyph unicode="&#xe47;" d="M-573 1252q0 44 19 89t48 72q41 39 92.5 67.5t110.5 35.5q51 6 82 8t50 4t32.5 4t29 10t38 22.5t61.5 41.5q8 4 16 4q14 0 32.5 -6.5t32 -16.5t18.5 -22.5t-9 -24.5q-45 -41 -78 -64.5t-66.5 -34.5t-74.5 -14.5t-101 -3.5q-45 0 -83.5 -16t-71.5 -45q-6 -6 -20.5 -21.5 t-26 -33t-15.5 -29.5t13 -12q12 0 42.5 12t84.5 45q18 10 32 10q12 0 20.5 -7t22.5 -17q4 -2 11.5 -12.5t15.5 -20.5t16.5 -17.5t14.5 -7.5q14 4 16 18.5t-4 30t-15.5 28.5t-15.5 18q-14 8 -15 17t5 16t17.5 12.5t23.5 5.5q16 0 31 -11q31 -23 48 -59.5t17 -71t-20.5 -60.5 t-65.5 -26q-16 0 -26 2q-20 4 -35 13.5t-26 19.5t-21.5 17.5t-22.5 7.5t-18 -4q-35 -23 -69 -49.5t-81 -30.5h-8q-57 0 -80.5 31.5t-23.5 75.5z" />
<glyph unicode="&#xe48;" d="M-63 1499q-10 41 2 92.5t20 98.5q4 14 17.5 20t29.5 6q23 0 43.5 -11t16.5 -34q-4 -20 -8.5 -47t-10.5 -51.5t-13 -47t-18 -36.5q-8 -12 -34 -12q-14 0 -27.5 6t-17.5 16z" />
<glyph unicode="&#xe49;" d="M-229 1698q10 41 38.5 58.5t63.5 17.5q33 0 64.5 -13.5t50.5 -36.5q25 -25 31 -45t-0.5 -38.5t-20.5 -38t-33 -43.5q25 4 39 6t26.5 3t26 1h37.5q12 0 25.5 -8.5t23 -18.5t7 -18t-20.5 -13q-43 -8 -73.5 -14t-60.5 -11t-61.5 -10.5t-74.5 -13.5q-6 0 -23.5 5.5t-32 15.5 t-20.5 21.5t8 23.5q12 10 44 29.5t59.5 44t39 50t-19.5 46.5q-4 2 -10 2q-16 0 -27.5 -13.5t-13.5 -23.5q-4 -18 -27 -18t-46 15t-19 38z" />
<glyph unicode="&#xe4a;" d="M-346 1556.5q-6 38.5 4 77t37 58.5q39 31 76 30q51 0 98 -59q23 25 50.5 43t55.5 18q29 0 54 -16q16 -12 24 -29.5t11.5 -39t2.5 -42t-6 -38.5q27 12 41.5 19t26.5 12t27.5 8.5t44.5 3.5q6 2 16 -3.5t18.5 -13.5t9.5 -17t-12 -16q-8 -4 -40.5 -17t-69.5 -28.5t-66.5 -28 t-33.5 -12.5q-23 0 -42.5 15.5t-15.5 40.5q2 16 9.5 36.5t11.5 39t5 30.5t-5 12q-10 0 -39 -28q-12 -12 -20.5 -25.5t-20.5 -30.5q-12 -14 -31 -14q-18 0 -33.5 11.5t-17.5 27.5q-4 25 -16.5 42t-30.5 17q-8 0 -21 -6q-10 -6 -15 -23.5t-4 -36t8 -30.5t19 -10h7q10 0 19 -9 t13 -20.5t1 -23t-15 -15.5q-18 -6 -37 -6q-43 0 -67.5 29t-30.5 67.5z" />
<glyph unicode="&#xe4b;" d="M-174 1598.5q2 11.5 22 17.5q18 4 56.5 8t58.5 8q10 23 16.5 44.5t12.5 43.5q6 18 35 19q27 0 53 -15.5t22 -37.5q-4 -10 -7 -21.5t-9 -22.5q20 0 30.5 2.5t22.5 2.5h12.5t16.5 -5q8 -2 14 -10t9.5 -18t0 -19.5t-15.5 -13.5q-27 -4 -53.5 -10t-52.5 -6q-6 -18 -20.5 -43 t-24.5 -45q-6 -8 -23 -9q-18 0 -40.5 10.5t-22.5 24.5l12 47q-4 -10 -6 -7t-17 3h-13t-17 -2h-7q-16 0 -32.5 9.5t-25.5 21.5t-7 23.5z" />
<glyph unicode="&#xe4c;" d="M-414.5 1216.5q0.5 32.5 14 61.5t38 53.5t51.5 40.5q53 31 124.5 49.5t143.5 18.5q23 0 44.5 -2t41.5 -6q10 -2 23.5 -14.5t20.5 -26t5 -23.5t-20 -10q-66 -2 -134.5 -9.5t-134.5 -33.5q29 -8 49.5 -29.5t28.5 -49.5t2 -57.5t-30 -52.5q-47 -43 -117 -43q-41 0 -77 16.5 t-56 51.5q-18 33 -17.5 65.5zM-301 1219q-10 -47 22 -48q10 0 21.5 4.5t21.5 8.5q18 10 22.5 23.5t-0.5 25.5t-17.5 20.5t-26.5 8.5q-12 0 -24.5 -10.5t-18.5 -32.5z" />
<glyph unicode="&#xe4d;" d="M-355 1253.5q5 59.5 49 108.5t116 49q30 0 55 -8q78 -23 108.5 -65t26.5 -113q-6 -27 -17.5 -51.5t-32 -41t-52 -26.5t-80.5 -10q-98 0 -138 49t-35 108.5zM-241 1243.5q1 -16.5 14.5 -30t42.5 -17.5q8 -2 22 -2q31 0 44.5 19.5t12.5 42t-16.5 42t-40.5 19.5 q-18 0 -39 -12q-18 -10 -29.5 -27.5t-10.5 -34z" />
<glyph unicode="&#xe4f;" horiz-adv-x="690" d="M76 342q0 55 21.5 104.5t58.5 86t85 57t103 20.5q57 0 106.5 -20.5t86 -57t57 -86t20.5 -104.5t-21.5 -104.5t-58 -86t-86 -57t-104.5 -20.5t-104.5 21.5t-85 58t-57 85t-21.5 103.5zM115 342q0 -47 18.5 -89t49 -72.5t72.5 -49t89 -18.5q49 0 91 18.5t73 49t48 72.5 t17 89t-18 89t-49 73t-73 49t-89 18t-89 -18t-72.5 -49t-49 -73t-18.5 -89zM180 342q0 70 47 117t117 47t118 -47t48 -117t-48 -117t-118 -47t-117 48t-47 116z" />
<glyph unicode="&#xe50;" horiz-adv-x="735" d="M29 358q0 100 21.5 210t67.5 201t115.5 150.5t163.5 59.5q92 0 161 -54.5t110 -131.5q47 -96 39 -297q-2 -51 -6.5 -119t-15.5 -141.5t-30.5 -144.5t-53.5 -126t-83 -90t-121 -35q-92 0 -160.5 43t-114.5 115t-69.5 166t-23.5 194zM193 354q0 -59 9 -130.5t32.5 -133 t62.5 -103.5t100 -42q53 0 88 59q29 47 50.5 113.5t35 139.5t20.5 142.5t7 124.5q0 111 -13.5 179.5t-39 106.5t-63.5 51t-85 13q-37 0 -66.5 -27.5t-52 -72.5t-39 -102.5t-26.5 -114.5t-15 -110.5t-5 -92.5z" />
<glyph unicode="&#xe51;" horiz-adv-x="299" d="M66 233q0 176 18 386t34.5 257.5t34 70t33.5 22.5t31 -10l45 -29l-32 -471q-33 -471 -37 -559q-2 -23 -16.5 -37.5t-29.5 -14.5h-4q-33 0 -52 40t-22 170t-3 175z" />
<glyph unicode="&#xe52;" horiz-adv-x="794" d="M16 -10q8 76 90 194q78 117 142.5 217.5t118.5 208.5q12 25 27.5 65t31.5 97q29 92 -20 92q-31 0 -66 -18.5t-65.5 -46t-57.5 -59t-43 -56.5q-20 -33 -43 -33q-10 0 -32.5 13.5t-22.5 21.5q4 84 98 191q47 53 100.5 78.5t122.5 25.5q98 0 157.5 -49t59.5 -150 q0 -70 -31.5 -153.5t-77.5 -167.5t-99.5 -162t-96.5 -133q-78 -98 -92 -156l59 -2q123 0 295 64q63 23 97 22q68 0 57 -78q-2 -27 -32.5 -46t-75 -33.5t-97.5 -22.5t-102 -12t-89 -6t-57 -2q-66 0 -131 6q-135 12 -125 90z" />
<glyph unicode="&#xe53;" horiz-adv-x="729" d="M33 246q2 16 12 23t25 7q23 0 48.5 -11t35.5 -23t20 -28.5t20.5 -32t23.5 -29t32 -17.5q20 -4 31 -4q43 0 87 25.5t80.5 62.5t63.5 81t35 81q8 35 -3.5 70.5t-43.5 35.5q-23 0 -45 -16q-14 -12 -41 -12q-20 0 -42 7t-37.5 19.5t-19.5 28.5t11 35q29 35 56.5 72.5 t43.5 85.5q4 10 12 36.5t14.5 56t5.5 56.5t-18 37q-8 4 -14 4q-18 0 -41 -22.5t-42 -52t-32.5 -61.5t-13.5 -50q-2 -20 -16.5 -29.5t-36.5 -9.5q-33 0 -67 20.5t-34 48.5q2 51 26 101.5t60.5 89.5t84.5 62.5t100 23.5q41 0 75 -14q68 -27 95.5 -77t29.5 -108.5t-19.5 -121 t-51.5 -115.5q74 -23 119 -86q31 -43 32.5 -93.5t-14.5 -99.5t-45 -94t-60 -78q-53 -53 -121.5 -83t-140.5 -30q-45 0 -95 16.5t-91 47.5t-67.5 73t-26.5 91z" />
<glyph unicode="&#xe54;" horiz-adv-x="731" d="M33 242q0 80 69.5 256t225 318t209.5 142q4 0 17 -3l38 -9l37 -16q37 -17 39 -53q8 -86 8 -189q0 -156 -24.5 -407.5t-29 -343t-65.5 -91.5q-14 0 -33 4q-66 14 -64.5 136.5t3.5 152.5q-154 -29 -252 -28q-115 0 -146.5 35.5t-31.5 95.5zM188 236q0 -16 14.5 -24.5 t53.5 -10.5q37 -2 72 -2q80 0 141 10q25 244 32 382t11 210q-109 -92 -196 -258t-107.5 -225.5t-20.5 -81.5z" />
<glyph unicode="&#xe55;" horiz-adv-x="856" d="M35 -41q14 33 47 33q20 0 46 -9.5t55.5 -20.5t63.5 -20.5t70 -9.5q53 0 108.5 26t115.5 99q20 23 39.5 67t28.5 93t4 95t-33 75q-27 27 -74 27q-35 0 -75 -12.5t-78 -30t-69.5 -37t-50.5 -31.5q-20 -14 -40 -14q-29 0 -41.5 33.5t-4.5 74.5q4 25 9.5 73t12.5 107.5 t17.5 122t24.5 113.5t32.5 84t45.5 33h8q31 0 94.5 4t130.5 4q90 0 160 -16.5t74 -57.5q2 -16 -18.5 -25.5t-56.5 -14.5t-80 -7t-87 -2q-57 0 -106.5 2t-67.5 2q-4 -29 -9 -66.5t-10.5 -77.5t-11.5 -79t-12 -68q57 23 115.5 36.5t113.5 13.5q88 0 155 -43t89 -152 q18 -88 -10.5 -190.5t-91 -188.5t-152.5 -143.5t-194 -57.5q-23 0 -45.5 4.5t-43.5 8.5q-25 6 -64.5 16t-74.5 27.5t-54 41t-5 58.5z" />
<glyph unicode="&#xe56;" horiz-adv-x="688" d="M23 295q0 135 36.5 258t103 216t161 147.5t206.5 54.5q18 0 31.5 -16.5t13.5 -36.5t-13 -37t-32 -17q-74 0 -130 -45t-95 -113.5t-63.5 -152.5t-36.5 -162q78 53 168 53q53 0 103 -17t89 -52t62.5 -87t23.5 -122q0 -72 -21.5 -138.5t-58 -116.5t-89 -80t-113.5 -30 q-86 0 -151.5 41t-108.5 109.5t-64.5 158t-21.5 185.5zM197 240q0 -49 9 -106.5t29.5 -107t53.5 -83t80 -33.5q41 0 76.5 21.5t61 56.5t41 80t15.5 94q0 86 -61 135q-35 23 -61.5 31t-67.5 8q-51 0 -99 -21q-25 -16 -45 -31.5t-32 -43.5z" />
<glyph unicode="&#xe57;" horiz-adv-x="610" d="M41 885q0 23 14.5 38t34.5 15h389q57 0 84 -48t27 -106q0 -25 -22.5 -100.5t-59.5 -178t-83 -218t-91 -218t-86 -180t-68 -104.5q-16 -16 -30.5 -21.5t-30.5 -5.5q-23 0 -33 19q-16 16 -16 41l24 61q80 201 152.5 401.5t144.5 405.5q14 47 24.5 82t16.5 57l-313 -6 q-29 4 -53.5 19.5t-24.5 46.5z" />
<glyph unicode="&#xe58;" horiz-adv-x="677" d="M58.5 -36q-5.5 67 20 138.5t70.5 141.5t78 121q16 25 29.5 44t30.5 37q-23 8 -41.5 18.5t-28.5 14.5q-68 29 -106.5 77t-34.5 110q4 66 47 115.5t108.5 85.5t142.5 54.5t146 18.5h25.5t23.5 -2q16 0 28.5 -12.5t14.5 -26.5q41 -31 33 -87t-37.5 -116.5t-66.5 -115 t-54 -82.5q100 -74 132 -180.5t-7 -223.5q-14 -43 -50 -93t-84 -93t-105.5 -72t-116.5 -29q-70 0 -129 43q-63 47 -68.5 114zM212 658.5q11 -23.5 35.5 -41t56 -31t58.5 -25.5q14 16 20.5 28.5t16.5 28.5q45 70 65.5 117t25 75t-7 40t-29.5 12q-29 0 -66 -16.5t-72.5 -40 t-63.5 -48t-36 -40.5q-14 -35 -3 -58.5zM218 0q-3 -35 9 -47q23 -18 47 -19q27 0 55.5 17.5t53.5 42t43 51.5t25 43q27 57 25.5 119.5t-42.5 122.5q-14 20 -35 20q-23 0 -47 -25.5t-46.5 -65.5t-42 -88t-31 -92t-14.5 -79z" />
<glyph unicode="&#xe59;" horiz-adv-x="688" d="M35 -123q0 6 2 12q6 20 19.5 35t29.5 15q16 -2 33 -2q55 0 109.5 32.5t102.5 97t81.5 143.5t56.5 155q-70 -33 -139 -33q-17 0 -35 2q-53 6 -100.5 29.5t-82 63.5t-48 85t-13.5 88q0 23 2 45q6 72 36 135.5t75 107.5t93 64.5t91 20.5q16 0 31 -2q84 -12 144.5 -59.5 t94 -121t41 -140t7.5 -109.5q0 -51 -7 -103q-16 -133 -67 -250.5t-128 -201.5t-166 -122t-169 -38q-29 0 -55 4q-18 2 -28.5 17.5t-10.5 29.5zM162 600q0 -80 24 -104q29 -23 58 -39q35 -12 63 -17q14 -2 29 -2q37 0 72 13q27 12 49 24t39 41q4 35 4 78q0 12 -1 49t-15.5 88 t-42 88t-76.5 45h-17q-33 0 -65.5 -14t-75.5 -79.5t-44 -115t-1 -55.5z" />
<glyph unicode="&#xe5a;" horiz-adv-x="1089" d="M74 713q29 74 88 126t133 79q2 2 18 2t31.5 -5.5t26 -14.5t9.5 -21.5t-20 -24.5q-35 -25 -67.5 -56.5t-50.5 -72.5q-4 -6 -10.5 -19.5t-9.5 -28.5t-1 -28.5t12 -19.5q16 -2 36 8t26 14q92 41 169 104.5t146 133.5q33 33 74 33q18 0 33 -9q18 -6 39.5 -26.5t9.5 -46.5 q-25 -43 -55.5 -116t-63.5 -158t-66.5 -175t-65.5 -168t-58.5 -135t-44.5 -80q-23 -27 -47 -26q-35 0 -46 55q-4 39 7.5 100.5t32 134t48 151.5t58.5 152q-51 -31 -108.5 -55t-118.5 -24q-12 0 -26.5 1t-29.5 5q-78 18 -107.5 78.5t-0.5 132.5zM559 59q-16 49 1.5 100.5 t33.5 98.5q18 53 40.5 104.5t41.5 102.5q39 104 87 206.5t128 182.5q18 18 47 18q20 0 34.5 -12t12.5 -37q-18 -100 -63 -196.5t-88 -188.5q-23 -49 -36.5 -99t-31.5 -101q-16 -47 -30.5 -100.5t-53.5 -92.5q-25 -25 -66 -25q-18 0 -34.5 9.5t-22.5 29.5z" />
<glyph unicode="&#xe5b;" horiz-adv-x="1081" d="M76 346q0 39 7 83t25.5 82t50 63.5t79.5 25.5q35 0 60.5 -15.5t41.5 -40t24.5 -54t8.5 -60.5q0 -20 -5.5 -47t-16.5 -49.5t-29.5 -37.5t-47.5 -15q-35 0 -54 31.5t-19 60.5q0 31 19.5 60.5t53.5 29.5q27 0 43 -17q0 37 -17 72t-62 35q-35 0 -56.5 -19.5t-34 -49 t-16.5 -62.5t-4 -57q0 -39 8 -87.5t33 -78.5q16 -29 43 -46.5t59 -17.5q51 0 85 34t53.5 82t27.5 101.5t8 91.5v19l-2 29l25 30l82 -182l57 172l58 -152l51 125l57 -123l51 93l49 -78l17 33h188l-41 -50h-114l-50 -63l-47 61l-57 -102l-51 106l-60 -137l-47 140l-53 -158 l-70 151q-6 -43 -21 -91t-42 -88t-64.5 -66.5t-89.5 -26.5q-39 0 -73 18q-31 14 -53.5 42t-37 62t-21.5 70.5t-9 67.5zM242 373q0 -14 7 -30.5t25 -16.5t25.5 15t7.5 32q0 16 -6 30.5t-27 14.5q-18 0 -25 -16.5t-7 -28.5z" />
<glyph unicode="&#x2000;" horiz-adv-x="895" />
<glyph unicode="&#x2001;" horiz-adv-x="1790" />
<glyph unicode="&#x2002;" horiz-adv-x="895" />
<glyph unicode="&#x2003;" horiz-adv-x="1790" />
<glyph unicode="&#x2004;" horiz-adv-x="596" />
<glyph unicode="&#x2005;" horiz-adv-x="447" />
<glyph unicode="&#x2006;" horiz-adv-x="298" />
<glyph unicode="&#x2007;" horiz-adv-x="298" />
<glyph unicode="&#x2008;" horiz-adv-x="223" />
<glyph unicode="&#x2009;" horiz-adv-x="358" />
<glyph unicode="&#x200a;" horiz-adv-x="99" />
<glyph unicode="&#x2010;" horiz-adv-x="526" d="M51 565q8 33 41 39q29 4 56.5 9t56.5 8q61 4 122.5 8t123.5 8q10 0 19 1t19 3q16 -29 12.5 -55.5t-14.5 -53.5q-4 -10 -10 -12t-16 -4q-45 0 -88 -1t-88 -3h-152q-14 0 -28.5 2t-28.5 4q-37 8 -25 47z" />
<glyph unicode="&#x2011;" horiz-adv-x="526" d="M51 565q8 33 41 39q29 4 56.5 9t56.5 8q61 4 122.5 8t123.5 8q10 0 19 1t19 3q16 -29 12.5 -55.5t-14.5 -53.5q-4 -10 -10 -12t-16 -4q-45 0 -88 -1t-88 -3h-152q-14 0 -28.5 2t-28.5 4q-37 8 -25 47z" />
<glyph unicode="&#x2012;" horiz-adv-x="526" d="M51 565q8 33 41 39q29 4 56.5 9t56.5 8q61 4 122.5 8t123.5 8q10 0 19 1t19 3q16 -29 12.5 -55.5t-14.5 -53.5q-4 -10 -10 -12t-16 -4q-45 0 -88 -1t-88 -3h-152q-14 0 -28.5 2t-28.5 4q-37 8 -25 47z" />
<glyph unicode="&#x2013;" horiz-adv-x="1007" d="M53 463q0 27 25 31q66 10 169 16t220 6q111 0 220.5 -4t201.5 -12q82 -2 82 -39q0 -10 -2 -18.5t-13.5 -15.5t-35 -16.5t-64.5 -21.5q-57 -18 -213 -18h-64.5t-70.5 2q-133 6 -218 11t-124 13q-123 17 -113 66z" />
<glyph unicode="&#x2014;" horiz-adv-x="1034" d="M53 463q0 27 25 31q66 10 169 16t220 6q111 0 220.5 -4t201.5 -12q82 -2 82 -39q0 -10 -2 -18.5t-13.5 -15.5t-35 -16.5t-64.5 -21.5q-57 -18 -213 -18h-64.5t-70.5 2q-133 6 -218 11t-124 13q-123 17 -113 66z" />
<glyph unicode="&#x2018;" horiz-adv-x="315" d="M104 1034v4q0 18 13.5 32.5t36.5 14.5l2 2q18 -2 32.5 -15t16.5 -32v-6q0 -14 5 -68.5t5 -162.5q0 -20 -13.5 -34.5t-35.5 -16.5q-18 0 -32.5 14t-14.5 27v8q0 68 -2 111.5t-4 70.5t-5.5 38t-3.5 13z" />
<glyph unicode="&#x2019;" horiz-adv-x="315" d="M102 803q0 106 6.5 169.5t4.5 65.5q2 18 16 32.5t33 14.5h2q23 -2 37 -16t12 -35q0 -2 -2 -14t-4 -39t-4 -71t-2 -111q2 -16 -14.5 -32.5t-34.5 -16.5q-50 10 -50 53z" />
<glyph unicode="&#x2022;" horiz-adv-x="561" d="M76 311q0 41 16.5 78t45 65.5t65.5 45t78 16.5q43 0 79.5 -16.5t64.5 -45t44 -65.5t16 -78t-16 -77.5t-45 -65.5t-65.5 -45.5t-77.5 -16.5t-79 16.5t-65.5 45.5t-44 65.5t-16.5 77.5z" />
<glyph unicode="&#x2026;" horiz-adv-x="974" d="M98 72q0 33 27 52t57 19q33 0 58.5 -18.5t25.5 -52.5q0 -33 -26.5 -52.5t-57.5 -19.5t-57.5 19.5t-26.5 52.5zM387 72q0 35 25.5 53t58.5 18t57.5 -18.5t24.5 -52.5q0 -33 -25.5 -52.5t-56.5 -19.5t-57.5 19.5t-26.5 52.5zM686 72q0 35 25.5 53t58.5 18q31 0 57.5 -19.5 t26.5 -51.5q0 -33 -27.5 -52.5t-56.5 -19.5q-31 0 -57.5 19.5t-26.5 52.5z" />
<glyph unicode="&#x202f;" horiz-adv-x="358" />
<glyph unicode="&#x205f;" horiz-adv-x="447" />
<glyph unicode="&#x25fc;" horiz-adv-x="1095" d="M0 0v1096h1096v-1096h-1096z" />
<glyph unicode="&#xf700;" horiz-adv-x="747" d="M31 736.5q-8 15.5 0 33.5q23 53 57.5 107.5t79.5 99.5t100.5 72.5t118.5 27.5q39 0 75 -10t77 -20q61 -16 84 -17q20 0 29.5 14.5t15.5 49.5q4 18 17 26t32 8q33 0 65.5 -21.5t30.5 -51.5q-8 -74 -36.5 -104.5t-94.5 -30.5q-20 0 -44 3t-52 7q-47 6 -85 17t-75 11 q-25 0 -50.5 -7t-56.5 -29q-23 -20 -44 -42t-37 -51q47 12 98 21.5t98 9.5q80 0 144.5 -36t93.5 -132q14 -45 17 -95t0 -101.5t-11 -100.5t-16 -96q-16 -86 -40 -174t-81 -156q-16 -16 -37 -16q-29 0 -56.5 19.5t-33.5 41.5q-14 37 -18.5 80t-4.5 88v91t-4 89 q-33 -10 -70.5 -17t-74.5 -7q-51 0 -94.5 18.5t-65.5 69.5q-14 29 -12 60.5t16 59t37.5 49t52.5 32.5q41 14 80 14q61 0 109.5 -33t82 -82t53 -107.5t23.5 -111.5q4 16 7.5 51t6.5 79t4 92.5t-2 92.5t-11.5 75.5t-22.5 43.5q-12 12 -43 13q-23 0 -46.5 -5.5t-39.5 -9.5 q-63 -10 -120.5 -26.5t-119.5 -26.5h-8q-16 0 -36.5 6t-37 17.5t-24.5 27zM198 433q11 -13 33 -13q16 0 36 7t36 18.5t26.5 27t8.5 29.5q-6 37 -47 37q-25 0 -51.5 -15.5t-38.5 -42.5q-14 -35 -3 -48z" />
<glyph unicode="&#xf701;" d="M-946 1245v4q0 57 36 100.5t80 72t97 43t106 14.5q74 0 133.5 -29t105.5 -74t75.5 -106.5t46.5 -126.5q2 -6 2 -13q0 -20 -15.5 -31.5t-37.5 -11.5q-27 1 -68 13q-76 23 -134.5 44t-127.5 32q-63 10 -128 15t-128 17q-12 2 -27.5 12.5t-15.5 24.5zM-819 1284 q61 -8 122.5 -13t125.5 -20q33 -8 68.5 -17.5t70.5 -25.5q-29 61 -67 113.5t-103 64.5q-18 4 -39 5q-55 0 -105.5 -27t-72.5 -80z" />
<glyph unicode="&#xf702;" d="M-899 1194q0 6 2 12q14 43 48 72t76 48.5t88 27.5t85 8q80 0 145.5 -32t124.5 -77q10 39 20.5 79t24.5 77q6 18 24.5 25.5t41.5 7.5t40 -10.5t17 -30.5v-4q0 -68 -19.5 -132.5t-35.5 -129.5q-6 -20 -23.5 -29.5t-64.5 -9.5q-14 0 -59 2l-46 2l-188 22q-188 21 -258 31 q-18 2 -30.5 15.5t-12.5 25.5zM-715 1235q0 -18 122 -29.5t163 -11.5q10 0 15 1t5 5q0 8 0 2t0 -2q0 8 -65.5 44t-124.5 36q-41 0 -78 -18.5t-37 -26.5z" />
<glyph unicode="&#xf703;" d="M-922 1217q0 25 34 91t218 66q57 0 115.5 -31.5t95.5 -62.5q37 78 101 78q23 0 84 -24.5t63 -56.5t2 -40q0 -43 -14.5 -72.5t-44 -52t-64.5 -22.5q-18 0 -82 17l-65 17l-183 18q-184 19 -186 19l1 -1l1 -1q0 2 -22 6q-53 10 -54 52zM-799 1227h33q70 0 130 -4.5 t126 -22.5q-35 39 -74 60.5t-92 21.5q-39 0 -72.5 -12.5t-50.5 -42.5zM-393 1223q0 -20 21.5 -41t33.5 -21t21.5 17.5t9.5 35.5q0 14 -6 29q-14 31 -37 31q-16 0 -29.5 -20.5t-13.5 -30.5z" />
<glyph unicode="&#xf704;" d="M-862 1212v7q0 31 27.5 61.5t63.5 54t80 37.5t99 14q12 0 53 -2t75 -32.5t58 -69.5q8 27 12.5 53.5t14.5 53.5q6 14 18.5 20t28.5 6q18 0 33.5 -9t15.5 -26q-2 -61 -17 -158.5t-64.5 -103.5t-81.5 -6q-29 0 2 0t-2 0q-29 0 -72 5t-102.5 16.5t-115 22.5t-93.5 20 q-16 4 -24.5 14t-8.5 22zM-723 1249q0 -25 90 -38t125 -13q45 0 45 16q0 4 -12 27l-12 23l-27 10q-55 20 -100 24q-47 4 -78 -18.5t-31 -30.5zM-279 1153q0 4 8.5 96t12.5 121q0 14 15.5 21.5t33.5 7.5t35.5 -8.5t17.5 -20.5v-2q0 -166 -53 -227q-6 -14 -20 -15 q-8 0 -29 7.5t-21 19.5z" />
<glyph unicode="&#xf705;" d="M-387 1230.5q8 32.5 14 65.5q12 74 25 142q4 16 17.5 22t29.5 6q23 0 43 -11t16 -34q-6 -33 -13 -68.5t-13 -70.5t-10.5 -67.5t-26.5 -61.5q-10 -12 -33 -12q-16 0 -29.5 6t-17.5 16q-10 35 -2 67.5z" />
<glyph unicode="&#xf706;" d="M-678 1444q10 47 43 66.5t74 19.5q37 0 72.5 -14.5t58.5 -38.5q53 -57 40 -120t-54 -116q29 4 45 7t29.5 5t28.5 3t44 1q12 -2 27.5 -11t26 -20.5t9 -21.5t-21.5 -14q-49 -8 -85 -15.5t-69.5 -13.5t-68.5 -13t-84 -15h-4q-12 0 -30.5 7t-34 17t-20.5 22.5t9 24.5 q39 29 76 59.5t53 71.5q4 10 8 24.5t5 31t-3 31t-14 22.5q-4 4 -14 4q-16 0 -27.5 -16.5t-15.5 -26.5q-6 -20 -31 -21q-25 0 -50.5 17.5t-21.5 42.5z" />
<glyph unicode="&#xf707;" d="M-828.5 1326q5.5 52 42.5 95q41 47 88 47q39 0 74.5 -24.5t64.5 -59.5q31 33 65.5 55.5t73.5 22.5q35 0 70 -22q23 -14 34 -38t14 -50.5t0 -54t-5 -50.5q33 14 52 24.5t34.5 16.5t36 10.5t57.5 6.5q8 0 22.5 -7.5t24.5 -17.5t11 -21.5t-15 -17.5q-45 -18 -72.5 -28.5 t-51 -19.5t-52.5 -21.5t-74 -36.5q-16 -8 -28 -9q-29 0 -53.5 20.5t-16.5 53.5q4 20 11 47t13.5 50.5t7.5 40t-8 16.5q-14 0 -51 -37q-16 -16 -26.5 -34.5t-26.5 -39.5q-10 -18 -39 -18q-23 0 -44 15t-23 38q-8 31 -23.5 55.5t-38.5 24.5q-12 0 -29 -10q-12 -6 -17 -29 t-4 -45.5t8 -41t20 -18.5h4q4 0 8 1.5t8 1.5q20 0 34.5 -11.5t18.5 -27t-4 -30.5t-33 -22q-16 -4 -24 -4q-41 0 -75 31t-51.5 76t-12 97z" />
<glyph unicode="&#xf708;" d="M-627 1319q2 14 29 20q12 2 31.5 4.5t40 5.5l41 6t32.5 5q20 55 37 115q6 23 39 22q29 0 58.5 -19.5t23.5 -47.5q-6 -29 -20 -58q25 0 38 3t29 3q14 0 39 -6q8 -2 16.5 -13t11.5 -23.5t-1 -24t-19 -15.5q-35 -8 -67.5 -15t-67.5 -7q-18 -55 -33.5 -92t-46.5 -82 q-6 -10 -24 -10q-20 0 -43 14t-23 31q0 37 3 57t16 57h-50h-8q-18 0 -39.5 12.5t-33 28t-9.5 29.5z" />
<glyph unicode="&#xf709;" d="M-560 1261.5q1 32.5 15.5 61.5t37.5 53.5t52 40.5q55 33 128 51.5t145 18.5q23 0 43 -2t39 -6q12 -2 24.5 -14.5t20.5 -26t6 -23.5t-21 -10q-68 -2 -136 -9t-134 -36q31 -8 50.5 -29.5t27.5 -48.5t2 -56.5t-31 -51.5q-47 -43 -117 -44q-41 0 -76.5 16.5t-56.5 51.5 q-20 31 -19 63.5zM-444 1266q-4 -29 3 -38t19 -9q10 0 21.5 4t21.5 8q20 10 24.5 23.5t-0.5 25.5t-18.5 20.5t-27.5 8.5q-12 0 -24.5 -10.5t-18.5 -32.5z" />
<glyph unicode="&#xf70a;" d="M-67.5 1276.5q8.5 31.5 14.5 66.5t11 71t13 73q4 14 17.5 20t29.5 6q23 0 43.5 -11t16.5 -34q-6 -33 -13.5 -68.5t-13.5 -70.5t-10 -67.5t-27 -61.5q-8 -12 -34 -12q-14 0 -27.5 6t-18.5 16q-10 35 -1.5 66.5z" />
<glyph unicode="&#xf70b;" d="M-397 1575q10 53 50 77.5t89 24.5q43 0 86 -17.5t70 -47.5q31 -35 40 -72t5 -71.5t-20.5 -69.5t-41.5 -68q70 10 140.5 14.5t136.5 4.5q14 -2 32.5 -12.5t30.5 -25t10 -26.5t-26 -16q-117 -23 -232.5 -36t-232.5 -30q-10 -2 -33.5 6.5t-44 20.5t-29 28.5t12.5 30.5 q43 33 89 69t64 87q4 10 8.5 28.5t5.5 38t-3.5 37t-16.5 25.5q-10 6 -16 6q-20 0 -33.5 -19.5t-17.5 -33.5q-6 -25 -35 -25q-14 0 -30.5 6.5t-31 15.5t-22.5 22.5t-4 27.5z" />
<glyph unicode="&#xf70c;" d="M-451.5 1330.5q5.5 58.5 48.5 107.5q23 29 48 40t50 11q43 0 83 -26.5t75 -67.5q35 37 73.5 62.5t81.5 25.5q39 0 78 -25q27 -16 39 -41.5t15 -56.5t1 -61.5t-6 -57.5q37 16 57.5 27.5t39 18.5t41 11.5t65.5 6.5q10 2 25.5 -6.5t26.5 -20.5t13.5 -24.5t-16.5 -20.5 q-51 -20 -83 -32.5t-58.5 -23t-58 -24.5t-83.5 -41q-12 -6 -28 -6t-32.5 6t-29 16.5t-18.5 25.5t-2 34q4 23 13 52.5t16.5 56t8.5 45t-9 18.5q-16 0 -58 -41q-16 -16 -29.5 -37.5t-29.5 -44.5q-14 -20 -45 -20q-27 0 -50.5 16t-27.5 41q-6 37 -23.5 63.5t-44.5 26.5 q-14 0 -30 -10q-12 -8 -18.5 -33t-6.5 -51.5t8 -47t23 -20.5h6q4 0 9 1t9 1q23 0 39.5 -13t21.5 -29.5t-4.5 -34t-37.5 -23.5q-16 -4 -27 -4q-47 0 -85 34.5t-58.5 86t-15 110z" />
<glyph unicode="&#xf70d;" d="M-285 1319q2 14 29 20q12 2 31.5 4.5t41 5.5t41 6t31.5 5q12 29 20.5 57.5t16.5 57.5q6 23 39 22q14 0 31.5 -5t30 -14.5t18.5 -21.5t2 -26t-8 -30t-10 -28q25 0 38 3t29 3q12 0 37 -6q10 -2 17.5 -13t10.5 -23.5t-1 -24t-19 -15.5q-35 -8 -67.5 -15t-67.5 -7 q-18 -55 -33.5 -92t-46.5 -82q-6 -10 -24 -10q-20 0 -43 14t-23 31q0 37 4 57t17 57h-50h-8q-20 0 -40.5 12.5t-33 28t-10.5 29.5z" />
<glyph unicode="&#xf70e;" d="M-330.5 1334.5q0.5 31.5 15 61t38 53.5t52.5 40q55 33 127.5 51.5t142.5 18.5q23 0 43.5 -2.5t38.5 -6.5q12 -2 24.5 -14t20.5 -25.5t6 -23.5t-20 -10q-66 -2 -134.5 -9.5t-134.5 -35.5q29 -8 49.5 -30t28.5 -48.5t2 -56t-30 -52.5q-23 -23 -54.5 -33t-64.5 -10 q-41 0 -77 16.5t-56 51.5q-18 33 -17.5 64.5zM-217 1337q-4 -29 3 -38t21 -9q10 0 20.5 4.5t20.5 8.5q20 10 25.5 23t-0.5 25.5t-18.5 20.5t-26.5 8q-33 0 -45 -43z" />
<glyph unicode="&#xf70f;" horiz-adv-x="1239" d="M111 772q0 74 47 124t114.5 82t143.5 45t133 13q158 0 249 -86t91 -245q0 -78 -18.5 -151t-40 -140.5t-40 -129t-18.5 -116.5q0 -37 13.5 -69.5t60.5 -32.5q31 0 55 24q18 18 33.5 79.5t28 144.5t24.5 180.5t25.5 187.5t30 166t36.5 117q12 23 35 22q20 0 48 -15.5 t28 -37.5q0 -33 -5 -105.5t-15.5 -164t-23.5 -191.5t-28.5 -188t-32 -156t-32.5 -92q-31 -47 -77 -64.5t-99 -17.5q-51 0 -98.5 16.5t-82 47t-56.5 73.5t-22 96q0 66 19.5 135.5t42 142.5t42 146.5t19.5 147.5q0 78 -33.5 126t-119.5 48q-37 0 -93.5 -12.5t-108.5 -37 t-89 -60.5t-37 -83q0 -33 23.5 -53t51 -39.5t51.5 -43t24 -62.5t-12.5 -81t-28 -83t-27.5 -81t-12 -75q23 -6 47 -20.5t45.5 -32.5t35 -41t13.5 -49q0 -29 -14.5 -52.5t-36 -40t-48 -24.5t-53.5 -8q-72 0 -126 43t-54 119q0 53 19.5 116.5t42 125t42 115.5t19.5 87 q0 18 -23.5 31.5t-52 34t-52 54.5t-23.5 91zM276 84q0 -14 7 -25l12 -4q16 0 27.5 23.5t11.5 36.5q0 12 -17.5 19t-25.5 13q-15 -32 -15 -63z" />
<glyph unicode="&#xf710;" d="M-630 1338.5q5 58.5 48 103.5t115 45q12 0 26.5 -2t30.5 -6q78 -23 110 -64t26 -112q25 8 67.5 21t88.5 28.5t88 28t67 18.5h4q12 0 27.5 -7.5t26.5 -18.5t13.5 -22.5t-12.5 -17.5q-43 -20 -109.5 -52t-139 -60.5t-145.5 -50t-130 -21.5q-20 0 -31 2q-96 18 -136 73.5 t-35 114zM-513 1319q1 -16 14 -28.5t42 -16.5q16 -4 25 -4q31 0 43 19.5t10 42t-16.5 42t-38.5 19.5q-18 0 -39 -13q-18 -10 -29.5 -27.5t-10.5 -33.5z" />
<glyph unicode="&#xf711;" d="M-566 1286.5q5 59.5 49 108.5t116 49q30 0 55 -8q78 -23 109.5 -65t27.5 -114q-6 -27 -18.5 -51t-33 -40.5t-52 -27t-78.5 -10.5q-98 0 -139 49.5t-36 109zM-450 1276q1 -16 14.5 -29.5t42.5 -17.5q8 -2 22 -2q31 0 44.5 19.5t12.5 42t-16.5 42t-40.5 19.5q-18 0 -39 -13 q-18 -10 -29.5 -27.5t-10.5 -33.5z" />
<glyph unicode="&#xf712;" d="M-768 1220q0 44 19.5 88.5t48.5 71.5q41 39 92 67t110 36q76 10 110 12t54.5 7t45 20.5t83.5 50.5q4 2 15 2q14 0 32.5 -6t32.5 -15.5t19.5 -21.5t-9.5 -25q-45 -41 -77.5 -64.5t-66.5 -34.5t-74 -14t-101 -3q-45 0 -84 -16.5t-72 -45.5l-21.5 -21.5t-26.5 -31.5 t-15 -28.5t12 -12.5q12 0 43 12.5t86 42.5q20 12 33 13q12 0 21 -8.5t22 -18.5q4 -2 11 -12.5t15.5 -20.5t16.5 -17t14 -7q14 4 15.5 18t-4 29.5t-14.5 29t-15 17.5q-27 18 -11.5 34.5t41.5 16.5q16 0 31 -10q31 -23 48.5 -60t17.5 -71.5t-20.5 -60t-65.5 -25.5q-16 0 -27 2 q-20 4 -34.5 13t-27 19.5t-22.5 17.5t-22 7q-4 0 -17 -4q-20 -6 -37.5 -19.5t-34 -25.5t-36 -22.5t-41.5 -12.5h-9q-57 0 -80.5 32t-23.5 76z" />
<glyph unicode="&#xf713;" d="M-291 1327q-10 41 3.5 92.5t21.5 98.5q4 14 17 20t30 6q23 0 43 -11t16 -34q-10 -43 -19 -98t-30 -84q-10 -12 -37 -12q-14 0 -27.5 6t-17.5 16z" />
<glyph unicode="&#xf714;" d="M-510 1507q10 41 39 58.5t63 17.5q35 0 66 -12t51 -35q25 -25 30 -45.5t-1 -39.5t-20.5 -38.5t-32.5 -44.5q25 4 39 6t26 4t26.5 2h39.5q10 -2 24.5 -10t22.5 -17.5t6 -18.5t-21 -13q-43 -8 -74.5 -13t-60 -9.5t-60.5 -9.5t-75 -15q-6 -2 -23.5 4t-32 15.5t-20 20.5 t8.5 23q12 10 43.5 31t59.5 45.5t39 50t-20 43.5q-8 4 -10 4q-16 0 -26.5 -14t-14.5 -24q-4 -18 -26 -19q-23 0 -46.5 15.5t-19.5 37.5z" />
<glyph unicode="&#xf715;" d="M-575.5 1454q-6.5 39 3.5 78t37 59q37 29 74 29q53 0 101 -59q23 27 50 45t56 18q25 0 53 -18q18 -10 26.5 -28.5t10.5 -39t0 -42t-4 -40.5q27 12 41 19.5t26.5 11.5t28 7t43.5 7q6 0 16.5 -5t18.5 -13t9 -16.5t-11 -14.5q-8 -4 -41 -17.5t-69.5 -28.5t-66.5 -27.5 t-34 -12.5q-23 0 -42 15.5t-15 39.5q2 16 9 37t12 39.5t6 30.5t-7 12q-10 0 -39 -29q-12 -12 -20 -26.5t-21 -30.5q-12 -14 -30 -14t-33.5 11t-18.5 28q-4 27 -17 44t-30 17q-12 0 -20 -6q-10 -6 -14.5 -23.5t-3 -36t7.5 -31.5t18 -11h6q10 0 19.5 -9.5t13.5 -20.5t1 -22.5 t-15 -15.5q-18 -6 -37 -6q-43 0 -67.5 28.5t-31 67.5z" />
<glyph unicode="&#xf716;" d="M-391 1520.5q2 11.5 22 15.5t56.5 8t58.5 8q10 25 16.5 46.5t12.5 43.5q6 18 30 19q23 0 45.5 -15.5t16.5 -37.5q-4 -10 -7 -22.5t-7 -22.5q18 0 29.5 2t23.5 2q6 0 12 -1t16 -3q8 -2 14.5 -10.5t8.5 -18.5t-1 -18.5t-15 -12.5q-27 -6 -52.5 -11t-52.5 -5 q-16 -45 -24.5 -74t-36.5 -63q-6 -8 -19 -9q-16 0 -34.5 11.5t-18.5 23.5q0 29 2 45.5t12 44.5h-36h-7q-16 0 -32.5 9.5t-25.5 21.5t-7 23.5z" />
<glyph unicode="&#xf717;" d="M-414.5 1216.5q0.5 32.5 14 61.5t38 53.5t51.5 40.5q53 31 124.5 49.5t143.5 18.5q23 0 44.5 -2t41.5 -6q10 -2 23.5 -14.5t20.5 -26t5 -23.5t-20 -10q-66 -2 -134.5 -9.5t-134.5 -33.5q29 -8 49.5 -29.5t28.5 -49.5t2 -57.5t-30 -52.5q-47 -43 -117 -43q-41 0 -77 16.5 t-56 51.5q-18 33 -17.5 65.5zM-301 1219q-10 -47 22 -48q10 0 21.5 4.5t21.5 8.5q18 10 22.5 23.5t-0.5 25.5t-17.5 20.5t-26.5 8.5q-12 0 -24.5 -10.5t-18.5 -32.5z" />
<glyph unicode="&#xf718;" d="M-469 -219q2 29 16 54.5t43 41.5q33 18 72 19q47 0 91 -26t61 -71q31 -80 14.5 -171t-51.5 -165q-8 -16 -33 -16q-14 0 -29.5 5t-28 13.5t-17.5 18.5t-1 22q10 29 22.5 57.5t18.5 59.5q-39 0 -71.5 10.5t-61.5 38.5q-23 23 -35 51.5t-10 57.5zM-348 -248q-2 -43 33 -43 q18 0 34 8q-2 10 -3 22.5t-3 22.5q-4 20 -12 29.5t-18 9.5q-12 0 -21.5 -13t-9.5 -36z" />
<glyph unicode="&#xf719;" d="M-685 -228.5q7 31.5 28.5 57.5t52.5 43t61 17q43 0 77 -40t34 -140q-4 -78 0 -110.5t14 -32.5q8 0 22.5 30.5t30 74.5t29.5 91.5t25 79.5q4 14 19.5 20.5t31.5 6.5t30.5 -6t14.5 -21q0 -39 -16.5 -105.5t-45 -131t-68.5 -111.5t-87 -47q-37 0 -58.5 25.5t-33 61.5 t-13.5 75t-2 65q-31 -10 -57 -10q-23 0 -44.5 9.5t-35.5 35.5q-16 31 -9 62.5zM-598 -242q0 8 5 -6t22 -14q16 0 31.5 18.5t15.5 34.5q-6 14 -23 14q-16 0 -33.5 -15t-17.5 -32z" />
<glyph unicode="&#xf71a;" d="M-145 -414q0 18 13 30.5t30 12.5q18 0 31.5 -12t13.5 -31q0 -18 -12.5 -30.5t-32.5 -12.5q-18 0 -30.5 12.5t-12.5 30.5z" />
<glyph unicode="&#xf71d;" horiz-adv-x="1126" d="M33 758q0 37 16.5 81t44 80.5t61 61.5t66.5 25q35 0 66.5 -34t54.5 -116q6 -25 13 -76t14.5 -108.5t12.5 -109.5t7 -77q37 104 85 199.5t114 185.5q12 18 39 19q29 0 58.5 -22.5t33.5 -49.5q29 -156 55.5 -308.5t69.5 -301.5q16 37 30.5 98.5t26.5 138t23.5 159.5 t19.5 162t12.5 145.5t4.5 109.5q-47 -23 -96.5 -36t-98.5 -13q-45 0 -88 11t-84 38q-72 47 -90.5 117.5t28.5 144.5q41 66 105.5 102.5t136.5 36.5q86 0 158 -49t112 -121q61 61 101 131q12 20 41 21q14 0 28.5 -5t24.5 -14.5t15.5 -21.5t0.5 -25q-23 -59 -63.5 -117.5 t-93.5 -105.5q4 -59 3 -161.5t-10.5 -222.5t-26.5 -242.5t-45 -226t-68 -174.5t-91 -83q-6 -2 -18 -2q-27 0 -51.5 15.5t-34.5 39.5q-53 141 -85 286.5t-59 293.5q-72 -137 -117.5 -287.5t-86.5 -304.5q-6 -27 -39 -27q-29 0 -61 21.5t-34 48.5q-2 53 -5 136t-7 172t-8 171 t-8 135q-41 -16 -72 -23t-53 -7q-47 0 -67.5 24.5t-20.5 61.5zM147.5 775.5q2.5 -17.5 16.5 -17.5q2 0 3 1t5 1q31 0 48.5 18.5t20.5 40t-7.5 38.5t-30.5 17h-8q-12 -2 -24.5 -20t-19 -39.5t-4 -39zM651 1123.5q8 -21.5 45 -31.5q8 -2 15.5 -3.5t17.5 -1.5q35 0 74.5 13.5 t68.5 25.5l33 16.5t33 18.5q-16 59 -47 102.5t-78 43.5q-43 0 -96 -45q-18 -14 -38 -40t-28 -51.5t0 -47z" />
<glyph horiz-adv-x="608" d="M-558 1253.5q5 59.5 49 108.5t116 49q30 0 55 -8q78 -23 109.5 -65t27.5 -113q-6 -27 -18 -51.5t-32.5 -41t-52.5 -26.5t-79 -10q-98 0 -139 49t-36 108.5zM-441 1243.5q1 -16.5 14 -30t42 -17.5q8 -2 23 -2q31 0 44 19.5t12 42t-16.5 42t-39.5 19.5q-18 0 -39 -12 q-18 -10 -29.5 -27.5t-10.5 -34zM44 849q-5 13 1 25q35 72 90 104t121 32q74 0 145.5 -40t114.5 -112q25 -43 36 -88t12 -92t-5 -94t-14 -95q-20 -119 -45 -240.5t-84 -228.5q-12 -20 -41 -20q-27 0 -51.5 15.5t-22.5 37.5q8 127 39 250t51 246q10 68 16.5 140.5 t-22.5 137.5q-16 37 -44 55.5t-56 18.5q-31 0 -59.5 -19.5t-49.5 -56.5q-6 -12 -18.5 -17t-28.5 -5t-34.5 6t-32 16.5t-18.5 23.5z" />
<glyph />
</font>
</defs>
</svg>
