<?xml version="1.0" standalone="no"?>
<!DOCTYPE svg PUBLIC "-//W3C//DTD SVG 1.1//EN" "http://www.w3.org/Graphics/SVG/1.1/DTD/svg11.dtd" >
<svg xmlns="http://www.w3.org/2000/svg" xmlns:xlink="http://www.w3.org/1999/xlink" version="1.1">
<metadata></metadata>
<defs>
<font id="uid_organicregular" horiz-adv-x="0" >
<font-face units-per-em="2048" ascent="1638" descent="-410" />
<missing-glyph horiz-adv-x="337" />
<glyph unicode="&#x3b;&#x3b;For&#x20;Education&#x20;Used&#x20;Only&#x3b;&#x3b;" horiz-adv-x="759" d="M39 539v75q0 106 10 192.5t47 148t107.5 95t191.5 33.5q170 0 244 -77.5t74 -257.5v-41t-2 -60v-287q0 -369 -252 -368q-242 0 -332 117q-88 113 -88 430zM152 578q0 -25 2 -68t2 -61q0 -197 66.5 -280t221.5 -83q82 0 119 54.5t37 172.5q0 127 -6 256q-2 41 -3 71t-1 50 v49q0 70 -5 117t-29 77t-69 43t-125 13q-210 1 -210 -411zM227 504v80q2 27 2 43v26q0 61 11.5 115.5t30 94.5t44 62.5t56.5 22.5q141 0 141 -108q0 -8 -12.5 -20.5t-30.5 -18.5q-2 -2 -10 -2q-6 0 -15.5 8t-18.5 17.5t-18.5 16.5t-15.5 7q-41 0 -52 -59.5t-11 -172.5v-20 v-42t1 -44.5t1 -34.5v-18q0 -14 3 -54.5t10 -81t21.5 -73.5t36.5 -33q41 0 54 45q12 47 16 47q27 0 45.5 -9t18.5 -24q0 -147 -115 -147q-193 0 -193 377z" />
<glyph unicode="&#x3b;&#x3b;Registered&#x3b;&#x3b;" horiz-adv-x="671" d="M68 774v62q0 84 9 150.5t37.5 113.5t84 72.5t149.5 25.5q78 0 126 -21.5t76 -61.5t38 -95t10 -123q0 -20 -1 -60t-1 -59v-98q0 -53 -5 -110.5t-24.5 -104.5t-59.5 -78t-110 -31q-92 0 -155.5 22.5t-98.5 53.5q-35 35 -51 92q-8 31 -13 57.5t-7 54.5t-3 61.5t-1 76.5z M152 784q0 -68 4 -126t24.5 -103t66.5 -72.5t128 -33.5q76 0 100.5 46t24.5 128q0 16 -1 46.5t-1 47.5q0 23 1 49.5t3 58.5q2 35 3 59.5t1 41.5v36.5t-2 26.5q-8 51 -58.5 84t-130.5 33q-164 -10 -163 -322zM236 1008q0 29 47 28q92 0 133 -35.5t41 -128.5q0 -86 -99 -108 q35 -14 55.5 -32.5t30 -40t11.5 -48.5t2 -57v-17q0 -37 -27 -37q-31 0 -31 48q0 25 -1 46t-8 38.5t-23.5 31t-44.5 19.5q2 -2 2 -43q0 -25 -2.5 -62t-2.5 -53q0 -35 -32 -35q-37 0 -37 53l2 134q0 18 -2 59t-5 87t-6 89.5t-3 63.5zM301 977q2 -47 3 -81t1 -56v-33 q96 0 96 84q0 47 -22.5 66.5t-77.5 19.5z" />
<glyph unicode="&#x3b;&#x3b;Multiply&#x3b;&#x3b;" horiz-adv-x="512" d="M49 188q1 5 17 58q16 37 37.5 82t29.5 63q23 41 55 148q-125 287 -125 327q0 18 27 31.5t47 13.5q31 0 39 -24q4 -14 12.5 -42t22.5 -73t24.5 -73.5t14.5 -39.5q6 23 25.5 78.5t50.5 141.5q16 43 45 43q25 0 44 -15.5t19 -38.5q0 -18 -8 -42.5t-18.5 -51t-21.5 -51.5 t-17 -41q-39 -86 -56 -135q18 -57 56 -154q18 -47 32.5 -88t26.5 -78q6 -18 6 -37q0 -53 -57 -53q-25 0 -37 37q-29 86 -51.5 148.5t-36.5 107.5q-6 -29 -31.5 -94.5t-64.5 -169.5q-12 -33 -37 -33q-23 0 -46.5 16.5t-23.5 38.5z" />
<glyph unicode="&#x3b;&#x3b;Divide&#x3b;&#x3b;" horiz-adv-x="571" d="M49 498q0 57 27 75q35 10 49 11h84q43 -2 78 -3t63 -1h20.5t30 1t28.5 1h15q57 0 58 -47q0 -78 -66 -78h-4q-94 2 -165.5 3t-123.5 1h-26q-14 0 -26.5 1t-22.5 3q-19 4 -19 33zM193 758q0 37 27.5 55t64.5 18q70 0 69 -81q0 -72 -92 -72q-14 0 -16 2q-53 4 -53 78z M195 307q0 35 27.5 53.5t64.5 18.5q70 0 69 -80q0 -72 -92 -72h-16q-53 4 -53 80z" />
<glyph unicode="&#x2018;&#x2018;" horiz-adv-x="241" d="M45 1333q0 47 47 199q18 39 43 39q18 0 35.5 -10.5t17.5 -26.5t-10 -41q-23 -51 -22 -86q0 -29 8 -60.5t26 -62.5q8 -14 9 -29q0 -29 -28 -47t-58 -18q-25 0 -38.5 16.5t-19.5 39t-8 47t-2 40.5z" />
<glyph unicode="&#x2019;&#x2019;" horiz-adv-x="241" d="M37 1505q0 29 27.5 46.5t58.5 17.5q25 0 38 -16.5t20 -39t9.5 -47t2.5 -41.5q0 -27 -13.5 -76t-36.5 -122q-12 -39 -43 -39q-18 0 -35.5 10t-17.5 29q0 2 10 39q23 55 23 86q0 63 -35 123q-8 14 -8 30z" />
<glyph unicode="&#x3b;&#x3b;Trademark&#x3b;&#x3b;" horiz-adv-x="626" d="M20 1452q0 20 23 21h219q8 -8 8 -33q0 -27 -32 -27q-10 0 -30 1t-30 1v-12v-98.5t4 -124.5q6 -135 6 -201q0 -12 -49 -12q-20 0 -20 49q-4 104 -6 202.5t-2 196.5h-37q-37 0 -51 8q-3 2 -3 29zM301 1219v110q2 39 2 68.5v52.5q0 25 43 25h23q25 0 57 -175l6 -43l12 -63 l35 156q14 53 24.5 89t20.5 36h33q29 0 29 -37v-105q2 -35 2 -60.5v-41.5l2 -234q0 -25 -27 -24q-39 0 -39 26v230l6 92q0 4 7 59l-5 2q-2 -20 -4 -35.5t-4 -25.5l-12 -72q-6 -47 -12 -84t-23 -67q-8 -18 -33 -19q-20 0 -30 11q-10 10 -45 225q-4 14 -5.5 33.5t-1.5 33.5h-4 l7 -67q0 -68 4 -148t4 -178q0 -20 -37 -20q-16 0 -20.5 3t-6.5 21q-4 53 -6 109.5t-2 116.5z" />
<glyph unicode="&#xe24;&#xe32;" horiz-adv-x="1157" d="M92 179q-4 87 19 198q10 53 21 107.5t22 109.5q23 111 25.5 210t-42.5 175q-16 18 -3 46t46 44q63 33 143 56.5t160 23.5q47 0 90 -10.5t78 -36.5q57 45 131 45q43 0 85 -16.5t77 -46t60.5 -72.5t35.5 -97q10 -45 11.5 -144t-4 -227t-14.5 -269.5t-19 -270.5 t-20.5 -231.5t-16.5 -151.5q0 -23 -15.5 -33t-37.5 -10q-31 0 -60.5 18.5t-29.5 49.5q0 55 3 147t7 202.5t10 230.5t10 232.5t7 208t3 154.5q0 8 -6 41t-18 70t-29.5 65.5t-40.5 28.5q-18 0 -26 -14q-8 -12 -19 -19q0 6 4 -14q6 -27 6 -94.5t-3 -160.5t-9 -205.5t-14 -228.5 t-17.5 -229.5t-17.5 -208t-16.5 -164t-12.5 -98.5q-4 -27 -27.5 -39t-52.5 -12q-27 0 -48 12.5t-21 38.5q0 35 6 110t15.5 172t19.5 212t18 230.5t12.5 226t1 200.5t-16.5 153.5t-38 84.5q-25 20 -53.5 27.5t-56.5 7.5q-35 0 -95 -17q23 -68 26 -132t-4 -127.5t-22.5 -125 t-29.5 -120.5q-8 -33 -24.5 -97.5t-20.5 -131t13 -122t75 -71.5q25 -8 33 -26.5t4 -37t-19.5 -33t-40.5 -14.5q-117 12 -166 74q-47 59 -51 146z" />
<glyph unicode="&#xe26;&#xe32;" horiz-adv-x="1363" d="M88 97q0 16 12.5 26t33 15t40.5 5q18 0 49 -10q6 -6 13.5 -11t15.5 -9q18 57 34.5 130.5t29 154.5t18.5 163t5 156t-12.5 134t-33.5 97q-10 16 -7 33.5t12 33t21.5 29t20.5 21.5q72 31 151.5 52.5t157.5 21.5q59 0 114.5 -15.5t98.5 -52.5q57 51 137 51q43 0 85 -16 t77 -47t60.5 -74t35.5 -96q10 -45 11.5 -144.5t-3.5 -227.5t-14.5 -269.5t-19.5 -270.5t-20.5 -231t-16.5 -152q0 -23 -15.5 -33t-37.5 -10q-31 0 -60.5 18.5t-29.5 49.5q0 55 3 147.5t7 203t10 230t10 232.5t7.5 208t3.5 155v38.5t-8.5 65.5t-27 62.5t-55.5 27.5 q-10 0 -30 -4l-31 -27l2 -2q0 -2 1 -3t1 -5q35 -104 26 -221t-26 -221q-6 -41 -15 -112.5t-20.5 -161t-23 -184.5t-22.5 -184t-20 -161t-16 -113q0 -29 -25.5 -41t-53.5 -12q-31 0 -56.5 12.5t-25.5 40.5q6 51 15 135.5t19.5 183.5t20.5 207.5t21.5 209t21.5 184.5t18 135 q6 43 8.5 89t-4 89t-24 81t-49.5 67q-20 18 -47 25.5t-58 7.5q-49 0 -123 -23q31 -90 31 -221t-18.5 -267.5t-49 -258t-61.5 -193.5q0 -35 -29.5 -52.5t-64.5 -17.5q-53 0 -102.5 19.5t-84.5 72.5q-18 18 -18 34z" />
<glyph horiz-adv-x="1000" />
<glyph unicode="&#xd;" horiz-adv-x="579" />
<glyph unicode=" "  horiz-adv-x="337" />
<glyph unicode="&#x09;" horiz-adv-x="337" />
<glyph unicode="&#xa0;" horiz-adv-x="337" />
<glyph unicode="!" horiz-adv-x="305" d="M61 -20q4 16 4.5 34.5t3.5 37t10 34t25 27.5q20 10 54 10q23 0 41 -4t22 -15q6 -10 12.5 -36.5t9.5 -55t0 -54.5t-18 -34q-20 -12 -51 -12q-29 0 -59.5 11t-48.5 26zM74 483q0 199 12 555q2 57 33 58q4 0 14 -2t22.5 -7.5t23.5 -12.5t18 -17l53 -105q-2 -37 -4 -90 q-2 -90 -13 -272q-14 -362 -30 -406q-6 -18 -19 -24h-6q-27 0 -49.5 19.5t-32.5 41.5q-23 41 -22 262z" />
<glyph unicode="&#x22;" horiz-adv-x="415" d="M57 1178q0 20 6 43q10 41 12.5 80.5t8.5 80.5q4 25 9.5 31t25.5 6q53 -8 86 -67q10 -16 10 -33q0 -6 -2 -14q-4 -14 -11 -49t-18.5 -71t-25 -62.5t-31.5 -26.5q-12 0 -35 16q-29 20 -32 38.5t-3 27.5zM221 1178q0 20 6 43q10 41 12.5 80.5t8.5 80.5q4 25 9.5 31t25.5 6 q53 -8 86 -67q10 -16 10 -33q0 -6 -2 -14q-4 -14 -11.5 -49t-18.5 -71t-25.5 -62.5t-30.5 -26.5q-14 0 -35 16q-29 23 -32 40t-3 26z" />
<glyph unicode="#" horiz-adv-x="794" d="M25 395q0 8 15 12.5t34.5 6.5t38 3t24.5 1q18 43 34.5 88t35.5 88q-29 10 -49.5 16t-34.5 17.5t-20.5 30t-6.5 53.5q0 10 5 17t16 7q35 0 67.5 -4t67.5 -4q23 0 39 43t30.5 94t26.5 94t27 43q20 0 34.5 -11t24.5 -27.5t15.5 -36t5.5 -35.5q0 -35 -13.5 -66.5t-19.5 -64.5 h98q6 16 17.5 53t23.5 75t25.5 69.5t25.5 39.5q18 0 36 -10t31 -26.5t20.5 -35t7.5 -36.5l6 20q-4 -35 -15.5 -66.5t-19.5 -64.5q37 -16 65.5 -33.5t28.5 -66.5q0 -18 -17.5 -21.5t-41 -4.5t-45 -4t-31.5 -19q-20 -35 -29.5 -76t-23.5 -80q84 -41 84 -133l-6 -16 q-55 -14 -121 -15q-14 0 -34 -36.5t-38 -85t-32.5 -92.5t-20.5 -60l-19 -4q-35 10 -57.5 40.5t-22.5 65.5q0 41 10.5 80t10.5 80q-27 -4 -58.5 -5t-48.5 -28q-6 -10 -17 -43t-23.5 -66.5t-25.5 -60t-26 -26.5q-12 0 -23.5 8t-20.5 20.5t-15 26.5t-6 24q0 35 9 67t15 65 q-35 14 -54 46.5t-19 69.5zM307 449l32 4t32 6q12 4 24.5 24.5t22.5 46t18 50t10 36.5q-20 -4 -38.5 -5t-38.5 -5z" />
<glyph unicode="$" horiz-adv-x="573" d="M31 156q0 14 17.5 21t37.5 7q18 0 32.5 -5t18.5 -15q6 -12 13.5 -31.5t18.5 -38t24.5 -32t29.5 -15.5q-8 0 5.5 6t19.5 10q31 25 49 52q61 92 47 193.5t-86 185.5q-25 29 -51.5 54t-52 52t-47 56.5t-35.5 66.5q-25 68 -12.5 136.5t65.5 121.5q23 23 48.5 37t53.5 24 q-4 59 -9 123t7 123q4 14 20.5 20.5t37.5 6.5q16 0 30.5 -5t18.5 -16q23 -53 21.5 -117.5t2.5 -123.5q4 0 7.5 -1t7.5 -1q66 -18 104.5 -66.5t67.5 -107.5q4 -8 -3.5 -16.5t-20.5 -14.5t-30.5 -10.5t-33.5 -4.5q-39 0 -45 19q-6 16 -19.5 36.5t-32 40t-39 33t-38.5 13.5 q-29 0 -47.5 -31t-22.5 -65q-10 -86 33 -152t98 -121q41 -41 76 -87t56.5 -96t25.5 -105.5t-17 -114.5q-25 -74 -81 -131.5t-128 -79.5h19q20 0 35.5 -6.5t15.5 -20.5q-2 -41 -1 -84t-9 -84q-4 -16 -28.5 -20t-35.5 -4q-14 0 -33.5 3t-23.5 19q-6 37 -3 78t5 80q0 18 29 29 h-6q-27 -6 -52 -7q-76 0 -117.5 48.5t-37.5 134.5z" />
<glyph unicode="%" horiz-adv-x="618" d="M30 78.5q-1 20.5 7 40.5q10 23 34.5 73t65.5 127q41 78 85 158t91 166t97.5 168t95.5 172l6 12q2 2 2 4t2 5q6 8 16 8q29 -14 43 -43q16 -31 7 -62l-4.5 -9t-4.5 -13q-2 -16 -12 -33q-33 -53 -76 -142t-108 -212q-66 -123 -114 -213t-77 -148q-59 -117 -98 -129 q-12 -4 -20 -4q-20 0 -31 31q-6 23 -7 43.5zM56 694q-3 19 1 35q4 27 21.5 61.5t43 66.5t56.5 53.5t60 21.5q27 0 46 -14.5t29 -36.5q23 -51 15 -95q-6 -27 -22.5 -60.5t-41 -63t-54.5 -50t-60 -20.5q-70 0 -87 65q-4 18 -7 37zM129 649q29 10 52.5 31.5t43 49.5t31.5 58.5 t14 61.5q-41 -14 -80.5 -56t-52.5 -87q-4 -16 -7 -31t-1 -27zM293 180q16 59 38.5 99t63.5 86l17 10q18 16 32.5 21t38.5 5q29 0 62 -36q31 -33 26 -70q-2 -39 -18 -81t-42 -77t-60.5 -57.5t-77.5 -22.5q-33 0 -51.5 34t-24.5 63q-2 8 -2 15t-2 11zM367 121q27 6 51 27.5 t42.5 49t31 59.5t14.5 58q-18 -4 -39 -19t-39 -36.5t-32.5 -44t-18.5 -39.5q-4 -16 -8 -29.5t-2 -25.5z" />
<glyph unicode="&#x26;" horiz-adv-x="638" d="M14 194.5q2 38.5 13.5 76.5t25.5 69q27 59 65 110.5t81 100.5q-4 16 -7.5 30.5t-5.5 30.5q-12 55 -17 123t8 130.5t50 110.5t107 66q25 6 53 7q41 0 81 -14.5t64 -43.5q18 -23 23.5 -49.5t2.5 -54t-13 -54t-23 -51.5q-35 -72 -84 -131t-102 -119q14 -53 32.5 -105 t43.5 -101q6 -12 12 -24.5t12 -27.5q12 12 25.5 23.5t25.5 24.5q12 12 48 12q16 0 32.5 -3t28.5 -8.5t17 -12.5t-3 -15l-53.5 -53.5t-69.5 -65.5q23 -45 41.5 -89t36.5 -91q4 -12 -5 -17.5t-23 -5.5q-20 0 -43 6.5t-29 14.5q-18 25 -35.5 50.5t-36.5 51.5 q-53 -39 -107.5 -65.5t-107.5 -26.5q-68 0 -121 53q-27 27 -36 63t-7 74.5zM154 156q0 -12 7 -41t23 -29t39 14.5t46.5 32t43 34.5t27.5 23q-29 53 -54.5 109.5t-45.5 116.5q-16 -23 -30.5 -48.5t-27.5 -52.5q-16 -37 -24 -77.5t-4 -81.5zM299 769q2 -44 6 -85q0 -6 2 -8 q16 23 32.5 45t33.5 47q10 16 22.5 39.5t21.5 49.5t11 51.5t-6 43.5q-12 27 -29 27q-14 0 -28.5 -16.5t-26.5 -37t-20.5 -41t-10.5 -30.5q-10 -41 -8 -85z" />
<glyph unicode="'" horiz-adv-x="233" d="M41 997q0 35 25 226q4 25 10 31t26 6q16 -2 34 -11.5t32 -24t24.5 -30.5t10.5 -33q0 -10 -2 -16q-4 -14 -12.5 -49t-18.5 -70t-25.5 -62.5t-33.5 -27.5h-2q-18 0 -43 21.5t-25 39.5z" />
<glyph unicode="(" horiz-adv-x="342" d="M16 555q0 119 29 265l29 147l70 94q69 94 135 133q74 35 118 35q14 0 35 -7.5t21 -13.5q0 -23 -93 -96q-176 -207 -176 -532q0 -41 13.5 -254t61.5 -303.5t71 -98.5q12 -4 24.5 -12t24.5 -14l-8 -21q-12 -6 -21 -6q-25 4 -61 10q-201 33 -237 284t-36 390z" />
<glyph unicode=")" horiz-adv-x="335" d="M-117 1208q0 6 20.5 13.5t35.5 7.5q45 0 118 -35q66 -39 135 -133l70 -94l28 -147q29 -146 29 -265q0 -139 -35.5 -390t-236.5 -284q-37 -6 -61 -10q-8 0 -21 6l-8 21q12 6 24.5 14t24.5 12q23 8 71 98.5t61.5 303.5t13.5 254q0 326 -177 532q-92 74 -92 96z" />
<glyph unicode="*" horiz-adv-x="636" d="M72 694q0 5 8 11q41 31 82 59.5t82 58.5q-29 27 -54.5 53.5t-58.5 49.5q-8 6 -8 10q0 12 22.5 16t32.5 4q27 0 39 -12q18 -18 36.5 -32.5t35.5 -30.5q8 31 15 61.5t11 61.5q2 20 41 20q20 0 36 -6t16 -17v-6q0 -16 -5.5 -34.5t-9.5 -34.5q20 10 39 22.5t39 24.5 q16 10 37 10q10 0 30.5 -6t20.5 -19q0 -4 -6 -10q-41 -41 -87 -68.5t-91 -58.5q-4 -4 -4 -12q4 -6 7 -10t7 -8q23 -23 43.5 -41.5t42.5 -40.5q18 -18 36.5 -35t22.5 -39v-4q0 -14 -26 -15q-20 0 -42 11.5t-42.5 28t-37.5 34t-30 31.5q-10 -43 -16 -82t-25 -76 q-6 -12 -28 -12q-29 0 -40.5 12t-11.5 39q0 29 9.5 66t17.5 77q-25 -16 -48.5 -34.5t-47.5 -34.5q-8 -6 -29 -6q-27 0 -44 9t-17 15z" />
<glyph unicode="+" horiz-adv-x="507" d="M41 483q-10 14 0 37t17.5 35t14.5 18.5t19 8.5t31 2h22.5t24.5 2q18 25 29.5 46t21.5 42q10 18 22.5 35.5t24.5 33.5l33 15q2 0 4 -2q10 0 17 -2q37 -14 54 -47t1 -68q-4 -10 -7 -21.5t-8 -21.5q12 -6 24.5 -7t23.5 -1h32q20 0 25 -2q12 -27 5 -48.5t-23 -43.5 q-4 -6 -12.5 -7.5t-16.5 -3.5q-29 -2 -55.5 -4t-55.5 -4q-27 -59 -48 -115.5t-44 -113.5q-8 -25 -31 -25q-14 0 -22 8q-29 29 -42 59.5t-3 71.5q6 27 12 52.5t12 54.5h-67q-25 2 -35 16z" />
<glyph unicode="," horiz-adv-x="251" d="M27 -154q0 4 2 11q4 14 22.5 47t31.5 67.5t17 52t4 21.5q0 14 -12 14l-22 -12q-12 -4 -19 -4q-12 0 -16 7t-4 13q0 4 1 11.5t9 17.5t20 17q25 12 52 12h8q41 0 71.5 -23.5t30.5 -64.5v-6q0 -63 -20.5 -110.5t-63.5 -88.5q-10 -10 -41 -10q-29 0 -50 9t-21 19z" />
<glyph unicode="-" horiz-adv-x="526" d="M51 565q8 33 41 39q29 4 56.5 9t56.5 8q61 4 122.5 8t123.5 8q10 0 19 1t19 3q16 -29 12.5 -55.5t-14.5 -53.5q-4 -10 -10 -12t-16 -4q-45 0 -88 -1t-88 -3h-152q-14 0 -28.5 2t-28.5 4q-37 8 -25 47z" />
<glyph unicode="." horiz-adv-x="239" d="M37 96l8 23q16 20 30.5 47t45.5 27q16 0 41.5 -19.5t25.5 -36.5q0 -10 -6 -30.5t-15 -42t-20.5 -38t-23.5 -16.5q-31 0 -53.5 30t-32.5 56z" />
<glyph unicode="/" horiz-adv-x="677" d="M34 -32.5q-9 28.5 1 63.5q29 104 55.5 207.5t54.5 207.5q37 131 83 257t96 255q53 135 106 269.5t105 269.5q12 20 22 21q6 0 23 -11q51 -31 51 -118q-4 -16 -9.5 -41t-15.5 -52q-78 -236 -157.5 -463t-159.5 -460q-39 -111 -78 -216.5t-76 -215.5q-2 -4 -3 -10.5 t-5 -12.5q-12 -23 -33 -22q-18 0 -31 16q-20 27 -29 55.5z" />
<glyph unicode="0" horiz-adv-x="600" d="M59 428q0 57 6.5 138t23.5 174.5t40 168t45 115.5q23 41 39 57.5t47 16.5q18 0 43 -5.5t59 -13.5q63 -14 112.5 -87.5t79.5 -180t35 -188.5t5 -121q0 -82 -14.5 -178.5t-59.5 -187.5t-123 -132q-49 -27 -108 -27q-37 0 -72.5 13.5t-62.5 46.5q-43 51 -64.5 132t-26 149.5 t-4.5 109.5zM211 365q0 -8 1 -58.5t17.5 -128.5t53.5 -123q4 2 6 2t6 2l31 25q14 10 22 24.5t17 28.5q43 76 63.5 176.5t20.5 202.5q0 14 -2.5 82t-28 181.5t-72.5 197.5q-4 6 -8 6t-13.5 -6t-27.5 -29l-2 2q0 -4 -1 -5t-1 -5q-6 -20 -20.5 -81.5t-28 -144.5t-23.5 -175.5 t-10 -173.5z" />
<glyph unicode="1" horiz-adv-x="337" d="M63 741v4q42 164 140 295q12 16 49 17q23 0 40 -8.5t19 -26.5q4 -51 4 -114.5v-110.5v-112t-2 -148.5t-5 -163.5t-9 -159t-14.5 -134.5t-20.5 -89.5q-6 -16 -35 -17q-16 0 -31.5 7.5t-19.5 21.5q-14 41 -13 89t1 89q0 27 1 77t7 128q4 57 7 113.5t7.5 107.5t6.5 96.5 t2 77.5q-2 -6 -10.5 -25.5t-17.5 -40t-18.5 -36.5t-15.5 -16q-12 0 -24.5 9t-22.5 22.5t-17.5 26.5t-7.5 21z" />
<glyph unicode="2" horiz-adv-x="579" d="M100 39q25 147 83.5 282.5t111.5 270.5q12 35 26.5 74t26.5 79.5t17.5 81.5t-0.5 80q0 4 -3.5 14.5l-7.5 22.5t-8 21.5t-8 11.5q0 8 -2 8t-9.5 -7t-15.5 -16.5t-14 -17.5t-8 -10q-29 -29 -40 -70t-30 -78q-8 -18 -43 -18q-29 0 -54.5 11.5t-19.5 31.5q14 45 32 87 t44.5 74t63.5 51t90 19q55 -4 89 -27.5t51 -58t20.5 -78.5t-5.5 -87q-18 -94 -52 -184.5t-70.5 -177.5t-71.5 -176t-55 -183h22q20 0 48 -1t57.5 -3.5t56.5 -3.5t45 -1h21.5t27.5 -3t25.5 -8t13.5 -15q6 -18 -10.5 -24.5t-30.5 -8.5q-12 -2 -27.5 -2h-31.5q-59 0 -130 3 t-122 3h-27q-8 0 -22.5 1t-26.5 5t-20.5 10.5t-6.5 16.5z" />
<glyph unicode="3" horiz-adv-x="518" d="M61 842q0 4 2 8q18 35 32 70.5t36.5 62.5t54 43t76.5 16t89 -16t77 -55q23 -27 31 -57.5t8 -61.5q0 -4 -1 -22.5t-8 -51.5t-16 -59q-18 -62 -57 -115q61 -10 94 -59t39 -97.5t6 -76.5q0 -41 -10 -101.5t-43 -125t-83 -107.5t-114 -43q-10 0 -20 1t-21 3q-43 8 -74.5 34.5 t-51 62.5t-25.5 69t-6 57q0 18 2 37q2 14 20 14t42 -12t28 -24q31 -92 57.5 -131t50.5 -39q29 0 51.5 39.5t39 97t23.5 114t7 93.5v18q0 55 -10 78.5t-33 23.5q-20 0 -71 -22q-2 -2 -13 -2q-12 0 -32.5 5t-37 14.5t-21.5 16.5t-5 9q0 6 10 12q70 43 110 119t44 168 q0 16 -1 37.5t-6 40t-14.5 31t-23.5 12.5q-12 0 -31 -13q-35 -25 -51 -65.5t-33 -81.5q-6 -14 -33 -14q-29 0 -56.5 13t-27.5 32z" />
<glyph unicode="4" horiz-adv-x="520" d="M66 520v16.5t2 16.5q25 121 23.5 237.5t8.5 239.5q2 16 18.5 27.5t39.5 1.5l80 -35v-2q0 -47 -9.5 -113.5t-15.5 -140.5t-9 -135.5t-3 -104.5v-43q0 -10 51 -10q47 0 78.5 6t31.5 11l-4 4q2 2 4.5 37.5t2.5 88v113t-1.5 113.5t-1.5 89v40q0 29 3 35q0 16 19 23t44 7 q29 0 53.5 -9t24.5 -25q0 -252 -2 -403.5t-2 -207.5q0 -98 3 -195.5t7 -195.5q0 -16 -15.5 -22.5t-37.5 -6.5q-27 0 -51.5 9.5t-28.5 27.5q-8 37 -13.5 72t-7.5 78t-2 98v131q-18 0 -52 2t-69.5 6.5t-66.5 8.5t-43 10q-49 23 -54 50t-5 50z" />
<glyph unicode="5" horiz-adv-x="616" d="M63 100q2 16 17.5 22.5t38.5 6.5t45 -9t26 -26q16 -59 46 -59q27 0 57.5 37t60 94t53 126.5t35 133t5 115t-36.5 71.5q-8 8 -27 9q-18 0 -35.5 -12.5t-33 -31t-28 -37t-18.5 -30.5q-6 -10 -33.5 -18.5t-56.5 -8.5q-23 0 -39 7.5t-16 23.5q-2 78 -2 143.5t1 130t2 131 t1 142.5q0 16 21.5 22.5t56.5 6.5q41 0 91 -7.5t98 -14.5t86 -14t52 -7q29 -2 40.5 -12.5t8 -23t-16.5 -21.5t-36 -9h-6q-59 4 -119.5 7t-119.5 7q0 -53 -2.5 -91t-4.5 -72.5t-4 -72.5t-2 -91q53 29 115 28q27 0 56.5 -6t57 -18.5t50 -30.5t35.5 -43q18 -35 15 -91 t-21.5 -123t-49 -135.5t-64.5 -125.5t-69 -99t-63 -53q-31 -12 -78 -12q-33 0 -69 7t-63.5 24.5t-44 44t-12.5 65.5z" />
<glyph unicode="6" horiz-adv-x="499" d="M61 195v43q0 199 19.5 393t54.5 389q2 16 22.5 24.5t45.5 8.5q31 0 54.5 -8.5t23.5 -22.5v-4q-16 -104 -29.5 -202.5t-22.5 -203.5q47 31 103 31q166 0 166 -170q0 -49 -8.5 -124t-31 -148.5t-59.5 -133t-96 -77.5q-25 -8 -63 -8q-41 0 -80 13t-68 42q-25 25 -26 55.5 t-3 59.5q-2 23 -2 43zM211 156.5q0 -21.5 2 -42t7.5 -34.5t15.5 -14q14 0 32 30q20 35 35.5 83t27 101.5t16.5 104.5t5 90q0 4 -1 16.5t-6 24.5t-16.5 22.5t-31.5 10.5q-27 0 -76 -25q-4 -86 -7 -167t-3 -167v-33.5z" />
<glyph unicode="7" horiz-adv-x="555" d="M90 -16q0 49 12.5 106t33 121.5t44 133.5t47.5 138q47 141 98.5 269.5t86.5 216.5q-57 -4 -113.5 -4t-114.5 -2q-16 0 -34.5 6t-18.5 24v6q0 10 11.5 16.5t25.5 9.5t28.5 4t20.5 1q72 4 140.5 5t138.5 7h12q25 0 44 -6t19 -20q0 -6 -2 -8q-59 -123 -96 -254t-78 -260 t-84 -257t-90 -255q-4 -12 -27.5 -19.5t-48.5 -7.5q-23 0 -39 6.5t-16 18.5v4z" />
<glyph unicode="8" horiz-adv-x="593" d="M80 208.5q-6 74.5 16 139.5q25 78 67 148.5t89 136.5q-16 14 -31.5 27.5t-32.5 25.5q-72 53 -92 108.5t29 118.5q49 66 103.5 100t140.5 34q49 -4 98 -30t72 -73q29 -4 48 -13t11 -26q-41 -72 -92 -137.5t-98 -132.5q61 -66 90 -125q35 -72 41 -140.5t-9.5 -130 t-53.5 -112.5t-93 -88q-27 -16 -57.5 -27.5t-63.5 -11.5q-35 0 -67.5 14.5t-61.5 53.5q-47 66 -53 140.5zM226 196.5q5 -49.5 32 -92.5q4 -4 7 -8t5 -6q10 8 21.5 14.5t21.5 16.5q53 53 73 127t1 155q-14 68 -49 123q-35 -55 -65.5 -113.5t-43.5 -123.5q-8 -43 -3 -92.5z M241.5 811q-2.5 -37 32.5 -68q8 -6 16.5 -13t14.5 -13q33 47 65.5 94t71.5 88q-8 55 -57 55q-31 0 -64.5 -21.5t-55 -53t-24 -68.5z" />
<glyph unicode="9" horiz-adv-x="518" d="M40 628.5q-1 63.5 14.5 131t42 127t60 104t68.5 60.5q20 10 43 10q31 0 51 -14q18 -12 22.5 -26.5t-15.5 -25.5q-41 -18 -73 -75.5t-50.5 -128t-21.5 -144.5t14 -125q8 -27 20 -26q16 0 31.5 27.5t25.5 43.5q43 78 69 172.5t40 180.5q4 29 5 59.5t5 58.5q2 16 20.5 24.5 t41.5 8.5q29 0 52 -10t21 -27q0 -25 -3 -49t-5 -49q-6 -115 -7 -230.5t0 -232.5t0 -231.5t-9 -229.5q0 -14 -15.5 -21t-35.5 -7q-25 0 -48.5 10t-27.5 31q-27 113 -23 227.5t8 224.5q-29 -29 -62.5 -48t-74.5 -19t-90 24q-47 27 -69.5 79t-23.5 115.5z" />
<glyph unicode=":" horiz-adv-x="327" d="M25.5 283q-6.5 20 9.5 59q10 25 21.5 51.5t31.5 46.5q6 6 21 6q23 -2 38 -15t31 -30q6 -6 2 -22q-10 -43 -23.5 -83t-27.5 -85q-8 -6 -18 -6q-18 0 -31 16q-2 2 -5 6t-12 9q-31 27 -37.5 47zM129 651q4 10 9.5 29t13.5 37q10 20 21 37.5t24 36.5q6 14 22 14 q43 -10 57.5 -32.5t6.5 -57.5q-8 -37 -15.5 -75t-15.5 -75q-4 -23 -13.5 -33t-31.5 -10q-35 27 -56.5 54.5t-21.5 74.5z" />
<glyph unicode=";" horiz-adv-x="385" d="M20 180q39 12 64 35t40 52.5t25.5 62t20.5 63.5h10q33 0 55.5 -21.5t20.5 -54.5t-11 -67.5t-27.5 -63t-45.5 -49t-63 -22.5q-35 0 -54.5 16t-34.5 49zM184 647q6 29 12.5 54.5t24.5 48.5q10 12 18.5 23t18.5 26q10 12 23 12h10q31 -8 55 -43q8 -10 4 -22.5t-8 -22.5 q-10 -35 -19.5 -71t-19.5 -72q-4 -10 -6 -21.5t-18 -15.5q-12 0 -22.5 2t-18.5 14q-10 12 -20.5 24.5t-20.5 26.5q-4 10 -6.5 20.5t-6.5 16.5z" />
<glyph unicode="&#x3c;" horiz-adv-x="536" d="M51 442v7q0 27 15.5 39t37.5 28q80 57 162 112.5t162 112.5q8 6 14.5 12.5t16.5 14.5q41 -29 42 -47.5t1 -20.5q0 -35 -33 -65q-49 -47 -105.5 -83t-111.5 -73l-25 -16q16 -8 28.5 -14.5t27.5 -10.5q31 -8 53 -29.5t41 -46.5q12 -16 12 -32q0 -2 -1 -13.5t-9 -29.5 q-4 -10 -10.5 -19.5t-14.5 -21.5l-19 19t-20 18q-51 41 -109.5 67.5t-119.5 42.5q-27 6 -31 15.5t-4 33.5z" />
<glyph unicode="=" horiz-adv-x="608" d="M76 473q8 35 41 39l28 4q8 2 14.5 3t14.5 3l55 6l246 17q59 0 53 -51q-4 -23 -11 -44.5t-32 -25.5h-88q-23 -2 -44 -2t-44 -2h-151q-18 0 -29 2q-8 0 -14 1t-15 3q-36 6 -24 47zM98 627q-6 45 11 73q4 -2 20 -2q4 -2 18 -2l246 -16q10 -2 29 -2q8 -2 14 -2t15 -2 q8 -2 14 -2t14 -2q16 -4 27 -6q33 -6 41 -39q8 -39 -25 -47q-6 -2 -51 -3h-55.5t-75.5 -2h-51q6 -2 22 -2h-104h32.5t49.5 2h-33q-20 0 -31 2h-88q-37 7 -39 52z" />
<glyph unicode="&#x3e;" horiz-adv-x="507" d="M20 319q-6 53 20 83t71 44q57 16 113.5 32t115.5 32q-2 2 -6 5t-8 7q-25 25 -52.5 45.5t-52.5 44.5q-16 16 -27.5 36t-25.5 36q-23 29 2 59q10 12 17.5 24.5t27.5 16.5q4 -25 20.5 -41t32.5 -32q41 -35 78 -71t78 -77q14 -14 28.5 -24.5t30.5 -26.5q4 -4 7.5 -7t5.5 -7 q6 -16 -10.5 -44t-36.5 -34q-59 -18 -117 -28.5t-117 -26.5q-41 -10 -90 -29t-78 -53q-27 8 -27 36z" />
<glyph unicode="?" horiz-adv-x="536" d="M42 813q7 39 32.5 85t66.5 85t98.5 65.5t125.5 26.5q35 0 60.5 -24.5t41.5 -59.5t24.5 -72.5t8.5 -66.5q0 -76 -36 -170t-80 -193.5t-84 -196.5t-48 -183q0 -8 -2 -24.5t-5 -33t-9.5 -30t-18.5 -13.5q-14 0 -26.5 16.5t-20.5 38t-12 43t-4 33.5q0 68 8 135.5t28 133.5 q6 23 24.5 68.5t42.5 102t49.5 118t47 113.5t35.5 90t14 46q0 16 -14 17q-29 0 -62.5 -17.5t-66.5 -43t-58.5 -55.5t-37.5 -54q-10 -18 -17.5 -37t-23.5 -33q-8 -2 -25 -2q-37 0 -50 26.5t-6 65.5zM104 -188q6 27 7.5 53t8.5 46.5t25.5 33t57.5 12.5q31 0 48 -13.5t25.5 -33 t9.5 -44t1 -48.5q0 -39 -14.5 -56.5t-55.5 -17.5q-29 0 -57.5 10t-50.5 27z" />
<glyph unicode="@" horiz-adv-x="987" d="M31 203q0 35 11 125t40 155q33 76 86 157t121.5 148.5t150.5 110.5t174 43h25q23 2 41 2q188 0 218 -82l89 -246l-101 -158q-102 -157 -136.5 -182.5t-69.5 -25.5q-49 0 -74 39q-12 20 -23.5 38.5t-23.5 39.5q-6 -4 -11 -10.5t-11 -12.5q-29 -29 -51.5 -62.5t-49.5 -64.5 l-21.5 -21.5t-28.5 -26.5t-31.5 -22.5t-28.5 -9.5q-20 0 -50 23q-43 33 -43 82q0 14 5 32q18 86 51 172t86 154q41 53 101.5 53t89 -15t50.5 -38q14 14 19 16q8 4 37 41q20 8 33 9q25 0 24 -29q0 -6 -4 -40t-14 -60q-10 -29 -20.5 -57.5t-20.5 -57.5q-6 -16 -9.5 -30.5 t-7.5 -26.5q16 8 31.5 16t26.5 20q119 143 129 258q0 6 -4.5 73t-73 82t-107.5 15q-45 0 -100 -19t-100 -56q-94 -78 -150.5 -166t-97.5 -199q-41 -113 -41 -199q0 -53 28.5 -130.5t72.5 -80t46 -2.5q86 0 289 220q25 12 43 12q37 0 60 -49q6 -14 6 -25q0 -4 -2 -14t-13 -25 q-76 -106 -165 -165.5t-175 -59.5q-43 0 -137 23.5t-141 114.5t-47 194zM358 289q104 139 134 169t75 77q-20 12 -67 28q-35 -10 -81 -107.5t-61 -166.5z" />
<glyph unicode="A" horiz-adv-x="538" d="M43 -10q0 133 17.5 274.5t50.5 270.5q6 20 16 62t24.5 95t30 110.5t29.5 106.5t26.5 85t20.5 44q12 16 25.5 18.5t31.5 2.5t38 -4t30 -27q20 -47 36.5 -127t31 -176t24.5 -202.5t17.5 -206t11.5 -185.5t4 -141q0 -18 -21.5 -22.5t-31.5 -4.5q-53 0 -63.5 18.5t-10.5 71.5 q0 55 -6 122t-10 122q-39 -10 -78 -15.5t-78 -19.5l-6 -6q-2 -18 -6 -59t-8.5 -85t-8.5 -81t-10 -47q-10 -20 -22.5 -23.5t-30.5 -3.5q-6 0 -18.5 1t-25 4t-21.5 10.5t-9 17.5zM219 334q35 10 71 16t70 6q-10 104 -24 205t-31 203q-25 -109 -48.5 -214t-37.5 -216z" />
<glyph unicode="B" horiz-adv-x="462" d="M61 701.5v184.5v111q0 12 15.5 21.5t39 15.5t51 9.5t52.5 3.5q45 0 60 -9q39 -25 72.5 -59.5t58 -75.5t39 -84t14.5 -82v-20q-4 -72 -39 -130.5t-90 -94.5q70 -43 100.5 -120t30.5 -147q0 -59 -23.5 -111.5t-76.5 -84.5q-10 -6 -37 -15.5t-59.5 -16.5t-67.5 -13.5 t-62 -6.5q-39 0 -45 17q-8 23 -14 97.5t-10 175t-6.5 216t-2.5 219zM195 954q4 -106 6 -211.5t4 -212.5q53 35 89 92.5t36 110.5v10q-4 61 -47 116.5t-88 94.5zM207 444q2 -23 3 -43.5t1 -40.5q0 -10 -1 -20t-1 -21q0 -20 1 -40.5t3 -42.5v-31q0 -23 1 -48.5t1 -50.5v-32 q33 0 55.5 14t35.5 36.5t19.5 49.5t6.5 53q0 66 -30 130.5t-95 86.5z" />
<glyph unicode="C" horiz-adv-x="624" d="M64 451v26q0 71 8 133q8 74 18 117q12 51 30.5 110.5t49.5 111.5t75 90t107 44q6 0 12.5 1t12.5 1q61 0 100 -27.5t61.5 -69.5t33 -93t14.5 -100q2 -16 -24.5 -25.5t-51.5 -9.5q-37 0 -41 18q-4 23 -10 62t-18.5 76.5t-33 65.5t-55.5 28q-37 0 -66.5 -58.5t-47.5 -148.5 q-19 -89 -25 -199q-3 -55 -3 -108q0 -54 3 -104q6 -102 26.5 -184.5t55.5 -117.5q27 -27 49 -27q33 0 58.5 41t45 94.5t34 107.5t24.5 79q4 10 22.5 15.5t36.5 5.5q35 0 35 -19q-2 -57 -14.5 -125.5t-40 -131t-72.5 -109t-115 -56.5q-27 -6 -53 -6q-70 0 -117 45 t-73.5 115.5t-37.5 158t-13 173.5z" />
<glyph unicode="D" horiz-adv-x="577" d="M94 668v165.5t2 165.5q0 14 10.5 26.5t25.5 22t30.5 14.5t27.5 5q102 -12 175 -55t119 -104.5t66.5 -137.5t20.5 -154q0 -86 -21.5 -178t-61 -179t-97 -160.5t-129.5 -121.5q-18 -12 -63 -12q-35 0 -66 9.5t-31 25.5q-6 254 -7 420t-1 248zM223 801q0 -135 3 -251t3 -214 q0 -66 -1 -129.5t-3 -126.5q29 35 58.5 67.5t58.5 73.5q57 86 86 187.5t29 195.5q0 10 -1 51t-24 109q-10 33 -28.5 70.5t-45 70.5t-59.5 54.5t-74 21.5q-2 -45 -2 -90v-90z" />
<glyph unicode="E" horiz-adv-x="569" d="M106 588q0 59 1.5 126.5t4.5 128t9 105.5t14 56q8 10 31.5 18t55.5 13t69 7t74 2q57 0 99 -6t48 -18q4 -8 4 -12q0 -8 -13.5 -13.5t-29.5 -5.5h-67q-43 0 -88.5 -5t-57.5 -26q-2 -10 -4 -70.5t-3 -134t-1 -146t2 -107.5q33 10 73 16t79 6q53 0 89.5 -8t36.5 -22v-3 q-2 -20 -17 -32.5t-32 -12.5q-59 0 -115.5 -3t-115.5 -3q-2 -104 -3 -167.5t-1 -94.5v-65.5t2 -65.5q57 8 115.5 13t111.5 12h6q16 0 35 -6.5t31 -15.5t12 -17t-24 -13q-86 -14 -166 -25t-166 -24q-4 0 -18.5 5.5t-30 13.5t-27.5 18t-12 19q0 27 -3 104.5t-3 181.5 q-2 104 -3.5 177t-1.5 100z" />
<glyph unicode="F" horiz-adv-x="544" d="M99 519v80q0 79 1 149q2 106 9.5 182t19.5 92q10 14 42 25.5t73 18.5t87 11t85 4q43 0 71.5 -5t34.5 -15q10 -20 -6 -27.5t-33 -7.5q-14 -2 -47 -3t-67.5 -4t-65.5 -11.5t-41 -26.5q-2 -12 -4 -75.5t-4 -141.5t-2 -153.5t2 -114.5q39 16 89 24t97 8q45 0 77 -7t28 -21 q-4 -23 -20.5 -36t-32.5 -15q-63 -6 -123 -11.5t-119 -9.5q0 -106 -3 -208q-2 -61 -2 -123q0 -42 1 -85q-2 -12 -3 -26.5t-5.5 -26.5t-12.5 -20.5t-24 -8.5q-6 0 -20.5 4.5t-31 12.5t-28.5 18t-12 21q0 29 -2.5 110.5t-4.5 191t-3 231.5z" />
<glyph unicode="G" horiz-adv-x="675" d="M113 459q0 35 4 113.5t34.5 187t83.5 190.5t125 105q31 10 52 10h8q45 0 82 -23.5t64.5 -63.5t46 -90t26.5 -104v-4q0 -14 -20.5 -23t-45.5 -9q-16 0 -30.5 6t-18.5 20q-10 37 -18 72t-19.5 62.5t-26 44t-30.5 16.5q-20 0 -45 -28t-55 -93q-31 -63 -52.5 -166.5 t-23.5 -166t-2 -77.5q0 -94 19.5 -188t74.5 -154q45 -47 84 -49h4q31 0 53.5 31t39 77t25.5 100t10 85t1 43q0 33 -5 65.5t-19 43.5q-8 6 -27 6q-31 0 -71 -16.5t-58 -26.5q-6 0 -20.5 8t-26.5 20.5t-15.5 20.5t-3.5 12q0 8 9 14q35 25 72.5 37.5t78.5 18.5q16 0 34.5 1 t39.5 1q23 0 43 -3t37 -16q20 -14 29.5 -59t9.5 -94q0 -14 -2 -56.5t-17.5 -117t-47.5 -137t-81 -103.5t-116 -41q-47 0 -97 21q-74 31 -120 114.5t-61 180t-15 182.5z" />
<glyph unicode="H" horiz-adv-x="632" d="M98 244q0 23 1 82t5 168q2 78 4.5 155.5t5.5 145t5 122t4 87.5q0 16 17.5 23t39.5 7q29 0 53.5 -10t26.5 -29q-4 -104 -9 -223t-7 -225q12 6 42.5 10.5t65.5 6t69 2.5t52 1q0 117 1 198t1 112q0 47 -1 92t-3 90q2 16 19.5 22t39.5 6q27 0 49.5 -9t24.5 -25 q2 -264 3 -408.5t1 -159.5q0 -131 -4 -256t-14 -247q-2 -16 -19.5 -25.5t-40.5 -9.5q-25 0 -46 10t-23 31q4 129 4 255t4 257q-61 -4 -117.5 -8.5t-109.5 -4.5q2 -16 2 -34.5v-34.5q0 -86 -8.5 -170t-8.5 -172v-37t2 -37q0 -14 -12 -20.5t-29 -6.5q-25 0 -49 11.5t-28 29.5 q-4 31 -8.5 95.5t-4.5 132.5z" />
<glyph unicode="I" horiz-adv-x="212" d="M78 509.5q0 106.5 1 206t3 180.5t4 128q0 16 19.5 25.5t41.5 9.5q25 0 45.5 -9.5t20.5 -23.5v-2q0 -88 -4 -184v-45t1 -91.5t2 -152.5t1 -135q0 -88 -2 -197.5t-14 -222.5q-2 -14 -14.5 -20.5t-28.5 -6.5q-23 0 -42.5 10.5t-21.5 28.5q-4 43 -7 121t-4 176t-1 204.5z" />
<glyph unicode="J" horiz-adv-x="464" d="M88 198v21q0 41 6 80q2 10 12.5 15t24.5 5q23 0 44.5 -13t23.5 -36q0 -25 3 -58.5t10 -63t18.5 -51t25.5 -21.5q8 0 10 2q31 16 47.5 82.5t21.5 159.5q4 66 4 140q0 30 -1 60q-2 109 -5 210t-6 182q-1 35 -1 62q0 37 2 60q2 16 17 22.5t36 6.5q23 0 41 -7t22 -22 q8 -35 13.5 -98.5t6.5 -139.5v-79v-82q-1 -84 -3 -161t-5 -140.5t-5 -100.5q-2 -39 -16.5 -85t-39 -85.5t-60.5 -66.5t-83 -27q-37 0 -88 23q-18 8 -34.5 38.5t-28 73.5t-13.5 94z" />
<glyph unicode="K" horiz-adv-x="575" d="M91 520q1 131 3 261t4 247q2 18 22.5 27.5t45.5 9.5t44 -8t19 -25q1 -50 1 -102.5t-1 -108t-1 -109.5t1 -106q27 63 47.5 112.5t41 96.5t46 96.5t62.5 112.5q6 10 23.5 16.5t35.5 6.5q27 0 45.5 -11.5t6.5 -36.5q-37 -74 -65 -133t-51.5 -111.5t-47 -103.5t-51.5 -110 l245 -521q10 -18 -5 -25t-36 -7q-41 0 -57 12q-33 27 -64.5 85t-62.5 124.5t-59.5 131.5t-55.5 103q2 -63 2 -125q0 -46 -1 -92q-3 -106 -15 -213q-2 -14 -17.5 -21t-33.5 -7q-51 0 -62 30q-6 115 -8 244q-1 86 -1 173v87z" />
<glyph unicode="L" horiz-adv-x="464" d="M84 544q0 228 8 470q0 16 21.5 25.5t46.5 9.5q29 0 53.5 -9.5t24.5 -25.5q-3 -186 -3 -384v-100q1 -251 9 -485q2 -2 2 -10v-4q39 6 75.5 10t75.5 4q16 0 35 -6t29 -15.5t7 -18.5t-28 -15q-53 -10 -116.5 -21.5t-116.5 -11.5q-66 0 -87.5 27.5t-25.5 89.5 q-10 242 -10 470z" />
<glyph unicode="M" horiz-adv-x="735" d="M74 250q0 33 1 103.5t4 187t11 216t23.5 170t38.5 87.5q23 16 43 16h4q14 0 28.5 -7t30.5 -26q23 -25 41 -100.5t32.5 -163.5t25 -169t16.5 -118q10 59 26.5 151.5t41 184.5t59.5 167t82 100q16 8 39 8t44 -9.5t25 -33.5q23 -139 31 -280.5t9 -232.5t1 -141 q0 -74 -2 -165t-6 -175q-2 -23 -28.5 -34t-53.5 -11q-20 0 -33.5 5.5t-13.5 19.5q0 113 3 219.5t4 187t3 134.5v49q0 39 -2 104.5t-14 182.5q-16 -43 -37 -135.5t-42.5 -195t-38.5 -196.5t-28 -145q-2 -14 -16 -20.5t-31 -6.5q-23 0 -45 11.5t-26 29.5q-31 156 -54.5 310.5 t-56.5 310.5q-12 -207 -16 -415t-4 -415q0 -18 -16.5 -26.5t-39.5 -8.5t-41 9.5t-18 25.5q0 35 -2 104.5t-2 135.5z" />
<glyph unicode="N" horiz-adv-x="671" d="M82 66q0 242 1 476t5 476q2 20 21.5 29.5t44.5 9.5q23 0 42 -7.5t25 -23.5q82 -174 159 -351t146 -364q4 112 4 222q0 73 -2 145q-4 182 -16 375q0 18 20.5 26t45.5 8q29 0 52 -9t23 -25q16 -239 16 -464q-1 -31 -1 -63q-2 -254 -25 -516q-2 -16 -20.5 -24.5t-42.5 -8.5 q-20 0 -39 6.5t-23 18.5q-72 190 -146.5 366.5t-152.5 356.5q1 -58 1 -115q0 -114 -3 -222q-4 -163 -8 -329q0 -16 -18.5 -25t-40.5 -9q-25 0 -46.5 10t-21.5 31z" />
<glyph unicode="O" horiz-adv-x="653" d="M80 459q0 57 5 126.5t21.5 148.5t46 144.5t74 112t107.5 60.5q25 6 53 6q51 0 97 -23.5t75 -77.5q35 -66 57.5 -160t28.5 -171.5t6 -128.5q0 -53 -6 -132t-34.5 -166t-81 -147.5t-130.5 -75.5q-12 -2 -23 -3t-22 -1q-57 0 -105 26t-82 70t-54.5 101t-24.5 119 q-6 57 -7 104t-1 68zM231 352q0 -31 2.5 -90t16.5 -115q4 -45 30.5 -67.5t61.5 -22.5q12 0 33 4q47 10 70.5 56.5t35 104t14.5 117.5t5 103q0 14 -2 58.5t-7.5 103t-13.5 121.5t-21.5 117.5t-30.5 89.5t-40 35q-16 0 -33.5 -19.5t-31 -46.5t-23.5 -53.5t-14 -40.5 q-16 -57 -28.5 -146.5t-18 -168t-5.5 -140.5z" />
<glyph unicode="P" horiz-adv-x="497" d="M74 588q0 147 2 297q0 33 5 62.5t18.5 53t37 37t62.5 13.5q84 0 140 -46.5t92 -115t51.5 -148t15.5 -147.5q-2 -55 -19.5 -115.5t-51.5 -112t-84 -85t-118 -33.5h-16v-125t-2 -131q0 -12 -18.5 -18.5t-41.5 -6.5q-27 0 -49 7.5t-22 23.5q0 223 -1 369.5t-1 220.5z M207 342q43 14 77.5 55t55 96.5t24 98.5t3.5 59q0 49 -11.5 103.5t-46.5 111t-94 92.5q-4 -10 -4 -16t2 -16q-4 -20 -5 -81t-1 -129.5t1 -131.5t1 -90q0 -43 -1 -65.5t-1 -41.5v-45z" />
<glyph unicode="Q" horiz-adv-x="649" d="M67 351v19q0 69 6 145q7 87 23.5 175t47 162t76.5 126t112 66q25 6 49 7q80 0 131 -55.5t81 -141.5t41 -190q10 -96 10 -189v-17q-1 -100 -13.5 -182.5t-28.5 -123.5q6 -10 14.5 -18.5l18.5 -18.5q29 -29 46 -69t28 -83q2 -16 -11.5 -21t-29.5 -5q-14 0 -28.5 3t-23.5 7 q-18 8 -24 18t-8 23.5t-7.5 29t-21.5 31.5q-29 -53 -84 -81.5t-121 -28.5q-135 0 -199.5 76.5t-76.5 205.5q-6 53 -7 130zM215 265q0 -91 14 -138q12 -53 36 -75.5t52 -22.5q41 0 80 36.5t52 86.5q-25 29 -53.5 56.5t-61.5 59.5q-12 12 -11 24.5t10 21t25.5 13.5t30.5 5 q25 0 35 -10q2 -2 10 -10.5t17.5 -16.5t17.5 -16.5t10 -10.5q16 41 21 108q4 43 4 90q0 25 -1 52q-3 76 -15.5 154t-30 140t-40 101t-46.5 39q-23 0 -46.5 -34.5t-48.5 -120.5q-14 -51 -28.5 -144.5t-23.5 -195t-9 -192.5z" />
<glyph unicode="R" horiz-adv-x="526" d="M82 512q-1 82 -1 166q0 167 3 340q0 18 23.5 27.5t46.5 9.5q20 0 28 -6q63 -12 121.5 -47t102.5 -84q44 -50 70 -112q22 -53 23 -108q0 -9 -1 -18q-4 -86 -52.5 -157.5t-119.5 -116.5q14 -14 45.5 -64.5t65.5 -110t63.5 -114t38.5 -72.5q4 -10 -1.5 -19.5t-17.5 -15.5 t-27.5 -9t-31.5 -3t-31.5 4t-21.5 14q-49 86 -92.5 169t-88.5 169q-2 -86 -3 -169t-1 -169q0 -18 -22.5 -27t-50.5 -9q-23 0 -42.5 7t-19.5 21q-4 258 -6 504zM219 944q2 -125 3 -248t1 -245q74 41 104.5 107.5t34.5 148.5q-4 66 -40.5 131t-102.5 106z" />
<glyph unicode="S" horiz-adv-x="573" d="M63 172q0 23 17.5 27t34.5 4q37 0 50 -13.5t22.5 -32t21.5 -38t43 -31.5q31 2 55.5 19.5t42 42t26.5 54t9 56.5q0 96 -46 167t-102.5 133.5t-102.5 123.5t-46 139q0 49 19.5 88t51 68t74.5 44t89 15q16 0 45.5 -6t58.5 -17t51.5 -26.5t24.5 -36.5q-12 -16 -31.5 -20 t-40.5 -4q-45 0 -63.5 12t-42.5 12q-37 0 -58.5 -31.5t-21.5 -64.5q0 -57 21.5 -104t54 -89t69.5 -83t70 -85t54.5 -96.5t21.5 -119.5q0 -57 -24 -110.5t-63.5 -94.5t-92 -65.5t-111.5 -24.5q-86 0 -133.5 51t-47.5 137z" />
<glyph unicode="T" horiz-adv-x="573" d="M68 995q0 16 27.5 28.5t70.5 20t97 10.5t106 3q72 0 127 -4t65 -13q20 -14 10 -29.5t-28 -23.5q-35 -10 -73 -17t-79 -9q2 -88 4 -208t2 -247t-3 -251t-9 -220q-2 -23 -35 -37t-61 -14q-37 0 -37 22q-4 57 -6 136t-2 168t2 182.5t3 180.5t2 159.5t1 119.5q-23 0 -57.5 1 t-55.5 1q-23 -2 -47 14.5t-24 26.5z" />
<glyph unicode="U" horiz-adv-x="612" d="M82 658l4 360q-2 18 17.5 26.5t43.5 8.5q29 0 55.5 -11.5t28.5 -31.5q0 -86 -4 -192.5t-6 -217.5q-1 -44 0 -88q0 -65 1 -128q3 -105 18 -187q4 -14 13 -39t21.5 -47.5t28.5 -39t37 -16.5q10 0 33 17q33 33 52 96t30.5 145t17.5 177.5t8 191.5t4 186t9 164q0 12 15 18.5 t36 6.5q25 0 46 -8.5t21 -24.5q0 -291 -2 -487.5t-21.5 -316.5t-62.5 -175t-125 -68q-10 -2 -21 -3t-24 -1q-70 0 -121 28t-82.5 73t-48 103.5t-18.5 121.5q-4 135 -4 270v89z" />
<glyph unicode="V" horiz-adv-x="634" d="M72 1006q-2 16 17 23t44 7q29 0 53.5 -9t28.5 -30q29 -199 60.5 -390t64.5 -384q-2 10 2 20.5t4 14.5q23 80 42.5 193.5t41 228.5t45 214t49.5 153q10 10 27 10q20 0 41.5 -10.5t25.5 -22.5q5 -10 5 -36q0 -18 -3 -46q-6 -64 -20 -152t-33.5 -188t-41 -194.5t-40 -171 t-30.5 -115.5q-16 -59 -49 -102.5t-99 -43.5q-23 0 -44 8.5t-25 28.5q-57 248 -92 493t-74 501z" />
<glyph unicode="W" horiz-adv-x="786" d="M66 641q0 82 2 180.5t2 184.5q0 16 18 24t41 8q27 0 50.5 -10t23.5 -31q4 -215 4 -448.5t16 -448.5q18 61 34.5 163t29 212.5t22.5 215t19 171.5q2 16 17 23.5t34 7.5q25 0 48.5 -10.5t27.5 -28.5q37 -162 69.5 -335t89.5 -333q10 -31 25 -57q10 111 10 220.5t-3 220 t-6 195.5t-3 140q0 58 2 115q0 16 16.5 23.5t36.5 7.5q29 0 52.5 -10.5t25.5 -28.5q20 -182 21 -293q0 -25 -3.5 -92.5t-3.5 -75.5q0 -211 -22 -422q-6 -49 -22.5 -88t-59.5 -43h-14q-47 0 -83 36t-62.5 92t-45 126t-32 137.5t-20.5 125.5t-13 93q-12 -117 -22.5 -226.5 t-20.5 -180.5q-6 -39 -14.5 -80t-24 -74t-41 -53.5t-66.5 -20.5q-8 0 -16 1t-19 3q-25 4 -41 19.5t-25 36t-14.5 44t-9.5 44.5q-16 80 -22 196.5t-7 199.5t-1 124z" />
<glyph unicode="X" horiz-adv-x="577" d="M31 967q0 12 22.5 24.5t52.5 12.5q18 0 35 -6.5t23 -16.5q37 -66 70.5 -133.5t68.5 -132.5q25 94 59.5 184t73.5 180q4 10 21.5 15.5t38.5 5.5q23 0 40 -6.5t17 -18.5v-4q0 -143 -59 -274q-31 -68 -58.5 -133.5t-50.5 -131.5v-6q51 -129 94 -258t72 -264q2 -2 2 -6 q0 -10 -18.5 -17.5t-42.5 -7.5q-51 0 -62 23q-35 80 -62.5 162t-58.5 164q-35 -86 -66.5 -164t-66.5 -156q-8 -16 -30.5 -24.5t-47.5 -8.5q-27 0 -43 9.5t-16 19.5q0 6 2 8q47 123 95 251t95 257q-4 10 -21 47t-38.5 87t-46.5 106.5t-46.5 103.5t-28.5 62z" />
<glyph unicode="Y" horiz-adv-x="516" d="M47 940q-4 12 2 21.5t18.5 17.5t27 12t28.5 4q35 0 41 -22q29 -94 61.5 -184.5t61.5 -182.5q12 35 23.5 90.5t24.5 119t31.5 127t43.5 114.5q6 12 26 12q12 0 29.5 -5t32 -14.5t22.5 -21.5t4 -24q-23 -80 -42 -146.5t-38.5 -129t-41 -127t-50.5 -142.5q2 -37 3 -105v-47 q0 -47 -1 -97q-2 -75 -4 -142.5t-6 -102.5q0 -20 -33 -20q-23 0 -45 9t-28 26q-14 41 -16 106v35q0 47 3 97q4 67 7 128q2 21 2 38q0 35 -5 56z" />
<glyph unicode="Z" horiz-adv-x="542" d="M70 0q31 129 70.5 245.5t81.5 229.5t85 228.5t80 242.5q-61 2 -112.5 3t-112.5 3q-16 0 -30.5 13.5t-20 31t4 30.5t40.5 13q80 0 167 -4t166 -8q16 0 41 -10t19 -33q-33 -127 -73 -243.5t-80 -231.5t-81 -230.5t-77 -242.5q41 4 63.5 8t43 7t44 6t64.5 5h6q25 0 42 -9 t22 -20t-4 -22.5t-40 -15.5q-53 -8 -91 -14.5t-71.5 -11.5t-71.5 -8t-91 -5h-11q-23 0 -50 8t-23 35z" />
<glyph unicode="[" horiz-adv-x="333" d="M66 -145l30 34q-10 217 -16 550t-10 790q12 18 21 21t20 3h12q14 0 39.5 -9t52.5 -21.5t50.5 -24.5t35.5 -18q84 -47 84 -50q-10 -37 -35.5 -52t-60.5 -15q-20 0 -53 7t-52 13q2 -2 2 -8q0 -2 -1 -6t-1 -8l23 -459q4 -141 12 -277.5t14 -277.5v-22.5t3 -24.5 q0 -10 -1.5 -22.5t-1.5 -22.5v-24.5t3 -22.5q35 -12 69.5 -23.5t69.5 -25.5q2 -6 2 -21q0 -29 -22.5 -60.5t-55.5 -31.5q-8 0 -12 2q-12 4 -15 4q-51 0 -95 22.5t-91 43.5q-20 8 -20 32v5z" />
<glyph unicode="\" horiz-adv-x="753" d="M18 1446q12 4 21 4q27 0 54.5 -28.5t39.5 -49.5q35 -49 72 -125t70.5 -158.5t61.5 -162.5t46 -138q49 -141 105.5 -278t113.5 -279q23 -57 52.5 -111t70.5 -108q-10 -16 -16.5 -19t-22.5 -3q-45 12 -78 28.5t-57.5 40t-43 55t-36.5 74.5q-47 119 -94 237t-94 237 q-25 66 -44.5 131t-41.5 131q-39 113 -72 223t-72 227q-6 18 -15.5 36t-19.5 36z" />
<glyph unicode="]" horiz-adv-x="305" d="M-63 1130l86 48q47 27 85.5 44t90.5 31q23 0 32 -3t21 -21q-4 -459 -10 -791t-17 -549l31 -34q2 -27 -20 -37q-47 -20 -93.5 -33.5t-93.5 -32.5q-2 -2 -12 -4t-14 -2q-25 0 -48 23q-39 37 -28 90q35 14 69.5 25.5t69.5 23.5q2 35 1 69.5t1 69.5q6 141 14.5 277.5 t12.5 277.5l22 459q0 4 -1 10t1 12q-25 -8 -48 -13t-50 -5q-39 0 -64.5 10t-37.5 55z" />
<glyph unicode="^" horiz-adv-x="501" d="M36 1095.5q1 6.5 17 18.5q47 39 93.5 76t93.5 74q12 8 29.5 23.5t33.5 33.5t29.5 36.5t15.5 33.5q10 27 19.5 36t19.5 9q16 0 45 -29q31 -31 25 -74q-4 -35 -7.5 -67.5t-5.5 -67.5q-4 -37 -3 -72.5t-1 -72.5v-21q-14 -8 -28 -8q-10 0 -18.5 6t-18.5 17q-16 20 -25.5 33.5 t-14.5 28.5t-9 35.5t-11 55.5q-4 -4 -9 -8t-11 -8l-166 -135q-4 -4 -10 -8.5t-15 -8.5q-20 -4 -18 -4q-16 0 -25 14l-18 31q-8 16 -7 22.5z" />
<glyph unicode="_" horiz-adv-x="700" d="M10 5q-8 15 4 40q20 45 78 49q221 12 440 12q25 0 49.5 2.5t49.5 4.5q10 -33 -1.5 -68t-33.5 -49q-4 -4 -18 -4q-104 0 -204 -1t-204 -1h-123q-29 0 -37 15z" />
<glyph unicode="`" horiz-adv-x="219" d="M45 1138.5q0 16.5 14 16.5q16 0 31 -12q10 -8 17.5 -14.5t15.5 -14.5q18 -18 41.5 -46t23.5 -36q1 -14 -32 -14q-10 0 -27 6q-12 4 -24.5 14.5t-20.5 20.5q-16 20 -27.5 41.5t-11.5 38z" />
<glyph unicode="a" horiz-adv-x="538" d="M43 -10q0 133 17.5 274.5t50.5 270.5q6 20 16 62t24.5 95t30 110.5t29.5 106.5t26.5 85t20.5 44q12 16 25.5 18.5t31.5 2.5t38 -4t30 -27q20 -47 36.5 -127t31 -176t24.5 -202.5t17.5 -206t11.5 -185.5t4 -141q0 -18 -21.5 -22.5t-31.5 -4.5q-53 0 -63.5 18.5t-10.5 71.5 q0 55 -6 122t-10 122q-39 -10 -78 -15.5t-78 -19.5l-6 -6q-2 -18 -6 -59t-8.5 -85t-8.5 -81t-10 -47q-10 -20 -22.5 -23.5t-30.5 -3.5q-6 0 -18.5 1t-25 4t-21.5 10.5t-9 17.5zM219 334q35 10 71 16t70 6q-10 104 -24 205t-31 203q-25 -109 -48.5 -214t-37.5 -216z" />
<glyph unicode="b" horiz-adv-x="462" d="M61 701.5v184.5v111q0 12 15.5 21.5t39 15.5t51 9.5t52.5 3.5q45 0 60 -9q39 -25 72.5 -59.5t58 -75.5t39 -84t14.5 -82v-20q-4 -72 -39 -130.5t-90 -94.5q70 -43 100.5 -120t30.5 -147q0 -59 -23.5 -111.5t-76.5 -84.5q-10 -6 -37 -15.5t-59.5 -16.5t-67.5 -13.5 t-62 -6.5q-39 0 -45 17q-8 23 -14 97.5t-10 175t-6.5 216t-2.5 219zM195 954q4 -106 6 -211.5t4 -212.5q53 35 89 92.5t36 110.5v10q-4 61 -47 116.5t-88 94.5zM207 444q2 -23 3 -43.5t1 -40.5q0 -10 -1 -20t-1 -21q0 -20 1 -40.5t3 -42.5v-31q0 -23 1 -48.5t1 -50.5v-32 q33 0 55.5 14t35.5 36.5t19.5 49.5t6.5 53q0 66 -30 130.5t-95 86.5z" />
<glyph unicode="c" horiz-adv-x="624" d="M64 451v26q0 71 8 133q8 74 18 117q12 51 30.5 110.5t49.5 111.5t75 90t107 44q6 0 12.5 1t12.5 1q61 0 100 -27.5t61.5 -69.5t33 -93t14.5 -100q2 -16 -24.5 -25.5t-51.5 -9.5q-37 0 -41 18q-4 23 -10 62t-18.5 76.5t-33 65.5t-55.5 28q-37 0 -66.5 -58.5t-47.5 -148.5 q-19 -89 -25 -199q-3 -55 -3 -108q0 -54 3 -104q6 -102 26.5 -184.5t55.5 -117.5q27 -27 49 -27q33 0 58.5 41t45 94.5t34 107.5t24.5 79q4 10 22.5 15.5t36.5 5.5q35 0 35 -19q-2 -57 -14.5 -125.5t-40 -131t-72.5 -109t-115 -56.5q-27 -6 -53 -6q-70 0 -117 45 t-73.5 115.5t-37.5 158t-13 173.5z" />
<glyph unicode="d" horiz-adv-x="577" d="M94 668v165.5t2 165.5q0 14 10.5 26.5t25.5 22t30.5 14.5t27.5 5q102 -12 175 -55t119 -104.5t66.5 -137.5t20.5 -154q0 -86 -21.5 -178t-61 -179t-97 -160.5t-129.5 -121.5q-18 -12 -63 -12q-35 0 -66 9.5t-31 25.5q-6 254 -7 420t-1 248zM223 801q0 -135 3 -251t3 -214 q0 -66 -1 -129.5t-3 -126.5q29 35 58.5 67.5t58.5 73.5q57 86 86 187.5t29 195.5q0 10 -1 51t-24 109q-10 33 -28.5 70.5t-45 70.5t-59.5 54.5t-74 21.5q-2 -45 -2 -90v-90z" />
<glyph unicode="e" horiz-adv-x="569" d="M106 588q0 59 1.5 126.5t4.5 128t9 105.5t14 56q8 10 31.5 18t55.5 13t69 7t74 2q57 0 99 -6t48 -18q4 -8 4 -12q0 -8 -13.5 -13.5t-29.5 -5.5h-67q-43 0 -88.5 -5t-57.5 -26q-2 -10 -4 -70.5t-3 -134t-1 -146t2 -107.5q33 10 73 16t79 6q53 0 89.5 -8t36.5 -22v-3 q-2 -20 -17 -32.5t-32 -12.5q-59 0 -115.5 -3t-115.5 -3q-2 -104 -3 -167.5t-1 -94.5v-65.5t2 -65.5q57 8 115.5 13t111.5 12h6q16 0 35 -6.5t31 -15.5t12 -17t-24 -13q-86 -14 -166 -25t-166 -24q-4 0 -18.5 5.5t-30 13.5t-27.5 18t-12 19q0 27 -3 104.5t-3 181.5 q-2 104 -3.5 177t-1.5 100z" />
<glyph unicode="f" horiz-adv-x="544" d="M99 519v80q0 77 1 149q2 106 9.5 182t19.5 92q10 14 42 25.5t73 18.5t87 11t85 4q43 0 71.5 -5t34.5 -15q10 -20 -6 -27.5t-33 -7.5q-14 -2 -47 -3t-67.5 -4t-65.5 -11.5t-41 -26.5q-2 -12 -4 -75.5t-4 -141.5t-2 -153.5t2 -114.5q39 16 89 24t97 8q45 0 77 -7t28 -21 q-4 -23 -20.5 -36t-32.5 -15q-63 -6 -123 -11.5t-119 -9.5q0 -106 -3 -208q-2 -60 -2 -123q0 -42 1 -85q-2 -12 -3 -26.5t-5.5 -26.5t-12.5 -20.5t-24 -8.5q-6 0 -20.5 4.5t-31 12.5t-28.5 18t-12 21q0 29 -2.5 110.5t-4.5 191t-3 231.5z" />
<glyph unicode="g" horiz-adv-x="675" d="M113 459q0 35 4 113.5t34.5 187t83.5 190.5t125 105q31 10 52 10h8q45 0 82 -23.5t64.5 -63.5t46 -90t26.5 -104v-4q0 -14 -20.5 -23t-45.5 -9q-16 0 -30.5 6t-18.5 20q-10 37 -18 72t-19.5 62.5t-26 44t-30.5 16.5q-20 0 -45 -28t-55 -93q-31 -63 -52.5 -166.5 t-23.5 -166t-2 -77.5q0 -94 19.5 -188t74.5 -154q45 -47 84 -49h4q31 0 53.5 31t39 77t25.5 100t10 85t1 43q0 33 -5 65.5t-19 43.5q-8 6 -27 6q-31 0 -71 -16.5t-58 -26.5q-6 0 -20.5 8t-26.5 20.5t-15.5 20.5t-3.5 12q0 8 9 14q35 25 72.5 37.5t78.5 18.5q16 0 34.5 1 t39.5 1q23 0 43 -3t37 -16q20 -14 29.5 -59t9.5 -94q0 -14 -2 -56.5t-17.5 -117t-47.5 -137t-81 -103.5t-116 -41q-47 0 -97 21q-74 31 -120 114.5t-61 180t-15 182.5z" />
<glyph unicode="h" horiz-adv-x="632" d="M98 244q0 23 1 82t5 168q2 78 4.5 155.5t5.5 145t5 122t4 87.5q0 16 17.5 23t39.5 7q29 0 53.5 -10t26.5 -29q-4 -104 -9 -223t-7 -225q12 6 42.5 10.5t65.5 6t69 2.5t52 1q0 117 1 198t1 112q0 47 -1 92t-3 90q2 16 19.5 22t39.5 6q27 0 49.5 -9t24.5 -25 q2 -264 3 -408.5t1 -159.5q0 -131 -4 -256t-14 -247q-2 -16 -19.5 -25.5t-40.5 -9.5q-25 0 -46 10t-23 31q4 129 4 255t4 257q-61 -4 -117.5 -8.5t-109.5 -4.5q2 -16 2 -34.5v-34.5q0 -86 -8.5 -170t-8.5 -172v-37t2 -37q0 -14 -12 -20.5t-29 -6.5q-25 0 -49 11.5t-28 29.5 q-4 31 -8.5 95.5t-4.5 132.5z" />
<glyph unicode="i" horiz-adv-x="212" d="M78 509.5q0 106.5 1 206t3 180.5t4 128q0 16 19.5 25.5t41.5 9.5q25 0 45.5 -9.5t20.5 -23.5v-2q0 -88 -4 -184v-45t1 -91.5t2 -152.5t1 -135q0 -88 -2 -197.5t-14 -222.5q-2 -14 -14.5 -20.5t-28.5 -6.5q-23 0 -42.5 10.5t-21.5 28.5q-4 43 -7 121t-4 176t-1 204.5z" />
<glyph unicode="j" horiz-adv-x="464" d="M88 198v21q0 41 6 80q2 10 12.5 15t24.5 5q23 0 44.5 -13t23.5 -36q0 -25 3 -58.5t10 -63t18.5 -51t25.5 -21.5q8 0 10 2q31 16 47.5 82.5t21.5 159.5q4 66 4 140q0 30 -1 60q-2 109 -5 210t-6 182q-1 35 -1 62q0 37 2 60q2 16 17 22.5t36 6.5q23 0 41 -7t22 -22 q8 -35 13.5 -98.5t6.5 -139.5v-79v-82q-1 -84 -3 -161t-5 -140.5t-5 -100.5q-2 -39 -16.5 -85t-39 -85.5t-60.5 -66.5t-83 -27q-37 0 -88 23q-18 8 -34.5 38.5t-28 73.5t-13.5 94z" />
<glyph unicode="k" horiz-adv-x="575" d="M91 520q1 131 3 261t4 247q2 18 22.5 27.5t45.5 9.5t44 -8t19 -25q1 -50 1 -102.5t-1 -108t-1 -109.5t1 -106q27 63 47.5 112.5t41 96.5t46 96.5t62.5 112.5q6 10 23.5 16.5t35.5 6.5q27 0 45.5 -11.5t6.5 -36.5q-37 -74 -65 -133t-51.5 -111.5t-47 -103.5t-51.5 -110 l245 -521q10 -18 -5 -25t-36 -7q-41 0 -57 12q-33 27 -64.5 85t-62.5 124.5t-59.5 131.5t-55.5 103q2 -63 2 -125q0 -46 -1 -92q-3 -106 -15 -213q-2 -14 -17.5 -21t-33.5 -7q-51 0 -62 30q-6 115 -8 244q-1 86 -1 173v87z" />
<glyph unicode="l" horiz-adv-x="464" d="M84 544q0 228 8 470q0 16 21.5 25.5t46.5 9.5q29 0 53.5 -9.5t24.5 -25.5q-3 -186 -3 -384v-100q1 -251 9 -485q2 -2 2 -10v-4q39 6 75.5 10t75.5 4q16 0 35 -6t29 -15.5t7 -18.5t-28 -15q-53 -10 -116.5 -21.5t-116.5 -11.5q-66 0 -87.5 27.5t-25.5 89.5 q-10 242 -10 470z" />
<glyph unicode="m" horiz-adv-x="735" d="M74 250q0 33 1 103.5t4 187t11 216t23.5 170t38.5 87.5q23 16 43 16h4q14 0 28.5 -7t30.5 -26q23 -25 41 -100.5t32.5 -163.5t25 -169t16.5 -118q10 59 26.5 151.5t41 184.5t59.5 167t82 100q16 8 39 8t44 -9.5t25 -33.5q23 -139 31 -280.5t9 -232.5t1 -141 q0 -74 -2 -165t-6 -175q-2 -23 -28.5 -34t-53.5 -11q-20 0 -33.5 5.5t-13.5 19.5q0 113 3 219.5t4 187t3 134.5v49q0 39 -2 104.5t-14 182.5q-16 -43 -37 -135.5t-42.5 -195t-38.5 -196.5t-28 -145q-2 -14 -16 -20.5t-31 -6.5q-23 0 -45 11.5t-26 29.5q-31 156 -54.5 310.5 t-56.5 310.5q-12 -207 -16 -415t-4 -415q0 -18 -16.5 -26.5t-39.5 -8.5t-41 9.5t-18 25.5q0 35 -2 104.5t-2 135.5z" />
<glyph unicode="n" horiz-adv-x="671" d="M82 66q0 242 1 476t5 476q2 20 21.5 29.5t44.5 9.5q23 0 42 -7.5t25 -23.5q82 -174 159 -351t146 -364q4 112 4 222q0 73 -2 145q-4 182 -16 375q0 18 20.5 26t45.5 8q29 0 52 -9t23 -25q16 -239 16 -464q-1 -31 -1 -63q-2 -254 -25 -516q-2 -16 -20.5 -24.5t-42.5 -8.5 q-20 0 -39 6.5t-23 18.5q-72 190 -146.5 366.5t-152.5 356.5q1 -58 1 -115q0 -114 -3 -222q-4 -163 -8 -329q0 -16 -18.5 -25t-40.5 -9q-25 0 -46.5 10t-21.5 31z" />
<glyph unicode="o" horiz-adv-x="653" d="M80 459q0 57 5 126.5t21.5 148.5t46 144.5t74 112t107.5 60.5q25 6 53 6q51 0 97 -23.5t75 -77.5q35 -66 57.5 -160t28.5 -171.5t6 -128.5q0 -53 -6 -132t-34.5 -166t-81 -147.5t-130.5 -75.5q-12 -2 -23 -3t-22 -1q-57 0 -105 26t-82 70t-54.5 101t-24.5 119 q-6 57 -7 104t-1 68zM231 352q0 -31 2.5 -90t16.5 -115q4 -45 30.5 -67.5t61.5 -22.5q12 0 33 4q47 10 70.5 56.5t35 104t14.5 117.5t5 103q0 14 -2 58.5t-7.5 103t-13.5 121.5t-21.5 117.5t-30.5 89.5t-40 35q-16 0 -33.5 -19.5t-31 -46.5t-23.5 -53.5t-14 -40.5 q-16 -57 -28.5 -146.5t-18 -168t-5.5 -140.5z" />
<glyph unicode="p" horiz-adv-x="497" d="M74 588q0 147 2 297q0 33 5 62.5t18.5 53t37 37t62.5 13.5q84 0 140 -46.5t92 -115t51.5 -148t15.5 -147.5q-2 -55 -19.5 -115.5t-51.5 -112t-84 -85t-118 -33.5h-16v-125t-2 -131q0 -12 -18.5 -18.5t-41.5 -6.5q-27 0 -49 7.5t-22 23.5q0 223 -1 369.5t-1 220.5z M207 342q43 14 77.5 55t55 96.5t24 98.5t3.5 59q0 49 -11.5 103.5t-46.5 111t-94 92.5q-4 -10 -4 -16t2 -16q-4 -20 -5 -81t-1 -129.5t1 -131.5t1 -90q0 -43 -1 -65.5t-1 -41.5v-45z" />
<glyph unicode="q" horiz-adv-x="649" d="M67 351v19q0 69 6 145q7 87 23.5 175t47 162t76.5 126t112 66q25 6 49 7q80 0 131 -55.5t81 -141.5t41 -190q10 -96 10 -189v-17q-1 -100 -13.5 -182.5t-28.5 -123.5q6 -10 14.5 -18.5l18.5 -18.5q29 -29 46 -69t28 -83q2 -16 -11.5 -21t-29.5 -5q-14 0 -28.5 3t-23.5 7 q-18 8 -24 18t-8 23.5t-7.5 29t-21.5 31.5q-29 -53 -84 -81.5t-121 -28.5q-135 0 -199.5 76.5t-76.5 205.5q-6 53 -7 130zM215 265q0 -91 14 -138q12 -53 36 -75.5t52 -22.5q41 0 80 36.5t52 86.5q-25 29 -53.5 56.5t-61.5 59.5q-12 12 -11 24.5t10 21t25.5 13.5t30.5 5 q25 0 35 -10q2 -2 10 -10.5t17.5 -16.5t17.5 -16.5t10 -10.5q16 41 21 108q4 43 4 90q0 25 -1 52q-3 76 -15.5 154t-30 140t-40 101t-46.5 39q-23 0 -46.5 -34.5t-48.5 -120.5q-14 -51 -28.5 -144.5t-23.5 -195t-9 -192.5z" />
<glyph unicode="r" horiz-adv-x="526" d="M82 512q-1 82 -1 166q0 167 3 340q0 18 23.5 27.5t46.5 9.5q20 0 28 -6q63 -12 121.5 -47t102.5 -84q44 -50 70 -112q22 -53 23 -108q0 -9 -1 -18q-4 -86 -52.5 -157.5t-119.5 -116.5q14 -14 45.5 -64.5t65.5 -110t63.5 -114t38.5 -72.5q4 -10 -1.5 -19.5t-17.5 -15.5 t-27.5 -9t-31.5 -3t-31.5 4t-21.5 14q-49 86 -92.5 169t-88.5 169q-2 -86 -3 -169t-1 -169q0 -18 -22.5 -27t-50.5 -9q-23 0 -42.5 7t-19.5 21q-4 258 -6 504zM219 944q2 -125 3 -248t1 -245q74 41 104.5 107.5t34.5 148.5q-4 66 -40.5 131t-102.5 106z" />
<glyph unicode="s" horiz-adv-x="573" d="M63 172q0 23 17.5 27t34.5 4q37 0 50 -13.5t22.5 -32t21.5 -38t43 -31.5q31 2 55.5 19.5t42 42t26.5 54t9 56.5q0 96 -46 167t-102.5 133.5t-102.5 123.5t-46 139q0 49 19.5 88t51 68t74.5 44t89 15q16 0 45.5 -6t58.5 -17t51.5 -26.5t24.5 -36.5q-12 -16 -31.5 -20 t-40.5 -4q-45 0 -63.5 12t-42.5 12q-37 0 -58.5 -31.5t-21.5 -64.5q0 -57 21.5 -104t54 -89t69.5 -83t70 -85t54.5 -96.5t21.5 -119.5q0 -57 -24 -110.5t-63.5 -94.5t-92 -65.5t-111.5 -24.5q-86 0 -133.5 51t-47.5 137z" />
<glyph unicode="t" horiz-adv-x="573" d="M68 995q0 16 27.5 28.5t70.5 20t97 10.5t106 3q72 0 127 -4t65 -13q20 -14 10 -29.5t-28 -23.5q-35 -10 -73 -17t-79 -9q2 -88 4 -208t2 -247t-3 -251t-9 -220q-2 -23 -35 -37t-61 -14q-37 0 -37 22q-4 57 -6 136t-2 168t2 182.5t3 180.5t2 159.5t1 119.5q-23 0 -57.5 1 t-55.5 1q-23 -2 -47 14.5t-24 26.5z" />
<glyph unicode="u" horiz-adv-x="612" d="M82 658l4 360q-2 18 17.5 26.5t43.5 8.5q29 0 55.5 -11.5t28.5 -31.5q0 -86 -4 -192.5t-6 -217.5q-1 -44 0 -88q0 -65 1 -128q3 -105 18 -187q4 -14 13 -39t21.5 -47.5t28.5 -39t37 -16.5q10 0 33 17q33 33 52 96t30.5 145t17.5 177.5t8 191.5t4 186t9 164q0 12 15 18.5 t36 6.5q25 0 46 -8.5t21 -24.5q0 -291 -2 -487.5t-21.5 -316.5t-62.5 -175t-125 -68q-10 -2 -21 -3t-24 -1q-70 0 -121 28t-82.5 73t-48 103.5t-18.5 121.5q-4 135 -4 270v89z" />
<glyph unicode="v" horiz-adv-x="634" d="M72 1006q-2 16 17 23t44 7q29 0 53.5 -9t28.5 -30q29 -199 60.5 -390t64.5 -384q-2 10 2 20.5t4 14.5q23 80 42.5 193.5t41 228.5t45 214t49.5 153q10 10 27 10q20 0 41.5 -10.5t25.5 -22.5q5 -10 5 -36q0 -18 -3 -46q-6 -64 -20 -152t-33.5 -188t-41 -194.5t-40 -171 t-30.5 -115.5q-16 -59 -49 -102.5t-99 -43.5q-23 0 -44 8.5t-25 28.5q-57 248 -92 493t-74 501z" />
<glyph unicode="w" horiz-adv-x="786" d="M66 641q0 82 2 180.5t2 184.5q0 16 18 24t41 8q27 0 50.5 -10t23.5 -31q4 -215 4 -448.5t16 -448.5q18 61 34.5 163t29 212.5t22.5 215t19 171.5q2 16 17 23.5t34 7.5q25 0 48.5 -10.5t27.5 -28.5q37 -162 69.5 -335t89.5 -333q10 -31 25 -57q10 111 10 220.5t-3 220 t-6 195.5t-3 140q0 58 2 115q0 16 16.5 23.5t36.5 7.5q29 0 52.5 -10.5t25.5 -28.5q20 -182 21 -293q0 -25 -3.5 -92.5t-3.5 -75.5q0 -211 -22 -422q-6 -49 -22.5 -88t-59.5 -43h-14q-47 0 -83 36t-62.5 92t-45 126t-32 137.5t-20.5 125.5t-13 93q-12 -117 -22.5 -226.5 t-20.5 -180.5q-6 -39 -14.5 -80t-24 -74t-41 -53.5t-66.5 -20.5q-8 0 -16 1t-19 3q-25 4 -41 19.5t-25 36t-14.5 44t-9.5 44.5q-16 80 -22 196.5t-7 199.5t-1 124z" />
<glyph unicode="x" horiz-adv-x="577" d="M31 967q0 12 22.5 24.5t52.5 12.5q18 0 35 -6.5t23 -16.5q37 -66 70.5 -133.5t68.5 -132.5q25 94 59.5 184t73.5 180q4 10 21.5 15.5t38.5 5.5q23 0 40 -6.5t17 -18.5v-4q0 -143 -59 -274q-31 -68 -58.5 -133.5t-50.5 -131.5v-6q51 -129 94 -258t72 -264q2 -2 2 -6 q0 -10 -18.5 -17.5t-42.5 -7.5q-51 0 -62 23q-35 80 -62.5 162t-58.5 164q-35 -86 -66.5 -164t-66.5 -156q-8 -16 -30.5 -24.5t-47.5 -8.5q-27 0 -43 9.5t-16 19.5q0 6 2 8q47 123 95 251t95 257q-4 10 -21 47t-38.5 87t-46.5 106.5t-46.5 103.5t-28.5 62z" />
<glyph unicode="y" horiz-adv-x="516" d="M47 940q-4 12 2 21.5t18.5 17.5t27 12t28.5 4q35 0 41 -22q29 -94 61.5 -184.5t61.5 -182.5q12 35 23.5 90.5t24.5 119t31.5 127t43.5 114.5q6 12 26 12q12 0 29.5 -5t32 -14.5t22.5 -21.5t4 -24q-23 -80 -42 -146.5t-38.5 -129t-41 -127t-50.5 -142.5q2 -37 3 -105v-47 q0 -47 -1 -97q-2 -75 -4 -142.5t-6 -102.5q0 -20 -33 -20q-23 0 -45 9t-28 26q-14 41 -16 106v35q0 47 3 97q4 67 7 128q2 21 2 38q0 35 -5 56z" />
<glyph unicode="z" horiz-adv-x="542" d="M70 0q31 129 70.5 245.5t81.5 229.5t85 228.5t80 242.5q-61 2 -112.5 3t-112.5 3q-16 0 -30.5 13.5t-20 31t4 30.5t40.5 13q80 0 167 -4t166 -8q16 0 41 -10t19 -33q-33 -127 -73 -243.5t-80 -231.5t-81 -230.5t-77 -242.5q41 4 63.5 8t43 7t44 6t64.5 5h6q25 0 42 -9 t22 -20t-4 -22.5t-40 -15.5q-53 -8 -91 -14.5t-71.5 -11.5t-71.5 -8t-91 -5h-11q-23 0 -50 8t-23 35z" />
<glyph unicode="{" horiz-adv-x="288" d="M-59 539q-2 14 13.5 30.5t27.5 18.5q29 2 32 37q0 10 5.5 19t5.5 20q2 20 7 77.5t13 151.5t41 169t90 136q70 76 135 76q35 0 70 -27q94 -70 -6 -92q-37 14 -66 14q-10 0 -20 -2t-21 -6q-47 -12 -137 -387q-4 -35 -7 -82t-24 -80q-12 -20 -30.5 -26t-30.5 -27 q0 -4 25.5 -49t37.5 -133q10 -238 59.5 -360.5t119.5 -151.5q10 -4 10 -7t-4 -20q-14 -51 -45 -51q-10 0 -45 10q-2 0 -4.5 -1t-6.5 -1l-12 4q-8 8 -17.5 12.5t-13.5 12.5q-31 20 -49 51t-35 62q-20 57 -39.5 183t-35.5 324q-6 45 -35 74q-8 8 -8 21z" />
<glyph unicode="|" horiz-adv-x="718" d="M41 -213q4 41 13 81t22 81q23 74 48.5 146.5t47.5 148.5q23 82 52.5 160.5t56.5 164.5q49 160 106 313.5t113 309.5q29 76 51 150.5t49 152.5q4 12 10 21q33 -10 51.5 -34t14.5 -57q-4 -31 -9 -62.5t-14 -62.5q-57 -229 -127.5 -452t-142.5 -447q-41 -129 -79 -253.5 t-68 -253.5q-10 -39 -22.5 -75t-23.5 -75q-4 -16 -7 -33.5t-7 -36.5q-6 -31 -33 -30q-8 0 -18 6q-41 29 -64.5 58.5t-19.5 78.5z" />
<glyph unicode="}" horiz-adv-x="438" d="M-2 -169q2 3 12 7q72 25 135.5 138.5t102.5 347.5q23 86 53.5 128t32.5 46q-10 23 -27.5 31t-27.5 28q-14 35 -13.5 83t0.5 83q-47 381 -90 399q-14 6 -29.5 10.5t-33.5 4.5t-43 -7q-90 33 6 91q31 18 61 18q70 0 137 -90q96 -129 95 -318q-2 -98 -4.5 -154t-4.5 -77 q0 -10 2.5 -20.5t2.5 -20.5q-4 -29 28 -39q12 -2 25.5 -21.5t9.5 -33.5q-2 -6 -3 -10t-7 -9q-35 -25 -43 -69q-39 -197 -74 -320t-63 -176q-18 -29 -41 -56.5t-56 -43.5q-4 -8 -14 -11t-18 -10l-13 -4q-16 4 -10 4q-12 -2 -21.5 -3t-17.5 -1q-18 0 -27.5 11.5t-19.5 44.5 q-4 16 -2 19z" />
<glyph unicode="~" horiz-adv-x="770" d="M20 645q1 6 3 14q20 59 75.5 105.5t116.5 50.5q12 0 25.5 1t25.5 3q31 0 52.5 -1t42 -6t41 -12t49.5 -20q59 -27 133 -22q16 0 30.5 7t30.5 15q29 14 43 33q12 -8 14.5 -17.5t2.5 -15.5v-8q0 -78 -74 -131q-12 -8 -40 -14t-44 -6q-53 0 -105 22q-35 12 -68.5 24.5 t-68.5 18.5q-20 4 -33.5 7t-21.5 3q-10 0 -23 -4l-174 -67q-8 -4 -12 -11q-20 12 -21 31z" />
<glyph unicode="&#xad;" horiz-adv-x="526" d="M51 565q8 33 41 39q29 4 56.5 9t56.5 8q61 4 122.5 8t123.5 8q10 0 19 1t19 3q16 -29 12.5 -55.5t-14.5 -53.5q-4 -10 -10 -12t-16 -4q-45 0 -88 -1t-88 -3h-152q-14 0 -28.5 2t-28.5 4q-37 8 -25 47z" />
<glyph unicode="&#xdb;" />
<glyph unicode="&#xdc;" />
<glyph unicode="&#xdd;" />
<glyph unicode="&#xff;" horiz-adv-x="1941" d="M51 243q-4 24 21 38q8 4 15 7t15 7q4 10 7.5 20.5t7.5 20.5q8 20 14 40.5t16 43.5q-10 0 -19 -1t-19 -1t-21.5 7t-19 16.5t-6.5 20.5t16 19q29 16 58.5 27.5t62.5 19.5l30 15q2 0 4 -2q10 0 17 -2q8 2 14 3t15 1q37 8 75.5 13t79.5 5q53 0 78 -8q27 -4 34 -30.5 t-22 -37.5q-47 -16 -97 -22t-99 -10q-33 -2 -68 -13q-8 -27 -17.5 -53.5t-19.5 -52.5q35 8 68 13t65 9h4q29 0 37.5 -25.5t-18.5 -39.5q-82 -45 -197 -70q-10 -29 -23.5 -57.5t-29.5 -57.5q-8 -14 -25 -14q-16 0 -29.5 11.5t-11.5 27.5q2 20 6.5 39.5t8.5 40.5q-23 8 -27 32 zM248 961q8 68 30.5 134t54.5 129.5t69.5 123t74.5 112.5q23 31 55 31q23 0 43.5 -11.5t34 -27.5t15.5 -37.5t-13 -42.5q-39 -74 -77.5 -146.5t-67.5 -148.5q-8 -20 -18.5 -61t-15.5 -81t0 -69.5t28 -29.5q25 0 67 43q55 55 92 122.5t65 140t51.5 147.5t51.5 143 q23 43 70 43q33 0 59.5 -21.5t22.5 -58.5q-6 -55 -25.5 -131t-50 -158t-72.5 -163t-94.5 -144.5t-115 -102.5t-133.5 -39h-19q-55 4 -92 35t-58.5 75t-28.5 96.5t-3 97.5zM440 324q16 47 47 81.5t72 58t89 36t95 12.5q53 -2 87 -23.5t48.5 -55.5t9.5 -75t-34 -82 q-20 -31 -51 -58.5t-68 -49t-77 -33.5t-80 -12q-14 0 -27.5 1t-28.5 5q-63 23 -78.5 67t0.5 97q-10 12 -4 31zM532 276q-8 -35 6.5 -48t39.5 -13q51 0 103 32t83 68q12 14 20.5 33t7.5 34t-12.5 27.5t-38.5 14.5q-47 0 -81.5 -10.5t-75.5 -34.5q0 -8 -6 -19 q-16 -23 -28.5 -42t-17.5 -42zM848 649q6 76 25.5 148.5t47 142.5t60.5 137.5t66 134.5q12 25 29.5 73t42 94t55 81t69.5 35q8 0 22.5 -4t29 -12.5t22.5 -22.5t4 -33q-2 -2 -3 -9t-1 -9q4 4 1 -3t-8 -18.5t-10.5 -21.5t-5.5 -14q-10 -29 -23.5 -54.5t-27.5 -54.5 q-23 -47 -45 -95t-45 -97q-49 -104 -96 -210t-96 -216q-14 -33 -54 -33q-25 0 -44 16t-15 45zM926 223q16 74 42.5 145.5t57.5 141.5q12 29 45 29t49 -29q23 -43 47.5 -83t46.5 -83l19 68q16 37 32.5 75.5t45.5 67.5q16 16 35 16q23 0 37 -16t8 -43q-10 -45 -33 -87t-39 -87 q-12 -37 -22.5 -74t-34.5 -67q-14 -18 -41 -19q-33 0 -50 29q-25 45 -46 88t-44 84q-18 -45 -38.5 -88t-36.5 -88q-4 -12 -15.5 -17.5t-21.5 -5.5q-18 0 -32.5 11.5t-10.5 31.5zM1153 715q0 4 1 11t3 17q-2 12 4 29q16 76 49 148.5t62 144.5q33 78 66.5 158t95.5 141 q14 14 36 14q25 0 50 -24q55 25 122 24q55 0 108.5 -17.5t90.5 -53.5q37 -37 49.5 -79t7 -86t-24 -87t-40.5 -84q-37 -63 -82 -126t-100.5 -112t-123 -78.5t-147.5 -29.5q-61 0 -131 28q-12 -6 -28 -6q-27 0 -49.5 18.5t-18.5 49.5zM1350 793q154 8 254 153q25 35 58.5 80 t43.5 86q6 35 -1 56.5t-24.5 32.5t-41 15.5t-52.5 4.5h-55q-16 -63 -47 -124t-53 -118q-20 -47 -39.5 -93t-42.5 -93zM1430.5 490.5q-3.5 13.5 2 25.5t19.5 16q29 6 64.5 12.5t74.5 12.5t76 9t66 3q16 0 29.5 -2t27.5 -4t23.5 -11t12.5 -21.5t-2 -23.5t-20 -18 q-27 -10 -53.5 -13t-54.5 -7q-2 -23 -15.5 -72t-34 -98t-46 -87t-52.5 -38q-18 0 -32.5 14.5t-6.5 32.5q-2 -4 -2 6.5v12.5q2 10 5.5 17t7.5 17q20 47 35.5 93.5t31.5 93.5q-29 -2 -59.5 -3t-59.5 -1q-14 0 -24 10t-13.5 23.5z" />
<glyph unicode="&#xe01;" horiz-adv-x="751" d="M88 297q0 47 6 158.5t35 285.5q10 61 37 131t68.5 128.5t99 96.5t131.5 38q57 0 96 -35t62.5 -87t34 -112.5t10.5 -114.5q0 -57 -1 -160.5t-6.5 -219t-18.5 -227t-38 -185.5q0 -27 -20.5 -39t-46.5 -12q-25 0 -46.5 12t-21.5 39q-8 41 -8 104q0 18 2 66.5t10 134.5 q12 135 26.5 256t14.5 186q0 18 -2 55.5t-10 72t-25.5 61t-46.5 26.5q-37 0 -63.5 -37.5t-44 -88t-26.5 -101.5t-9 -78q-16 -154 -18.5 -306t-2.5 -306q0 -27 -23.5 -39t-52.5 -12t-53 12t-28 39q-21 121 -21 258z" />
<glyph unicode="&#xe02;" horiz-adv-x="841" d="M79 923.5q-1 16.5 11 30.5q16 18 48 51t70 65t80 54.5t81 22.5q29 0 50 -14.5t38 -49.5q6 -12 9 -24t3 -30.5t-1 -45.5t-5 -68q-8 -82 -18.5 -148.5t-18.5 -139.5q-8 -74 -14 -154t-5 -148.5t12 -118.5t38 -67q23 -12 37 -12q31 0 47 29q8 14 18 65t21 144q10 90 13 181 t3 181t1 179t9 177q0 41 35 70t68 29q20 0 33.5 -13.5t13.5 -42.5q0 -180 9 -366.5t-9 -384.5q-6 -63 -26.5 -130t-57.5 -122t-90.5 -93t-124.5 -44h-19q-68 0 -107.5 48t-60 123.5t-24.5 169t1 184.5t16 170t22 124q0 8 5 34.5t13 73.5q12 68 -4 68q-2 0 -16.5 -12.5 t-32 -27.5t-33.5 -30.5t-20 -19.5q-10 -10 -20.5 -18.5t-26.5 -8.5t-33 8.5t-27 21.5t-11 29.5z" />
<glyph unicode="&#xe03;" horiz-adv-x="935" d="M87 995.5q1 32.5 1 61.5q0 27 26.5 42t57.5 15q27 0 47.5 -13.5t20.5 -43.5l2 -129q121 182 157 198q31 14 62 15q23 0 40 -9.5t17 -31.5q-16 -129 -29.5 -258t-13.5 -258q0 -14 1 -49t4 -80t6 -95.5t8.5 -93.5t11.5 -74.5t12 -39.5q41 -53 70 -54q35 0 54.5 63.5 t26.5 162t7 217t-5 230.5t-12.5 201t-11.5 128q0 16 11.5 31.5t30 27.5t40 19.5t39.5 7.5q45 0 53 -43q23 -180 22 -367.5t-1 -386.5q-8 -63 -16.5 -134t-30 -132.5t-65.5 -104.5t-126 -55q-10 -2 -18 -2h-19q-63 0 -108 34t-75 84t-44 110.5t-14 113.5q-12 135 -10.5 266 t12.5 267q-31 -16 -58.5 -27.5t-64.5 -11.5q-25 0 -47.5 6t-34.5 20q-18 18 -25.5 47t-9.5 61t-1 64.5z" />
<glyph unicode="&#xe04;" horiz-adv-x="901" d="M84 469q0 86 17.5 196.5t58.5 211t108.5 175t169.5 87.5q4 2 31 2q72 0 128 -32t98 -81t67.5 -108.5t34.5 -114.5q4 -29 6 -62.5t2 -72.5q0 -170 -18.5 -337t-45.5 -333q0 -27 -27.5 -42t-58.5 -15q-29 0 -49 13t-20 44q6 51 17 139t22 193q10 104 10 166.5v76.5 q0 45 -5 119t-23.5 144.5t-56.5 122t-104 51.5q-37 0 -65.5 -28t-51 -72t-38 -99t-25.5 -109.5t-14 -102.5t-4 -81v-36.5t2 -37.5q27 61 60.5 124t84.5 122q18 20 54 21q23 0 37 -7.5t22 -16.5t10 -18t2 -12q0 -16 -14 -32q-102 -125 -143 -269.5t-58 -312.5 q0 -29 -27.5 -46t-60.5 -17q-23 0 -42 9t-25 32q-49 186 -57.5 299.5t-8.5 146.5z" />
<glyph unicode="&#xe05;" horiz-adv-x="1255" d="M47 492q0 47 4 113.5t14.5 139t31 145.5t52 130t79 93t110.5 36q35 0 68.5 -32t50.5 -60q23 35 56.5 62.5t76.5 27.5q78 0 119 -49t58 -129t18 -181.5t1 -207.5q0 -45 -5 -119t-13 -151t-20.5 -147.5t-28.5 -109.5q-12 -33 -32.5 -45t-55.5 -12q-23 0 -39.5 12t-16.5 35 q0 80 5.5 152.5t12.5 145.5t12 145.5t5 152.5q0 47 1 104.5t-1 110.5t-8 93t-22 50q-20 -33 -36 -70.5t-31 -69.5t-35.5 -54.5t-51.5 -22.5q-29 0 -49 27q0 12 -4 46t-12.5 71t-16.5 66.5t-18 31.5q-29 -8 -49.5 -45t-36 -89t-24.5 -113.5t-14 -120t-7 -106.5t-2 -75 q35 45 77.5 85t96.5 63q29 -2 62.5 -28t33.5 -58q0 -12 -38 -36t-82 -68t-82 -111.5t-38 -169.5q0 -23 4 -46.5t4 -46.5q0 -35 -28.5 -54t-59.5 -19q-20 0 -37 10q-12 8 -21 42t-15.5 84t-10.5 107.5t-7 109.5t-4 94t-1 61z" />
<glyph unicode="&#xe06;" horiz-adv-x="995" d="M76 840v252q0 29 26.5 40t49.5 11q31 0 48 -9.5t24 -26.5t9.5 -38.5t2.5 -46.5q16 12 34.5 33.5t35 42t31.5 36t25 15.5q53 0 83 -45t45.5 -107.5t18.5 -126t3 -100.5q0 -84 -3 -166t-3 -166q29 -8 55.5 -27.5t51 -43t47 -49t42.5 -46.5q0 43 2.5 113t4.5 154t5 175 t6 177t6 159.5t5 123.5q2 74 78 73q27 0 45 -10q16 -8 24.5 -41t11.5 -73t4 -77.5t1 -56.5q0 -233 -16.5 -470.5t-53.5 -469.5q-12 -80 -94 -80q-27 0 -58.5 33t-61 77t-57.5 88t-48 66q-27 4 -45 23q0 -59 -16.5 -115.5t-30.5 -113.5q-25 -23 -56.5 -44.5t-66.5 -21.5 q-25 0 -49.5 33t-43 77t-30.5 88t-12 64q0 74 49 133.5t119 81.5q0 117 2 235t2 234q-18 -8 -42 -30.5t-46.5 -46t-42 -42t-31.5 -18.5q-10 0 -25.5 6t-30 16.5t-24.5 23t-10 24.5z" />
<glyph unicode="&#xe07;" horiz-adv-x="649" d="M86 743q0 29 28.5 49.5t59.5 20.5q49 0 62 -49q31 -123 49 -247t59 -247q0 -6 3 -21.5t7 -41.5q12 51 22.5 122.5t14.5 151.5t0 159t-18.5 145.5t-42 112.5t-72.5 58q-33 16 -36 35t9.5 35t33 27.5t36.5 11.5q98 -10 153.5 -66.5t81 -138.5t25.5 -183.5t-13 -199.5 t-36 -187t-41 -149q-8 -25 -19.5 -50t-26.5 -48t-35.5 -37t-45.5 -14q-10 -2 -18.5 -3t-12.5 -1q-47 0 -64.5 34.5t-33.5 77.5q-49 147 -89 315t-40 328z" />
<glyph unicode="&#xe08;" horiz-adv-x="718" d="M78 928q0 10 8 26q41 80 124 133.5t175 53.5q68 0 116 -27t78.5 -71t44 -100t13.5 -116q0 -55 -8 -109t-15 -108q-8 -70 -11 -142.5t-9 -146t-16.5 -145.5t-32.5 -139q-10 -35 -41 -54.5t-66 -19.5q-29 0 -39 12.5t-14 38.5q-10 78 -31.5 155t-50.5 150q-12 31 -42 78 t-60.5 93.5t-54 84t-23.5 48.5q0 27 25.5 38t48.5 11q33 0 68.5 -25.5t67.5 -60.5t57.5 -74t37.5 -68q10 88 19.5 175.5t9.5 177.5q0 27 -5.5 59.5t-18.5 62t-35.5 49t-57.5 19.5q-31 0 -51.5 -16.5t-39 -36t-40 -35.5t-53.5 -16q-20 0 -49 10t-29 35z" />
<glyph unicode="&#xe09;" horiz-adv-x="872" d="M113 963q0 8 6 13t10 9l64.5 64.5t63.5 51t74 34t93 12.5q92 0 144.5 -43t78 -109.5t32.5 -144.5t7 -148q0 -78 -4 -154.5t-4 -154.5q51 -16 68.5 -61t17.5 -92q0 -86 -48 -156t-104 -129q-12 -6 -24 -6q-29 0 -57.5 20.5t-28.5 50.5v177q-47 -47 -98.5 -88t-98.5 -89 l-2 -16l-20 -4q0 -16 -12.5 -20.5t-24.5 -4.5q-25 0 -53.5 10.5t-40.5 34.5q0 84 11 165t11 165v350q0 27 21.5 38.5t44.5 11.5q25 0 45 -13q14 -8 23 -44t14.5 -88t6.5 -111.5t1 -113.5t-1 -98t-1 -63q41 41 81 75t93 56q0 78 5 154t5 153q0 35 -3 96.5t-16.5 121 t-40 104.5t-75.5 45q-35 0 -59.5 -16.5t-46 -37t-42 -36.5t-49.5 -16q-20 0 -43.5 10t-23.5 35z" />
<glyph unicode="&#xe0a;" horiz-adv-x="851" d="M72 936q0 23 27.5 57.5t66.5 68.5t77.5 57.5t61.5 23.5q33 0 53.5 -14.5t30.5 -38t14.5 -51t4.5 -54.5q0 -168 -10.5 -335t-10.5 -335v-35.5t3 -57t9.5 -52.5t16.5 -23q12 0 22.5 8.5t18.5 16.5q35 35 54 81t29.5 97t13.5 102.5t3 96.5q0 49 -7 99t-16.5 99.5t-17.5 98.5 t-8 98q0 68 27.5 137.5t70.5 133t97.5 117.5t107.5 91q31 20 59 21q20 0 49 -12.5t29 -36.5q0 -29 -46 -69t-102.5 -90t-102.5 -110.5t-46 -134.5q0 -57 8.5 -115.5t17.5 -114.5t17 -113.5t8 -117.5q0 -59 -16 -152t-51 -181t-89 -151.5t-132 -63.5q-61 0 -97 52t-52.5 133 t-18.5 180t2 194.5t10 174.5t6 120q0 35 -1 70.5t-5 70.5q-16 -23 -33.5 -44.5t-40.5 -35.5q-10 -16 -34 -16q-23 0 -50.5 13t-27.5 42z" />
<glyph unicode="&#xe0b;" horiz-adv-x="864" d="M49 1118q0 23 25 34t43 11q35 0 51 -17.5t28.5 -38t23.5 -37.5t32 -17q18 0 35.5 16t39 34.5t48 35t63.5 16.5q14 0 27.5 -8t13.5 -25q0 -141 -11 -280.5t-11 -280.5q0 -43 1 -103.5t7 -122t18.5 -116.5t36.5 -92q27 31 42.5 76t22.5 94t9 98t2 88q0 115 -8 227.5 t-8 227.5q0 88 14 155.5t44 126t74 111.5t105 115q14 14 31.5 33.5t38 38t42 32t42.5 13.5q12 0 27.5 -3.5t30.5 -10.5t25.5 -18t10.5 -26q0 -18 -23.5 -40.5t-58.5 -53.5t-75 -71t-74.5 -93t-58 -120.5t-23.5 -151.5q0 -100 5 -199.5t5 -200.5q0 -47 -2 -110.5t-11.5 -131 t-26.5 -133t-48 -117.5t-78 -84t-113 -32q-23 0 -43 3t-41 14q-35 18 -56 84.5t-33.5 147.5t-17.5 158t-5 113q0 111 6 219.5t16 219.5q-33 -12 -69 -13q-37 0 -72 18.5t-60.5 48.5t-42 66.5t-16.5 71.5z" />
<glyph unicode="&#xe0c;" horiz-adv-x="1300" d="M115 144.5q-4 52.5 4 109.5q0 80 19.5 167t32.5 176t7 176t-59 167q-18 35 -3 68t50 51q66 41 143.5 66.5t155.5 25.5q94 0 174 -47t119 -164q14 -37 21 -91t8 -118.5t-1 -136.5t-6 -145q53 0 96.5 -17.5t77.5 -46.5q-4 199 0 398.5t17 392.5q0 29 28.5 46t63.5 17 q29 0 51.5 -14.5t22.5 -48.5q16 -287 8 -568.5t-8 -566.5q-10 -39 -37 -57.5t-56 -18.5q-25 0 -45 13.5t-28 37.5q-18 43 -32.5 88.5t-35 83t-49.5 68.5t-74 45l-12 4q-10 -94 -19.5 -176t-15.5 -137q0 -16 -9 -26.5t-23.5 -16.5t-30 -8t-27.5 -2q-27 0 -39 7t-37 46 q-43 51 -60.5 107.5t-11 111.5t34 103t74.5 81q6 86 9 172t-2 161t-20.5 131t-45.5 81q-29 29 -59.5 40t-63.5 11q-51 0 -105 -24q27 -63 32 -131t-1 -137.5t-19.5 -140.5t-21.5 -140q-8 -27 -18 -81t-10 -109.5t16 -97.5t59 -42q37 -8 48.5 -27.5t4 -40t-28 -36 t-46.5 -15.5q-10 -2 -20.5 -2h-20.5q-57 0 -95 23.5t-57.5 62.5t-23.5 91.5z" />
<glyph unicode="&#xe0d;" horiz-adv-x="1120" d="M104 221q0 70 11.5 137.5t25 135t24.5 135t11 137.5q0 61 -8 107.5t-37 101.5q-6 12 -6 26q0 23 17.5 45.5t33.5 38.5q53 20 128 44t149 24t118.5 -29.5t70.5 -77t35 -107.5t9 -120q0 -123 -19.5 -244.5t-19.5 -244.5q0 -20 1 -60.5t9.5 -80t24.5 -69.5t47 -30 q41 0 60.5 49t25.5 112.5t4 125t-2 88.5q0 135 4 266t19 266q4 29 23.5 39.5t45.5 10.5q10 0 24.5 -3.5t28 -9.5t23.5 -15t10 -22v-964q-2 4 -1 14t-3 14q-14 -47 -19 -96t-16.5 -95t-36 -85t-77.5 -66t-109 -26q-25 0 -57.5 11t-62 29.5t-50 43t-20.5 51.5q0 23 28.5 32 t46.5 9q29 0 46.5 -9.5t27.5 -21.5t19.5 -21.5t23.5 -9.5q20 0 36.5 26t29 59.5t21.5 67.5t14 50q-35 -23 -76 -36t-84 -13q-51 0 -88 24.5t-60.5 62.5t-34 84t-10.5 91q0 66 8.5 130.5t17.5 128t16 128t7 129.5q0 35 -5 80t-20 86t-43 70t-73 29q-35 0 -69 -13 q14 -35 19 -71.5t5 -73.5q0 -90 -22.5 -170t-36.5 -166q-10 -68 -21.5 -140.5t-11.5 -142.5q0 -18 1 -38.5t5 -41t16.5 -36t32.5 -21.5q23 -6 39.5 -19.5t16.5 -37.5q0 -29 -28 -42.5t-50 -13.5q-49 0 -84 23t-56.5 58.5t-32 78.5t-10.5 84z" />
<glyph unicode="&#xe0e;" horiz-adv-x="1056" d="M72 109q0 12 9 21t23.5 13t29 6.5t22.5 2.5q23 0 41 -6.5t41 -10.5q41 127 58 273.5t17 279.5q0 66 -5 138.5t-36 131.5q-2 4 -4 7.5t-2 7.5q0 39 44 69.5t103.5 52t119 33t90.5 11.5q96 0 156.5 -36t94 -95.5t47 -135t13.5 -155.5q0 -76 -8 -150.5t-20.5 -148.5 t-25 -148.5t-20.5 -148.5q-8 -80 -15 -164t-15.5 -168t-21.5 -167t-38 -159q-20 -63 -94 -63q-8 0 -17.5 3t-17.5 8t-10 12.5t4 17.5q-31 31 -58.5 73t-58.5 79.5t-67.5 64.5t-90.5 27q-49 0 -63 -23.5t-19.5 -51.5t-12.5 -51.5t-44 -23.5q-88 0 -88 88q0 45 25.5 79 t63.5 57.5t83 35.5t82 12q78 0 148.5 -37.5t117.5 -97.5q12 131 32 261t36 260.5t28.5 260.5t12.5 261q0 49 -7 98t-27.5 87t-57.5 62.5t-99 24.5q-29 0 -54 -5t-52 -13q16 -53 22.5 -107.5t6.5 -107.5q0 -174 -33 -357.5t-99 -343.5q-23 -41 -40 -55t-50 -14q-18 0 -52 11 t-66.5 29.5t-57 41t-24.5 43.5z" />
<glyph unicode="&#xe0f;" horiz-adv-x="1050" d="M82 -297q-10 31 15.5 48.5t60.5 17.5q25 0 47 -9.5t39 -31.5q16 -25 29.5 -51.5t25.5 -55.5q25 47 49.5 97.5t57.5 101.5q20 33 69 33t68 -33q31 -57 67.5 -109.5t77.5 -101.5q6 96 16.5 212t20.5 236.5t19.5 240.5t14.5 225.5t4 192.5t-11 142q-20 78 -73.5 109.5 t-119.5 31.5q-59 0 -119 -18q20 -55 28.5 -135t8.5 -170t-7 -185.5t-18.5 -182.5t-23.5 -160.5t-22 -120.5q-16 -16 -46 -30.5t-47 -14.5q-70 0 -112.5 16t-94.5 51q-14 23 -10 40t18.5 30.5t35 20.5t40.5 7q18 0 31 -6q18 -18 41 -26q23 86 34 206.5t10 242.5t-16.5 226.5 t-45.5 159.5q-8 18 -5 34.5t12 32t20.5 28t19.5 20.5q72 37 159 67.5t179 30.5q37 0 73.5 -6t71.5 -22q76 -53 112 -176t45 -283t-1 -341t-26.5 -351t-35 -311.5t-24.5 -221.5q-4 -14 -13 -22q6 -29 -20.5 -42.5t-50.5 -13.5q-23 0 -31 9q-86 49 -147.5 112.5t-114.5 140.5 q-25 -51 -51.5 -97t-57.5 -87q-8 -18 -26.5 -26.5t-40.5 -8.5q-47 0 -70 35q-35 70 -69.5 126t-69.5 126z" />
<glyph unicode="&#xe10;" horiz-adv-x="827" d="M104 924.5q2 23.5 27 48.5q39 31 87 60.5t100.5 52t107.5 37t111 14.5q49 0 98 -13q29 0 39 -16t6 -34.5t-22.5 -35t-47.5 -16.5q-45 -10 -89 -18.5t-85 -24.5q61 -37 99 -105.5t57.5 -154.5t25 -182.5t1 -188.5t-14.5 -172t-20 -135q-10 -43 -49 -66.5t-78 -23.5 q-31 0 -52.5 15.5t-21.5 47.5q6 18 9 62.5t2 100.5t-10 117.5t-27.5 112t-48 83t-72.5 32.5q-4 0 -11.5 -1t-17.5 -3t-16.5 -3t-8.5 -1q-25 0 -44 14.5t-27.5 35t2 43t43.5 38.5q86 29 129 29q41 0 75.5 -14.5t63.5 -36.5q-6 41 -17.5 80.5t-30 73.5t-45 54.5t-61.5 20.5 q-8 0 -18 -2t-21 -4q-20 -4 -30 -4q-25 0 -48.5 11t-37 29.5t-11.5 42zM106 -414q16 86 74 145.5t137 59.5q10 0 20.5 -1t20.5 -3q59 0 101 -29v4q10 35 37.5 50.5t60.5 15.5q35 0 61.5 -17.5t16.5 -48.5q0 -76 -15.5 -138t-35.5 -138q0 -29 -22.5 -43t-51.5 -14t-52.5 14 t-23.5 43q-10 18 -17 45t-16.5 52.5t-25 47t-43.5 31.5q-18 0 -24.5 -3t-24.5 -21q0 -20 -12.5 -51t-12.5 -52q-8 -12 -24.5 -18t-36.5 -6q-37 0 -70 19t-21 56z" />
<glyph unicode="&#xe11;" horiz-adv-x="1095" d="M103 1005.5q8 63.5 8 137.5q0 25 17 35t40 10q33 0 62.5 -18.5t29.5 -51.5v-39q10 16 24.5 37t30.5 29q10 27 37 39t56 12t53 -13.5t24 -39.5q12 -178 19 -365q16 59 31.5 115.5t25.5 99.5q23 66 78 109t117 43q43 0 84 -24.5t71 -78.5q18 -43 30.5 -121.5t20 -176 t9.5 -205t-1 -207t-11.5 -183t-20.5 -133.5q0 -23 -27.5 -35t-58.5 -12q-27 0 -46.5 10.5t-19.5 36.5v801q-14 68 -28.5 93.5t-30.5 25.5q-10 0 -20.5 -11.5t-19.5 -25.5t-15 -29.5t-10 -25.5q-57 -211 -85 -411t-65 -392q-10 -39 -39 -57.5t-59 -18.5q-31 0 -54.5 18.5 t-23.5 57.5q-14 199 -18.5 405.5t-6.5 411.5q-6 -10 -12 -20.5t-12 -20.5q-8 -14 -24.5 -20t-37.5 -6q-14 0 -34.5 5t-38 14t-29.5 24.5t-12 33.5q-16 74 -8 137.5z" />
<glyph unicode="&#xe12;" horiz-adv-x="1292" d="M119 453q0 47 5 124.5t17.5 160.5t30.5 157t45 109q18 25 46 52t59.5 48.5t66.5 36t68 14.5q76 0 112 -65q23 23 51.5 35t59.5 12q59 0 91 -39t47.5 -93.5t18.5 -114t3 -99.5q0 -92 -1 -185.5t-8 -185.5q88 -4 158 -60q-4 121 -5 241t-1 241v56.5t2 69.5t6 68.5t13 53.5 q12 35 31.5 46t54.5 11q27 0 47 -12q12 -6 18 -46t9 -89.5t3 -94.5v-61q0 -193 -4 -380.5t-4 -379.5q0 -47 -20.5 -79t-73.5 -32q-23 0 -42 11.5t-19 35.5q-14 37 -30 76t-36 75t-47 65.5t-64 48.5q-2 -31 -1 -69t0 -78t-5 -75.5t-14 -64.5q-12 -35 -35.5 -46t-58.5 -11 q-31 0 -58.5 26.5t-47 63.5t-31 76.5t-11.5 66.5q0 59 29 112.5t78 88.5q2 59 3 117.5t1 117.5v394q-35 -29 -42 -69t-24 -85q-6 -35 -39.5 -57.5t-68.5 -22.5q-33 0 -44.5 32t-14.5 74t-5 81.5t-18 56.5q-47 -35 -68.5 -87.5t-32.5 -105.5q70 -8 114 -63.5t68.5 -129 t33 -151.5t8.5 -133t-9.5 -119.5t-36 -119t-70.5 -90t-116 -35.5q-68 0 -106.5 56t-58 133t-23.5 157t-4 127zM289 498q0 -90 9 -178.5t44 -172.5q37 111 37 228q0 94 -19.5 175t-54.5 167q0 -55 -8 -109.5t-8 -109.5z" />
<glyph unicode="&#xe13;" horiz-adv-x="1286" d="M106 973q4 41 46.5 74.5t97.5 58t111.5 38t91.5 13.5q92 0 151.5 -35t95 -93t50 -132t14.5 -152q0 -109 -2 -216t-6 -216q35 37 76.5 66t91.5 45v723q0 43 38.5 64.5t75.5 21.5q29 0 53.5 -13.5t24.5 -48.5q0 -193 -1 -383t-7 -382q31 -23 42 -60t11 -72 q0 -57 -18.5 -114.5t-50.5 -104.5v-6h-5q-23 -25 -40 -41t-52 -16q-27 0 -49 14t-22 43v219q-16 -18 -34 -34.5t-34 -34.5q-31 -39 -50.5 -85t-47.5 -87q0 -14 -9.5 -23.5t-19.5 -15.5q-12 -18 -33.5 -24.5t-44.5 -6.5q-20 0 -41 10q-12 6 -18 36t-9 64.5t-3 67.5v47 q0 135 5 270.5t5 270.5q0 43 -7.5 93t-26.5 91t-54 69t-90 28q-27 0 -51.5 -7.5t-47.5 -17.5q37 -98 37 -205q0 -70 -7 -138.5t-16.5 -138t-16.5 -138t-7 -138.5q0 -29 2 -57.5t12 -52.5q10 -23 26.5 -30t32 -12.5t27 -15.5t11.5 -37q0 -23 -19.5 -42t-42.5 -19 q-219 0 -219 213q0 66 8.5 129t17.5 127.5t17 129t8 128.5q0 47 -5 80t-14 61.5t-22.5 59t-29.5 73.5z" />
<glyph unicode="&#xe14;" horiz-adv-x="876" d="M80 553q0 94 17.5 198.5t61.5 191.5t119.5 144.5t192.5 57.5q74 0 127 -32t89 -83t57.5 -117.5t34 -136t15.5 -137.5t3 -123q0 -33 -4.5 -109.5t-11.5 -160.5t-16 -157t-20 -95q-16 -35 -33.5 -46t-54.5 -11q-59 0 -59 57q0 43 7 135t13.5 206t4.5 234.5t-20.5 220 t-58.5 164t-112 64.5q-41 0 -70.5 -23.5t-50 -58.5t-33 -75t-18.5 -73q68 0 113 -48t71.5 -115.5t38 -141t11.5 -127.5q0 -49 -8.5 -113.5t-31 -123t-63.5 -99t-106 -40.5q-49 0 -84 32.5t-57.5 85t-36 118t-19.5 129t-7 118.5t-1 90zM244 365q0 -12 1 -49t6 -76t15.5 -70 t28.5 -31q16 0 26.5 25.5t15.5 58.5t6 64.5t1 44.5q0 20 -3 77.5t-12.5 119t-24.5 108.5t-40 47h-16q-2 -29 -3 -59.5t-1 -59.5v-200z" />
<glyph unicode="&#xe15;" horiz-adv-x="931" d="M98 397q0 53 3 131t14.5 165t33 172t58.5 153.5t90 112t129 43.5q45 0 72.5 -22t44.5 -62q45 45 108 45q47 0 78 -30t48.5 -77t25.5 -105.5t10 -115.5t1 -109.5t-1 -85.5q0 -76 -3 -157.5t-8 -162.5t-12.5 -156t-17.5 -134q-6 -37 -25.5 -52.5t-58.5 -15.5 q-23 0 -45 10.5t-22 37.5q0 43 6 132t14 197.5t15.5 224t9.5 211t-4.5 157t-24.5 61.5h-4q-25 -31 -38 -67t-26.5 -66.5t-31 -50t-50.5 -19.5q-23 0 -37 12t-24 31q-2 115 -14.5 159t-28.5 44q-14 0 -30.5 -25t-31 -56.5t-24.5 -63.5t-14 -44q72 -6 117.5 -62.5t73.5 -131 t38 -155.5t10 -138q0 -53 -11 -115.5t-36.5 -115t-71 -87t-112.5 -34.5q-68 0 -107 47t-58.5 113.5t-23.5 137t-4 119.5zM254 502q0 -18 2 -75.5t7 -119t15.5 -109.5t28.5 -51q18 18 26.5 64.5t9.5 108t-6 128t-16.5 124t-21.5 98.5t-25 47h-8q-12 -106 -12 -215z" />
<glyph unicode="&#xe16;" horiz-adv-x="899" d="M118.5 179q-4.5 87 18.5 198q10 53 21.5 107.5t21.5 109.5q23 111 26 210t-42 175q-16 18 -3 46t46 44q63 33 143 57.5t160 24.5q86 0 153.5 -37t102.5 -135q12 -37 15 -111.5t-1 -170t-12 -201t-18.5 -201.5t-20.5 -174t-18 -119q-4 -27 -28 -39t-52 -12q-27 0 -48.5 12 t-21.5 39q0 47 8.5 130t18.5 182.5t18 206t7 199.5t-15 162.5t-47 96.5q-25 20 -53.5 27.5t-57.5 7.5q-35 0 -94 -17q23 -68 26 -132t-4.5 -127.5t-22.5 -125t-30 -120.5q-8 -33 -24.5 -97.5t-20.5 -131t13.5 -122t74.5 -71.5q25 -8 33 -26.5t4 -37t-19.5 -33t-39.5 -14.5 q-117 12 -166 74q-47 59 -51.5 146z" />
<glyph unicode="&#xe17;" horiz-adv-x="974" d="M82 381v106.5t6 149.5t24.5 193.5t55.5 236.5q10 29 44 47.5t67 18.5q29 0 45 -13.5t16 -34.5q0 -12 -2 -18q-47 -139 -59.5 -279.5t-18.5 -281.5q25 57 50.5 110.5t51.5 106.5q29 55 66 128t83 139.5t101.5 116.5t118.5 58q55 0 84 -25.5t41 -58t12 -63.5v-39 q0 -41 -7 -93t-7 -89q-18 -205 -32.5 -404.5t-41.5 -404.5q-4 -35 -43 -52.5t-80 -17.5q-29 0 -51 11.5t-22 33.5q4 27 12 94.5t17.5 158.5t18.5 196.5t17 206t13.5 187.5t5.5 142q-23 -35 -45.5 -82t-38.5 -69q-37 -57 -61.5 -114.5t-61.5 -129.5q-57 -111 -105.5 -235.5 t-89.5 -256.5q-4 -12 -17 -25t-31.5 -23.5t-38 -17.5t-38.5 -7q-20 0 -33.5 11t-13.5 38q-12 176 -12 344z" />
<glyph unicode="&#xe18;" horiz-adv-x="743" d="M94 928q0 68 21.5 108.5t56.5 61t80 26.5t92 6q29 0 57.5 -1t57.5 -1q33 0 52 9.5t35.5 19.5t33 19.5t43.5 9.5q18 0 32.5 -11.5t14.5 -31.5q0 -16 -10.5 -28.5t-20.5 -22.5q-51 -51 -109.5 -72t-130.5 -21q-8 0 -27.5 2.5t-41.5 2.5q-31 0 -57.5 -8.5t-26.5 -32.5 q0 -25 25.5 -43.5t41.5 -34.5q49 -12 99.5 -27.5t91.5 -50.5q39 -33 63.5 -81t39 -102.5t19.5 -109.5t5 -104q0 -70 -10.5 -148t-40 -143.5t-84 -108.5t-144.5 -43q-74 0 -122 30t-77.5 77t-42 108.5t-12.5 122.5q0 33 -1 86t7.5 105.5t31 90.5t69.5 38q27 0 47 -16.5 t20 -45.5q0 -59 -10 -117.5t-10 -117.5q0 -23 3 -61t13.5 -74.5t29.5 -64.5t50 -28q35 0 59.5 41t39 95.5t20.5 108.5t6 81q0 59 -7 103t-25.5 79t-51.5 62.5t-84 52.5q-27 14 -63.5 33.5t-69.5 46t-55.5 57.5t-22.5 68z" />
<glyph unicode="&#xe19;" horiz-adv-x="942" d="M132 576.5q1 136.5 6.5 266.5t19.5 234q0 31 30.5 45.5t65.5 14.5q29 0 48.5 -9.5t19.5 -25.5q-4 -86 -8.5 -190.5t-7.5 -217t-5 -227.5t-2 -221q51 49 104.5 94t112.5 76q-18 174 -16 347t30 339q6 37 39 58.5t68 21.5q33 0 57.5 -19.5t24.5 -60.5q-23 -154 -26 -311.5 t7 -319.5h7q70 0 96 -53t25 -126t-26.5 -147.5t-60.5 -115.5q-16 -23 -43.5 -35t-56.5 -12q-51 0 -63 47q-12 59 -22.5 117.5t-20.5 111.5q-74 -53 -138.5 -119.5t-122.5 -134.5q-12 -16 -39.5 -26.5t-54.5 -10.5q-25 0 -40 13.5t-5 48.5v47q0 104 -2 234t-1 266.5z" />
<glyph unicode="&#xe1a;" horiz-adv-x="972" d="M104 698q0 8 1.5 109t19.5 287q0 29 23.5 42t54.5 13q29 0 56.5 -13.5t37.5 -41.5v-514q0 -45 -1 -83t-1 -44q0 -43 5 -97.5t20.5 -104.5t44 -88t77.5 -50q16 -4 23 -4q43 0 74.5 64.5t54 165.5t38 222t27 232.5t17.5 200.5t12 124q4 29 32 42.5t58 13.5q31 0 56.5 -13.5 t25.5 -42.5q0 -104 -6 -203.5t-20 -199.5q-29 -201 -46.5 -334t-42.5 -195q-18 -45 -41.5 -85t-56.5 -70.5t-74 -48t-94 -17.5h-18t-19 2q-74 0 -129 34t-94 88t-62.5 125t-31.5 144q-10 78 -14.5 163t-6.5 177z" />
<glyph unicode="&#xe1b;" horiz-adv-x="1005" d="M104 698q0 98 4.5 198t16.5 198q4 33 25.5 44t52.5 11q10 0 25.5 -4t30.5 -11.5t26.5 -17.5t11.5 -22q0 -166 -1 -328t-1 -328q0 -39 6 -95t23.5 -107.5t50.5 -88t86 -36.5q51 0 87 75.5t60.5 192.5t41 258t24.5 271t13 232.5t7 141.5q0 12 2 52t5.5 85t7.5 82t6 45 q12 33 33.5 44.5t56.5 11.5q27 0 54.5 -11.5t27.5 -44.5q0 -47 1 -96t1 -96q0 -72 -2 -202t-15.5 -284.5t-39 -314.5t-71.5 -291t-118 -214t-174 -83q-90 0 -152.5 37t-103.5 96.5t-62.5 136t-31.5 158.5t-12.5 162t-2.5 143z" />
<glyph unicode="&#xe1c;" horiz-adv-x="931" d="M103 640q-3 93 5.5 185.5t38 167t88 120.5t154.5 46h21.5t21.5 -2q31 0 45.5 -14.5t13 -32.5t-15.5 -32.5t-43 -14.5q-20 0 -22 2q-61 0 -95 -40t-48.5 -106.5t-13.5 -151.5t9 -173t20.5 -173t20.5 -153q8 78 21.5 176.5t25.5 188.5t22.5 158.5t14.5 87.5q0 29 23.5 45 t52.5 16q25 0 43 -14.5t18 -46.5q25 -147 58.5 -303t74.5 -310q2 49 3.5 101.5t1.5 95.5v74.5v40.5q0 123 -3.5 243.5t-19.5 243.5q0 37 27.5 54.5t60.5 17.5q29 0 50.5 -12.5t21.5 -37.5q16 -174 19 -347t3 -347q0 -51 1 -120.5t-9 -135t-39 -117t-90 -67.5q-16 0 -45 14.5 t-45 30.5q-33 98 -61.5 198.5t-53.5 204.5q-8 -74 -19 -142.5t-25.5 -123.5t-32 -92t-37.5 -45q-31 -12 -58 -12q-49 0 -80.5 37.5t-50 92t-28 112t-13.5 96.5q-6 55 -17.5 139t-14.5 177z" />
<glyph unicode="&#xe1d;" horiz-adv-x="966" d="M103 640q-3 93 5.5 185.5t38 167t88 120.5t154.5 46h21.5t21.5 -2q31 0 45.5 -14.5t13 -32.5t-15.5 -32.5t-43 -14.5q-20 0 -22 2q-61 0 -95 -40t-48.5 -106.5t-13.5 -151.5t9 -173t20.5 -173t20.5 -153q8 78 21.5 176.5t25.5 188.5t22.5 158.5t14.5 87.5q0 29 23.5 45 t52.5 16q25 0 43 -14.5t18 -46.5q27 -150 59.5 -307.5t75.5 -313.5q6 96 10.5 222t7.5 263.5t4 274.5t0 254t-3 200.5t-6 116.5q0 37 27.5 54.5t60.5 17.5q29 0 50 -12.5t21 -36.5q4 -33 9.5 -120t8.5 -207t4 -261t-3 -285q-6 -145 -16.5 -280t-30.5 -244t-44 -161t-63 -70 q-16 -8 -27.5 -10.5t-21.5 -2.5q-18 0 -30.5 8.5t-22.5 18.5q-33 98 -61.5 198.5t-53.5 204.5q-8 -74 -19 -142.5t-25.5 -123.5t-32 -92t-37.5 -45q-31 -12 -58 -12q-49 0 -80.5 37.5t-50 92t-28 112t-13.5 96.5q-6 55 -17.5 139t-14.5 177z" />
<glyph unicode="&#xe1e;" horiz-adv-x="976" d="M100 778q-2 125 0 222.5t6 134.5q0 25 19.5 38t46.5 13q29 0 55.5 -18.5t26.5 -59.5q6 -53 10 -140t7 -185.5t5.5 -199t5.5 -180t7 -131t10 -51.5l4 4q23 147 43.5 311t30.5 377q2 31 31.5 48.5t62.5 17.5q31 0 54.5 -15.5t23.5 -50.5q27 -162 62.5 -328.5t82.5 -332.5 q4 84 5 189.5t-1 220t-8 230.5t-18 216q0 41 28.5 60.5t63.5 19.5q29 0 52.5 -13.5t27.5 -39.5q4 -33 8 -99.5t8 -153.5t5 -188.5t-1 -204.5q0 -33 -2 -81t-7 -103t-14.5 -112.5t-26.5 -105.5t-43 -82t-60 -44q-37 0 -68 15.5t-31 33.5q-23 74 -53.5 172.5t-58.5 196.5 q-12 -80 -29.5 -153.5t-43.5 -129t-58.5 -89.5t-75.5 -34q-16 0 -39 7q-41 12 -69.5 92t-46 195.5t-27 250.5t-11.5 260z" />
<glyph unicode="&#xe1f;" horiz-adv-x="985" d="M100 897v119t6 119q4 29 21.5 40t44.5 11q31 0 55 -19q18 -14 27.5 -81.5t12.5 -163t4 -205t2 -209.5t6.5 -178t19.5 -109l4 4q14 90 24.5 175t18.5 169t15.5 169t15.5 175q4 35 34.5 50.5t59.5 15.5q37 0 55.5 -14.5t22.5 -51.5q14 -160 57 -327.5t86 -321.5 q8 176 11.5 350t3.5 353q0 121 -1 239.5t-12 241.5q-4 43 -10 90t-6 90q0 41 27.5 60.5t64.5 19.5q29 0 51.5 -12.5t28.5 -40.5q12 -53 16 -144.5t6 -190.5t1 -192.5t-1 -154.5q0 -35 -2 -122t-7 -198.5t-16 -232.5t-28.5 -221.5t-44 -165t-63.5 -64.5q-27 0 -60 10.5 t-39 38.5q-23 100 -53.5 180.5t-58.5 180.5q-6 -39 -19.5 -107.5t-37 -134t-60.5 -115t-90 -49.5q-20 0 -39 7q-37 12 -62.5 74.5t-42 153.5t-26.5 196.5t-15.5 203t-6.5 176t-1 113.5z" />
<glyph unicode="&#xe20;" horiz-adv-x="1081" d="M88 97q0 16 12.5 26t33 15t40.5 5q18 0 49 -10q6 -6 13.5 -11t15.5 -9q18 57 34.5 130.5t29 154.5t18.5 163t5 156t-12.5 134t-33.5 97q-10 16 -7 33.5t12 33t21.5 29t20.5 21.5q72 31 152.5 52.5t158.5 21.5q98 0 176 -42t117 -149q18 -51 23.5 -107.5t2.5 -112.5 t-10.5 -112.5t-15.5 -109.5q-18 -123 -34.5 -244t-35.5 -244q0 -29 -25.5 -41t-53.5 -12q-31 0 -56.5 12.5t-25.5 40.5q16 160 31.5 313.5t37.5 313.5q6 43 8.5 89t-4 89t-24 81t-49.5 67q-20 18 -47 25.5t-58 7.5q-49 0 -123 -23q31 -90 31 -221t-18.5 -267.5t-49 -258 t-61.5 -193.5q0 -35 -29.5 -52.5t-64.5 -17.5q-53 0 -102.5 19.5t-84.5 72.5q-18 18 -18 34z" />
<glyph unicode="&#xe21;" horiz-adv-x="933" d="M110.5 97.5q-18.5 62.5 4.5 148.5q12 53 47 108.5t86 73.5q12 172 -3.5 339t-68.5 290q-6 18 3 34.5t27.5 29t42 18.5t44.5 6q37 0 45 -19q29 -57 48.5 -138t29.5 -173t10 -191.5t-10 -195.5q51 -16 96 -51t86 -78q2 217 11 429t36 417q0 31 27.5 48t56.5 17q23 0 38 -10 t15 -33q8 -109 8.5 -256t-5 -303.5t-12.5 -306t-13 -264.5q0 -35 -34 -56.5t-69 -21.5q-43 0 -59 31q-27 55 -79 114.5t-105 94.5q-4 4 -10.5 11t-14.5 17q-10 -53 -22.5 -101t-28.5 -89q0 -8 -12.5 -21.5t-31 -28t-40 -24.5t-39.5 -10q-20 0 -33 14q-53 68 -71.5 130.5z " />
<glyph unicode="&#xe22;" horiz-adv-x="854" d="M122 924.5q11 76.5 60 143t135 97.5q8 2 17 2q2 2 4 2q25 0 47.5 -14t33.5 -32.5t6 -39t-38 -32.5q-61 -20 -84.5 -63.5t-16.5 -89.5t39.5 -87t84.5 -59q16 0 25 -10.5t10 -25t-2 -30.5t-11 -27q-31 -43 -63.5 -91t-56 -99t-31 -106.5t13.5 -116.5q6 -18 18.5 -42 t29.5 -45.5t40 -35.5t49 -14q35 0 57.5 12t35 31.5t17.5 44t5 49.5q8 104 10 211.5t4 217t8 221.5t25 224q0 27 21.5 39t50.5 12t54 -12t34 -39q0 -53 -2 -106t-9 -111q-6 -57 -9 -153.5t-7 -231.5q-4 -137 -10 -220t-17 -116q-29 -96 -97 -156.5t-187 -60.5 q-104 0 -179 62.5t-104 173.5q-31 117 6 230.5t103 219.5q-74 47 -102.5 122t-17.5 151.5z" />
<glyph unicode="&#xe23;" horiz-adv-x="565" d="M75.5 49.5q5.5 16.5 30.5 26.5q78 33 120 83t52.5 110.5t-5 128t-52.5 134.5q-29 55 -60.5 120t-31.5 132q0 70 24.5 135.5t67.5 116.5t101.5 83t128.5 32q25 0 38 -14.5t13 -33t-13.5 -37.5t-37.5 -30q-123 -49 -138.5 -141t45.5 -201q41 -66 67 -136.5t26 -139.5 q8 -68 -8.5 -144.5t-55.5 -141t-98.5 -106.5t-136.5 -42q-25 0 -45.5 10t-28.5 24.5t-2.5 31z" />
<glyph unicode="&#xe24;" horiz-adv-x="899" d="M118.5 179q-4.5 87 18.5 198q10 53 21.5 107.5t21.5 109.5q23 111 26 210t-42 175q-16 18 -3 46t46 44q63 33 143 57.5t160 24.5q86 0 154.5 -37t101.5 -135q10 -27 13 -93.5t1 -159.5t-8 -205.5t-15 -228.5t-20.5 -229.5t-21.5 -209t-18.5 -165t-14.5 -98.5 q-4 -27 -27.5 -39t-52.5 -12q-27 0 -48.5 12.5t-21.5 38.5q0 35 6.5 110t15.5 172t19.5 212t18.5 230.5t12 226t1 200.5t-16.5 153.5t-37.5 84.5q-25 20 -53.5 27.5t-57.5 7.5q-35 0 -94 -17q23 -68 26 -132t-4.5 -127.5t-22.5 -125t-30 -120.5q-8 -33 -24.5 -97.5 t-20.5 -131t13.5 -122t74.5 -71.5q25 -8 33 -26.5t4 -37t-19.5 -33t-39.5 -14.5q-117 12 -166 74q-47 59 -51.5 146z" />
<glyph unicode="&#xe25;" horiz-adv-x="886" d="M123 174q0 102 35 193.5t97 160t149.5 108.5t193.5 40q0 27 -4 77t-15.5 100t-34 88t-59.5 38q-51 0 -76.5 -43t-48 -95.5t-53.5 -95.5t-94 -43q-18 0 -34.5 5.5t-22.5 25.5q10 61 40.5 134t76.5 134.5t107.5 103.5t131.5 42q33 0 63.5 -12.5t55.5 -32.5 q49 -41 77.5 -95.5t43 -116t17.5 -126t3 -123.5q0 -168 -19.5 -334t-19.5 -332q0 -12 -9 -20t-21.5 -13t-25.5 -7.5t-22 -2.5q-61 0 -76.5 33t-15.5 86q0 117 10.5 231.5t18.5 231.5q-10 2 -31 2q-57 0 -103 -25.5t-80 -65.5t-52.5 -91t-22.5 -105q-4 -53 -3 -104t1 -105 q0 -33 -23.5 -45t-52.5 -12q-37 0 -58.5 22.5t-30.5 55.5t-11 69.5t-2 63.5z" />
<glyph unicode="&#xe26;" horiz-adv-x="1081" d="M88 97q0 16 12.5 26t33 15t40.5 5q18 0 49 -10q6 -6 13.5 -11t15.5 -9q18 57 34.5 130.5t29 154.5t18.5 163t5 156t-12.5 134t-33.5 97q-10 16 -7 33.5t12 33t21.5 29t20.5 21.5q72 31 152.5 52.5t158.5 21.5q98 0 176 -42t117 -149q18 -51 23.5 -107.5t2.5 -112.5 t-10.5 -112.5t-15.5 -109.5q-6 -41 -15 -112.5t-20.5 -161t-23 -184.5t-22.5 -184t-20 -161t-16 -113q0 -29 -25.5 -41t-53.5 -12q-31 0 -56.5 12.5t-25.5 40.5q6 51 15 135.5t19.5 183.5t20.5 207.5t21.5 209t21.5 184.5t18 135q6 43 8.5 89t-4 89t-24 81t-49.5 67 q-20 18 -47 25.5t-58 7.5q-49 0 -123 -23q31 -90 31 -221t-18.5 -267.5t-49 -258t-61.5 -193.5q0 -35 -29.5 -52.5t-64.5 -17.5q-53 0 -102.5 19.5t-84.5 72.5q-18 18 -18 34z" />
<glyph unicode="&#xe27;" horiz-adv-x="581" d="M45 932.5q-4 12.5 6 30.5q18 31 44 62.5t56.5 57t64.5 42t71 16.5q23 0 43 -6q59 -16 94 -81t53.5 -155t21.5 -193.5t-3.5 -200.5t-19.5 -177t-27 -119q-14 -43 -38 -84t-55.5 -74t-68.5 -53.5t-76 -20.5q-31 0 -61 13q-33 6 -38.5 24.5t6 39t32 35.5t36.5 15 q41 8 72 49.5t51.5 103.5t30.5 140t10 158t-7 155.5t-19.5 134t-31 94.5t-40.5 36q-33 0 -66 -70q-25 -10 -55 -10q-18 0 -37.5 4t-32 12.5t-16.5 21z" />
<glyph unicode="&#xe28;" horiz-adv-x="944" d="M123 487.5q0 92.5 10 182.5q8 80 30.5 164t64.5 153.5t108.5 113.5t161.5 44q92 0 155 -51q41 57 79 113.5t85 113.5q6 12 21.5 17t31.5 5q31 0 54.5 -17t3.5 -50q-45 -72 -89 -144.5t-98 -144.5q35 -68 53.5 -155t24.5 -180t2 -189t-12 -182t-18.5 -158t-18.5 -115 q0 -29 -27.5 -44t-58.5 -15q-29 0 -49.5 14t-20.5 45q4 43 13.5 109.5t17.5 147.5t13.5 170t2 175t-17.5 164t-45 135q-16 33 -38.5 58.5t-55.5 42.5q-20 6 -41 6q-55 0 -91 -46t-54.5 -120t-24.5 -167t-4 -187q27 55 58.5 105t66.5 97q10 10 23.5 13.5t27.5 3.5 q20 0 38.5 -6.5t30 -17.5t11.5 -26.5t-19 -33.5q-86 -135 -135 -273.5t-65 -306.5q0 -29 -28 -45t-60 -16q-23 0 -42.5 9t-25.5 30q-12 51 -23.5 123.5t-18.5 157.5t-7 177.5z" />
<glyph unicode="&#xe29;" horiz-adv-x="1017" d="M127 1083q10 39 41 57.5t61 18.5q27 0 46.5 -13t19.5 -38q16 -125 19 -250t3 -250q0 -53 -1 -124.5t8.5 -140.5t35 -127t78.5 -85q18 -6 33 -6q41 0 69.5 42t49 110.5t35 156.5t24.5 180q-31 -14 -64.5 -27.5t-74.5 -27.5q-14 -8 -39 -8q-31 0 -44 20.5t-10 47t20.5 51 t47.5 32.5q53 16 95.5 35t83.5 37q10 123 17 219.5t19 139.5q0 20 27 32.5t55 12.5q25 0 43.5 -10.5t18.5 -34.5q12 -141 0 -287q14 8 39 8q29 0 42 -20.5t10 -47t-20.5 -51t-48.5 -33.5l-37 -12q-10 -92 -25.5 -178t-31.5 -168q-8 -68 -25.5 -132.5t-50 -114.5t-81 -80.5 t-117.5 -30.5q-84 0 -148.5 29.5t-108.5 82t-66.5 122t-22.5 149.5q-18 180 -21.5 357t-3.5 357z" />
<glyph unicode="&#xe2a;" horiz-adv-x="909" d="M156 246q0 98 29.5 181t86 142.5t138.5 93t186 33.5q0 31 1 81t-7 99.5t-30.5 84t-70.5 34.5q-41 0 -67.5 -21.5t-45 -52t-33.5 -68.5t-32.5 -68.5t-40 -52t-57.5 -21.5h-4q-35 0 -45 18.5t-5 45t16.5 54.5t19.5 48q16 47 44.5 97t66.5 91t85 68.5t103 27.5q37 0 65 -14 q16 35 33.5 88t42 102t57.5 84t80 35q23 0 47.5 -11t24.5 -38q0 -6 -21.5 -58.5t-48 -117t-52.5 -121.5t-32 -72q61 -100 77.5 -231t13.5 -271.5t-16 -277.5t-13 -254q0 -27 -30 -37t-50 -10q-31 0 -50.5 12.5t-29.5 31.5t-13.5 45t-3.5 50q0 111 6.5 219.5t12.5 219.5 q-6 0 -13.5 1t-13.5 1q-66 0 -111.5 -21.5t-74.5 -58.5t-41 -87.5t-12 -107.5q0 -59 10 -117.5t10 -117.5q0 -31 -26.5 -43.5t-51.5 -12.5q-37 0 -59.5 33t-34.5 78t-16 91t-4 73z" />
<glyph unicode="&#xe2b;" horiz-adv-x="845" d="M92 1055q0 18 11.5 31.5t26.5 20.5t33.5 11t33.5 4q27 0 45 -10q12 -6 20 -54t14.5 -119t10.5 -154t6 -157.5t4 -132t2 -77.5q31 70 75 142.5t79 139.5q0 39 6 113t24.5 147.5t51 129t83.5 55.5q29 0 53.5 -17.5t43 -44t29 -56.5t10.5 -54q0 -31 -10.5 -72t-26 -83 t-33.5 -80t-35 -64q0 -72 4 -127t11.5 -107.5t16.5 -106.5t19 -126q6 -41 13.5 -83t7.5 -81q0 -18 -10.5 -34.5t-25.5 -29t-34.5 -19.5t-36.5 -7q-41 0 -47 45q-18 123 -41.5 231.5t-42.5 231.5q-47 -111 -87 -208t-87 -208q-14 -33 -48 -54.5t-68 -21.5q-39 0 -46.5 21.5 t-7.5 54.5q0 127 -3 252t-11 254q-10 125 -21.5 252t-11.5 252z" />
<glyph unicode="&#xe2c;" horiz-adv-x="962" d="M131 706.5v110.5v66.5t3 100.5t9.5 94t20.5 50q23 12 49 13q25 0 47.5 -12.5t22.5 -41.5q0 -207 5 -412.5t31 -410.5l74 576q4 41 24.5 57t61.5 16q29 0 49.5 -10t30.5 -41l129 -530q2 33 2 63.5v63.5q0 139 -4 276t-4 277q-70 -29 -141 -29q-86 0 -149.5 44t-63.5 138 q0 39 15 73t41 58.5t59.5 39t72.5 14.5q47 0 95 -9.5t89 -31.5q4 35 3 69.5t5.5 63t28 47t72.5 18.5q20 0 40.5 -9t20.5 -34q0 -78 -10 -154.5t-43 -148.5q14 -49 22.5 -109.5t11.5 -123t4 -125t1 -113.5v-91t-1 -127t-4 -142.5t-10 -138t-18.5 -114.5t-29.5 -73 q-16 -23 -41 -36t-54 -13q-31 0 -59 16q-23 12 -45.5 68.5t-42 125t-34.5 133t-23 93.5q-6 -37 -12.5 -106.5t-23 -139t-46 -121t-82.5 -51.5q-29 0 -52.5 6.5t-41.5 28.5q-27 31 -44.5 90.5t-29.5 135t-18.5 160.5t-9.5 165t-3 147.5zM489 1188q0 -16 10.5 -29.5t25 -24 t31.5 -16.5t32 -6q18 10 31.5 26.5t25.5 32.5q-23 23 -49.5 41.5t-58.5 18.5q-18 0 -33 -12.5t-15 -30.5z" />
<glyph unicode="&#xe2d;" horiz-adv-x="823" d="M103.5 523.5q13.5 117.5 48.5 236.5q8 23 24.5 32t36.5 9q27 0 50.5 -17.5t23.5 -46.5q-16 -119 -30.5 -247t7.5 -246q8 -47 38 -73t67 -26q43 0 75 33q23 23 40.5 75t29.5 120.5t19.5 144.5t9.5 146.5t0 126t-11 81.5q-27 90 -69.5 120t-97.5 30q-35 0 -123 -16 q-2 -2 -23 -2q-23 0 -43 10t-27.5 23.5t2 29.5t46.5 29q57 18 122.5 35.5t131.5 17.5q72 0 134 -32t105 -111q16 -31 23.5 -90.5t6.5 -133t-7 -154.5t-16.5 -156t-24 -135.5t-27.5 -92.5q-18 -43 -50 -88t-74 -80t-90 -57.5t-99 -22.5q-61 0 -104.5 25.5t-70 66.5t-39 93 t-12.5 108q-16 117 -2.5 234.5z" />
<glyph unicode="&#xe2e;" horiz-adv-x="819" d="M104 377q0 8 1 66.5t19 158.5t34 170q6 12 21.5 17.5t33.5 5.5q33 0 57.5 -15.5t24.5 -36.5q0 -8 -2 -16q-16 -117 -21.5 -194.5t-5.5 -102.5q0 -100 27 -194q0 -35 28.5 -66t65.5 -31q33 0 62 29q23 23 39 76t28 123.5t19.5 149.5t9.5 137.5t2 95.5q0 27 -1 66.5 t-7 68.5q-23 70 -58 106.5t-110 36.5q-23 0 -47.5 -3t-53.5 -7q-2 -2 -20 -2q-25 0 -46.5 11t-29.5 23.5t-8 24.5q0 4 3 14.5t34 18.5q59 16 121.5 27.5t121.5 11.5q20 0 42 -3t49 -7q16 23 30.5 43t29.5 41.5t33.5 48t43.5 63.5q8 8 37 8q16 0 35.5 -4t35 -10t22.5 -14 t7 -15q0 -6 -2 -10q-53 -78 -84 -126t-68 -101q10 -12 19.5 -28.5t19.5 -35.5q25 -61 29 -132.5t4 -116.5q0 -59 -6 -144.5t-26.5 -186t-45.5 -161.5q-12 -51 -42.5 -99t-72.5 -86t-92.5 -61.5t-103.5 -23.5q-72 0 -137 47q-57 61 -78 154.5t-21 189.5z" />
<glyph unicode="&#xe2f;" horiz-adv-x="800" d="M101.5 852q-11.5 57 3.5 128t42 134q8 23 32 34t50 11q35 0 59.5 -17.5t8.5 -51.5q-12 -23 -22.5 -62t-10.5 -77t14.5 -65.5t51.5 -27.5q39 0 68.5 21.5t52 52.5t39 66.5t28.5 66.5q8 23 40 35t65 12q29 0 49 -11t20 -36q0 -260 -15 -507t-34 -507q0 -41 -26.5 -59.5 t-55.5 -18.5q-25 0 -45 13.5t-20 40.5q0 72 1 164t4 193t8 204.5t13 197.5q-41 -33 -88 -51t-102 -18h-16.5t-18.5 2q-94 0 -139 38t-56.5 95z" />
<glyph unicode="&#xe30;" horiz-adv-x="530" d="M55 304q-23 30 6 63q18 10 45 24.5t58 29.5t63.5 30.5t61.5 25.5q27 4 48 12.5t44 8.5q16 0 30.5 -6.5t30.5 -22.5q25 -25 18 -47.5t-33 -41t-63.5 -34.5t-74.5 -27.5t-65.5 -19.5t-35.5 -10q-27 -14 -61 -15q-49 0 -72 30zM55 685q-23 30 6 63q18 10 45 24t58 29.5 t63.5 31t61.5 25.5q27 4 48 12.5t44 8.5q16 0 30.5 -6.5t30.5 -22.5q25 -25 18 -47.5t-34 -42t-65.5 -35.5t-74.5 -27.5t-64.5 -18.5t-33.5 -9q-27 -14 -61 -15q-49 0 -72 30z" />
<glyph unicode="&#xe31;" d="M-500 1313.5q-4 29.5 1 66.5t5 74q0 27 21.5 40t48.5 13q29 0 50.5 -13t21.5 -40v-104h24q37 0 83 4t95.5 10t96.5 14t84 17q27 0 51 -14.5t35.5 -35t4.5 -40t-44 -29.5q-35 -8 -83 -17.5t-101.5 -16.5t-107.5 -12t-99 -5q-49 0 -86 6q-53 10 -75 31.5t-26 51z" />
<glyph unicode="&#xe32;" horiz-adv-x="643" d="M80 1029.5q-2 15.5 12 31.5q74 88 172 88q43 0 85 -16.5t77 -47t60.5 -73.5t35.5 -97q10 -45 12.5 -116.5t-1 -156.5t-10.5 -176t-15 -177t-17.5 -160t-15.5 -123q0 -23 -15.5 -33t-37.5 -10q-31 0 -60.5 18.5t-29.5 49.5q0 84 4 184t8 204.5t8 208t4 193.5q0 8 -6 41 t-18.5 70t-29.5 65.5t-40 28.5q-12 0 -26 -14q-23 -35 -72 -35q-20 0 -39 7t-31 18.5t-14 27z" />
<glyph unicode="&#xe33;" horiz-adv-x="657" d="M-457 1370q0 63 31 108.5t90 61.5q16 8 55 8q45 0 83 -23.5t65 -70.5q27 -49 15.5 -107.5t-56.5 -105.5q-16 -6 -35 -6q-6 0 -11 1t-11 1q-10 -8 -27.5 -13t-36.5 -5q-31 0 -59.5 11t-51 31.5t-37 48t-14.5 60.5zM-315 1391q0 -16 12 -40t29 -24q12 10 16 28.5t2 36 t-9 31t-20 13.5q-8 0 -10 -2q-16 0 -18 -13.5t-2 -29.5zM94 1029.5q-2 15.5 12 31.5q74 88 173 88q43 0 85 -16.5t76.5 -47t60 -73.5t36.5 -97q10 -45 12 -116.5t-1 -156.5t-10.5 -176t-15.5 -177t-17 -160t-16 -123q0 -23 -15 -33t-38 -10q-31 0 -60.5 18.5t-29.5 49.5 q0 84 4 184t8 204.5t8.5 208t4.5 193.5q0 8 -6.5 41t-18.5 70t-29.5 65.5t-40.5 28.5q-12 0 -26 -14q-23 -35 -72 -35q-20 0 -38.5 7t-31 18.5t-14.5 27z" />
<glyph unicode="&#xe34;" d="M-713 1327q0 31 45 51.5t103.5 30.5t114.5 14t79 4q20 0 60.5 -5t80.5 -15t69.5 -28.5t29.5 -47.5q0 -33 -33 -52t-61 -19q-23 0 -42.5 6t-41.5 10q-25 4 -49.5 4h-49.5q-61 0 -121.5 -3t-121.5 -3q-25 0 -43.5 12t-18.5 41z" />
<glyph unicode="&#xe35;" d="M-594 1325q0 23 14 38t37 15q10 4 29 4q74 0 147.5 -9t145.5 -32q2 25 4 59t9 63.5t25.5 51t55.5 21.5q20 0 40.5 -9t20.5 -34q0 -27 -4 -76t-15 -96t-33.5 -83t-59.5 -36q-47 0 -96.5 21.5t-96.5 29.5l-172 29q-18 4 -34.5 12.5t-16.5 30.5z" />
<glyph unicode="&#xe36;" d="M-741 1311q0 25 20 39t43 14q61 0 123.5 -1t124.5 -7q18 51 62 88t100 37q66 0 103.5 -49.5t37.5 -110.5q0 -23 -6 -50.5t-19.5 -51t-33 -40t-45.5 -16.5q-25 0 -46.5 13.5t-21.5 42.5q8 14 18.5 24t18.5 21.5t13 23.5t5 31q0 12 -12 24.5t-25 12.5q-29 0 -31.5 -26.5 t-2.5 -47.5q0 -16 -13.5 -25.5t-31 -14.5t-36 -6t-30.5 -1q-25 0 -71 4t-93 12.5t-88 20.5t-59 28z" />
<glyph unicode="&#xe37;" d="M-600 1286q0 20 27.5 33.5t62.5 21t70 10.5t51 3q0 23 -3 45t-3 45q0 74 71 74q20 0 43 -9.5t23 -33.5v-205q0 -23 -20.5 -34t-40.5 -11q-23 0 -44.5 7t-44.5 11q-20 4 -40.5 5t-43.5 1h-65q-16 0 -29.5 10.5t-13.5 26.5zM-207 1253.5q2 26.5 2 46.5v62t8.5 71.5 t25.5 59.5t52 25q16 0 41 -11.5t25 -31.5q0 -18 -2 -58.5t-4 -85.5t-6.5 -83t-6.5 -54q-4 -23 -28.5 -32t-42.5 -9q-31 0 -44.5 15.5t-17.5 37t-2 48z" />
<glyph unicode="&#xe38;" d="M-336 -160.5q-2 13.5 9 25.5t40 12t55.5 9.5t55.5 9.5t52.5 -13.5t23.5 -42.5q0 -57 -1 -112.5t-18 -112.5q-6 -23 -27.5 -32t-43.5 -9q-23 0 -41.5 9t-18.5 32q0 47 6 90t11 80q-12 2 -25.5 5t-28.5 11q-20 0 -33.5 12.5t-15.5 26z" />
<glyph unicode="&#xe39;" d="M-584.5 -168.5q3.5 11.5 19.5 23.5q43 37 100 36q53 0 86 -32q14 -10 20.5 -32t8.5 -45.5t1 -46t-3 -34.5q-10 -43 -2 -65.5t24 -22.5q20 0 42 48t7 151q-4 33 20.5 52t53.5 19q47 0 57 -49q6 -49 7.5 -106.5t-14 -107.5t-53.5 -84t-107 -34q-49 0 -101.5 15.5 t-75.5 66.5q-12 29 -11 67t5 71.5t4 57t-14 23.5q-6 0 -8 -2q-10 -10 -25 -10q-12 0 -22 5t-16.5 14.5t-3 21z" />
<glyph unicode="&#xe3a;" d="M-180 -156q0 23 16.5 39.5t38.5 16.5q20 0 37.5 -16.5t17.5 -39.5t-17 -39t-38 -16q-23 0 -39 16t-16 39z" />
<glyph unicode="&#xe3e;" />
<glyph unicode="&#xe3f;" horiz-adv-x="768" d="M137 12q0 262 12.5 542t49.5 538q0 35 26.5 50t55.5 15q10 0 30 -4q-2 49 2 97t15 96q0 29 26.5 44t57.5 15q51 0 63 -37v-149q0 -31 -1 -62t-5 -57q86 -41 131 -125t25 -203q-35 -104 -115 -172q94 -49 129 -138t21.5 -183.5t-73 -177.5t-153.5 -119v-144 q0 -29 -30.5 -44t-61.5 -15q-23 0 -40 9t-17 30q-10 29 -14.5 66.5t-2.5 76.5q-33 2 -67 12q-14 0 -27.5 3.5t-23.5 13.5q-17 10 -13 22zM293 104q109 29 152.5 86.5t39.5 118t-50 111.5t-116 69q-4 -98 -10 -192.5t-16 -192.5zM328 647q70 8 108.5 61.5t38.5 127.5 q-10 57 -48 97t-85 64q-4 -88 -7 -175t-7 -175z" />
<glyph unicode="&#xe40;" horiz-adv-x="448" d="M78 511q-2 118 0 225.5t6 191t8 116.5q10 29 37 41.5t55 12.5q49 0 56 -31q8 -43 9 -132t-1 -197.5t-5 -223.5t-2 -210t9 -155.5t26 -60.5h5q12 6 26 6q20 0 39 -9t30 -22.5t10 -30t-21 -28.5q-51 -33 -111 -33q-29 0 -53.5 7.5t-44.5 25.5q-27 25 -43.5 102.5t-24.5 182 t-10 222.5z" />
<glyph unicode="&#xe41;" horiz-adv-x="845" d="M100 604q0 23 1 90.5t3 142t5.5 136t7.5 71.5q14 29 36.5 41.5t55.5 12.5q23 0 36 -10.5t19 -25.5t8 -33.5t2 -35.5q0 -172 -5 -341t-5 -341q0 -12 1 -49t4 -74.5t12.5 -68.5t23.5 -31q12 6 27 6q27 0 53.5 -16.5t26.5 -44.5q0 -14 -16.5 -26.5t-39 -19.5t-44 -11.5 t-33.5 -4.5q-27 0 -52.5 8.5t-46.5 24.5q-18 16 -32.5 59t-22.5 100.5t-13.5 123t-7.5 127t-3 111.5t-1 79zM469 264q0 31 2 96.5t6 147.5t9.5 172t12.5 169t15 136t18 76q14 27 37 37t52 10q33 0 46 -12.5t13 -44.5q0 -106 -9 -213t-19.5 -213.5t-19.5 -213t-9 -212.5 q0 -18 -1 -37t3 -33t14 -23.5t33 -9.5q27 0 54.5 -17.5t27.5 -45.5q0 -14 -15.5 -24.5t-36 -17.5t-42 -10.5t-31.5 -3.5q-57 0 -89 29t-47.5 72t-19.5 93t-4 93z" />
<glyph unicode="&#xe42;" horiz-adv-x="417" d="M104 20q23 336 31 645.5t-8 618.5q0 53 -11.5 103.5t-11.5 95.5t22.5 82.5t92.5 64.5q72 27 140.5 37t138.5 10t137 -7t135 -15q35 0 53.5 -17.5t20.5 -39t-10.5 -40t-38.5 -18.5h-299q-174 0 -201 -14q-29 -16 -29 -80q35 -354 29 -701.5t-29 -701.5q-10 -29 -45 -46 t-65 -17q-23 0 -38.5 9t-13.5 31z" />
<glyph unicode="&#xe43;" horiz-adv-x="491" d="M-70 1419q0 51 16.5 104.5t47.5 96.5t76 70.5t102 27.5q37 0 72 -7t62.5 -23.5t44 -44t16.5 -70.5q0 -98 -4.5 -193.5t-8.5 -193.5q-6 -207 -11 -412t-5 -412q0 -37 1 -103t-5 -131t-25.5 -112t-60.5 -47q-33 0 -49.5 39t-22.5 91.5t-5 103.5t1 76q0 223 5 445t13 445 q-129 4 -194.5 59.5t-65.5 190.5zM74 1386q0 -53 39 -71.5t84 -22.5q0 14 3 64.5t3 106t-7.5 99.5t-29.5 44q-18 0 -34.5 -29t-30 -65.5t-20.5 -73t-7 -52.5z" />
<glyph unicode="&#xe44;" horiz-adv-x="415" d="M-332.5 1700.5q-1.5 17.5 10 31t30 21.5t38.5 8q25 0 47 -12q33 -18 69 -42t72.5 -44.5t75.5 -34.5t78 -14q63 0 127 51q8 6 25.5 12t35.5 6q25 0 45.5 -13t20.5 -48q-33 -203 -47 -399.5t-17.5 -391t-1 -391t2.5 -399.5q0 -29 -30 -44t-63 -15q-23 0 -39 8t-16 28 q-4 88 -7 203t-4 245t1 268t6 273.5t12 262.5t21 231q-37 -14 -99 -14q-100 0 -197 49t-177 129q-18 18 -19.5 35.5z" />
<glyph unicode="&#xe45;" horiz-adv-x="643" d="M80 1036q0 23 21.5 43.5t52 35.5t61.5 24.5t49 9.5q45 0 86 -17.5t76 -46.5q39 -33 60.5 -73.5t32.5 -85.5t13.5 -93.5t2.5 -95.5q0 -96 -9.5 -243.5t-23 -307t-25.5 -310t-18 -255.5q-2 -25 -13.5 -34t-39.5 -9q-29 0 -60 16.5t-31 51.5q0 297 20.5 587.5t20.5 587.5 q0 16 -7 50t-19.5 69t-29.5 60.5t-38 25.5q-8 0 -16 -7t-18.5 -16.5t-25 -17.5t-38.5 -8q-25 0 -54.5 14.5t-29.5 44.5z" />
<glyph unicode="&#xe46;" horiz-adv-x="595" d="M57 625q0 14 11.5 44.5t28 63.5t32.5 62.5t25 40.5q16 18 30.5 25t38.5 7q31 0 42 -9t16.5 -22.5t10.5 -29.5t19 -31q23 29 53.5 56.5t69.5 27.5q31 0 48.5 -17.5t24.5 -43t9 -54t2 -51.5q0 -219 -14.5 -436t-14.5 -436q0 -27 -23.5 -36t-45.5 -9q-23 0 -46.5 9t-23.5 36 q0 221 11.5 438t15.5 438q-20 -29 -43 -56.5t-62 -27.5q-29 0 -41 23q0 20 -5 38.5t-9 37.5q-2 -14 -7 -39t-13.5 -49.5t-21.5 -42t-32 -17.5q-23 0 -54.5 16.5t-31.5 43.5z" />
<glyph unicode="&#xe47;" d="M-563 1296q0 27 15.5 62t39 65.5t53 52t58.5 21.5t57.5 -3t56.5 -3q61 0 87 15.5t40.5 35t28.5 34.5t53 15q18 0 44 -9t26 -32q0 -4 -2 -7t-2 -7q-14 -47 -43 -74.5t-65 -41t-78 -17.5t-82 -4h-86q-39 0 -57.5 -21.5t-18.5 -58.5l10 -10q16 4 31.5 18t29.5 14 q18 0 37 -21.5t47 -21.5q27 0 48.5 16.5t48.5 16.5q18 0 34.5 -15.5t16.5 -33.5t-14.5 -34.5t-34 -29t-42 -20.5t-36.5 -8q-23 0 -42.5 16.5t-45.5 16.5q-33 0 -61.5 -15.5t-61.5 -15.5q-53 0 -71.5 27.5t-18.5 76.5z" />
<glyph unicode="&#xe48;" d="M-209 1624q0 12 4 46t10.5 71t12.5 69.5t10 42.5q0 16 14.5 23.5t32.5 7.5q23 0 44.5 -12t21.5 -41q0 -53 -2 -103.5t-19 -103.5q-12 -43 -57 -43q-23 0 -43.5 12.5t-28.5 30.5z" />
<glyph unicode="&#xe49;" d="M-316.5 1756q5.5 44 13.5 77q8 23 29.5 35t44.5 12q27 0 47 -15.5t20 -45.5q-8 -35 -9 -56.5t-1 -38.5v-24q20 16 54 39.5t70 46t69.5 38t52.5 15.5q12 0 16 -4q31 -16 34 -43t-13 -43q-16 -8 -40 -26.5t-48.5 -40t-48 -40t-40.5 -26.5q-27 -14 -59.5 -30.5t-60.5 -16.5 q-16 0 -29 6q-49 0 -71.5 28.5t-29 68.5t-1 84z" />
<glyph unicode="&#xe4a;" d="M-372 1717q5 46 26.5 77t54.5 47.5t68 16.5q25 0 49 -9.5t43 -27.5q16 25 37.5 40t50.5 15q16 0 32.5 -5t33.5 -9q41 -10 52 -46t7 -79q16 10 33.5 21t38.5 22q12 6 28 6q18 0 38 -9.5t32 -23.5t13 -28.5t-17 -26.5q-55 -35 -102.5 -61.5t-104.5 -59.5q-20 -12 -51 -12 q-25 0 -43.5 12t-18.5 41t2 54.5t13 41.5q-23 -16 -49.5 -28.5t-36.5 -12.5q-16 -4 -17 -4q-20 0 -34.5 23.5t-34.5 44.5q-8 8 -15 8q-12 0 -10 -31t14 -55l15 -45q8 -25 -10.5 -37t-43.5 -12q-23 0 -44 11t-31 36q-23 59 -18 105z" />
<glyph unicode="&#xe4b;" d="M-343 1758.5q-1 17.5 11 30.5t41 13q33 6 63.5 12.5t63.5 12.5q4 29 10.5 58.5t12.5 64.5q8 14 27.5 22t41.5 8q27 0 46.5 -12t11.5 -39v-71l20 4t21 4q25 0 46 -13.5t30.5 -32t3 -36t-36.5 -25.5q-23 -4 -46.5 -8t-46.5 -8q-4 -29 -12 -60.5t-22 -70.5q-12 -33 -47 -33 q-29 0 -54.5 17.5t-25.5 37.5q0 25 1 46.5t3 41.5q-23 -2 -44.5 -3t-43.5 -1q-10 -2 -15.5 -3t-7.5 -1q-25 0 -38 13.5t-14 31z" />
<glyph unicode="&#xe4c;" horiz-adv-x="18" d="M-412 1612q0 25 20.5 49.5t51.5 42.5q43 27 95 32t106 5h20h123q41 0 64.5 -21.5t23.5 -40.5q0 -6 -4 -22t-25.5 -25.5t-49 -14.5t-56.5 -6t-47 -1h-27h-32.5t-52 -3t-49 -9.5t-21.5 -18.5q0 -10 24 -27q25 -8 27 -15t2 -9q0 -12 -16.5 -27.5t-32.5 -15.5q-14 -8 -29 -8 q-18 0 -38.5 14t-37 34.5t-28 44t-11.5 42.5z" />
<glyph unicode="&#xe4d;" d="M-457 1370q0 63 31 108.5t90 61.5q16 8 55 8q45 0 83 -23.5t65 -70.5q27 -49 15.5 -107.5t-56.5 -105.5q-16 -6 -35 -6q-6 0 -11 1t-11 1q-10 -8 -27.5 -13t-36.5 -5q-31 0 -59.5 11t-51 31.5t-37 48t-14.5 60.5zM-315 1391q0 -16 12 -40t29 -24q12 10 16 28.5t2 36 t-9 31t-20 13.5q-8 0 -10 -2q-16 0 -18 -13.5t-2 -29.5z" />
<glyph unicode="&#xe4e;" d="M-508 1032q12 53 46 87t79 46q-4 45 10.5 87t43 75t68.5 55.5t87 28.5q25 0 44 -14.5t25.5 -32.5t-4 -36.5t-43.5 -27.5q-33 -8 -50 -27.5t-21 -44t3 -53t23 -53.5q8 -14 3 -26.5t-18 -22.5t-31.5 -16t-37.5 -6q-4 0 -21 3t-22 5q-16 0 -24 -14.5t-8 -33t8 -32.5t26 -14 q12 0 19.5 3t17.5 3q33 0 54.5 -23.5t15.5 -46.5q-6 -25 -45 -32t-72 -7q-37 0 -73.5 10.5t-62.5 31t-38 52t-2 76.5z" />
<glyph unicode="&#xe4f;" horiz-adv-x="862" d="M94 428q0 72 26.5 132.5t73 106.5t106.5 71.5t130 25.5q68 0 129.5 -25.5t107.5 -70.5t73.5 -106.5t27.5 -133.5q0 -70 -26.5 -131t-71.5 -107.5t-106.5 -72t-133.5 -25.5q-70 0 -131 26.5t-106.5 72t-72 106.5t-26.5 131zM143 428q0 -57 21.5 -109.5t59.5 -92.5 t91.5 -62.5t114.5 -22.5t114.5 22.5t91.5 62.5t59.5 92.5t21.5 109.5q0 59 -22.5 111.5t-61.5 91.5t-91.5 61.5t-111.5 22.5t-111.5 -22.5t-91.5 -61.5t-61.5 -91.5t-22.5 -111.5zM225 428q0 86 58.5 145.5t146.5 59.5q43 0 81 -15.5t65.5 -43t44 -65.5t16.5 -81t-16.5 -80 t-44 -64.5t-65.5 -44t-81 -16.5q-88 0 -146.5 59.5t-58.5 145.5z" />
<glyph unicode="&#xe50;" horiz-adv-x="600" d="M59 428q0 57 6.5 138t23.5 174.5t40 168t45 115.5q23 41 39 57.5t47 16.5q18 0 43 -5.5t59 -13.5q63 -14 112.5 -87.5t79.5 -180t35 -188.5t5 -121q0 -82 -14.5 -178.5t-59.5 -187.5t-123 -132q-49 -27 -108 -27q-37 0 -72.5 13.5t-62.5 46.5q-43 51 -64.5 132t-26 149.5 t-4.5 109.5zM211 365q0 -8 1 -58.5t17.5 -128.5t53.5 -123q4 2 6 2t6 2l31 25q14 10 22 24.5t17 28.5q43 76 63.5 176.5t20.5 202.5q0 14 -2.5 82t-28 181.5t-72.5 197.5q-4 6 -8 6t-13.5 -6t-27.5 -29l-2 2q0 -4 -1 -5t-1 -5q-6 -20 -20.5 -81.5t-28 -144.5t-23.5 -175.5 t-10 -173.5z" />
<glyph unicode="&#xe51;" horiz-adv-x="337" d="M63 741v4q42 164 140 295q12 16 49 17q23 0 40 -8.5t19 -26.5q4 -51 4 -114.5v-110.5v-112t-2 -148.5t-5 -163.5t-9 -159t-14.5 -134.5t-20.5 -89.5q-6 -16 -35 -17q-16 0 -31.5 7.5t-19.5 21.5q-14 41 -13 89t1 89q0 27 1 77t7 128q4 57 7 113.5t7.5 107.5t6.5 96.5 t2 77.5q-2 -6 -10.5 -25.5t-17.5 -40t-18.5 -36.5t-15.5 -16q-12 0 -24.5 9t-22.5 22.5t-17.5 26.5t-7.5 21z" />
<glyph unicode="&#xe52;" horiz-adv-x="579" d="M100 39q25 147 83.5 282.5t111.5 270.5q12 35 26.5 74t26.5 79.5t17.5 81.5t-0.5 80q0 4 -3.5 14.5l-7.5 22.5t-8 21.5t-8 11.5q0 8 -2 8t-9.5 -7t-15.5 -16.5t-14 -17.5t-8 -10q-29 -29 -40 -70t-30 -78q-8 -18 -43 -18q-29 0 -54.5 11.5t-19.5 31.5q14 45 32 87 t44.5 74t63.5 51t90 19q55 -4 89 -27.5t51 -58t20.5 -78.5t-5.5 -87q-18 -94 -52 -184.5t-70.5 -177.5t-71.5 -176t-55 -183h22q20 0 48 -1t57.5 -3.5t56.5 -3.5t45 -1h21.5t27.5 -3t25.5 -8t13.5 -15q6 -18 -10.5 -24.5t-30.5 -8.5q-12 -2 -27.5 -2h-31.5q-59 0 -130 3 t-122 3h-27q-8 0 -22.5 1t-26.5 5t-20.5 10.5t-6.5 16.5z" />
<glyph unicode="&#xe53;" horiz-adv-x="518" d="M61 842q0 4 2 8q18 35 32 70.5t36.5 62.5t54 43t76.5 16t89 -16t77 -55q23 -27 31 -57.5t8 -61.5q0 -4 -1 -22.5t-8 -51.5t-16 -59q-18 -62 -57 -115q61 -10 94 -59t39 -97.5t6 -76.5q0 -41 -10 -101.5t-43 -125t-83 -107.5t-114 -43q-10 0 -20 1t-21 3q-43 8 -74.5 34.5 t-51 62.5t-25.5 69t-6 57q0 18 2 37q2 14 20 14t42 -12t28 -24q31 -92 57.5 -131t50.5 -39q29 0 51.5 39.5t39 97t23.5 114t7 93.5v18q0 55 -10 78.5t-33 23.5q-20 0 -71 -22q-2 -2 -13 -2q-12 0 -32.5 5t-37 14.5t-21.5 16.5t-5 9q0 6 10 12q70 43 110 119t44 168 q0 16 -1 37.5t-6 40t-14.5 31t-23.5 12.5q-12 0 -31 -13q-35 -25 -51 -65.5t-33 -81.5q-6 -14 -33 -14q-29 0 -56.5 13t-27.5 32z" />
<glyph unicode="&#xe54;" horiz-adv-x="520" d="M66 520v16.5t2 16.5q25 121 23.5 237.5t8.5 239.5q2 16 18.5 27.5t39.5 1.5l80 -35v-2q0 -47 -9.5 -113.5t-15.5 -140.5t-9 -135.5t-3 -104.5v-43q0 -10 51 -10q47 0 78.5 6t31.5 11l-4 4q2 2 4.5 37.5t2.5 88v113t-1.5 113.5t-1.5 89v40q0 29 3 35q0 16 19 23t44 7 q29 0 53.5 -9t24.5 -25q0 -252 -2 -403.5t-2 -207.5q0 -98 3 -195.5t7 -195.5q0 -16 -15.5 -22.5t-37.5 -6.5q-27 0 -51.5 9.5t-28.5 27.5q-8 37 -13.5 72t-7.5 78t-2 98v131q-18 0 -52 2t-69.5 6.5t-66.5 8.5t-43 10q-49 23 -54 50t-5 50z" />
<glyph unicode="&#xe55;" horiz-adv-x="616" d="M63 100q2 16 17.5 22.5t38.5 6.5t45 -9t26 -26q16 -59 46 -59q27 0 57.5 37t60 94t53 126.5t35 133t5 115t-36.5 71.5q-8 8 -27 9q-18 0 -35.5 -12.5t-33 -31t-28 -37t-18.5 -30.5q-6 -10 -33.5 -18.5t-56.5 -8.5q-23 0 -39 7.5t-16 23.5q-2 78 -2 143.5t1 130t2 131 t1 142.5q0 16 21.5 22.5t56.5 6.5q41 0 91 -7.5t98 -14.5t86 -14t52 -7q29 -2 40.5 -12.5t8 -23t-16.5 -21.5t-36 -9h-6q-59 4 -119.5 7t-119.5 7q0 -53 -2.5 -91t-4.5 -72.5t-4 -72.5t-2 -91q53 29 115 28q27 0 56.5 -6t57 -18.5t50 -30.5t35.5 -43q18 -35 15 -91 t-21.5 -123t-49 -135.5t-64.5 -125.5t-69 -99t-63 -53q-31 -12 -78 -12q-33 0 -69 7t-63.5 24.5t-44 44t-12.5 65.5z" />
<glyph unicode="&#xe56;" horiz-adv-x="499" d="M61 195v43q0 199 19.5 393t54.5 389q2 16 22.5 24.5t45.5 8.5q31 0 54.5 -8.5t23.5 -22.5v-4q-16 -104 -29.5 -202.5t-22.5 -203.5q47 31 103 31q166 0 166 -170q0 -49 -8.5 -124t-31 -148.5t-59.5 -133t-96 -77.5q-25 -8 -63 -8q-41 0 -80 13t-68 42q-25 25 -26 55.5 t-3 59.5q-2 23 -2 43zM211 156.5q0 -21.5 2 -42t7.5 -34.5t15.5 -14q14 0 32 30q20 35 35.5 83t27 101.5t16.5 104.5t5 90q0 4 -1 16.5t-6 24.5t-16.5 22.5t-31.5 10.5q-27 0 -76 -25q-4 -86 -7 -167t-3 -167v-33.5z" />
<glyph unicode="&#xe57;" horiz-adv-x="555" d="M90 -16q0 49 12.5 106t33 121.5t44 133.5t47.5 138q47 141 98.5 269.5t86.5 216.5q-57 -4 -113.5 -4t-114.5 -2q-16 0 -34.5 6t-18.5 24v6q0 10 11.5 16.5t25.5 9.5t28.5 4t20.5 1q72 4 140.5 5t138.5 7h12q25 0 44 -6t19 -20q0 -6 -2 -8q-59 -123 -96 -254t-78 -260 t-84 -257t-90 -255q-4 -12 -27.5 -19.5t-48.5 -7.5q-23 0 -39 6.5t-16 18.5v4z" />
<glyph unicode="&#xe58;" horiz-adv-x="593" d="M80 208.5q-6 74.5 16 139.5q25 78 67 148.5t89 136.5q-16 14 -31.5 27.5t-32.5 25.5q-72 53 -92 108.5t29 118.5q49 66 103.5 100t140.5 34q49 -4 98 -30t72 -73q29 -4 48 -13t11 -26q-41 -72 -92 -137.5t-98 -132.5q61 -66 90 -125q35 -72 41 -140.5t-9.5 -130 t-53.5 -112.5t-93 -88q-27 -16 -57.5 -27.5t-63.5 -11.5q-35 0 -67.5 14.5t-61.5 53.5q-47 66 -53 140.5zM226 196.5q5 -49.5 32 -92.5q4 -4 7 -8t5 -6q10 8 21.5 14.5t21.5 16.5q53 53 73 127t1 155q-14 68 -49 123q-35 -55 -65.5 -113.5t-43.5 -123.5q-8 -43 -3 -92.5z M241.5 811q-2.5 -37 32.5 -68q8 -6 16.5 -13t14.5 -13q33 47 65.5 94t71.5 88q-8 55 -57 55q-31 0 -64.5 -21.5t-55 -53t-24 -68.5z" />
<glyph unicode="&#xe59;" horiz-adv-x="518" d="M40 628.5q-1 63.5 14.5 131t42 127t60 104t68.5 60.5q20 10 43 10q31 0 51 -14q18 -12 22.5 -26.5t-15.5 -25.5q-41 -18 -73 -75.5t-50.5 -128t-21.5 -144.5t14 -125q8 -27 20 -26q16 0 31.5 27.5t25.5 43.5q43 78 69 172.5t40 180.5q4 29 5 59.5t5 58.5q2 16 20.5 24.5 t41.5 8.5q29 0 52 -10t21 -27q0 -25 -3 -49t-5 -49q-6 -115 -7 -230.5t0 -232.5t0 -231.5t-9 -229.5q0 -14 -15.5 -21t-35.5 -7q-25 0 -48.5 10t-27.5 31q-27 113 -23 227.5t8 224.5q-29 -29 -62.5 -48t-74.5 -19t-90 24q-47 27 -69.5 79t-23.5 115.5z" />
<glyph unicode="&#xe5a;" horiz-adv-x="1036" d="M93 853q-11 56 3 125t41 132q8 23 30.5 33t49.5 10q35 0 60.5 -18.5t5.5 -49.5q-8 -25 -17.5 -62.5t-10.5 -73.5t11.5 -62.5t46.5 -26.5q37 0 67 20.5t53.5 51.5t39.5 65.5t27 63.5q10 20 40.5 32.5t61.5 12.5q27 0 46.5 -10.5t19.5 -34.5v-47q-2 -242 -16.5 -476.5 t-30.5 -463.5q0 -39 -30 -57.5t-65 -18.5q-29 0 -52 13.5t-23 37.5q6 68 13 157t13 188.5t13.5 201.5t13.5 197q-39 -33 -86 -52.5t-103 -19.5h-15t-17 2q-90 0 -134.5 37t-55.5 93zM710 158q-1 78 3 181t9 219t13 221.5t15.5 187t13.5 118.5q10 29 33.5 41.5t48.5 12.5 t44 -12.5t19 -41.5q0 -37 -2 -115.5t-5 -180t-8 -214t-10 -215t-11.5 -186.5t-12.5 -125q0 -27 -19.5 -40t-43.5 -13q-25 0 -47.5 13.5t-32.5 39.5q-6 31 -7 109z" />
<glyph unicode="&#xe5b;" horiz-adv-x="1351" d="M72 401.5q2 55.5 22.5 107.5t56.5 96t85 69q55 23 73 22q43 0 65.5 -30.5t32 -75.5t6.5 -93t-14 -85q-6 -16 -24.5 -25.5t-38.5 -9.5q-23 0 -40 12t-11 39q0 25 6 49.5t-6 48.5q0 51 -19 52q-14 0 -30 -35q-23 -51 -27 -105.5t27 -107.5q20 -35 49.5 -57.5t62.5 -22.5 q47 0 72.5 30.5t40 74.5t17.5 91.5t3 79.5q0 33 19.5 59.5t56.5 26.5q25 0 39 -20q47 -63 92 -135q23 68 23 118q8 25 29.5 40.5t43.5 15.5q25 0 41 -23l13 -18q2 2 4 2q0 -6 -2 -8q14 -20 26.5 -39t24.5 -35q16 -23 27.5 -28t39.5 -5h31q61 0 123 8.5t123 8.5 q37 0 47 -15.5t4 -36t-24.5 -39t-42.5 -24.5q-57 0 -114.5 -4t-115.5 -4q-29 0 -57.5 2t-57.5 6q-27 0 -46 13.5t-35 33.5q-10 -25 -21.5 -48.5t-28.5 -47.5q-10 -16 -27.5 -24.5t-33.5 -8.5q-27 0 -37 16q-14 23 -29.5 42.5t-31.5 41.5q-18 -104 -84 -177t-178 -73 q-78 0 -141.5 41t-92.5 109q-18 49 -16 104.5z" />
<glyph unicode="&#x2000;" horiz-adv-x="990" />
<glyph unicode="&#x2001;" horiz-adv-x="1980" />
<glyph unicode="&#x2002;" horiz-adv-x="990" />
<glyph unicode="&#x2003;" horiz-adv-x="1980" />
<glyph unicode="&#x2004;" horiz-adv-x="660" />
<glyph unicode="&#x2005;" horiz-adv-x="495" />
<glyph unicode="&#x2006;" horiz-adv-x="330" />
<glyph unicode="&#x2007;" horiz-adv-x="330" />
<glyph unicode="&#x2008;" horiz-adv-x="247" />
<glyph unicode="&#x2009;" horiz-adv-x="396" />
<glyph unicode="&#x200a;" horiz-adv-x="110" />
<glyph unicode="&#x2010;" horiz-adv-x="526" d="M51 565q8 33 41 39q29 4 56.5 9t56.5 8q61 4 122.5 8t123.5 8q10 0 19 1t19 3q16 -29 12.5 -55.5t-14.5 -53.5q-4 -10 -10 -12t-16 -4q-45 0 -88 -1t-88 -3h-152q-14 0 -28.5 2t-28.5 4q-37 8 -25 47z" />
<glyph unicode="&#x2011;" horiz-adv-x="526" d="M51 565q8 33 41 39q29 4 56.5 9t56.5 8q61 4 122.5 8t123.5 8q10 0 19 1t19 3q16 -29 12.5 -55.5t-14.5 -53.5q-4 -10 -10 -12t-16 -4q-45 0 -88 -1t-88 -3h-152q-14 0 -28.5 2t-28.5 4q-37 8 -25 47z" />
<glyph unicode="&#x2012;" horiz-adv-x="526" d="M51 565q8 33 41 39q29 4 56.5 9t56.5 8q61 4 122.5 8t123.5 8q10 0 19 1t19 3q16 -29 12.5 -55.5t-14.5 -53.5q-4 -10 -10 -12t-16 -4q-45 0 -88 -1t-88 -3h-152q-14 0 -28.5 2t-28.5 4q-37 8 -25 47z" />
<glyph unicode="&#x2013;" horiz-adv-x="380" d="M37 1321q0 45 47 197q18 41 43 41q20 0 38.5 -11.5t18.5 -29.5q0 -14 -12 -39l-10 -13q-20 -25 -19.5 -67.5t41.5 -128.5q6 -12 6 -23q0 -29 -28.5 -49t-59.5 -20q-23 0 -36 16t-19 38.5t-8 47.5t-2 41zM180 1368q0 82 35 174l12 33q18 35 41 35q18 0 38 -11.5t20 -27.5 t-15 -43v-2q-20 -33 -20 -80q0 -59 37 -125v2q8 -14 8 -29q0 -27 -28.5 -44t-59.5 -17q-25 0 -37 12v-2q-31 41 -31 125z" />
<glyph unicode="&#x2014;" horiz-adv-x="380" d="M37 1493q0 27 28.5 46.5t59.5 19.5q23 0 36 -14.5t20 -36t9.5 -45t2.5 -40.5q0 -72 -41 -194q0 -6 -2.5 -8t-2.5 -7q-14 -43 -41 -43q-8 0 -24 7q-35 23 -35 43q0 10 14 41q20 33 21 79q0 59 -37 123q-8 15 -8 29zM182 1546q0 27 28 44.5t58 17.5q25 0 37 -13l2 -2 q31 -37 31 -129q0 -18 -6 -58t-17.5 -81t-28 -72.5t-38.5 -31.5q-8 0 -21 6q-30 22 -30 45l10 41q18 41 18 78q0 68 -35 127q-8 14 -8 28z" />
<glyph unicode="&#x2018;" horiz-adv-x="544" d="M35 537v8q0 18 6 33.5t16 13.5q29 2 57.5 2h57.5q16 0 42 -1t36 -1h41q43 0 93 5t69 5h6q27 0 34 -12t7 -39q0 -31 -13.5 -39t-52.5 -8q-27 0 -63.5 -1t-77.5 -2t-84 -2t-82 -1h-66q-26 0 -26 39z" />
<glyph unicode="&#x2019;" horiz-adv-x="1404" d="M88 543q0 57 37 57q8 0 31.5 -4t36.5 -4q2 0 7 1t9 1q10 2 24 2h37q12 0 38 -1t51.5 -1t46 -1t22.5 -1h113h36.5t26.5 2q6 2 39 2q16 0 46 -1t44 -1h19q55 2 97 3t71 1q23 0 41 1t30 3h35t46.5 1t47 1h39.5h10q23 0 28 -6t9 -35v-16q0 -29 -13 -35t-52 -6q-45 0 -132 -1 t-218 -3t-216.5 -3t-125.5 -1l-334 2q-27 0 -27 43z" />
<glyph unicode="&#x2022;" horiz-adv-x="407" d="M100 600q0 47 27 79t70 32q37 0 65.5 -26t28.5 -60v-11q-4 -47 -28.5 -66.5t-84.5 -25.5q-35 0 -56.5 21.5t-21.5 56.5z" />
<glyph unicode="&#x2026;" horiz-adv-x="585" d="M31 76q0 35 27.5 53t66.5 18q68 0 68 -79q0 -72 -93 -72q-41 0 -55 19.5t-14 60.5zM219 76q0 35 27.5 53t66.5 18q68 0 68 -79q0 -72 -92 -72h-17q-53 4 -53 80zM408 76q0 35 27.5 53t66.5 18q68 0 67 -79q0 -72 -92 -72h-16q-53 4 -53 80z" />
<glyph unicode="&#x202f;" horiz-adv-x="396" />
<glyph unicode="&#x205f;" horiz-adv-x="495" />
<glyph unicode="&#x25cc;" horiz-adv-x="1048" d="M96 430q0 18 14.5 32.5t34.5 14.5q16 0 32 -14t16 -33q0 -20 -14.5 -34.5t-33.5 -14.5q-20 0 -34.5 14.5t-14.5 34.5zM211 162q0 20 14.5 33.5t32.5 13.5q20 0 34.5 -13.5t14.5 -33.5t-14 -33.5t-35 -13.5q-18 0 -32.5 13t-14.5 34zM211 694q0 25 14.5 37t32.5 12 q20 0 34.5 -12t14.5 -37q0 -18 -14 -32.5t-35 -14.5q-18 0 -32.5 14.5t-14.5 32.5zM479 47q0 20 13.5 33.5t33.5 13.5q18 0 33.5 -13t15.5 -34q0 -18 -15 -32.5t-34 -14.5q-20 0 -33.5 14.5t-13.5 32.5zM479 811q0 18 13.5 31.5t33.5 13.5q18 0 33.5 -13.5t15.5 -31.5 q0 -20 -15 -33.5t-34 -13.5q-20 0 -33.5 13.5t-13.5 33.5zM743 162q0 20 15 33.5t35 13.5q18 0 32.5 -13.5t14.5 -33.5t-13.5 -33.5t-33.5 -13.5t-35 13t-15 34zM743 694q0 25 15 37t35 12q18 0 32.5 -12t14.5 -37q0 -18 -13.5 -32.5t-33.5 -14.5t-35 14.5t-15 32.5z M858 430q0 18 13.5 32.5t31.5 14.5q23 0 36 -14t13 -33q0 -20 -12 -34.5t-37 -14.5q-18 0 -31.5 14.5t-13.5 34.5z" />
<glyph unicode="&#x25fc;" horiz-adv-x="1095" d="M0 0v1096h1096v-1096h-1096z" />
<glyph unicode="&#xf700;" horiz-adv-x="827" d="M104 924.5q2 23.5 27 48.5q39 31 87 60.5t100.5 52t107.5 37t111 14.5q49 0 98 -13q29 0 39 -16t6 -34.5t-22.5 -35t-47.5 -16.5q-45 -10 -89 -18.5t-85 -24.5q61 -37 99 -105.5t57.5 -154.5t25 -182.5t1 -188.5t-14.5 -172t-20 -135q-10 -43 -49 -66.5t-78 -23.5 q-31 0 -52.5 15.5t-21.5 47.5q6 18 9 62.5t2 100.5t-10 117.5t-27.5 112t-48 83t-72.5 32.5q-4 0 -11.5 -1t-17.5 -3t-16.5 -3t-8.5 -1q-25 0 -44 14.5t-27.5 35t2 43t43.5 38.5q86 29 129 29q41 0 75.5 -14.5t63.5 -36.5q-6 41 -17.5 80.5t-30 73.5t-45 54.5t-61.5 20.5 q-8 0 -18 -2t-21 -4q-20 -4 -30 -4q-25 0 -48.5 11t-37 29.5t-11.5 42z" />
<glyph unicode="&#xf701;" d="M-818 1274.5q-1 19.5 13 38t47 26.5q59 16 124 27.5t130 11.5q59 0 114.5 -13t96.5 -46q20 -14 21.5 -33.5t-11 -36t-34 -29t-48.5 -12.5q-55 16 -98 19.5t-98 3.5h-170q-8 -2 -14.5 -3t-12.5 -1q-29 0 -44 14t-16 33.5z" />
<glyph unicode="&#xf702;" d="M-869 1304.5q-9 28.5 9 53.5q14 18 82 26q25 2 49 3.5t49 1.5q43 0 86 -3.5t90 -13.5v39t6 51q4 27 26.5 39t47.5 12q23 0 38 -7t19 -29q6 -45 -10 -168q2 -23 -18.5 -44.5t-48.5 -25.5h-7.5t-13.5 2q-92 18 -178 24.5t-172 10.5h-6q-39 0 -48 28.5z" />
<glyph unicode="&#xf703;" d="M-940 1317q0 12 14.5 32.5t48.5 20.5q47 0 115 -1t133 -7q20 55 65.5 90t96.5 35q31 0 59 -14q33 -16 49.5 -42t23.5 -49.5t8 -40t1 -14.5q0 -23 -6 -50.5t-18 -51t-32.5 -40t-47.5 -16.5q-29 0 -48.5 14.5t-19.5 30.5q0 2 1 9.5t18 19.5q14 16 25.5 34.5t11.5 47.5 q-12 37 -37 37q-14 0 -25.5 -14.5t-11.5 -42.5q2 -6 2 -17q0 -47 -111 -47q-14 0 -65 4t-106.5 13.5t-99.5 24t-44 34.5z" />
<glyph unicode="&#xf704;" d="M-848 1281q-2 13 7 25.5t34 18.5q45 16 83 22.5t85 6.5v121q0 23 20.5 33t45.5 10t45 -10.5t20 -32.5v-205q0 -20 -18.5 -32.5t-42.5 -12.5q-18 0 -33 8q-35 6 -55.5 10t-38 5t-38 2t-54.5 1q-2 -2 -19 -2q-16 0 -27.5 9.5t-13.5 22.5zM-467 1237q0 72 2.5 149t18.5 132 q6 23 24.5 33t38.5 10q49 0 66 -43q0 -41 -3.5 -69t-6.5 -55.5t-6 -63.5t-3 -93q-8 -20 -28.5 -30.5t-43.5 -10.5t-41 10.5t-18 30.5z" />
<glyph unicode="&#xf705;" d="M-293 1401q0 12 4 46t10.5 70.5t12.5 69.5t10 43q0 16 14.5 23.5t32.5 7.5q23 0 44.5 -12.5t21.5 -40.5q0 -53 -2 -103.5t-19 -103.5q-12 -43 -57 -43q-23 0 -43.5 12t-28.5 31z" />
<glyph unicode="&#xf706;" d="M-424 1419q0 20 4 52t12 65q8 20 29 29.5t45 9.5q35 0 58.5 -14.5t23.5 -34.5q0 -4 1 -6t-3 -7q-16 -16 -19 -42.5t-3 -43.5v-24q18 14 42.5 28.5l49 29t46 28.5t36.5 29q14 14 36.5 17t38.5 3h13q16 -14 23 -33.5t7 -27.5q0 -14 -10 -25q-16 -8 -39.5 -26.5t-48 -40 t-48.5 -40t-40 -26.5q-27 -14 -59.5 -30.5t-61.5 -16.5q-16 0 -28 6q-37 0 -58.5 17.5t-32 40t-12.5 46t-2 37.5z" />
<glyph unicode="&#xf707;" d="M-556.5 1448.5q5.5 46.5 27 77t54 47t67.5 16.5q25 0 49.5 -9t43.5 -28q16 25 37.5 40.5t50.5 15.5q16 0 32.5 -5.5t32.5 -9.5q41 -10 52.5 -46t7.5 -79q16 10 33.5 21.5t37.5 21.5q12 6 29 7q18 0 37.5 -9.5t32 -24t13.5 -28.5t-18 -26q-55 -35 -102 -62t-104 -59 q-23 -12 -52 -13q-25 0 -43 12.5t-18 41.5t2 54.5t12 41.5q-23 -16 -49 -28.5t-37 -12.5l-16 -4q-20 0 -34.5 23.5t-35.5 43.5q-8 8 -14 9q-12 0 -10 -31t14 -55l14 -45q8 -25 -10 -37.5t-43 -12.5q-23 0 -44 11.5t-32 35.5q-23 59 -17.5 105.5z" />
<glyph unicode="&#xf708;" d="M-558 1434.5q-1 17.5 12 31t42 13.5q31 6 62.5 12t62.5 12q4 29 10.5 58.5t12.5 64.5q8 14 27.5 22.5t41.5 8.5q27 0 46.5 -12.5t11.5 -38.5v-72l20 4t21 4q25 0 46 -13t30.5 -31.5t3 -36t-36.5 -25.5q-23 -4 -46.5 -8.5t-46.5 -8.5q-6 -29 -13 -60.5t-21 -70.5 q-12 -33 -47 -33q-29 0 -54.5 17.5t-25.5 38.5q0 25 1 46t3 42q-23 -2 -44.5 -3t-43.5 -1q-10 -2 -15.5 -3t-7.5 -1q-25 0 -38 13t-14 30.5z" />
<glyph unicode="&#xf709;" d="M-416 1350q0 25 20.5 49.5t51.5 42.5q49 27 107.5 32t113.5 5h123q16 0 34.5 -5.5t33 -15.5t17.5 -20.5t3 -18.5q0 -10 -4 -24q-4 -16 -26.5 -25.5t-50 -14.5t-55.5 -6t-46 -1h-10q-47 0 -81 -2.5t-67 -14.5h-20q20 0 20 -22v-19q25 -8 27 -15t2 -9q0 -8 -7.5 -18.5 t-20.5 -17.5t-21 -7q-14 -8 -29 -9q-18 0 -35.5 12.5t-33 29t-27 37t-15.5 34.5q-4 12 -4 23z" />
<glyph unicode="&#xf70a;" d="M-293 1401q0 12 4 46t10.5 70.5t12.5 69.5t10 43q0 16 14.5 23.5t32.5 7.5q23 0 44.5 -12.5t21.5 -40.5q0 -53 -2 -103.5t-19 -103.5q-12 -43 -57 -43q-23 0 -43.5 12t-28.5 31z" />
<glyph unicode="&#xf70b;" d="M-424 1419q0 20 4 52t12 65q8 20 29 29.5t45 9.5q35 0 58.5 -14.5t23.5 -34.5q0 -4 1 -6t-3 -7q-16 -16 -19 -42.5t-3 -43.5v-24q18 14 42.5 28.5l49 29t46 28.5t36.5 29q14 14 36.5 17t38.5 3h13q16 -14 23 -33.5t7 -27.5q0 -14 -10 -25q-16 -8 -39.5 -26.5t-48 -40 t-48.5 -40t-40 -26.5q-27 -14 -59.5 -30.5t-61.5 -16.5q-16 0 -28 6q-37 0 -58.5 17.5t-32 40t-12.5 46t-2 37.5z" />
<glyph unicode="&#xf70c;" d="M-556.5 1448.5q5.5 46.5 27 77t54 47t67.5 16.5q25 0 49.5 -9t43.5 -28q16 25 37.5 40.5t50.5 15.5q16 0 32.5 -5.5t32.5 -9.5q41 -10 52.5 -46t7.5 -79q16 10 33.5 21.5t37.5 21.5q12 6 29 7q18 0 37.5 -9.5t32 -24t13.5 -28.5t-18 -26q-55 -35 -102 -62t-104 -59 q-23 -12 -52 -13q-25 0 -43 12.5t-18 41.5t2 54.5t12 41.5q-23 -16 -49 -28.5t-37 -12.5l-16 -4q-20 0 -34.5 23.5t-35.5 43.5q-8 8 -14 9q-12 0 -10 -31t14 -55l14 -45q8 -25 -10 -37.5t-43 -12.5q-23 0 -44 11.5t-32 35.5q-23 59 -17.5 105.5z" />
<glyph unicode="&#xf70d;" d="M-558 1434.5q-1 17.5 12 31t42 13.5q31 6 62.5 12t62.5 12q4 29 10.5 58.5t12.5 64.5q8 14 27.5 22.5t41.5 8.5q27 0 46.5 -12.5t11.5 -38.5v-72l20 4t21 4q25 0 46 -13t30.5 -31.5t3 -36t-36.5 -25.5q-23 -4 -46.5 -8.5t-46.5 -8.5q-6 -29 -13 -60.5t-21 -70.5 q-12 -33 -47 -33q-29 0 -54.5 17.5t-25.5 38.5q0 25 1 46t3 42q-23 -2 -44.5 -3t-43.5 -1q-10 -2 -15.5 -3t-7.5 -1q-25 0 -38 13t-14 30.5z" />
<glyph unicode="&#xf70e;" d="M-416 1350q0 25 20.5 49.5t51.5 42.5q49 27 107.5 32t113.5 5h123q16 0 34.5 -5.5t33 -15.5t17.5 -20.5t3 -18.5q0 -10 -4 -24q-4 -16 -26.5 -25.5t-50 -14.5t-55.5 -6t-46 -1h-10q-47 0 -81 -2.5t-67 -14.5h-20q20 0 20 -22v-19q25 -8 27 -15t2 -9q0 -8 -7.5 -18.5 t-20.5 -17.5t-21 -7q-14 -8 -29 -9q-18 0 -35.5 12.5t-33 29t-27 37t-15.5 34.5q-4 12 -4 23z" />
<glyph unicode="&#xf70f;" horiz-adv-x="1120" d="M104.5 197.5q-1.5 56.5 6.5 113.5q8 84 27.5 170t30.5 170t7 166t-45 158q-8 16 -5 32.5t11 31t19.5 26.5t19.5 20q59 23 122.5 48.5t125.5 25.5q29 0 55.5 -6t50.5 -23q49 -16 80 -48.5t48.5 -74.5t22.5 -90.5t5 -97.5q0 -27 -7 -92t-15.5 -146t-13.5 -168t0 -159 t22.5 -118t56.5 -46q41 0 60.5 49t25.5 113.5t4 126t-2 86.5q0 135 3 266t20 266q0 25 20.5 37.5t48.5 12.5q29 0 53.5 -12.5t32.5 -37.5q0 -135 -11 -266t-11 -266q0 -45 3 -98.5t-1 -106.5q16 -41 17 -103.5t-7 -128t-23.5 -127t-31.5 -100.5q-35 -53 -88.5 -80.5 t-108.5 -27.5q-53 0 -99 26.5t-81 81.5q-20 33 4.5 50.5t60.5 17.5q39 0 68 -23q27 -39 49 -39q20 0 35.5 23t28 55.5t21.5 67.5t16 57q-76 -49 -160 -49q-43 0 -81 19.5t-65 64.5q-49 76 -47 185.5t19 234.5q10 59 18 118.5t11.5 115t-2 103.5t-21.5 85q-10 63 -42 90 t-75 27q-33 0 -69 -13q23 -57 25.5 -119.5t-6.5 -124t-24.5 -122t-29.5 -115.5q0 -23 -12.5 -89.5t-18.5 -138t3 -129t50 -63.5q33 -8 46.5 -26.5t9 -38t-25 -34t-52.5 -14.5q-66 8 -105 40t-57.5 78t-20 102.5z" />
<glyph unicode="&#xf710;" d="M-741 1313.5q-4 29.5 1 66.5t5 74q0 27 21.5 40t47.5 13q29 0 50.5 -13t21.5 -40v-104h25q37 0 83 4t95 10t96 14t84 17q27 0 51.5 -14.5t35.5 -35t4 -40t-44 -29.5q-35 -8 -83 -17.5t-101 -16.5t-107.5 -12t-99.5 -5q-49 0 -86 6q-53 10 -74.5 31.5t-25.5 51z" />
<glyph unicode="&#xf711;" d="M-457 1370q0 63 31 108.5t90 61.5q16 8 55 8q45 0 83 -23.5t65 -70.5q27 -49 15.5 -107.5t-56.5 -105.5q-16 -6 -35 -6q-6 0 -11 1t-11 1q-10 -8 -27.5 -13t-36.5 -5q-31 0 -59.5 11t-51 31.5t-37 48t-14.5 60.5zM-315 1391q0 -16 12 -40t29 -24q12 10 16 28.5t2 36 t-9 31t-20 13.5q-8 0 -10 -2q-16 0 -18 -13.5t-2 -29.5z" />
<glyph unicode="&#xf712;" d="M-707 1296q0 27 15.5 62t39 65.5t53 52t58.5 21.5t57.5 -3t57.5 -3q61 0 87 15.5t40 35t28.5 34.5t53.5 15q18 0 44 -9t26 -32t-21.5 -52.5t-38.5 -43.5q-41 -37 -91 -47t-103 -10q-27 0 -52.5 1t-52.5 1q-35 0 -55.5 -19.5t-20.5 -54.5q0 -14 11 -16q16 4 24 18t37 14 q12 0 21.5 -7t18.5 -14t18.5 -14.5t23.5 -7.5q29 0 49.5 16.5t48.5 16.5q18 0 34.5 -15.5t16.5 -33.5t-14 -34.5t-34.5 -29t-43 -20.5t-37.5 -8q-12 0 -25 7t-27.5 16.5t-29 16.5t-26.5 7q-16 0 -27.5 -7t-23 -15.5t-22.5 -15.5t-27 -7q-53 0 -72 27.5t-19 76.5z" />
<glyph unicode="&#xf713;" d="M-389 1624q0 12 4 46t10 71t12.5 69.5t10.5 42.5q0 16 14 23.5t33 7.5q23 0 44 -12t21 -41q0 -53 -2 -103.5t-18 -103.5q-12 -43 -57 -43q-23 0 -43.5 12.5t-28.5 30.5z" />
<glyph unicode="&#xf714;" d="M-509 1756q5 44 13 77q8 23 30 35t44 12q27 0 47.5 -15.5t20.5 -45.5q-8 -35 -9.5 -56.5t-1.5 -38.5v-24q20 16 54.5 39.5t70 46t69.5 38t52 15.5q12 0 17 -4q31 -16 33.5 -43t-13.5 -43q-16 -8 -39.5 -26.5t-48.5 -40t-48.5 -40t-39.5 -26.5q-27 -14 -59.5 -30.5 t-61.5 -16.5q-16 0 -29 6q-49 0 -71.5 28.5t-28.5 68.5t-1 84z" />
<glyph unicode="&#xf715;" d="M-535.5 1717q5.5 46 27 77t54 47.5t67.5 16.5q25 0 49.5 -9.5t42.5 -27.5q16 25 37.5 40t50.5 15q16 0 32.5 -5t33.5 -9q41 -10 52 -46t7 -79q16 10 33.5 21t38.5 22q12 6 28 6q18 0 38 -9.5t32 -23.5t13 -28.5t-17 -26.5q-55 -35 -102.5 -61.5t-104.5 -59.5 q-23 -12 -51 -12q-25 0 -43.5 12t-18.5 41t2.5 54.5t12.5 41.5q-23 -16 -49.5 -28.5t-36.5 -12.5q-16 -4 -17 -4q-20 0 -34.5 23.5t-34.5 44.5q-8 8 -15 8q-12 0 -10 -31t15 -55l14 -45q8 -25 -10.5 -37t-42.5 -12q-23 0 -44.5 11t-31.5 36q-23 59 -17.5 105z" />
<glyph unicode="&#xf716;" d="M-536 1758.5q-1 17.5 12.5 30.5t42.5 13q31 6 62.5 12.5t62.5 12.5q4 29 10 58.5t12 64.5q8 14 27.5 22t42.5 8q27 0 46 -12t11 -39v-71q10 2 20.5 4t20.5 4q25 0 46.5 -13.5t30.5 -32t3 -36t-37 -25.5q-23 -4 -46.5 -8t-45.5 -8q-6 -29 -13.5 -60.5t-21.5 -70.5 q-12 -33 -47 -33q-29 0 -54.5 17.5t-25.5 37.5q0 25 1 46.5t3 41.5q-23 -2 -44 -3t-44 -1l-15 -3t-7 -1q-25 0 -38.5 13.5t-14.5 31z" />
<glyph unicode="&#xf717;" horiz-adv-x="18" d="M-582 1618q0 25 20.5 49.5t51.5 42.5q43 27 95.5 32t105.5 5h20h123q41 0 64.5 -21.5t23.5 -39.5q0 -6 -4 -23q-4 -16 -25.5 -25.5t-49 -14.5t-56.5 -6t-47 -1h-27h-32.5t-52 -3t-49 -9.5t-21.5 -18.5q0 -10 24 -26q25 -8 27 -15.5t2 -9.5q0 -14 -16.5 -28.5t-32.5 -14.5 q-14 -8 -29 -8q-18 0 -38.5 14t-37 34.5t-28 44t-11.5 42.5z" />
<glyph unicode="&#xf718;" d="M-336 -160.5q-2 13.5 9 25.5t40 12t55.5 9.5t55.5 9.5t52.5 -13.5t23.5 -42.5q0 -57 -1 -112.5t-18 -112.5q-6 -23 -27.5 -32t-43.5 -9q-23 0 -41.5 9t-18.5 32q0 47 6 90t11 80q-12 2 -25.5 5t-28.5 11q-20 0 -33.5 12.5t-15.5 26z" />
<glyph unicode="&#xf719;" d="M-584.5 -168.5q3.5 11.5 19.5 23.5q43 37 100 36q53 0 86 -32q14 -10 20.5 -32t8.5 -45.5t1 -46t-3 -34.5q-10 -43 -2 -65.5t24 -22.5q20 0 42 48t7 151q-4 33 20.5 52t53.5 19q47 0 57 -49q6 -49 7.5 -106.5t-14 -107.5t-53.5 -84t-107 -34q-49 0 -101.5 15.5 t-75.5 66.5q-12 29 -11 67t5 71.5t4 57t-14 23.5q-6 0 -8 -2q-10 -10 -25 -10q-12 0 -22 5t-16.5 14.5t-3 21z" />
<glyph unicode="&#xf71a;" horiz-adv-x="208" d="M31 -135q0 35 27.5 53.5t66.5 18.5q68 0 68 -80q0 -72 -93 -72h-16q-53 4 -53 80z" />
<glyph unicode="&#xf71d;" horiz-adv-x="962" d="M131 817q0 25 1 60.5t3 73.5t3 75t3 61q0 29 21.5 41.5t50.5 12.5q27 0 48.5 -12.5t21.5 -41.5q0 -211 5 -411.5t31 -411.5q20 72 30.5 148.5t18 156.5t13.5 158t18 150q0 39 27 56t59 17q29 0 52.5 -12t27.5 -39q27 -147 57.5 -286.5t65.5 -280.5q2 31 2 62.5v64.5 q0 16 -1 57t-1 94.5t-2 112.5t-2 112.5t-1 95.5t-1 62v19q-70 -29 -141 -29q-23 0 -46.5 3t-48.5 7q-37 18 -60.5 40t-36.5 45.5t-17 46t-4 40.5q0 78 55 131.5t133 53.5q47 0 95 -9.5t89 -31.5q4 33 5.5 65.5t1.5 65.5q0 31 33.5 49t68.5 18q25 0 43 -10t18 -33 q0 -78 -10 -154.5t-43 -148.5q16 -55 24.5 -141t11.5 -184.5t3 -198.5t-3 -184t-5 -141.5t-2 -69.5q-8 -35 -11.5 -79t-12.5 -85t-29.5 -74t-63.5 -45q-10 -2 -18.5 -3t-12.5 -1q-33 0 -60.5 17.5t-37.5 45.5q-37 98 -60.5 189.5t-45.5 183.5q-6 -45 -11.5 -88t-11.5 -86 q-6 -39 -13 -82t-22.5 -79t-41 -59.5t-64.5 -23.5q-68 0 -95.5 35t-46.5 92q-20 72 -31.5 163t-17.5 188.5t-7 192.5t-1 173zM489 1188q0 -8 7.5 -20.5t19.5 -25t30.5 -21.5t41.5 -9q18 10 31.5 25.5t25.5 33.5q-23 23 -49.5 41.5t-58.5 18.5q-20 0 -34 -10.5t-14 -32.5z " />
<glyph horiz-adv-x="657" d="M-457 1370q0 63 31 108.5t90 61.5q16 8 55 8q45 0 83 -23.5t65 -70.5q27 -49 15.5 -107.5t-56.5 -105.5q-16 -6 -35 -6q-6 0 -11 1t-11 1q-10 -8 -27.5 -13t-36.5 -5q-31 0 -59.5 11t-51 31.5t-37 48t-14.5 60.5zM-315 1391q0 -16 12 -40t29 -24q12 10 16 28.5t2 36 t-9 31t-20 13.5q-8 0 -10 -2q-16 0 -18 -13.5t-2 -29.5zM94 1029.5q-2 15.5 12 31.5q74 88 173 88q43 0 85 -16.5t76.5 -47t60 -73.5t36.5 -97q10 -45 12 -116.5t-1 -156.5t-10.5 -176t-15.5 -177t-17 -160t-16 -123q0 -23 -15 -33t-38 -10q-31 0 -60.5 18.5t-29.5 49.5 q0 84 4 184t8 204.5t8.5 208t4.5 193.5q0 8 -6.5 41t-18.5 70t-29.5 65.5t-40.5 28.5q-12 0 -26 -14q-23 -35 -72 -35q-20 0 -38.5 7t-31 18.5t-14.5 27z" />
<glyph d="M-508 1032q12 53 46 87t79 46q-4 45 10.5 87t43 75t68.5 55.5t87 28.5q25 0 44 -14.5t25.5 -32.5t-4 -36.5t-43.5 -27.5q-33 -8 -50 -27.5t-21 -44t3 -53t23 -53.5q8 -14 3 -26.5t-18 -22.5t-31.5 -16t-37.5 -6q-4 0 -21 3t-22 5q-16 0 -24 -14.5t-8 -33t8 -32.5t26 -14 q12 0 19.5 3t17.5 3q33 0 54.5 -23.5t15.5 -46.5q-6 -25 -45 -32t-72 -7q-37 0 -73.5 10.5t-62.5 31t-38 52t-2 76.5z" />
<glyph />
<glyph horiz-adv-x="514" d="M27 -10q0 133 17 274.5t50 270.5q6 20 16.5 62t25 95t29.5 110.5t29.5 106.5t26.5 85t21 44q12 16 25.5 18.5t31.5 2.5t37.5 -4t30.5 -27q20 -47 36.5 -127t31 -176t24.5 -202.5t17 -206t11.5 -185.5t4.5 -141q0 -18 -21.5 -22.5t-32.5 -4.5q-53 0 -63 18.5t-10 71.5 q0 55 -6.5 122t-10.5 122q-39 -10 -78 -15.5t-77 -19.5l-7 -6q-2 -18 -6 -59t-8 -85t-8 -81t-10 -47q-10 -20 -22.5 -23.5t-31.5 -3.5q-6 0 -18 1t-24.5 4t-21.5 10.5t-9 17.5zM203 334q35 10 70.5 16t70.5 6q-10 104 -24.5 205t-30.5 203q-25 -109 -48.5 -214t-37.5 -216z " />
<glyph horiz-adv-x="530" d="M63 178q0 12 15.5 18.5t36.5 6.5q20 0 37.5 -6.5t21.5 -16.5q6 -31 24.5 -71.5t53.5 -53.5q10 0 14 2q16 8 25.5 15.5t19.5 15.5q35 31 53.5 73t20.5 87t-9 91t-34 87q-33 59 -86 113.5t-97 112t-63.5 121.5t13.5 140q27 59 87 92t126 33q49 0 94 -17t80 -58 q14 -16 -10.5 -25.5t-55.5 -9.5q-18 0 -35.5 3t-25.5 13q-23 23 -45 23q-23 0 -40.5 -16.5t-27.5 -39.5q-14 -29 -12 -65.5t8 -69.5q12 -39 34.5 -72.5t48 -63.5t54.5 -58.5t53 -59.5q66 -86 86.5 -182t-22.5 -182q-39 -78 -107.5 -126t-154.5 -48q-92 0 -137.5 54 t-43.5 140z" />
</font>
</defs>
</svg>
