<?xml version="1.0" standalone="no"?>
<!DOCTYPE svg PUBLIC "-//W3C//DTD SVG 1.1//EN" "http://www.w3.org/Graphics/SVG/1.1/DTD/svg11.dtd" >
<svg xmlns="http://www.w3.org/2000/svg" xmlns:xlink="http://www.w3.org/1999/xlink" version="1.1">
<metadata></metadata>
<defs>
<font id="noto_sanslight" horiz-adv-x="0" >
<font-face units-per-em="2048" ascent="1638" descent="-410" />
<missing-glyph horiz-adv-x="532" />
<glyph />
<glyph />
<glyph unicode="&#xd;" horiz-adv-x="532" />
<glyph unicode=" "  horiz-adv-x="532" />
<glyph unicode="&#x09;" horiz-adv-x="532" />
<glyph unicode="&#xa0;" horiz-adv-x="532" />
<glyph unicode="!" horiz-adv-x="503" d="M160 78q0 100 90 100t90 -100t-90 -101q-90 1 -90 101zM184 1462h140l-29 -1077h-84z" />
<glyph unicode="&#x22;" horiz-adv-x="745" d="M141 1462h125l-24 -528h-76zM479 1462h125l-24 -528h-76z" />
<glyph unicode="#" horiz-adv-x="1323" d="M53 446v95h295l76 379h-293v92h309l86 450h101l-86 -450h350l86 450h96l-86 -450h281v-92h-297l-74 -379h295v-95h-313l-88 -446h-99l88 446h-350l-86 -446h-96l84 446h-279zM446 541h353l73 379h-352z" />
<glyph unicode="$" horiz-adv-x="1169" d="M129 1069q0 156 107.5 243t281.5 97v145h90v-145q193 -6 346 -76l-39 -100q-76 33 -154.5 51.5t-152.5 22.5v-525q125 -41 214 -85t137.5 -110.5t48.5 -170.5q0 -158 -108.5 -248t-291.5 -105v-182h-90v178q-121 2 -221 19.5t-166 44.5v117q70 -29 174.5 -51.5 t212.5 -24.5v532q-121 39 -208 85t-134 115t-47 173zM244 1077q0 -111 73.5 -166t200.5 -96v488q-125 -6 -199.5 -63.5t-74.5 -162.5zM608 170q133 10 209 69.5t76 170.5q0 104 -69.5 156t-215.5 100v-496z" />
<glyph unicode="%" horiz-adv-x="1662" d="M111 1026q0 223 73.5 340t216.5 117q145 0 219 -119t74 -338q0 -223 -74.5 -342t-220.5 -119q-139 0 -213.5 119t-74.5 342zM213 1026q0 -371 186 -371q193 0 193 371q0 180 -46.5 273.5t-144.5 93.5q-188 0 -188 -367zM373 0l811 1462h106l-811 -1462h-106zM969 440 q0 223 74 340t217 117q145 0 218.5 -119t73.5 -338q0 -223 -75.5 -341.5t-219.5 -118.5q-141 0 -214.5 118.5t-73.5 341.5zM1071 440q0 -371 186 -370q193 0 193 370q0 180 -46 273.5t-144 93.5q-188 0 -189 -367z" />
<glyph unicode="&#x26;" horiz-adv-x="1468" d="M119 373q0 111 41 187.5t117.5 135t185.5 115.5q-86 90 -141.5 172t-55.5 188q0 143 96.5 228.5t260.5 85.5q152 0 243.5 -81t91.5 -224q0 -135 -89 -224.5t-230 -164.5l446 -443q57 68 98.5 158t65.5 194h119q-61 -258 -209 -430l271 -270h-156l-193 193 q-94 -94 -212.5 -153.5t-295.5 -59.5q-205 0 -329.5 101t-124.5 292zM240 377q0 -137 92 -215t243 -78q150 0 251.5 51t181.5 131l-471 469q-94 -49 -161 -97t-101.5 -109.5t-34.5 -151.5zM381 1174q0 -84 47 -154t133 -158q139 70 211 141.5t72 176.5q0 94 -62 149t-164 55 q-106 0 -171.5 -56t-65.5 -154z" />
<glyph unicode="'" horiz-adv-x="405" d="M141 1462h125l-24 -528h-76z" />
<glyph unicode="(" horiz-adv-x="569" d="M84 561q0 262 76 493.5t223 407.5h119q-150 -188 -224.5 -418.5t-74.5 -480.5q0 -248 74.5 -473t222.5 -414h-117q-147 176 -223 401.5t-76 483.5z" />
<glyph unicode=")" horiz-adv-x="569" d="M68 1462h118q147 -178 223 -405.5t76 -487.5t-75.5 -490.5t-223.5 -402.5h-116q150 188 223.5 415.5t73.5 477.5t-75 477.5t-224 415.5z" />
<glyph unicode="*" horiz-adv-x="1128" d="M106 1151l23 123l393 -127l-26 407h127l-25 -407l393 127l25 -123l-389 -74l250 -327l-113 -66l-207 352l-197 -352l-114 66l250 327z" />
<glyph unicode="+" horiz-adv-x="1169" d="M106 674v96h429v436h98v-436h428v-96h-428v-434h-98v434h-429z" />
<glyph unicode="," horiz-adv-x="462" d="M82 -264q76 272 106 502h127l9 -25q-25 -111 -66 -240t-88 -237h-88z" />
<glyph unicode="-" horiz-adv-x="659" d="M82 500v106h496v-106h-496z" />
<glyph unicode="." horiz-adv-x="499" d="M160 78q0 100 90 100t90 -100t-90 -101q-90 1 -90 101z" />
<glyph unicode="/" horiz-adv-x="710" d="M25 0l544 1462h119l-549 -1462h-114z" />
<glyph unicode="0" horiz-adv-x="1169" d="M115 735q0 223 46 392t149.5 263.5t275.5 94.5q168 0 271.5 -92.5t150.5 -261.5t47 -396q0 -367 -114 -561t-357 -194q-231 0 -350 192.5t-119 562.5zM231 735q0 -330 85 -491.5t268 -161.5q186 0 269 162t83 491q0 203 -32 348.5t-108.5 222t-209.5 76.5t-211 -77.5 t-111 -223t-33 -346.5z" />
<glyph unicode="1" horiz-adv-x="1169" d="M197 1163l397 299h98v-1462h-114v1087v144.5t4 107.5q-29 -29 -53.5 -49t-65.5 -53l-205 -156z" />
<glyph unicode="2" horiz-adv-x="1169" d="M111 0v98l419 437q104 109 176 194.5t109 171.5t37 193q0 137 -80 211.5t-215 74.5q-98 0 -184 -34.5t-170 -100.5l-64 82q90 74 196.5 115t221.5 41q188 0 301 -104.5t113 -280.5q0 -119 -42 -217.5t-119 -192.5t-183 -201l-367 -374v-7h776v-106h-925z" />
<glyph unicode="3" horiz-adv-x="1169" d="M94 61v113q84 -41 192.5 -67.5t213.5 -26.5q209 0 309 89t100 241q0 160 -118.5 228.5t-317.5 68.5h-156v102h158q170 0 280.5 79t110.5 230q0 129 -84 195.5t-223 66.5q-117 0 -210 -34.5t-183 -96.5l-60 82q84 66 197 109t254 43q205 0 317.5 -97.5t112.5 -261.5 q0 -145 -86 -237t-221 -117v-8q172 -20 262 -111.5t90 -244.5q0 -188 -133 -307t-399 -119q-119 0 -220.5 20t-185.5 61z" />
<glyph unicode="4" horiz-adv-x="1169" d="M47 365v94l727 1011h121v-999h244v-106h-244v-365h-113v365h-735zM170 471h612v543q0 119 1 187.5t3 139.5h-4q-29 -47 -53 -88t-57 -88z" />
<glyph unicode="5" horiz-adv-x="1169" d="M139 61v117q72 -43 171.5 -69.5t203.5 -26.5q186 0 299 93t113 271q0 160 -97.5 248t-296.5 88q-78 0 -151.5 -10t-134.5 -27l-64 43l60 674h708v-106h-610l-41 -504q43 8 108.5 20.5t153.5 12.5q223 0 353 -113t130 -317q0 -221 -143 -348t-389 -127q-115 0 -210 22.5 t-163 58.5z" />
<glyph unicode="6" horiz-adv-x="1169" d="M127 623q0 262 66.5 455.5t207 300t365.5 106.5q113 0 192 -23v-104q-37 14 -86 20t-102 6q-264 0 -392 -178t-136 -506h8q43 80 137 143.5t250 63.5q197 0 311.5 -117.5t114.5 -322.5q0 -221 -120 -354t-333 -133q-156 0 -263 82.5t-163.5 227.5t-56.5 333zM250 516 q0 -63 18.5 -138t60.5 -142.5t110.5 -111.5t170.5 -44q156 0 246 99.5t90 287.5q0 160 -82 252t-246 92q-113 0 -195.5 -45t-127.5 -113.5t-45 -136.5z" />
<glyph unicode="7" horiz-adv-x="1169" d="M104 1356v106h953v-86l-602 -1376h-127l602 1356h-826z" />
<glyph unicode="8" horiz-adv-x="1169" d="M115 365q0 106 45 183t122.5 131t176.5 93q-82 39 -148.5 87t-106.5 116.5t-40 163.5q0 106 54 184t148.5 119t215.5 41q188 0 303.5 -89t115.5 -253q0 -133 -87 -218t-222 -145q160 -66 258.5 -158t98.5 -245q0 -125 -60.5 -213t-166 -135t-240.5 -47q-215 0 -341 104 t-126 281zM231 365q0 -129 91.5 -209t255.5 -80t260 78.5t96 218.5q0 119 -85 197.5t-239 134.5l-45 16q-152 -55 -243 -136t-91 -220zM279 1135q0 -121 87 -189.5t224 -120.5q137 57 216 127t79 187q0 119 -82 182t-221 63q-131 0 -217 -65.5t-86 -183.5z" />
<glyph unicode="9" horiz-adv-x="1169" d="M106 997q0 145 55.5 255t157 170.5t242.5 60.5q158 0 265.5 -82t162.5 -226.5t55 -332.5q0 -262 -66.5 -457t-208.5 -301.5t-368 -106.5q-49 0 -106 6.5t-94 18.5v104q82 -31 200 -30q262 0 389.5 179t137.5 507h-8q-43 -80 -139.5 -143.5t-252.5 -63.5 q-195 0 -308.5 118t-113.5 324zM223 999q0 -164 82 -256t246 -92q113 0 196.5 45t129 114t45.5 136q0 63 -18.5 138t-60.5 142.5t-111 110.5t-171 43q-156 0 -247 -98t-91 -283z" />
<glyph unicode=":" horiz-adv-x="499" d="M160 78q0 100 90 100t90 -100t-90 -101q-90 1 -90 101zM160 1008q0 100 90 100t90 -100q0 -102 -90 -103q-90 1 -90 103z" />
<glyph unicode=";" horiz-adv-x="499" d="M70 -264q37 133 65.5 261t44.5 241h125l10 -25q-25 -111 -67.5 -240t-87.5 -237h-90zM160 1008q0 100 86 100q94 0 94 -100q0 -102 -94 -103q-86 1 -86 103z" />
<glyph unicode="&#x3c;" horiz-adv-x="1169" d="M109 692v70l952 461v-107l-821 -385l821 -364v-107z" />
<glyph unicode="=" horiz-adv-x="1169" d="M115 467v98h938v-98h-938zM115 881v96h938v-96h-938z" />
<glyph unicode="&#x3e;" horiz-adv-x="1169" d="M109 260v107l819 362l-819 387v107l952 -461v-70z" />
<glyph unicode="?" horiz-adv-x="868" d="M51 1399q86 39 169 61.5t186 22.5q184 0 289.5 -92.5t105.5 -260.5q0 -98 -32 -166.5t-89 -124t-135 -114.5q-61 -47 -95 -89t-47.5 -94.5t-13.5 -127.5v-29h-98v39q0 88 14 149.5t52 110.5t106 102q78 59 127 107.5t73.5 102t24.5 130.5q0 127 -78 189.5t-209 62.5 q-90 0 -163.5 -21.5t-143.5 -56.5zM256 78q0 100 88 100q90 0 90 -100t-90 -101q-88 1 -88 101z" />
<glyph unicode="@" horiz-adv-x="1818" d="M113 578q0 266 106.5 462.5t299 305t452.5 108.5q221 0 387 -88t258 -252t92 -389q0 -133 -37 -248t-112.5 -185.5t-188.5 -70.5q-94 0 -150.5 54.5t-64.5 142.5h-4q-88 -197 -303 -197q-154 0 -237 98.5t-83 274.5q0 131 54.5 234.5t151.5 163t229 59.5 q82 0 157.5 -12.5t128.5 -32.5l-16 -357q-2 -37 -3 -70.5t-1 -62.5q0 -111 38 -158t109 -47q78 0 129 54.5t77 147.5t26 212q0 197 -78 339t-220.5 219t-338.5 77q-233 0 -403.5 -95.5t-262.5 -270.5t-92 -412q0 -324 171 -503t484 -179q115 0 224.5 23.5t201.5 62.5v-99 q-90 -37 -196.5 -58.5t-229.5 -21.5q-236 0 -404.5 92.5t-259.5 265.5t-91 413zM635 590q0 -139 58.5 -209t166.5 -70q129 0 195.5 88t74.5 254l13 281q-35 12 -81 19.5t-99 7.5q-106 0 -179 -49.5t-111 -133.5t-38 -188z" />
<glyph unicode="A" horiz-adv-x="1245" d="M0 0l573 1466h111l561 -1466h-125l-194 504h-607l-198 -504h-121zM358 610h531l-197 529q-8 29 -28.5 90t-36.5 108q-16 -53 -35 -107t-31 -93z" />
<glyph unicode="B" horiz-adv-x="1294" d="M205 0v1462h405q270 0 399.5 -84t129.5 -272q0 -127 -74 -217t-211 -115v-8q160 -25 243 -110t83 -240q0 -141 -64.5 -233.5t-180.5 -137.5t-267 -45h-463zM324 102h333q397 0 398 320q0 152 -101.5 222.5t-314.5 70.5h-315v-613zM324 817h313q201 0 290 69.5t89 207.5 q0 141 -96.5 202.5t-309.5 61.5h-286v-541z" />
<glyph unicode="C" horiz-adv-x="1275" d="M127 735q0 217 83 386t239.5 265.5t377.5 96.5q215 0 385 -82l-47 -103q-160 78 -338 78q-180 0 -309 -81t-197.5 -225t-68.5 -337q0 -197 62.5 -342t185.5 -225t307 -80q106 0 195.5 16.5t168.5 40.5v-102q-76 -29 -167 -45t-209 -16q-221 0 -370 94t-223.5 264 t-74.5 397z" />
<glyph unicode="D" horiz-adv-x="1456" d="M205 0v1462h405q348 0 532.5 -183.5t184.5 -533.5q0 -369 -194.5 -557t-567.5 -188h-360zM324 104h233q647 0 647 637q0 616 -616 617h-264v-1254z" />
<glyph unicode="E" horiz-adv-x="1132" d="M205 0v1462h803v-106h-684v-537h645v-104h-645v-609h684v-106h-803z" />
<glyph unicode="F" horiz-adv-x="1036" d="M205 0v1462h803v-106h-684v-602h647v-107h-647v-647h-119z" />
<glyph unicode="G" horiz-adv-x="1482" d="M127 729q0 221 89 392t257 267.5t404 96.5q119 0 227 -22.5t203 -65.5l-50 -107q-186 88 -389 88q-193 0 -331 -82t-212.5 -228t-74.5 -339q0 -315 156.5 -480t457.5 -165q106 0 189.5 15.5t150.5 37.5v500h-411v108h530v-679q-106 -43 -225 -64.5t-258 -21.5 q-348 0 -530.5 198.5t-182.5 550.5z" />
<glyph unicode="H" horiz-adv-x="1482" d="M205 0v1462h119v-643h833v643h119v-1462h-119v713h-833v-713h-119z" />
<glyph unicode="I" horiz-adv-x="636" d="M102 0v74l156 22v1268l-156 25v73h430v-73l-155 -25v-1268l155 -22v-74h-430z" />
<glyph unicode="J" horiz-adv-x="516" d="M-180 -242q31 -8 69.5 -16t83.5 -8q229 0 230 274v1454h119v-1450q0 -180 -87.5 -282.5t-259.5 -102.5q-53 0 -90 8.5t-65 16.5v106z" />
<glyph unicode="K" horiz-adv-x="1204" d="M205 0v1462h119v-760q41 47 86 95.5t90 97.5l540 567h148l-594 -622l610 -840h-143l-555 758l-182 -174v-584h-119z" />
<glyph unicode="L" horiz-adv-x="1054" d="M205 0v1462h119v-1356h684v-106h-803z" />
<glyph unicode="M" horiz-adv-x="1785" d="M205 0v1462h180l504 -1282h6l510 1282h176v-1462h-119v1065q0 70 2 141.5t6 128.5h-6l-528 -1335h-96l-525 1335h-8q4 -55 6 -127.5t2 -154.5v-1053h-110z" />
<glyph unicode="N" horiz-adv-x="1492" d="M205 0v1462h127l844 -1274h8q-4 63 -6 163t-2 184v927h110v-1462h-127l-846 1278h-6q4 -80 6 -169t2 -187v-922h-110z" />
<glyph unicode="O" horiz-adv-x="1572" d="M127 735q0 223 74.5 391t223 263.5t368.5 95.5q211 0 355 -91t220 -259.5t76 -401.5q0 -223 -74 -393t-220 -265t-364 -95q-221 0 -367.5 95t-219 266t-72.5 394zM252 733q0 -195 57.5 -341t176 -227t300.5 -81q184 0 302 81t174.5 226.5t56.5 341.5q0 303 -132 474 t-394 171q-182 0 -303 -80.5t-179.5 -226t-58.5 -338.5z" />
<glyph unicode="P" horiz-adv-x="1206" d="M205 0v1462h364q526 0 527 -413q0 -211 -136.5 -331t-422.5 -120h-213v-598h-119zM324 700h200q213 0 331 75t118 267q0 164 -101.5 240t-314.5 76h-233v-658z" />
<glyph unicode="Q" horiz-adv-x="1572" d="M127 735q0 223 74.5 391t223 263.5t368.5 95.5q211 0 355 -91t220 -259.5t76 -401.5q0 -186 -52.5 -337.5t-155.5 -253t-257 -138.5l319 -352h-168l-282 332q-16 -2 -30.5 -3t-31.5 -1q-221 0 -367.5 95t-219 266t-72.5 394zM252 733q0 -195 57.5 -341t176 -227 t300.5 -81q184 0 302 81t174.5 226.5t56.5 341.5q0 303 -132 474t-394 171q-182 0 -303 -80.5t-179.5 -226t-58.5 -338.5z" />
<glyph unicode="R" horiz-adv-x="1228" d="M205 0v1462h364q262 0 394.5 -92t132.5 -309q0 -168 -89 -262t-223 -135l402 -664h-142l-372 631h-348v-631h-119zM324 733h276q178 0 275.5 84t97.5 240q0 168 -101.5 233.5t-312.5 65.5h-235v-623z" />
<glyph unicode="S" horiz-adv-x="1118" d="M111 45v117q78 -31 181 -54.5t224 -23.5q168 0 273.5 72.5t105.5 216.5q0 86 -40 142t-123 98t-212 85q-123 43 -211 93.5t-135 127t-47 193.5q0 121 60.5 203t166 125t240.5 43q106 0 202.5 -20.5t182.5 -57.5l-41 -102q-170 73 -343 73h-5q-152 0 -247 -66.5 t-95 -195.5q0 -94 41 -150.5t118.5 -95.5t190.5 -77q129 -45 222 -95.5t144.5 -124t51.5 -190.5q0 -131 -65.5 -220t-180.5 -135t-262 -46q-131 0 -229.5 18t-167.5 47z" />
<glyph unicode="T" horiz-adv-x="1085" d="M12 1356v106h1061v-106h-471v-1356h-119v1356h-471z" />
<glyph unicode="U" horiz-adv-x="1478" d="M188 520v942h119v-942q0 -213 110.5 -324.5t323.5 -111.5q207 0 318.5 111.5t111.5 312.5v954h117v-946q0 -250 -145.5 -393t-409.5 -143q-262 0 -403.5 143t-141.5 397z" />
<glyph unicode="V" horiz-adv-x="1191" d="M0 1462h125l387 -1054q27 -74 48.5 -141.5t35.5 -127.5q14 59 34.5 125t49.5 146l385 1052h127l-537 -1462h-118z" />
<glyph unicode="W" horiz-adv-x="1843" d="M47 1462h123l264 -1003q23 -86 40.5 -157t29.5 -138q12 70 28.5 143.5t40.5 157.5l283 997h119l291 -1003q29 -88 45 -161t28 -138q8 68 24.5 138.5t41.5 158.5l270 1005h123l-397 -1462h-119l-307 1075q-41 152 -62 240q-6 -41 -19 -98.5t-32 -122.5l-305 -1094h-119z " />
<glyph unicode="X" horiz-adv-x="1122" d="M0 0l492 760l-451 702h135l389 -618l389 618h131l-452 -700l487 -762h-137l-422 676l-432 -676h-129z" />
<glyph unicode="Y" horiz-adv-x="1097" d="M0 1462h131l418 -782l418 782h131l-488 -897v-565h-118v557z" />
<glyph unicode="Z" horiz-adv-x="1177" d="M76 0v88l850 1268h-809v106h956v-88l-848 -1268h873v-106h-1022z" />
<glyph unicode="[" horiz-adv-x="657" d="M172 -324v1786h434v-98h-319v-1589h319v-99h-434z" />
<glyph unicode="\" horiz-adv-x="710" d="M25 1462h114l549 -1462h-119z" />
<glyph unicode="]" horiz-adv-x="657" d="M51 -225h322v1589h-322v98h434v-1786h-434v99z" />
<glyph unicode="^" horiz-adv-x="1169" d="M86 557l459 916h73l465 -916h-108l-393 786l-387 -786h-109z" />
<glyph unicode="_" horiz-adv-x="856" d="M-4 -184h864v-92h-864v92z" />
<glyph unicode="`" horiz-adv-x="542" d="M82 1552v17h137q27 -45 69 -102.5t88 -113t85 -93.5v-19h-82q-51 41 -108.5 97.5t-108.5 113.5t-80 100z" />
<glyph unicode="a" horiz-adv-x="1097" d="M96 285q0 162 132 247.5t388 96.5l199 10v76q0 162 -64.5 228.5t-189.5 66.5q-84 0 -161.5 -21.5t-155.5 -62.5l-37 94q76 39 168 63.5t190 24.5q184 0 274.5 -90t90.5 -285v-733h-88l-23 184h-4q-57 -92 -143 -148t-238 -56q-156 0 -247 77.5t-91 227.5zM217 283 q0 -100 63.5 -152.5t174.5 -52.5q170 0 263 96t97 270v105l-184 -8q-209 -8 -311.5 -70.5t-102.5 -187.5z" />
<glyph unicode="b" horiz-adv-x="1226" d="M178 0v1556h117v-430q0 -57 -2 -124.5t-6 -108.5h8q41 92 134 154.5t237 62.5q211 0 327.5 -142.5t116.5 -420.5q0 -258 -118 -412.5t-343 -154.5q-137 0 -224 57t-128 139h-10l-21 -176h-88zM295 532q0 -221 79 -336.5t261 -115.5q176 0 265 122t89 347q0 461 -338 461 q-190 0 -273 -119t-83 -344v-15z" />
<glyph unicode="c" horiz-adv-x="974" d="M117 539q0 182 65.5 310t183 194.5t273.5 66.5q80 0 148.5 -14.5t121.5 -38.5l-32 -103q-115 51 -238 52q-193 0 -297 -125t-104 -340q0 -205 92 -332t284 -127q82 0 154 16.5t129 42.5v-104q-53 -27 -123 -42t-158 -15q-240 0 -369.5 146t-129.5 413z" />
<glyph unicode="d" horiz-adv-x="1226" d="M117 532q0 283 124 430.5t341 147.5q137 0 223 -59.5t127 -149.5h8q-2 49 -5 108.5t-3 104.5v442h117v-1556h-95l-16 188h-6q-43 -86 -129.5 -147t-231.5 -61q-219 0 -336.5 140t-117.5 412zM238 532q0 -223 86 -337.5t262 -114.5q188 0 268 114.5t80 329.5v21 q0 225 -80 345t-260 120q-176 0 -266 -124t-90 -354z" />
<glyph unicode="e" horiz-adv-x="1130" d="M117 537q0 166 56 296t162.5 203.5t258.5 73.5q139 0 233.5 -64.5t141.5 -177t47 -258.5v-82h-778q0 -215 100 -330.5t289 -115.5q102 0 178 16.5t166 57.5v-107q-82 -37 -162 -53t-186 -16q-244 0 -375 149.5t-131 407.5zM240 627h653q0 172 -72.5 278.5t-228.5 106.5 q-150 0 -243 -100.5t-109 -284.5z" />
<glyph unicode="f" horiz-adv-x="632" d="M27 995v64l200 35v106q0 188 81 277.5t245 89.5q57 0 104.5 -9.5t85.5 -21.5l-26 -98q-37 12 -79 20t-85 8q-111 0 -160 -62.5t-49 -201.5v-112h260v-95h-260v-995h-117v995h-200z" />
<glyph unicode="g" horiz-adv-x="1226" d="M117 537q0 264 118 418.5t343 154.5q129 0 214 -49t136 -137h6l18 166h95v-1125q0 -215 -110 -336t-359 -121q-123 0 -217.5 20.5t-172.5 53.5v113q78 -39 177.5 -62.5t216.5 -23.5q178 0 263 94t85 256v64q0 43 2 86t4 84h-6q-45 -106 -139.5 -159.5t-225.5 -53.5 q-213 0 -330.5 143t-117.5 414zM238 535q0 -223 87 -340t253 -117q135 0 211.5 55t109.5 151.5t33 219.5v69q0 209 -77 322t-265 113q-176 0 -264 -124t-88 -349z" />
<glyph unicode="h" horiz-adv-x="1220" d="M180 0v1556h115v-499q0 -82 -6 -156h8q41 90 135 149.5t234 59.5q186 0 285.5 -96t99.5 -301v-713h-117v705q0 156 -70.5 229.5t-208.5 73.5q-360 0 -360 -414v-594h-115z" />
<glyph unicode="i" horiz-adv-x="475" d="M160 1405q0 88 78 88q81 0 81 -86q0 -92 -81 -92q-78 0 -78 90zM180 0v1090h115v-1090h-115z" />
<glyph unicode="j" horiz-adv-x="475" d="M-106 -369q55 -22 123 -22h6q74 0 115.5 45t41.5 141v1295h115v-1295q0 -139 -68.5 -213t-193.5 -74q-88 0 -139 23v100zM160 1405q0 88 78 88q81 0 81 -86q0 -92 -81 -92q-78 0 -78 90z" />
<glyph unicode="k" horiz-adv-x="1011" d="M180 0v1556h115v-790q0 -66 -2 -136.5t-2 -140.5h2q27 33 60.5 75t64.5 75l413 451h140l-430 -467l467 -623h-140l-409 545l-164 -168v-377h-115z" />
<glyph unicode="l" horiz-adv-x="475" d="M180 0v1556h117v-1556h-117z" />
<glyph unicode="m" horiz-adv-x="1830" d="M180 0v1090h94l17 -172h8q41 80 124 136t212 56q119 0 201 -51t114 -154h8q45 98 139.5 151.5t221.5 53.5q162 0 253 -92t91 -291v-727h-115v721q0 147 -65.5 217t-179.5 70q-156 0 -240 -91.5t-84 -281.5v-635h-115v721q0 147 -65.5 217t-180.5 70q-156 0 -239.5 -95.5 t-83.5 -294.5v-618h-115z" />
<glyph unicode="n" horiz-adv-x="1220" d="M180 0v1090h94l17 -189h8q43 90 136.5 149.5t232.5 59.5q186 0 284.5 -96t98.5 -301v-713h-117v705q0 156 -70.5 229.5t-208.5 73.5q-360 0 -360 -414v-594h-115z" />
<glyph unicode="o" horiz-adv-x="1208" d="M117 545q0 266 132 415.5t361 149.5q156 0 263.5 -70.5t163 -197.5t55.5 -297t-56.5 -297t-166 -197.5t-267.5 -70.5q-152 0 -260.5 69.5t-166.5 196.5t-58 299zM238 545q0 -209 88 -337t276 -128q190 0 279.5 128t89.5 337q0 135 -37 239.5t-117 164t-209 59.5 q-186 0 -278 -123t-92 -340z" />
<glyph unicode="p" horiz-adv-x="1226" d="M180 -483v1573h96l15 -205h6q41 90 130 157.5t241 67.5q209 0 326.5 -140.5t117.5 -418.5q0 -279 -122 -425t-333 -146q-145 0 -232 61t-128 147h-8q2 -53 5 -112.5t3 -112.5v-446h-117zM297 545q0 -233 85 -349t261 -116q168 0 258 125t90 348q0 219 -85 337t-255 118 q-180 0 -266 -114t-88 -329v-20z" />
<glyph unicode="q" horiz-adv-x="1226" d="M115 541q0 258 116.5 413.5t341.5 155.5q139 0 226.5 -59.5t128.5 -141.5h6l16 181h94v-1573h-114v475q0 43 1 103.5t5 103.5h-8q-41 -94 -135.5 -156.5t-237.5 -62.5q-207 0 -323.5 142t-116.5 419zM233 541q0 -225 84 -344t256 -119q188 0 271.5 115.5t85.5 330.5v29 q0 225 -81 341t-263 116q-176 0 -264.5 -125t-88.5 -344z" />
<glyph unicode="r" horiz-adv-x="806" d="M180 0v1090h99l12 -205h6q41 92 124 157.5t206 65.5q86 0 147 -18l-16 -107q-33 8 -66 12t-69 4q-152 0 -239 -109.5t-87 -291.5v-598h-117z" />
<glyph unicode="s" horiz-adv-x="958" d="M94 49v113q72 -37 164 -60.5t188 -23.5q160 0 232 54t72 149q0 90 -75 138t-224 99q-100 35 -177 70t-120 91t-43 152q0 131 106.5 205t284.5 74q98 0 183 -19.5t155 -48.5l-41 -96q-63 29 -143.5 47.5t-159.5 18.5q-129 0 -201 -45t-72 -131q0 -66 35 -104t100.5 -65.5 t159.5 -60.5q96 -33 175 -69.5t125 -94t46 -153.5q0 -150 -109.5 -229.5t-312.5 -79.5q-115 0 -201.5 20t-146.5 49z" />
<glyph unicode="t" horiz-adv-x="696" d="M27 995v66l161 37l41 252h74v-260h336v-95h-336v-688q0 -229 184 -229q45 0 87 7t71 17v-94q-33 -12 -77 -20t-97 -8q-135 0 -209 76.5t-74 246.5v692h-161z" />
<glyph unicode="u" horiz-adv-x="1220" d="M164 377v713h119v-705q0 -156 69.5 -230.5t208.5 -74.5q360 0 361 416v594h116v-1090h-96l-16 186h-6q-45 -88 -138.5 -147t-232.5 -59q-385 0 -385 397z" />
<glyph unicode="v" horiz-adv-x="960" d="M0 1090h123l270 -723q27 -68 48.5 -133.5t33.5 -116.5h8q14 51 36 117.5t46 132.5l271 723h125l-418 -1090h-125z" />
<glyph unicode="w" horiz-adv-x="1507" d="M29 1090h121l184 -674q25 -90 42 -159t25 -122h5q12 49 28.5 116.5t44.5 149.5l226 689h118l217 -689q20 -74 41 -143.5t29 -122.5h8q6 49 23.5 120t40.5 161l178 674h119l-297 -1090h-129l-222 709q-20 68 -38.5 128t-30.5 113h-4q-12 -53 -28.5 -114.5t-39.5 -128.5 l-231 -707h-123z" />
<glyph unicode="x" horiz-adv-x="1032" d="M45 0l397 559l-381 531h138l313 -451l315 451h134l-377 -531l399 -559h-135l-336 479l-334 -479h-133z" />
<glyph unicode="y" horiz-adv-x="960" d="M0 1090h125l260 -678q33 -90 57.5 -161t38.5 -126h6q14 47 39 120.5t58 164.5l254 680h125l-492 -1285q-55 -143 -131 -222t-205 -79q-41 0 -71.5 6.5t-59.5 14.5v98q53 -18 117 -18q86 0 140 53t95 162l72 184z" />
<glyph unicode="z" horiz-adv-x="948" d="M82 0v76l639 919h-594v95h733v-82l-639 -914h643v-94h-782z" />
<glyph unicode="{" horiz-adv-x="733" d="M55 520v98q121 2 179.5 51.5t58.5 166.5v327q0 147 98 223t273 76v-98q-127 -4 -190.5 -53t-63.5 -164v-320q0 -104 -45.5 -169.5t-147.5 -84.5v-8q102 -18 147.5 -82.5t45.5 -169.5v-327q0 -109 63.5 -159t190.5 -52v-99q-178 0 -274.5 76t-96.5 225v326 q0 117 -58.5 167t-179.5 50z" />
<glyph unicode="|" horiz-adv-x="1112" d="M504 -504v2065h100v-2065h-100z" />
<glyph unicode="}" horiz-adv-x="733" d="M70 -225q127 4 190.5 53t63.5 160v323q0 104 45 170t147 84v8q-102 18 -147 84t-45 170v322q0 113 -63.5 163t-190.5 52v98q178 0 274 -75.5t96 -225.5v-325q0 -117 58.5 -167.5t179.5 -50.5v-98q-121 0 -179.5 -50t-58.5 -167v-328q0 -147 -98 -223t-272 -76v99z" />
<glyph unicode="~" horiz-adv-x="1169" d="M109 618v113q47 49 110.5 77t132.5 28q70 0 126.5 -16.5t131.5 -51.5q66 -29 114 -44t101 -15q57 0 119 28.5t117 85.5v-106q-45 -49 -106.5 -78t-135.5 -29q-66 0 -121 16.5t-133 49.5q-66 31 -115 46t-106 15q-123 0 -235 -119z" />
<glyph unicode="&#xa1;" horiz-adv-x="503" d="M160 1008q0 100 92 100q88 0 88 -100q0 -102 -88 -103q-92 0 -92 103zM180 -377l27 1077h84l28 -1077h-139z" />
<glyph unicode="&#xa2;" horiz-adv-x="1169" d="M180 741q0 254 117 397.5t315 168.5v176h97v-170q78 -2 144.5 -16.5t121.5 -39.5l-31 -98q-121 49 -244 49q-193 0 -297 -123.5t-104 -343.5q0 -213 93 -333.5t288 -120.5q82 0 151.5 15t131.5 42v-106q-53 -23 -116 -38.5t-140 -19.5v-200h-95v204q-211 18 -321.5 160.5 t-110.5 396.5z" />
<glyph unicode="&#xa3;" horiz-adv-x="1169" d="M76 0v98q106 20 166.5 95t60.5 219v260h-207v92h207v311q0 199 104.5 302.5t286.5 103.5q104 0 185.5 -20.5t146.5 -51.5l-41 -98q-63 29 -134 49t-155 20q-139 0 -207.5 -76.5t-68.5 -242.5v-297h411v-92h-411v-258q0 -133 -44 -204t-108 -104h809v-106h-1001z" />
<glyph unicode="&#xa4;" horiz-adv-x="1169" d="M119 326l147 147q-88 111 -88 252q0 139 88 250l-147 147l65 66l148 -146q106 88 252 88q139 0 252 -88l147 146l64 -66l-146 -147q90 -109 90 -250t-90 -254l146 -147l-64 -64l-147 146q-106 -86 -252 -87q-70 0 -134.5 21.5t-117.5 65.5l-148 -144zM270 725 q0 -90 42 -161.5t113 -112.5t157 -41q88 0 160.5 43t115.5 114.5t43 157.5t-43 157.5t-114.5 114.5t-157.5 43q-88 0 -160 -42t-114 -113.5t-42 -159.5z" />
<glyph unicode="&#xa5;" horiz-adv-x="1169" d="M41 1462h125l420 -745l415 745h125l-450 -784h299v-92h-332v-197h332v-90h-332v-299h-115v299h-335v90h335v197h-335v92h294z" />
<glyph unicode="&#xa6;" horiz-adv-x="1112" d="M504 264h100v-768h-100v768zM504 793v768h100v-768h-100z" />
<glyph unicode="&#xa7;" horiz-adv-x="1056" d="M127 61v107q72 -35 163 -58.5t185 -23.5q166 0 234.5 53.5t68.5 132.5q0 82 -70.5 126t-220.5 96q-98 35 -173.5 71.5t-118.5 94t-43 149.5q0 100 56 163.5t136 96.5q-82 35 -132 87t-50 142q0 123 100 193t281 70q102 0 183 -18.5t151 -47.5l-41 -92q-61 27 -135 45 t-164 18q-264 0 -265 -163q0 -82 73 -121t210 -86q96 -35 174 -73t123 -94.5t45 -146.5q0 -102 -51 -169.5t-121 -106.5q74 -35 119 -88t45 -139q0 -131 -107.5 -208t-310.5 -77q-111 0 -197 19.5t-147 47.5zM256 819q0 -98 76 -146t217 -100l84 -26q66 33 113 88t47 135 q0 94 -81 149.5t-261 106.5q-80 -20 -137.5 -72.5t-57.5 -134.5z" />
<glyph unicode="&#xa8;" horiz-adv-x="1183" d="M328 1393q0 82 69 82q74 0 74 -82q0 -84 -74 -84q-69 0 -69 84zM709 1393q0 82 69 82q74 0 74 -82q0 -84 -74 -84q-69 0 -69 84z" />
<glyph unicode="&#xa9;" horiz-adv-x="1703" d="M102 731q0 162 57.5 299t160 237.5t238.5 157t294 56.5q160 0 296 -58.5t238.5 -162t159 -239.5t56.5 -290q0 -160 -57.5 -296t-159 -237.5t-237.5 -158.5t-296 -57q-164 0 -301 57t-237.5 158.5t-156 237.5t-55.5 296zM184 731q0 -137 48.5 -258t138.5 -214t212 -145.5 t269 -52.5q141 0 262 51.5t211 143.5t141.5 214t51.5 261q0 137 -49.5 258t-139.5 213t-212 145.5t-265 53.5t-265 -50.5t-212 -141.5t-140.5 -213t-50.5 -265zM475 729q0 135 51.5 236.5t145.5 158t223 56.5q76 0 138.5 -14.5t117.5 -43.5l-41 -86q-98 49 -213 49 q-143 0 -229 -95t-86 -261q0 -174 81.5 -264t227.5 -90q59 0 113.5 11t111.5 32v-90q-51 -20 -104 -32.5t-125 -12.5q-195 0 -303.5 116.5t-108.5 329.5z" />
<glyph unicode="&#xaa;" horiz-adv-x="696" d="M74 991q0 100 78.5 151.5t244.5 57.5l103 4v53q0 78 -41 111t-107 33q-55 0 -105 -14.5t-95 -38.5l-33 73q49 25 110.5 41.5t124.5 16.5q236 0 236 -217v-451h-72l-16 90q-33 -43 -87.5 -72.5t-129.5 -29.5q-96 0 -153.5 48t-57.5 144zM168 991q0 -57 35 -85.5t98 -28.5 q102 0 150.5 53t48.5 143v60l-97 -5q-127 -4 -181 -36.5t-54 -100.5z" />
<glyph unicode="&#xab;" horiz-adv-x="919" d="M68 541v28l327 398l80 -49l-282 -361l282 -360l-80 -50zM442 541v28l332 398l78 -49l-283 -361l283 -360l-78 -50z" />
<glyph unicode="&#xac;" horiz-adv-x="1169" d="M106 674v96h936v-504h-96v408h-840z" />
<glyph unicode="&#xad;" horiz-adv-x="659" d="M82 500v106h496v-106h-496z" />
<glyph unicode="&#xae;" horiz-adv-x="1703" d="M102 731q0 162 57.5 299t160 237.5t238.5 157t294 56.5q160 0 296 -58.5t238.5 -162t159 -239.5t56.5 -290q0 -160 -57.5 -296t-159 -237.5t-237.5 -158.5t-296 -57q-164 0 -301 57t-237.5 158.5t-156 237.5t-55.5 296zM184 731q0 -137 48.5 -258t138.5 -214t212 -145.5 t269 -52.5q141 0 262 51.5t211 143.5t141.5 214t51.5 261q0 137 -49.5 258t-139.5 213t-212 145.5t-265 53.5t-265 -50.5t-212 -141.5t-140.5 -213t-50.5 -265zM590 287v884h254q145 0 224 -62t79 -191q0 -98 -51.5 -158t-122.5 -84l235 -389h-121l-215 364h-178v-364h-104z M692 737h144q92 0 150 45t58 131q0 90 -55 129t-151 39h-146v-344z" />
<glyph unicode="&#xaf;" horiz-adv-x="1024" d="M-6 1556v95h1036v-95h-1036z" />
<glyph unicode="&#xb0;" horiz-adv-x="876" d="M129 1180q0 135 85 219t224 84q135 0 222.5 -84t87.5 -219t-87.5 -218t-222.5 -83t-222 82.5t-87 218.5zM223 1180q0 -94 55.5 -154.5t159.5 -60.5q102 0 158.5 60t56.5 155q0 98 -58 157.5t-157 59.5q-104 0 -159.5 -59.5t-55.5 -157.5z" />
<glyph unicode="&#xb1;" horiz-adv-x="1169" d="M106 0v96h955v-96h-955zM106 678v96h429v436h98v-436h428v-96h-428v-434h-98v434h-429z" />
<glyph unicode="&#xb2;" horiz-adv-x="694" d="M53 852v78l242 241q78 78 127 133.5t71.5 102.5t22.5 100q0 72 -44 114t-126 42q-63 0 -115.5 -21.5t-107.5 -64.5l-49 70q57 47 125.5 74.5t148.5 27.5q127 0 197.5 -65.5t70.5 -172.5q0 -70 -29.5 -128t-85 -118.5t-132.5 -138.5l-191 -184h449v-90h-574z" />
<glyph unicode="&#xb3;" horiz-adv-x="694" d="M45 893v94q133 -63 262 -63q117 0 174.5 48t57.5 134q0 84 -60.5 123t-175.5 39h-127v82h127q106 0 159.5 45t53.5 123q0 70 -47 106.5t-125 36.5q-70 0 -127 -21.5t-115 -56.5l-47 70q59 41 129 66.5t160 25.5q129 0 200.5 -59.5t71.5 -159.5q0 -84 -44 -138.5 t-109 -72.5v-4q82 -16 129 -69.5t47 -137.5q0 -121 -84 -192.5t-248 -71.5q-150 0 -262 53z" />
<glyph unicode="&#xb4;" horiz-adv-x="542" d="M82 1241v19q37 39 83 94t88 112.5t69 102.5h139v-17q-31 -43 -81 -100t-107.5 -113.5t-108.5 -97.5h-82z" />
<glyph unicode="&#xb5;" horiz-adv-x="1232" d="M180 -492v1582h115v-705q0 -305 295 -305q193 0 269.5 107.5t76.5 308.5v594h117v-1090h-99l-16 170h-8q-45 -84 -125 -137t-223 -53q-106 0 -176 34.5t-111 94.5h-4q2 -39 3 -94.5t1 -118.5v-388h-115z" />
<glyph unicode="&#xb6;" horiz-adv-x="1341" d="M154 1092q0 244 107.5 354t301.5 110h529v-1816h-86v1735h-242v-1735h-86v903q-63 -18 -146 -18q-180 0 -279 117.5t-99 349.5z" />
<glyph unicode="&#xb7;" horiz-adv-x="499" d="M160 682q0 100 90 100t90 -100t-90 -101q-90 1 -90 101z" />
<glyph unicode="&#xb8;" horiz-adv-x="428" d="M25 -399q20 -6 48.5 -8.5t63.5 -2.5q76 0 121 29t45 86q0 59 -52 87t-147 32l89 176h86l-62 -121q82 -10 133 -51t51 -119q0 -94 -70.5 -147.5t-195.5 -53.5q-70 0 -110 13v80z" />
<glyph unicode="&#xb9;" horiz-adv-x="694" d="M76 1561l272 168h94v-877h-98v569q0 55 1 109.5t3 103.5q-29 -20 -56.5 -40.5t-66.5 -41.5l-102 -65z" />
<glyph unicode="&#xba;" horiz-adv-x="745" d="M70 1139q0 164 83 254t224 90q147 0 225 -94t78 -250q0 -154 -81 -248t-226 -94q-139 0 -221 93t-82 249zM164 1139q0 -121 51 -191.5t158 -70.5q111 0 162 71.5t51 190.5t-49.5 190.5t-159.5 71.5q-213 0 -213 -262z" />
<glyph unicode="&#xbb;" horiz-adv-x="919" d="M66 197l284 360l-284 361l79 49l330 -398v-24l-330 -398zM442 197l283 360l-283 361l80 49l330 -398v-24l-330 -398z" />
<glyph unicode="&#xbc;" horiz-adv-x="1478" d="M51 1294l273 168h94v-876h-99v569q0 55 1.5 109.5t3.5 103.5q-29 -20 -56.5 -40.5t-66.5 -41.5l-103 -65zM279 0l827 1462h106l-827 -1462h-106zM811 233v70l406 580h104v-564h137v-86h-137v-233h-102v233h-408zM913 319h306v263q0 45 1 94t3 94q-14 -29 -39 -64.5 t-45 -66.5z" />
<glyph unicode="&#xbd;" horiz-adv-x="1552" d="M39 1294l272 168h95v-876h-99v569q0 55 1 109.5t3 103.5q-29 -20 -56.5 -40.5t-66.5 -41.5l-102 -65zM250 0l827 1462h105l-828 -1462h-104zM909 0v76l244 243q80 78 128 133.5t69.5 102.5t21.5 100q0 72 -44 114t-124 42q-66 0 -118 -21.5t-107 -64.5l-49 70 q57 47 125.5 74.5t148.5 27.5q127 0 199 -65.5t72 -172.5q0 -70 -30 -128t-86 -118.5t-134 -138.5l-189 -186h449v-88h-576z" />
<glyph unicode="&#xbe;" horiz-adv-x="1576" d="M43 627v94q133 -63 262 -64q115 0 173.5 48.5t58.5 134.5q0 162 -238 161h-127v82h127q106 0 159.5 45.5t53.5 122.5q0 70 -46 107t-124 37q-70 0 -127 -21.5t-115 -56.5l-47 69q59 41 128 67t159 26q131 0 202.5 -59.5t71.5 -159.5q0 -84 -43 -138.5t-108 -72.5v-5 q82 -16 129 -69t47 -137q0 -121 -85 -193t-251 -72q-143 0 -260 54zM385 0l827 1462h107l-827 -1462h-107zM909 233v70l406 580h104v-564h137v-86h-137v-233h-102v233h-408zM1012 319h305v263q0 45 1 94t3 94q-14 -29 -39 -64.5t-45 -66.5z" />
<glyph unicode="&#xbf;" horiz-adv-x="868" d="M67 -40q0 98 32 166.5t89 124t135 114.5q61 47 95 89t47.5 94.5t13.5 127.5v29h98v-39q0 -88 -14 -149.5t-52 -110.5t-106 -102q-78 -59 -127 -107.5t-73.5 -102t-24.5 -130.5q0 -127 78 -189.5t209 -62.5q90 0 163.5 21.5t143.5 56.5l43 -99q-86 -39 -169 -61.5 t-186 -22.5q-184 0 -289.5 92.5t-105.5 260.5zM434 1012q0 100 90 101q88 -1 88 -101t-88 -100q-90 0 -90 100z" />
<glyph unicode="&#xc0;" horiz-adv-x="1245" d="M0 0l573 1466h111l561 -1466h-125l-194 504h-607l-198 -504h-121zM358 610h531l-197 529q-8 29 -28.5 90t-36.5 108q-16 -53 -35 -107t-31 -93zM367 1925v17h137q27 -45 69 -102.5t88 -113t85 -93.5v-19h-82q-51 41 -108.5 97.5t-108.5 113.5t-80 100z" />
<glyph unicode="&#xc1;" horiz-adv-x="1245" d="M0 0l573 1466h111l561 -1466h-125l-194 504h-607l-198 -504h-121zM358 610h531l-197 529q-8 29 -28.5 90t-36.5 108q-16 -53 -35 -107t-31 -93zM539 1614v19q37 39 83 94t88 112.5t69 102.5h139v-17q-31 -43 -81 -100t-107.5 -113.5t-108.5 -97.5h-82z" />
<glyph unicode="&#xc2;" horiz-adv-x="1245" d="M0 0l573 1466h111l561 -1466h-125l-194 504h-607l-198 -504h-121zM326 1614v16q37 41 85 96.5t91 112t70 99.5h112q25 -43 69 -99.5t91 -112t86 -96.5v-16h-84q-55 45 -112.5 104.5t-106.5 116.5q-49 -57 -106.5 -116.5t-112.5 -104.5h-82zM358 610h531l-197 529 q-8 29 -28.5 90t-36.5 108q-16 -53 -35 -107t-31 -93z" />
<glyph unicode="&#xc3;" horiz-adv-x="1245" d="M0 0l573 1466h111l561 -1466h-125l-194 504h-607l-198 -504h-121zM246 1626q8 111 61.5 171.5t143.5 60.5q47 0 87 -20.5t75.5 -47t69.5 -47t71 -20.5q45 0 77.5 29.5t45.5 107.5h78q-8 -111 -63.5 -172.5t-141.5 -61.5q-47 0 -87 20.5t-75 47.5t-70 47.5t-75 20.5 q-45 0 -76 -29t-43 -107h-78zM358 610h531l-197 529q-8 29 -28.5 90t-36.5 108q-16 -53 -35 -107t-31 -93z" />
<glyph unicode="&#xc4;" horiz-adv-x="1245" d="M0 0l573 1466h111l561 -1466h-125l-194 504h-607l-198 -504h-121zM358 610h531l-197 529q-8 29 -28.5 90t-36.5 108q-16 -53 -35 -107t-31 -93zM365 1766q0 82 69 82q74 0 74 -82q0 -84 -74 -84q-69 0 -69 84zM746 1766q0 82 69 82q74 0 74 -82q0 -84 -74 -84 q-69 0 -69 84z" />
<glyph unicode="&#xc5;" horiz-adv-x="1245" d="M0 0l573 1466h111l561 -1466h-125l-194 504h-607l-198 -504h-121zM358 610h531l-197 529q-8 29 -28.5 90t-36.5 108q-16 -53 -35 -107t-31 -93zM410 1608q0 94 61.5 151.5t153.5 57.5q90 0 152.5 -58.5t62.5 -150.5q0 -98 -62.5 -155.5t-152.5 -57.5t-152.5 57.5 t-62.5 155.5zM488 1608q0 -59 37 -97t100 -38q59 0 97 38t38 97q0 57 -39 96t-96 39q-59 0 -98 -38.5t-39 -96.5z" />
<glyph unicode="&#xc6;" horiz-adv-x="1683" d="M-2 0l661 1462h951v-106h-658v-537h617v-104h-617v-609h658v-106h-776v504h-482l-227 -504h-127zM399 610h435v746h-103z" />
<glyph unicode="&#xc7;" horiz-adv-x="1275" d="M127 735q0 217 83 386t239.5 265.5t377.5 96.5q215 0 385 -82l-47 -103q-160 78 -338 78q-180 0 -309 -81t-197.5 -225t-68.5 -337q0 -197 62.5 -342t185.5 -225t307 -80q106 0 195.5 16.5t168.5 40.5v-102q-76 -29 -167 -45t-209 -16q-221 0 -370 94t-223.5 264 t-74.5 397zM557 -399q20 -6 48.5 -8.5t63.5 -2.5q76 0 121 29t45 86q0 59 -52 87t-147 32l89 176h86l-62 -121q82 -10 133 -51t51 -119q0 -94 -70.5 -147.5t-195.5 -53.5q-70 0 -110 13v80z" />
<glyph unicode="&#xc8;" horiz-adv-x="1132" d="M205 0v1462h803v-106h-684v-537h645v-104h-645v-609h684v-106h-803zM369 1925v17h137q27 -45 69 -102.5t88 -113t85 -93.5v-19h-82q-51 41 -108.5 97.5t-108.5 113.5t-80 100z" />
<glyph unicode="&#xc9;" horiz-adv-x="1132" d="M205 0v1462h803v-106h-684v-537h645v-104h-645v-609h684v-106h-803zM541 1614v19q37 39 83 94t88 112.5t69 102.5h139v-17q-31 -43 -81 -100t-107.5 -113.5t-108.5 -97.5h-82z" />
<glyph unicode="&#xca;" horiz-adv-x="1132" d="M205 0v1462h803v-106h-684v-537h645v-104h-645v-609h684v-106h-803zM328 1614v16q37 41 85 96.5t91 112t70 99.5h112q25 -43 69 -99.5t91 -112t86 -96.5v-16h-84q-55 45 -112.5 104.5t-106.5 116.5q-49 -57 -106.5 -116.5t-112.5 -104.5h-82z" />
<glyph unicode="&#xcb;" horiz-adv-x="1132" d="M205 0v1462h803v-106h-684v-537h645v-104h-645v-609h684v-106h-803zM367 1766q0 82 69 82q74 0 74 -82q0 -84 -74 -84q-69 0 -69 84zM748 1766q0 82 69 82q74 0 74 -82q0 -84 -74 -84q-69 0 -69 84z" />
<glyph unicode="&#xcc;" horiz-adv-x="636" d="M59 1925v17h137q27 -45 69 -102.5t88 -113t85 -93.5v-19h-82q-51 41 -108.5 97.5t-108.5 113.5t-80 100zM102 0v74l156 22v1268l-156 25v73h430v-73l-155 -25v-1268l155 -22v-74h-430z" />
<glyph unicode="&#xcd;" horiz-adv-x="636" d="M102 0v74l156 22v1268l-156 25v73h430v-73l-155 -25v-1268l155 -22v-74h-430zM229 1614v19q37 39 83 94t88 112.5t69 102.5h139v-17q-31 -43 -81 -100t-107.5 -113.5t-108.5 -97.5h-82z" />
<glyph unicode="&#xce;" horiz-adv-x="636" d="M16 1614v16q37 41 85 96.5t91 112t70 99.5h112q25 -43 69 -99.5t91 -112t86 -96.5v-16h-84q-55 45 -112.5 104.5t-106.5 116.5q-49 -57 -106.5 -116.5t-112.5 -104.5h-82zM102 0v74l156 22v1268l-156 25v73h430v-73l-155 -25v-1268l155 -22v-74h-430z" />
<glyph unicode="&#xcf;" horiz-adv-x="636" d="M56 1766q0 82 69 82q74 0 74 -82q0 -84 -74 -84q-69 0 -69 84zM102 0v74l156 22v1268l-156 25v73h430v-73l-155 -25v-1268l155 -22v-74h-430zM437 1766q0 82 69 82q74 0 74 -82q0 -84 -74 -84q-69 0 -69 84z" />
<glyph unicode="&#xd0;" horiz-adv-x="1456" d="M47 672v106h166v684h397q348 0 532.5 -183t184.5 -534q0 -369 -194.5 -557t-567.5 -188h-352v672h-166zM332 104h225q647 0 647 637q0 617 -616 617h-256v-580h393v-106h-393v-568z" />
<glyph unicode="&#xd1;" horiz-adv-x="1492" d="M205 0v1462h127l844 -1274h8q-4 63 -6 163t-2 184v927h110v-1462h-127l-846 1278h-6q4 -80 6 -169t2 -187v-922h-110zM387 1626q8 111 61.5 171.5t143.5 60.5q47 0 87 -20.5t75.5 -47t69.5 -47t71 -20.5q45 0 77.5 29.5t45.5 107.5h78q-8 -111 -63.5 -172.5t-141.5 -61.5 q-47 0 -87 20.5t-75 47.5t-70 47.5t-75 20.5q-45 0 -76 -29t-43 -107h-78z" />
<glyph unicode="&#xd2;" horiz-adv-x="1572" d="M127 735q0 223 74.5 391t223 263.5t368.5 95.5q211 0 355 -91t220 -259.5t76 -401.5q0 -223 -74 -393t-220 -265t-364 -95q-221 0 -367.5 95t-219 266t-72.5 394zM252 733q0 -195 57.5 -341t176 -227t300.5 -81q184 0 302 81t174.5 226.5t56.5 341.5q0 303 -132 474 t-394 171q-182 0 -303 -80.5t-179.5 -226t-58.5 -338.5zM526 1925v17h137q27 -45 69 -102.5t88 -113t85 -93.5v-19h-82q-51 41 -108.5 97.5t-108.5 113.5t-80 100z" />
<glyph unicode="&#xd3;" horiz-adv-x="1572" d="M127 735q0 223 74.5 391t223 263.5t368.5 95.5q211 0 355 -91t220 -259.5t76 -401.5q0 -223 -74 -393t-220 -265t-364 -95q-221 0 -367.5 95t-219 266t-72.5 394zM252 733q0 -195 57.5 -341t176 -227t300.5 -81q184 0 302 81t174.5 226.5t56.5 341.5q0 303 -132 474 t-394 171q-182 0 -303 -80.5t-179.5 -226t-58.5 -338.5zM698 1614v19q37 39 83 94t88 112.5t69 102.5h139v-17q-31 -43 -81 -100t-107.5 -113.5t-108.5 -97.5h-82z" />
<glyph unicode="&#xd4;" horiz-adv-x="1572" d="M127 735q0 223 74.5 391t223 263.5t368.5 95.5q211 0 355 -91t220 -259.5t76 -401.5q0 -223 -74 -393t-220 -265t-364 -95q-221 0 -367.5 95t-219 266t-72.5 394zM252 733q0 -195 57.5 -341t176 -227t300.5 -81q184 0 302 81t174.5 226.5t56.5 341.5q0 303 -132 474 t-394 171q-182 0 -303 -80.5t-179.5 -226t-58.5 -338.5zM483 1614v16q37 41 85 96.5t91 112t70 99.5h112q25 -43 69 -99.5t91 -112t86 -96.5v-16h-84q-55 45 -112.5 104.5t-106.5 116.5q-49 -57 -106.5 -116.5t-112.5 -104.5h-82z" />
<glyph unicode="&#xd5;" horiz-adv-x="1572" d="M127 735q0 223 74.5 391t223 263.5t368.5 95.5q211 0 355 -91t220 -259.5t76 -401.5q0 -223 -74 -393t-220 -265t-364 -95q-221 0 -367.5 95t-219 266t-72.5 394zM252 733q0 -195 57.5 -341t176 -227t300.5 -81q184 0 302 81t174.5 226.5t56.5 341.5q0 303 -132 474 t-394 171q-182 0 -303 -80.5t-179.5 -226t-58.5 -338.5zM406 1626q8 111 61.5 171.5t143.5 60.5q47 0 87 -20.5t75.5 -47t69.5 -47t71 -20.5q45 0 77.5 29.5t45.5 107.5h78q-8 -111 -63.5 -172.5t-141.5 -61.5q-47 0 -87 20.5t-75 47.5t-70 47.5t-75 20.5q-45 0 -76 -29 t-43 -107h-78z" />
<glyph unicode="&#xd6;" horiz-adv-x="1572" d="M127 735q0 223 74.5 391t223 263.5t368.5 95.5q211 0 355 -91t220 -259.5t76 -401.5q0 -223 -74 -393t-220 -265t-364 -95q-221 0 -367.5 95t-219 266t-72.5 394zM252 733q0 -195 57.5 -341t176 -227t300.5 -81q184 0 302 81t174.5 226.5t56.5 341.5q0 303 -132 474 t-394 171q-182 0 -303 -80.5t-179.5 -226t-58.5 -338.5zM525 1766q0 82 69 82q74 0 74 -82q0 -84 -74 -84q-69 0 -69 84zM906 1766q0 82 69 82q74 0 74 -82q0 -84 -74 -84q-69 0 -69 84z" />
<glyph unicode="&#xd7;" horiz-adv-x="1169" d="M139 348l375 375l-375 375l70 69l375 -376l377 376l67 -69l-375 -375l375 -375l-70 -69l-376 372l-373 -372z" />
<glyph unicode="&#xd8;" horiz-adv-x="1572" d="M127 735q0 223 74.5 391t223 263.5t368.5 95.5q115 0 211 -30t172 -83l110 150l82 -58l-115 -157q92 -98 141.5 -244t49.5 -330q0 -223 -74 -393t-220 -265t-364 -95q-125 0 -224 31.5t-177 90.5l-115 -159l-84 55l123 170q-90 102 -136 246.5t-46 320.5zM252 733 q0 -143 31.5 -262t97.5 -203l731 1010q-125 100 -319 100q-182 0 -303 -80.5t-179.5 -226t-58.5 -338.5zM451 195q61 -51 146 -81t189 -30q184 0 302 81t174.5 226t56.5 342q0 309 -135 475z" />
<glyph unicode="&#xd9;" horiz-adv-x="1478" d="M188 520v942h119v-942q0 -213 110.5 -324.5t323.5 -111.5q207 0 318.5 111.5t111.5 312.5v954h117v-946q0 -250 -145.5 -393t-409.5 -143q-262 0 -403.5 143t-141.5 397zM479 1925v17h137q27 -45 69 -102.5t88 -113t85 -93.5v-19h-82q-51 41 -108.5 97.5t-108.5 113.5 t-80 100z" />
<glyph unicode="&#xda;" horiz-adv-x="1478" d="M188 520v942h119v-942q0 -213 110.5 -324.5t323.5 -111.5q207 0 318.5 111.5t111.5 312.5v954h117v-946q0 -250 -145.5 -393t-409.5 -143q-262 0 -403.5 143t-141.5 397zM651 1614v19q37 39 83 94t88 112.5t69 102.5h139v-17q-31 -43 -81 -100t-107.5 -113.5 t-108.5 -97.5h-82z" />
<glyph unicode="&#xdb;" horiz-adv-x="1478" d="M188 520v942h119v-942q0 -213 110.5 -324.5t323.5 -111.5q207 0 318.5 111.5t111.5 312.5v954h117v-946q0 -250 -145.5 -393t-409.5 -143q-262 0 -403.5 143t-141.5 397zM438 1614v16q37 41 85 96.5t91 112t70 99.5h112q25 -43 69 -99.5t91 -112t86 -96.5v-16h-84 q-55 45 -112.5 104.5t-106.5 116.5q-49 -57 -106.5 -116.5t-112.5 -104.5h-82z" />
<glyph unicode="&#xdc;" horiz-adv-x="1478" d="M188 520v942h119v-942q0 -213 110.5 -324.5t323.5 -111.5q207 0 318.5 111.5t111.5 312.5v954h117v-946q0 -250 -145.5 -393t-409.5 -143q-262 0 -403.5 143t-141.5 397zM478 1766q0 82 69 82q74 0 74 -82q0 -84 -74 -84q-69 0 -69 84zM859 1766q0 82 69 82q74 0 74 -82 q0 -84 -74 -84q-69 0 -69 84z" />
<glyph unicode="&#xdd;" horiz-adv-x="1097" d="M0 1462h131l418 -782l418 782h131l-488 -897v-565h-118v557zM461 1614v19q37 39 83 94t88 112.5t69 102.5h139v-17q-31 -43 -81 -100t-107.5 -113.5t-108.5 -97.5h-82z" />
<glyph unicode="&#xde;" horiz-adv-x="1206" d="M205 0v1462h119v-262h254q268 0 394 -104.5t126 -313.5q0 -205 -135.5 -325.5t-425.5 -120.5h-213v-336h-119zM324 438h200q217 0 334 76t117 264q0 166 -98.5 242t-313.5 76h-239v-658z" />
<glyph unicode="&#xdf;" horiz-adv-x="1212" d="M178 0v1176q0 201 116 296t308 95q178 0 279.5 -75t101.5 -210q0 -74 -28.5 -123t-70.5 -85t-84 -67.5t-71 -67.5t-29 -87q0 -61 43 -103t144 -110q68 -45 119 -90t79.5 -105.5t28.5 -148.5q0 -147 -94 -231t-266 -84q-94 0 -163 16t-122 45v111q59 -33 132 -53.5 t151 -20.5q125 0 186 57.5t61 151.5q0 96 -49 153.5t-143 120.5q-109 74 -165 133.5t-56 153.5q0 70 27.5 114t69.5 76.5t84 64.5t69.5 73t27.5 102q0 92 -69.5 140t-192.5 48q-141 0 -224 -69.5t-83 -220.5v-1176h-117z" />
<glyph unicode="&#xe0;" horiz-adv-x="1097" d="M96 285q0 162 132 247.5t388 96.5l199 10v76q0 162 -64.5 228.5t-189.5 66.5q-84 0 -161.5 -21.5t-155.5 -62.5l-37 94q76 39 168 63.5t190 24.5q184 0 274.5 -90t90.5 -285v-733h-88l-23 184h-4q-57 -92 -143 -148t-238 -56q-156 0 -247 77.5t-91 227.5zM217 283 q0 -100 63.5 -152.5t174.5 -52.5q170 0 263 96t97 270v105l-184 -8q-209 -8 -311.5 -70.5t-102.5 -187.5zM285 1552v17h137q27 -45 69 -102.5t88 -113t85 -93.5v-19h-82q-51 41 -108.5 97.5t-108.5 113.5t-80 100z" />
<glyph unicode="&#xe1;" horiz-adv-x="1097" d="M96 285q0 162 132 247.5t388 96.5l199 10v76q0 162 -64.5 228.5t-189.5 66.5q-84 0 -161.5 -21.5t-155.5 -62.5l-37 94q76 39 168 63.5t190 24.5q184 0 274.5 -90t90.5 -285v-733h-88l-23 184h-4q-57 -92 -143 -148t-238 -56q-156 0 -247 77.5t-91 227.5zM217 283 q0 -100 63.5 -152.5t174.5 -52.5q170 0 263 96t97 270v105l-184 -8q-209 -8 -311.5 -70.5t-102.5 -187.5zM457 1241v19q37 39 83 94t88 112.5t69 102.5h139v-17q-31 -43 -81 -100t-107.5 -113.5t-108.5 -97.5h-82z" />
<glyph unicode="&#xe2;" horiz-adv-x="1097" d="M96 285q0 162 132 247.5t388 96.5l199 10v76q0 162 -64.5 228.5t-189.5 66.5q-84 0 -161.5 -21.5t-155.5 -62.5l-37 94q76 39 168 63.5t190 24.5q184 0 274.5 -90t90.5 -285v-733h-88l-23 184h-4q-57 -92 -143 -148t-238 -56q-156 0 -247 77.5t-91 227.5zM217 283 q0 -100 63.5 -152.5t174.5 -52.5q170 0 263 96t97 270v105l-184 -8q-209 -8 -311.5 -70.5t-102.5 -187.5zM242 1241v16q37 41 85 96.5t91 112t70 99.5h112q25 -43 69 -99.5t91 -112t86 -96.5v-16h-84q-55 45 -112.5 104.5t-106.5 116.5q-49 -57 -106.5 -116.5t-112.5 -104.5 h-82z" />
<glyph unicode="&#xe3;" horiz-adv-x="1097" d="M96 285q0 162 132 247.5t388 96.5l199 10v76q0 162 -64.5 228.5t-189.5 66.5q-84 0 -161.5 -21.5t-155.5 -62.5l-37 94q76 39 168 63.5t190 24.5q184 0 274.5 -90t90.5 -285v-733h-88l-23 184h-4q-57 -92 -143 -148t-238 -56q-156 0 -247 77.5t-91 227.5zM164 1253 q8 111 61.5 171.5t143.5 60.5q47 0 87 -20.5t75.5 -47t69.5 -47t71 -20.5q45 0 77.5 29.5t45.5 107.5h78q-8 -111 -63.5 -172.5t-141.5 -61.5q-47 0 -87 20.5t-75 47.5t-70 47.5t-75 20.5q-45 0 -76 -29t-43 -107h-78zM217 283q0 -100 63.5 -152.5t174.5 -52.5q170 0 263 96 t97 270v105l-184 -8q-209 -8 -311.5 -70.5t-102.5 -187.5z" />
<glyph unicode="&#xe4;" horiz-adv-x="1097" d="M96 285q0 162 132 247.5t388 96.5l199 10v76q0 162 -64.5 228.5t-189.5 66.5q-84 0 -161.5 -21.5t-155.5 -62.5l-37 94q76 39 168 63.5t190 24.5q184 0 274.5 -90t90.5 -285v-733h-88l-23 184h-4q-57 -92 -143 -148t-238 -56q-156 0 -247 77.5t-91 227.5zM217 283 q0 -100 63.5 -152.5t174.5 -52.5q170 0 263 96t97 270v105l-184 -8q-209 -8 -311.5 -70.5t-102.5 -187.5zM283 1393q0 82 69 82q74 0 74 -82q0 -84 -74 -84q-69 0 -69 84zM664 1393q0 82 69 82q74 0 74 -82q0 -84 -74 -84q-69 0 -69 84z" />
<glyph unicode="&#xe5;" horiz-adv-x="1097" d="M96 285q0 162 132 247.5t388 96.5l199 10v76q0 162 -64.5 228.5t-189.5 66.5q-84 0 -161.5 -21.5t-155.5 -62.5l-37 94q76 39 168 63.5t190 24.5q184 0 274.5 -90t90.5 -285v-733h-88l-23 184h-4q-57 -92 -143 -148t-238 -56q-156 0 -247 77.5t-91 227.5zM217 283 q0 -100 63.5 -152.5t174.5 -52.5q170 0 263 96t97 270v105l-184 -8q-209 -8 -311.5 -70.5t-102.5 -187.5zM328 1458q0 94 61.5 151.5t153.5 57.5q90 0 152.5 -58.5t62.5 -150.5q0 -98 -62.5 -155.5t-152.5 -57.5t-152.5 57.5t-62.5 155.5zM406 1458q0 -59 37 -97t100 -38 q59 0 97 38t38 97q0 57 -39 96t-96 39q-59 0 -98 -38.5t-39 -96.5z" />
<glyph unicode="&#xe6;" horiz-adv-x="1755" d="M96 285q0 162 130 247.5t374 96.5l191 10v78q0 160 -66 226.5t-184 66.5q-78 0 -156 -21.5t-156 -62.5l-36 94q78 41 170 64.5t186 23.5q135 0 215 -58.5t108 -185.5q49 111 141.5 178.5t223.5 67.5t222 -64.5t137 -177t44 -258.5v-80h-731q0 -223 94.5 -335.5 t264.5 -112.5q94 0 166.5 16.5t160.5 57.5v-107q-80 -37 -157.5 -53t-171.5 -16q-156 0 -262.5 73.5t-155.5 200.5q-55 -125 -151.5 -199.5t-260.5 -74.5q-158 0 -249 77.5t-91 227.5zM217 283q0 -100 61.5 -152.5t172.5 -52.5q160 0 247.5 96t89.5 270v105l-174 -8 q-197 -8 -297 -70.5t-100 -187.5zM913 627h605q2 172 -69 278.5t-214 106.5q-133 0 -220 -98.5t-102 -286.5z" />
<glyph unicode="&#xe7;" horiz-adv-x="974" d="M117 539q0 182 65.5 310t183 194.5t273.5 66.5q80 0 148.5 -14.5t121.5 -38.5l-32 -103q-115 51 -238 52q-193 0 -297 -125t-104 -340q0 -205 92 -332t284 -127q82 0 154 16.5t129 42.5v-104q-53 -27 -123 -42t-158 -15q-240 0 -369.5 146t-129.5 413zM381 -399 q20 -6 48.5 -8.5t63.5 -2.5q76 0 121 29t45 86q0 59 -52 87t-147 32l89 176h86l-62 -121q82 -10 133 -51t51 -119q0 -94 -70.5 -147.5t-195.5 -53.5q-70 0 -110 13v80z" />
<glyph unicode="&#xe8;" horiz-adv-x="1130" d="M117 537q0 166 56 296t162.5 203.5t258.5 73.5q139 0 233.5 -64.5t141.5 -177t47 -258.5v-82h-778q0 -215 100 -330.5t289 -115.5q102 0 178 16.5t166 57.5v-107q-82 -37 -162 -53t-186 -16q-244 0 -375 149.5t-131 407.5zM240 627h653q0 172 -72.5 278.5t-228.5 106.5 q-150 0 -243 -100.5t-109 -284.5zM320 1552v17h137q27 -45 69 -102.5t88 -113t85 -93.5v-19h-82q-51 41 -108.5 97.5t-108.5 113.5t-80 100z" />
<glyph unicode="&#xe9;" horiz-adv-x="1130" d="M117 537q0 166 56 296t162.5 203.5t258.5 73.5q139 0 233.5 -64.5t141.5 -177t47 -258.5v-82h-778q0 -215 100 -330.5t289 -115.5q102 0 178 16.5t166 57.5v-107q-82 -37 -162 -53t-186 -16q-244 0 -375 149.5t-131 407.5zM240 627h653q0 172 -72.5 278.5t-228.5 106.5 q-150 0 -243 -100.5t-109 -284.5zM492 1241v19q37 39 83 94t88 112.5t69 102.5h139v-17q-31 -43 -81 -100t-107.5 -113.5t-108.5 -97.5h-82z" />
<glyph unicode="&#xea;" horiz-adv-x="1130" d="M117 537q0 166 56 296t162.5 203.5t258.5 73.5q139 0 233.5 -64.5t141.5 -177t47 -258.5v-82h-778q0 -215 100 -330.5t289 -115.5q102 0 178 16.5t166 57.5v-107q-82 -37 -162 -53t-186 -16q-244 0 -375 149.5t-131 407.5zM240 627h653q0 172 -72.5 278.5t-228.5 106.5 q-150 0 -243 -100.5t-109 -284.5zM279 1241v16q37 41 85 96.5t91 112t70 99.5h112q25 -43 69 -99.5t91 -112t86 -96.5v-16h-84q-55 45 -112.5 104.5t-106.5 116.5q-49 -57 -106.5 -116.5t-112.5 -104.5h-82z" />
<glyph unicode="&#xeb;" horiz-adv-x="1130" d="M117 537q0 166 56 296t162.5 203.5t258.5 73.5q139 0 233.5 -64.5t141.5 -177t47 -258.5v-82h-778q0 -215 100 -330.5t289 -115.5q102 0 178 16.5t166 57.5v-107q-82 -37 -162 -53t-186 -16q-244 0 -375 149.5t-131 407.5zM240 627h653q0 172 -72.5 278.5t-228.5 106.5 q-150 0 -243 -100.5t-109 -284.5zM316 1393q0 82 69 82q74 0 74 -82q0 -84 -74 -84q-69 0 -69 84zM697 1393q0 82 69 82q74 0 74 -82q0 -84 -74 -84q-69 0 -69 84z" />
<glyph unicode="&#xec;" horiz-adv-x="475" d="M-20 1552v17h137q27 -45 69 -102.5t88 -113t85 -93.5v-19h-82q-51 41 -108.5 97.5t-108.5 113.5t-80 100zM180 0v1090h115v-1090h-115z" />
<glyph unicode="&#xed;" horiz-adv-x="475" d="M150 1241v19q37 39 83 94t88 112.5t69 102.5h139v-17q-31 -43 -81 -100t-107.5 -113.5t-108.5 -97.5h-82zM180 0v1090h115v-1090h-115z" />
<glyph unicode="&#xee;" horiz-adv-x="475" d="M-63 1241v16q37 41 85 96.5t91 112t70 99.5h112q25 -43 69 -99.5t91 -112t86 -96.5v-16h-84q-55 45 -112.5 104.5t-106.5 116.5q-49 -57 -106.5 -116.5t-112.5 -104.5h-82zM180 0v1090h115v-1090h-115z" />
<glyph unicode="&#xef;" horiz-adv-x="475" d="M-24 1393q0 82 69 82q74 0 74 -82q0 -84 -74 -84q-69 0 -69 84zM180 0v1090h115v-1090h-115zM357 1393q0 82 69 82q74 0 74 -82q0 -84 -74 -84q-69 0 -69 84z" />
<glyph unicode="&#xf0;" horiz-adv-x="1187" d="M115 467q0 152 59 263.5t163.5 171t244.5 59.5q127 0 208.5 -36t131.5 -100l8 2q-31 131 -101.5 253t-169.5 214l-266 -155l-53 75l242 142q-43 33 -95.5 63.5t-105.5 55.5l49 84q143 -66 250 -148l229 137l52 -78l-207 -120q152 -145 233.5 -346t81.5 -443 q0 -266 -123 -423.5t-356 -157.5q-145 0 -252 60t-165 169.5t-58 257.5zM233 463q0 -178 92.5 -281.5t264.5 -103.5q178 0 269 120.5t91 350.5q0 72 -32.5 144.5t-110.5 120.5t-211 48q-170 0 -266.5 -104.5t-96.5 -294.5z" />
<glyph unicode="&#xf1;" horiz-adv-x="1220" d="M180 0v1090h94l17 -189h8q43 90 136.5 149.5t232.5 59.5q186 0 284.5 -96t98.5 -301v-713h-117v705q0 156 -70.5 229.5t-208.5 73.5q-360 0 -360 -414v-594h-115zM248 1253q8 111 61.5 171.5t143.5 60.5q47 0 87 -20.5t75.5 -47t69.5 -47t71 -20.5q45 0 77.5 29.5 t45.5 107.5h78q-8 -111 -63.5 -172.5t-141.5 -61.5q-47 0 -87 20.5t-75 47.5t-70 47.5t-75 20.5q-45 0 -76 -29t-43 -107h-78z" />
<glyph unicode="&#xf2;" horiz-adv-x="1208" d="M117 545q0 266 132 415.5t361 149.5q156 0 263.5 -70.5t163 -197.5t55.5 -297t-56.5 -297t-166 -197.5t-267.5 -70.5q-152 0 -260.5 69.5t-166.5 196.5t-58 299zM238 545q0 -209 88 -337t276 -128q190 0 279.5 128t89.5 337q0 135 -37 239.5t-117 164t-209 59.5 q-186 0 -278 -123t-92 -340zM344 1552v17h137q27 -45 69 -102.5t88 -113t85 -93.5v-19h-82q-51 41 -108.5 97.5t-108.5 113.5t-80 100z" />
<glyph unicode="&#xf3;" horiz-adv-x="1208" d="M117 545q0 266 132 415.5t361 149.5q156 0 263.5 -70.5t163 -197.5t55.5 -297t-56.5 -297t-166 -197.5t-267.5 -70.5q-152 0 -260.5 69.5t-166.5 196.5t-58 299zM238 545q0 -209 88 -337t276 -128q190 0 279.5 128t89.5 337q0 135 -37 239.5t-117 164t-209 59.5 q-186 0 -278 -123t-92 -340zM516 1241v19q37 39 83 94t88 112.5t69 102.5h139v-17q-31 -43 -81 -100t-107.5 -113.5t-108.5 -97.5h-82z" />
<glyph unicode="&#xf4;" horiz-adv-x="1208" d="M117 545q0 266 132 415.5t361 149.5q156 0 263.5 -70.5t163 -197.5t55.5 -297t-56.5 -297t-166 -197.5t-267.5 -70.5q-152 0 -260.5 69.5t-166.5 196.5t-58 299zM238 545q0 -209 88 -337t276 -128q190 0 279.5 128t89.5 337q0 135 -37 239.5t-117 164t-209 59.5 q-186 0 -278 -123t-92 -340zM303 1241v16q37 41 85 96.5t91 112t70 99.5h112q25 -43 69 -99.5t91 -112t86 -96.5v-16h-84q-55 45 -112.5 104.5t-106.5 116.5q-49 -57 -106.5 -116.5t-112.5 -104.5h-82z" />
<glyph unicode="&#xf5;" horiz-adv-x="1208" d="M117 545q0 266 132 415.5t361 149.5q156 0 263.5 -70.5t163 -197.5t55.5 -297t-56.5 -297t-166 -197.5t-267.5 -70.5q-152 0 -260.5 69.5t-166.5 196.5t-58 299zM225 1253q8 111 61.5 171.5t143.5 60.5q47 0 87 -20.5t75.5 -47t69.5 -47t71 -20.5q45 0 77.5 29.5 t45.5 107.5h78q-8 -111 -63.5 -172.5t-141.5 -61.5q-47 0 -87 20.5t-75 47.5t-70 47.5t-75 20.5q-45 0 -76 -29t-43 -107h-78zM238 545q0 -209 88 -337t276 -128q190 0 279.5 128t89.5 337q0 135 -37 239.5t-117 164t-209 59.5q-186 0 -278 -123t-92 -340z" />
<glyph unicode="&#xf6;" horiz-adv-x="1208" d="M117 545q0 266 132 415.5t361 149.5q156 0 263.5 -70.5t163 -197.5t55.5 -297t-56.5 -297t-166 -197.5t-267.5 -70.5q-152 0 -260.5 69.5t-166.5 196.5t-58 299zM238 545q0 -209 88 -337t276 -128q190 0 279.5 128t89.5 337q0 135 -37 239.5t-117 164t-209 59.5 q-186 0 -278 -123t-92 -340zM340 1393q0 82 69 82q74 0 74 -82q0 -84 -74 -84q-69 0 -69 84zM721 1393q0 82 69 82q74 0 74 -82q0 -84 -74 -84q-69 0 -69 84z" />
<glyph unicode="&#xf7;" horiz-adv-x="1169" d="M106 674v96h955v-96h-955zM500 365q0 94 82 94q86 0 86 -94q0 -95 -86 -95q-82 0 -82 95zM500 1079q0 92 82 92q86 0 86 -92q0 -94 -86 -94q-82 0 -82 94z" />
<glyph unicode="&#xf8;" horiz-adv-x="1208" d="M117 545q0 266 132 415.5t361 149.5q174 0 287 -94l98 131l82 -53l-108 -142q123 -153 123 -407q0 -170 -56.5 -297t-166 -197.5t-267.5 -70.5q-92 0 -164.5 26.5t-130.5 73.5l-108 -141l-80 57l119 149q-57 76 -89 176.5t-32 223.5zM238 545q0 -90 16 -168t51 -135 l529 690q-41 35 -97.5 55.5t-128.5 20.5q-186 0 -278 -123t-92 -340zM369 164q43 -41 101 -62.5t132 -21.5q190 0 279.5 128t89.5 337q0 92 -17.5 172t-54.5 139z" />
<glyph unicode="&#xf9;" horiz-adv-x="1220" d="M164 377v713h119v-705q0 -156 69.5 -230.5t208.5 -74.5q360 0 361 416v594h116v-1090h-96l-16 186h-6q-45 -88 -138.5 -147t-232.5 -59q-385 0 -385 397zM350 1552v17h137q27 -45 69 -102.5t88 -113t85 -93.5v-19h-82q-51 41 -108.5 97.5t-108.5 113.5t-80 100z" />
<glyph unicode="&#xfa;" horiz-adv-x="1220" d="M164 377v713h119v-705q0 -156 69.5 -230.5t208.5 -74.5q360 0 361 416v594h116v-1090h-96l-16 186h-6q-45 -88 -138.5 -147t-232.5 -59q-385 0 -385 397zM522 1241v19q37 39 83 94t88 112.5t69 102.5h139v-17q-31 -43 -81 -100t-107.5 -113.5t-108.5 -97.5h-82z" />
<glyph unicode="&#xfb;" horiz-adv-x="1220" d="M164 377v713h119v-705q0 -156 69.5 -230.5t208.5 -74.5q360 0 361 416v594h116v-1090h-96l-16 186h-6q-45 -88 -138.5 -147t-232.5 -59q-385 0 -385 397zM307 1241v16q37 41 85 96.5t91 112t70 99.5h112q25 -43 69 -99.5t91 -112t86 -96.5v-16h-84q-55 45 -112.5 104.5 t-106.5 116.5q-49 -57 -106.5 -116.5t-112.5 -104.5h-82z" />
<glyph unicode="&#xfc;" horiz-adv-x="1220" d="M164 377v713h119v-705q0 -156 69.5 -230.5t208.5 -74.5q360 0 361 416v594h116v-1090h-96l-16 186h-6q-45 -88 -138.5 -147t-232.5 -59q-385 0 -385 397zM348 1393q0 82 69 82q74 0 74 -82q0 -84 -74 -84q-69 0 -69 84zM729 1393q0 82 69 82q74 0 74 -82q0 -84 -74 -84 q-69 0 -69 84z" />
<glyph unicode="&#xfd;" horiz-adv-x="960" d="M0 1090h125l260 -678q33 -90 57.5 -161t38.5 -126h6q14 47 39 120.5t58 164.5l254 680h125l-492 -1285q-55 -143 -131 -222t-205 -79q-41 0 -71.5 6.5t-59.5 14.5v98q53 -18 117 -18q86 0 140 53t95 162l72 184zM391 1241v19q37 39 83 94t88 112.5t69 102.5h139v-17 q-31 -43 -81 -100t-107.5 -113.5t-108.5 -97.5h-82z" />
<glyph unicode="&#xfe;" horiz-adv-x="1226" d="M180 -483v2039h117v-471q0 -39 -1 -97t-5 -97h8q41 88 129 153.5t240 65.5q209 0 326.5 -142.5t117.5 -416.5q0 -279 -122 -425t-331 -146q-145 0 -233 61t-129 147h-8q2 -45 5 -108.5t3 -112.5v-450h-117zM299 545q0 -233 84 -349t260 -116q170 0 259 121t89 352 q0 455 -338 455q-182 0 -268 -114t-86 -329v-20z" />
<glyph unicode="&#xff;" horiz-adv-x="960" d="M0 1090h125l260 -678q33 -90 57.5 -161t38.5 -126h6q14 47 39 120.5t58 164.5l254 680h125l-492 -1285q-55 -143 -131 -222t-205 -79q-41 0 -71.5 6.5t-59.5 14.5v98q53 -18 117 -18q86 0 140 53t95 162l72 184zM217 1393q0 82 69 82q74 0 74 -82q0 -84 -74 -84 q-69 0 -69 84zM598 1393q0 82 69 82q74 0 74 -82q0 -84 -74 -84q-69 0 -69 84z" />
<glyph unicode="&#x100;" horiz-adv-x="1245" d="M0 0l573 1466h111l561 -1466h-125l-194 504h-607l-198 -504h-121zM344 1622v99h565v-99h-565zM358 610h531l-197 529q-8 29 -28.5 90t-36.5 108q-16 -53 -35 -107t-31 -93z" />
<glyph unicode="&#x101;" horiz-adv-x="1097" d="M96 285q0 162 132 247.5t388 96.5l199 10v76q0 162 -64.5 228.5t-189.5 66.5q-84 0 -161.5 -21.5t-155.5 -62.5l-37 94q76 39 168 63.5t190 24.5q184 0 274.5 -90t90.5 -285v-733h-88l-23 184h-4q-57 -92 -143 -148t-238 -56q-156 0 -247 77.5t-91 227.5zM217 283 q0 -100 63.5 -152.5t174.5 -52.5q170 0 263 96t97 270v105l-184 -8q-209 -8 -311.5 -70.5t-102.5 -187.5zM260 1249v99h565v-99h-565z" />
<glyph unicode="&#x102;" horiz-adv-x="1245" d="M0 0l573 1466h111l561 -1466h-125l-194 504h-607l-198 -504h-121zM344 1866h82q8 -84 58 -119t143 -35q90 0 143 36t61 118h82q-12 -119 -84.5 -185.5t-201.5 -66.5q-131 0 -203 66.5t-80 185.5zM358 610h531l-197 529q-8 29 -28.5 90t-36.5 108q-16 -53 -35 -107 t-31 -93z" />
<glyph unicode="&#x103;" horiz-adv-x="1097" d="M96 285q0 162 132 247.5t388 96.5l199 10v76q0 162 -64.5 228.5t-189.5 66.5q-84 0 -161.5 -21.5t-155.5 -62.5l-37 94q76 39 168 63.5t190 24.5q184 0 274.5 -90t90.5 -285v-733h-88l-23 184h-4q-57 -92 -143 -148t-238 -56q-156 0 -247 77.5t-91 227.5zM217 283 q0 -100 63.5 -152.5t174.5 -52.5q170 0 263 96t97 270v105l-184 -8q-209 -8 -311.5 -70.5t-102.5 -187.5zM262 1493h82q8 -84 58 -119t143 -35q90 0 143 36t61 118h82q-12 -119 -84.5 -185.5t-201.5 -66.5q-131 0 -203 66.5t-80 185.5z" />
<glyph unicode="&#x104;" horiz-adv-x="1245" d="M0 0l573 1466h111l561 -1466h-125l-194 504h-607l-198 -504h-121zM358 610h531l-197 529q-8 29 -28.5 90t-36.5 108q-16 -53 -35 -107t-31 -93zM938 -266q0 80 56.5 155.5t140.5 137.5l67 -27q-70 -61 -117 -122.5t-47 -131.5q0 -106 105 -106q33 0 57.5 4t40.5 8v-82 q-20 -6 -49 -11t-66 -5q-90 0 -139 45t-49 135z" />
<glyph unicode="&#x105;" horiz-adv-x="1097" d="M96 285q0 162 132 247.5t388 96.5l199 10v76q0 162 -64.5 228.5t-189.5 66.5q-84 0 -161.5 -21.5t-155.5 -62.5l-37 94q76 39 168 63.5t190 24.5q184 0 274.5 -90t90.5 -285v-733h-88l-23 184h-4q-57 -92 -143 -148t-238 -56q-156 0 -247 77.5t-91 227.5zM217 283 q0 -100 63.5 -152.5t174.5 -52.5q170 0 263 96t97 270v105l-184 -8q-209 -8 -311.5 -70.5t-102.5 -187.5zM672 -266q0 80 56.5 155.5t140.5 137.5l67 -27q-70 -61 -117 -122.5t-47 -131.5q0 -106 105 -106q33 0 57.5 4t40.5 8v-82q-20 -6 -49 -11t-66 -5q-90 0 -139 45 t-49 135z" />
<glyph unicode="&#x106;" horiz-adv-x="1275" d="M127 735q0 217 83 386t239.5 265.5t377.5 96.5q215 0 385 -82l-47 -103q-160 78 -338 78q-180 0 -309 -81t-197.5 -225t-68.5 -337q0 -197 62.5 -342t185.5 -225t307 -80q106 0 195.5 16.5t168.5 40.5v-102q-76 -29 -167 -45t-209 -16q-221 0 -370 94t-223.5 264 t-74.5 397zM684 1614v19q37 39 83 94t88 112.5t69 102.5h139v-17q-31 -43 -81 -100t-107.5 -113.5t-108.5 -97.5h-82z" />
<glyph unicode="&#x107;" horiz-adv-x="974" d="M117 539q0 182 65.5 310t183 194.5t273.5 66.5q80 0 148.5 -14.5t121.5 -38.5l-32 -103q-115 51 -238 52q-193 0 -297 -125t-104 -340q0 -205 92 -332t284 -127q82 0 154 16.5t129 42.5v-104q-53 -27 -123 -42t-158 -15q-240 0 -369.5 146t-129.5 413zM494 1241v19 q37 39 83 94t88 112.5t69 102.5h139v-17q-31 -43 -81 -100t-107.5 -113.5t-108.5 -97.5h-82z" />
<glyph unicode="&#x108;" horiz-adv-x="1275" d="M127 735q0 217 83 386t239.5 265.5t377.5 96.5q215 0 385 -82l-47 -103q-160 78 -338 78q-180 0 -309 -81t-197.5 -225t-68.5 -337q0 -197 62.5 -342t185.5 -225t307 -80q106 0 195.5 16.5t168.5 40.5v-102q-76 -29 -167 -45t-209 -16q-221 0 -370 94t-223.5 264 t-74.5 397zM471 1614v16q37 41 85 96.5t91 112t70 99.5h112q25 -43 69 -99.5t91 -112t86 -96.5v-16h-84q-55 45 -112.5 104.5t-106.5 116.5q-49 -57 -106.5 -116.5t-112.5 -104.5h-82z" />
<glyph unicode="&#x109;" horiz-adv-x="974" d="M117 539q0 182 65.5 310t183 194.5t273.5 66.5q80 0 148.5 -14.5t121.5 -38.5l-32 -103q-115 51 -238 52q-193 0 -297 -125t-104 -340q0 -205 92 -332t284 -127q82 0 154 16.5t129 42.5v-104q-53 -27 -123 -42t-158 -15q-240 0 -369.5 146t-129.5 413zM281 1241v16 q37 41 85 96.5t91 112t70 99.5h112q25 -43 69 -99.5t91 -112t86 -96.5v-16h-84q-55 45 -112.5 104.5t-106.5 116.5q-49 -57 -106.5 -116.5t-112.5 -104.5h-82z" />
<glyph unicode="&#x10a;" horiz-adv-x="1275" d="M127 735q0 217 83 386t239.5 265.5t377.5 96.5q215 0 385 -82l-47 -103q-160 78 -338 78q-180 0 -309 -81t-197.5 -225t-68.5 -337q0 -197 62.5 -342t185.5 -225t307 -80q106 0 195.5 16.5t168.5 40.5v-102q-76 -29 -167 -45t-209 -16q-221 0 -370 94t-223.5 264 t-74.5 397zM686 1778q0 88 78 88q80 0 80 -88q0 -90 -80 -90q-78 0 -78 90z" />
<glyph unicode="&#x10b;" horiz-adv-x="974" d="M117 539q0 182 65.5 310t183 194.5t273.5 66.5q80 0 148.5 -14.5t121.5 -38.5l-32 -103q-115 51 -238 52q-193 0 -297 -125t-104 -340q0 -205 92 -332t284 -127q82 0 154 16.5t129 42.5v-104q-53 -27 -123 -42t-158 -15q-240 0 -369.5 146t-129.5 413zM496 1405 q0 88 78 88q80 0 80 -88q0 -90 -80 -90q-78 0 -78 90z" />
<glyph unicode="&#x10c;" horiz-adv-x="1275" d="M127 735q0 217 83 386t239.5 265.5t377.5 96.5q215 0 385 -82l-47 -103q-160 78 -338 78q-180 0 -309 -81t-197.5 -225t-68.5 -337q0 -197 62.5 -342t185.5 -225t307 -80q106 0 195.5 16.5t168.5 40.5v-102q-76 -29 -167 -45t-209 -16q-221 0 -370 94t-223.5 264 t-74.5 397zM467 1919v19h82q55 -45 113.5 -104.5t103.5 -117.5q49 57 107.5 117t113.5 105h84v-19q-39 -39 -87 -94t-92 -110.5t-69 -100.5h-114q-25 45 -68 100.5t-90 110.5t-84 94z" />
<glyph unicode="&#x10d;" horiz-adv-x="974" d="M117 539q0 182 65.5 310t183 194.5t273.5 66.5q80 0 148.5 -14.5t121.5 -38.5l-32 -103q-115 51 -238 52q-193 0 -297 -125t-104 -340q0 -205 92 -332t284 -127q82 0 154 16.5t129 42.5v-104q-53 -27 -123 -42t-158 -15q-240 0 -369.5 146t-129.5 413zM279 1546v19h82 q55 -45 113.5 -104.5t103.5 -117.5q49 57 107.5 117t113.5 105h84v-19q-39 -39 -87 -94t-92 -110.5t-69 -100.5h-114q-25 45 -68 100.5t-90 110.5t-84 94z" />
<glyph unicode="&#x10e;" horiz-adv-x="1456" d="M205 0v1462h405q348 0 532.5 -183.5t184.5 -533.5q0 -369 -194.5 -557t-567.5 -188h-360zM324 104h233q647 0 647 637q0 616 -616 617h-264v-1254zM422 1919v19h82q55 -45 113.5 -104.5t103.5 -117.5q49 57 107.5 117t113.5 105h84v-19q-39 -39 -87 -94t-92 -110.5 t-69 -100.5h-114q-25 45 -68 100.5t-90 110.5t-84 94z" />
<glyph unicode="&#x10f;" horiz-adv-x="1226" d="M117 532q0 283 124 430.5t341 147.5q137 0 223 -59.5t127 -149.5h8q-2 49 -5 108.5t-3 104.5v442h117v-1556h-95l-16 188h-6q-43 -86 -129.5 -147t-231.5 -61q-219 0 -336.5 140t-117.5 412zM238 532q0 -223 86 -337.5t262 -114.5q188 0 268 114.5t80 329.5v21 q0 225 -80 345t-260 120q-176 0 -266 -124t-90 -354zM1129 1229v18q14 35 31.5 91.5t30.5 114.5t19 103h119v-16q-16 -68 -53 -155t-80 -156h-67z" />
<glyph unicode="&#x110;" horiz-adv-x="1456" d="M47 672v106h166v684h397q348 0 532.5 -183t184.5 -534q0 -369 -194.5 -557t-567.5 -188h-352v672h-166zM332 104h225q647 0 647 637q0 617 -616 617h-256v-580h393v-106h-393v-568z" />
<glyph unicode="&#x111;" horiz-adv-x="1228" d="M117 532q0 283 122.5 428.5t340.5 145.5q137 0 224 -59.5t128 -147.5h8q-4 47 -6 106.5t-2 108.5v152h-465v92h465v198h117v-198h153v-92h-153v-1266h-97l-14 188h-8q-43 -86 -128.5 -147t-230.5 -61q-219 0 -336.5 140t-117.5 412zM238 530q0 -221 86 -335.5t262 -114.5 q188 0 267 114.5t79 329.5v21q0 225 -79 344t-259 119q-176 0 -266 -123t-90 -355z" />
<glyph unicode="&#x112;" horiz-adv-x="1132" d="M205 0v1462h803v-106h-684v-537h645v-104h-645v-609h684v-106h-803zM344 1622v99h565v-99h-565z" />
<glyph unicode="&#x113;" horiz-adv-x="1130" d="M117 537q0 166 56 296t162.5 203.5t258.5 73.5q139 0 233.5 -64.5t141.5 -177t47 -258.5v-82h-778q0 -215 100 -330.5t289 -115.5q102 0 178 16.5t166 57.5v-107q-82 -37 -162 -53t-186 -16q-244 0 -375 149.5t-131 407.5zM240 627h653q0 172 -72.5 278.5t-228.5 106.5 q-150 0 -243 -100.5t-109 -284.5zM295 1249v99h565v-99h-565z" />
<glyph unicode="&#x114;" horiz-adv-x="1132" d="M205 0v1462h803v-106h-684v-537h645v-104h-645v-609h684v-106h-803zM346 1866h82q8 -84 58 -119t143 -35q90 0 143 36t61 118h82q-12 -119 -84.5 -185.5t-201.5 -66.5q-131 0 -203 66.5t-80 185.5z" />
<glyph unicode="&#x115;" horiz-adv-x="1130" d="M117 537q0 166 56 296t162.5 203.5t258.5 73.5q139 0 233.5 -64.5t141.5 -177t47 -258.5v-82h-778q0 -215 100 -330.5t289 -115.5q102 0 178 16.5t166 57.5v-107q-82 -37 -162 -53t-186 -16q-244 0 -375 149.5t-131 407.5zM240 627h653q0 172 -72.5 278.5t-228.5 106.5 q-150 0 -243 -100.5t-109 -284.5zM295 1493h82q8 -84 58 -119t143 -35q90 0 143 36t61 118h82q-12 -119 -84.5 -185.5t-201.5 -66.5q-131 0 -203 66.5t-80 185.5z" />
<glyph unicode="&#x116;" horiz-adv-x="1132" d="M205 0v1462h803v-106h-684v-537h645v-104h-645v-609h684v-106h-803zM545 1778q0 88 78 88q80 0 80 -88q0 -90 -80 -90q-78 0 -78 90z" />
<glyph unicode="&#x117;" horiz-adv-x="1130" d="M117 537q0 166 56 296t162.5 203.5t258.5 73.5q139 0 233.5 -64.5t141.5 -177t47 -258.5v-82h-778q0 -215 100 -330.5t289 -115.5q102 0 178 16.5t166 57.5v-107q-82 -37 -162 -53t-186 -16q-244 0 -375 149.5t-131 407.5zM240 627h653q0 172 -72.5 278.5t-228.5 106.5 q-150 0 -243 -100.5t-109 -284.5zM494 1405q0 88 78 88q80 0 80 -88q0 -90 -80 -90q-78 0 -78 90z" />
<glyph unicode="&#x118;" horiz-adv-x="1132" d="M205 0v1462h803v-106h-684v-537h645v-104h-645v-609h684v-106h-803zM692 -266q0 80 56.5 155.5t140.5 137.5l67 -27q-70 -61 -117 -122.5t-47 -131.5q0 -106 105 -106q33 0 57.5 4t40.5 8v-82q-20 -6 -49 -11t-66 -5q-90 0 -139 45t-49 135z" />
<glyph unicode="&#x119;" horiz-adv-x="1130" d="M117 537q0 166 56 296t162.5 203.5t258.5 73.5q139 0 233.5 -64.5t141.5 -177t47 -258.5v-82h-778q0 -215 100 -330.5t289 -115.5q102 0 178 16.5t166 57.5v-107q-6 -2 -13 -4q-104 -90 -152 -159.5t-48 -139.5q0 -106 104 -106q33 0 57.5 4t41.5 8v-82q-23 -6 -51.5 -11 t-63.5 -5q-90 0 -140.5 45t-50.5 135q0 68 40 134t108 126q-80 -14 -180 -14q-244 0 -375 149.5t-131 407.5zM240 627h653q0 172 -72.5 278.5t-228.5 106.5q-150 0 -243 -100.5t-109 -284.5z" />
<glyph unicode="&#x11a;" horiz-adv-x="1132" d="M205 0v1462h803v-106h-684v-537h645v-104h-645v-609h684v-106h-803zM328 1919v19h82q55 -45 113.5 -104.5t103.5 -117.5q49 57 107.5 117t113.5 105h84v-19q-39 -39 -87 -94t-92 -110.5t-69 -100.5h-114q-25 45 -68 100.5t-90 110.5t-84 94z" />
<glyph unicode="&#x11b;" horiz-adv-x="1130" d="M117 537q0 166 56 296t162.5 203.5t258.5 73.5q139 0 233.5 -64.5t141.5 -177t47 -258.5v-82h-778q0 -215 100 -330.5t289 -115.5q102 0 178 16.5t166 57.5v-107q-82 -37 -162 -53t-186 -16q-244 0 -375 149.5t-131 407.5zM240 627h653q0 172 -72.5 278.5t-228.5 106.5 q-150 0 -243 -100.5t-109 -284.5zM275 1546v19h82q55 -45 113.5 -104.5t103.5 -117.5q49 57 107.5 117t113.5 105h84v-19q-39 -39 -87 -94t-92 -110.5t-69 -100.5h-114q-25 45 -68 100.5t-90 110.5t-84 94z" />
<glyph unicode="&#x11c;" horiz-adv-x="1482" d="M127 729q0 221 89 392t257 267.5t404 96.5q119 0 227 -22.5t203 -65.5l-50 -107q-186 88 -389 88q-193 0 -331 -82t-212.5 -228t-74.5 -339q0 -315 156.5 -480t457.5 -165q106 0 189.5 15.5t150.5 37.5v500h-411v108h530v-679q-106 -43 -225 -64.5t-258 -21.5 q-348 0 -530.5 198.5t-182.5 550.5zM520 1614v16q37 41 85 96.5t91 112t70 99.5h112q25 -43 69 -99.5t91 -112t86 -96.5v-16h-84q-55 45 -112.5 104.5t-106.5 116.5q-49 -57 -106.5 -116.5t-112.5 -104.5h-82z" />
<glyph unicode="&#x11d;" horiz-adv-x="1226" d="M117 537q0 264 118 418.5t343 154.5q129 0 214 -49t136 -137h6l18 166h95v-1125q0 -215 -110 -336t-359 -121q-123 0 -217.5 20.5t-172.5 53.5v113q78 -39 177.5 -62.5t216.5 -23.5q178 0 263 94t85 256v64q0 43 2 86t4 84h-6q-45 -106 -139.5 -159.5t-225.5 -53.5 q-213 0 -330.5 143t-117.5 414zM238 535q0 -223 87 -340t253 -117q135 0 211.5 55t109.5 151.5t33 219.5v69q0 209 -77 322t-265 113q-176 0 -264 -124t-88 -349zM291 1241v16q37 41 85 96.5t91 112t70 99.5h112q25 -43 69 -99.5t91 -112t86 -96.5v-16h-84 q-55 45 -112.5 104.5t-106.5 116.5q-49 -57 -106.5 -116.5t-112.5 -104.5h-82z" />
<glyph unicode="&#x11e;" horiz-adv-x="1482" d="M127 729q0 221 89 392t257 267.5t404 96.5q119 0 227 -22.5t203 -65.5l-50 -107q-186 88 -389 88q-193 0 -331 -82t-212.5 -228t-74.5 -339q0 -315 156.5 -480t457.5 -165q106 0 189.5 15.5t150.5 37.5v500h-411v108h530v-679q-106 -43 -225 -64.5t-258 -21.5 q-348 0 -530.5 198.5t-182.5 550.5zM537 1866h82q8 -84 58 -119t143 -35q90 0 143 36t61 118h82q-12 -119 -84.5 -185.5t-201.5 -66.5q-131 0 -203 66.5t-80 185.5z" />
<glyph unicode="&#x11f;" horiz-adv-x="1226" d="M117 537q0 264 118 418.5t343 154.5q129 0 214 -49t136 -137h6l18 166h95v-1125q0 -215 -110 -336t-359 -121q-123 0 -217.5 20.5t-172.5 53.5v113q78 -39 177.5 -62.5t216.5 -23.5q178 0 263 94t85 256v64q0 43 2 86t4 84h-6q-45 -106 -139.5 -159.5t-225.5 -53.5 q-213 0 -330.5 143t-117.5 414zM238 535q0 -223 87 -340t253 -117q135 0 211.5 55t109.5 151.5t33 219.5v69q0 209 -77 322t-265 113q-176 0 -264 -124t-88 -349zM311 1493h82q8 -84 58 -119t143 -35q90 0 143 36t61 118h82q-12 -119 -84.5 -185.5t-201.5 -66.5 q-131 0 -203 66.5t-80 185.5z" />
<glyph unicode="&#x120;" horiz-adv-x="1482" d="M127 729q0 221 89 392t257 267.5t404 96.5q119 0 227 -22.5t203 -65.5l-50 -107q-186 88 -389 88q-193 0 -331 -82t-212.5 -228t-74.5 -339q0 -315 156.5 -480t457.5 -165q106 0 189.5 15.5t150.5 37.5v500h-411v108h530v-679q-106 -43 -225 -64.5t-258 -21.5 q-348 0 -530.5 198.5t-182.5 550.5zM737 1778q0 88 78 88q80 0 80 -88q0 -90 -80 -90q-78 0 -78 90z" />
<glyph unicode="&#x121;" horiz-adv-x="1226" d="M117 537q0 264 118 418.5t343 154.5q129 0 214 -49t136 -137h6l18 166h95v-1125q0 -215 -110 -336t-359 -121q-123 0 -217.5 20.5t-172.5 53.5v113q78 -39 177.5 -62.5t216.5 -23.5q178 0 263 94t85 256v64q0 43 2 86t4 84h-6q-45 -106 -139.5 -159.5t-225.5 -53.5 q-213 0 -330.5 143t-117.5 414zM238 535q0 -223 87 -340t253 -117q135 0 211.5 55t109.5 151.5t33 219.5v69q0 209 -77 322t-265 113q-176 0 -264 -124t-88 -349zM508 1405q0 88 78 88q80 0 80 -88q0 -90 -80 -90q-78 0 -78 90z" />
<glyph unicode="&#x122;" horiz-adv-x="1482" d="M127 729q0 221 89 392t257 267.5t404 96.5q119 0 227 -22.5t203 -65.5l-50 -107q-186 88 -389 88q-193 0 -331 -82t-212.5 -228t-74.5 -339q0 -315 156.5 -480t457.5 -165q106 0 189.5 15.5t150.5 37.5v500h-411v108h530v-679q-106 -43 -225 -64.5t-258 -21.5 q-348 0 -530.5 198.5t-182.5 550.5zM698 -434q16 33 34.5 89t34 116.5t21.5 103.5h119v-14q-16 -68 -55 -156t-88 -158h-66v19z" />
<glyph unicode="&#x123;" horiz-adv-x="1226" d="M117 537q0 264 118 418.5t343 154.5q129 0 214 -49t136 -137h6l18 166h95v-1125q0 -215 -110 -336t-359 -121q-123 0 -217.5 20.5t-172.5 53.5v113q78 -39 177.5 -62.5t216.5 -23.5q178 0 263 94t85 256v64q0 43 2 86t4 84h-6q-45 -106 -139.5 -159.5t-225.5 -53.5 q-213 0 -330.5 143t-117.5 414zM238 535q0 -223 87 -340t253 -117q135 0 211.5 55t109.5 151.5t33 219.5v69q0 209 -77 322t-265 113q-176 0 -264 -124t-88 -349zM510 1237v16q16 68 54 155t87 157h69v-17q-16 -33 -35.5 -89t-35 -116.5t-21.5 -105.5h-118z" />
<glyph unicode="&#x124;" horiz-adv-x="1482" d="M205 0v1462h119v-643h833v643h119v-1462h-119v713h-833v-713h-119zM447 1614v16q37 41 85 96.5t91 112t70 99.5h112q25 -43 69 -99.5t91 -112t86 -96.5v-16h-84q-55 45 -112.5 104.5t-106.5 116.5q-49 -57 -106.5 -116.5t-112.5 -104.5h-82z" />
<glyph unicode="&#x125;" horiz-adv-x="1220" d="M-65 1708v16q37 41 85 96.5t91 112t70 99.5h112q25 -43 69 -99.5t91 -112t86 -96.5v-16h-84q-55 45 -112.5 104.5t-106.5 116.5q-49 -57 -106.5 -116.5t-112.5 -104.5h-82zM180 0v1556h115v-499q0 -82 -6 -156h8q41 90 135 149.5t234 59.5q186 0 285.5 -96t99.5 -301 v-713h-117v705q0 156 -70.5 229.5t-208.5 73.5q-360 0 -360 -414v-594h-115z" />
<glyph unicode="&#x126;" horiz-adv-x="1482" d="M0 1098v98h205v266h119v-266h833v266h119v-266h205v-98h-205v-1098h-119v713h-833v-713h-119v1098h-205zM324 819h833v279h-833v-279z" />
<glyph unicode="&#x127;" horiz-adv-x="1220" d="M27 1264v92h153v200h115v-200h467v-92h-467v-228q0 -43 -2 -79.5t-4 -75.5h8q41 90 135 149.5t236 59.5q186 0 284.5 -96.5t98.5 -301.5v-692h-117v684q0 156 -70.5 229.5t-208.5 73.5q-360 0 -360 -414v-573h-115v1264h-153z" />
<glyph unicode="&#x128;" horiz-adv-x="636" d="M-61 1626q8 111 61.5 171.5t143.5 60.5q47 0 87 -20.5t75.5 -47t69.5 -47t71 -20.5q45 0 77.5 29.5t45.5 107.5h78q-8 -111 -63.5 -172.5t-141.5 -61.5q-47 0 -87 20.5t-75 47.5t-70 47.5t-75 20.5q-45 0 -76 -29t-43 -107h-78zM102 0v74l156 22v1268l-156 25v73h430v-73 l-155 -25v-1268l155 -22v-74h-430z" />
<glyph unicode="&#x129;" horiz-adv-x="475" d="M-143 1253q8 111 61.5 171.5t143.5 60.5q47 0 87 -20.5t75.5 -47t69.5 -47t71 -20.5q45 0 77.5 29.5t45.5 107.5h78q-8 -111 -63.5 -172.5t-141.5 -61.5q-47 0 -87 20.5t-75 47.5t-70 47.5t-75 20.5q-45 0 -76 -29t-43 -107h-78zM180 0v1090h115v-1090h-115z" />
<glyph unicode="&#x12a;" horiz-adv-x="636" d="M35 1622v99h565v-99h-565zM102 0v74l156 22v1268l-156 25v73h430v-73l-155 -25v-1268l155 -22v-74h-430z" />
<glyph unicode="&#x12b;" horiz-adv-x="475" d="M-45 1249v99h565v-99h-565zM180 0v1090h115v-1090h-115z" />
<glyph unicode="&#x12c;" horiz-adv-x="636" d="M37 1866h82q8 -84 58 -119t143 -35q90 0 143 36t61 118h82q-12 -119 -84.5 -185.5t-201.5 -66.5q-131 0 -203 66.5t-80 185.5zM102 0v74l156 22v1268l-156 25v73h430v-73l-155 -25v-1268l155 -22v-74h-430z" />
<glyph unicode="&#x12d;" horiz-adv-x="475" d="M-45 1493h82q8 -84 58 -119t143 -35q90 0 143 36t61 118h82q-12 -119 -84.5 -185.5t-201.5 -66.5q-131 0 -203 66.5t-80 185.5zM180 0v1090h115v-1090h-115z" />
<glyph unicode="&#x12e;" horiz-adv-x="636" d="M102 0v74l156 22v1268l-156 25v73h430v-73l-155 -25v-1268l155 -22v-74h-430zM215 -266q0 80 56.5 155.5t140.5 137.5l67 -27q-70 -61 -117 -122.5t-47 -131.5q0 -106 105 -106q33 0 57.5 4t40.5 8v-82q-20 -6 -49 -11t-66 -5q-90 0 -139 45t-49 135z" />
<glyph unicode="&#x12f;" horiz-adv-x="475" d="M25 -266q0 80 56.5 155.5t140.5 137.5l67 -27q-70 -61 -117 -122.5t-47 -131.5q0 -106 105 -106q33 0 57.5 4t40.5 8v-82q-20 -6 -49 -11t-66 -5q-90 0 -139 45t-49 135zM160 1405q0 88 78 88q82 0 81 -88q0 -90 -81 -90q-78 0 -78 90zM180 0v1090h115v-1090h-115z" />
<glyph unicode="&#x130;" horiz-adv-x="636" d="M102 0v74l156 22v1268l-156 25v73h430v-73l-155 -25v-1268l155 -22v-74h-430zM234 1778q0 88 78 88q80 0 80 -88q0 -90 -80 -90q-78 0 -78 90z" />
<glyph unicode="&#x131;" horiz-adv-x="475" d="M180 0v1090h115v-1090h-115z" />
<glyph unicode="&#x132;" horiz-adv-x="1153" d="M102 0v74l156 22v1268l-156 25v73h430v-73l-155 -25v-1268l155 -22v-74h-430zM457 -242q31 -8 69.5 -16t83.5 -8q229 0 230 274v1454h119v-1450q0 -180 -87.5 -282.5t-259.5 -102.5q-53 0 -90 8.5t-65 16.5v106z" />
<glyph unicode="&#x133;" horiz-adv-x="952" d="M160 1405q0 88 78 88q82 0 81 -88q0 -90 -81 -90q-78 0 -78 90zM180 0v1090h115v-1090h-115zM369 -369q57 -23 129 -22q74 0 115.5 45t41.5 141v1295h115v-1295q0 -139 -68.5 -213t-193.5 -74q-88 0 -139 23v100zM635 1405q0 88 78 88q82 0 81 -88q0 -90 -81 -90 q-78 0 -78 90z" />
<glyph unicode="&#x134;" horiz-adv-x="516" d="M-180 -242q31 -8 69.5 -16t83.5 -8q229 0 230 274v1454h119v-1450q0 -180 -87.5 -282.5t-259.5 -102.5q-53 0 -90 8.5t-65 16.5v106zM-41 1614v16q37 41 85 96.5t91 112t70 99.5h112q25 -43 69 -99.5t91 -112t86 -96.5v-16h-84q-55 45 -112.5 104.5t-106.5 116.5 q-49 -57 -106.5 -116.5t-112.5 -104.5h-82z" />
<glyph unicode="&#x135;" horiz-adv-x="475" d="M-106 -369q57 -23 129 -22q74 0 115.5 45t41.5 141v1295h115v-1295q0 -139 -68.5 -213t-193.5 -74q-88 0 -139 23v100zM-63 1241v16q37 41 85 96.5t91 112t70 99.5h112q25 -43 69 -99.5t91 -112t86 -96.5v-16h-84q-55 45 -112.5 104.5t-106.5 116.5 q-49 -57 -106.5 -116.5t-112.5 -104.5h-82z" />
<glyph unicode="&#x136;" horiz-adv-x="1204" d="M205 0v1462h119v-760q41 47 86 95.5t90 97.5l540 567h148l-594 -622l610 -840h-143l-555 758l-182 -174v-584h-119zM534 -434q16 33 34.5 89t34 116.5t21.5 103.5h119v-14q-16 -68 -55 -156t-88 -158h-66v19z" />
<glyph unicode="&#x137;" horiz-adv-x="1011" d="M180 0v1556h115v-790q0 -66 -2 -136.5t-2 -140.5h2q27 33 60.5 75t64.5 75l413 451h140l-430 -467l467 -623h-140l-409 545l-164 -168v-377h-115zM409 -434q16 33 34.5 89t34 116.5t21.5 103.5h119v-14q-16 -68 -55 -156t-88 -158h-66v19z" />
<glyph unicode="&#x138;" horiz-adv-x="1011" d="M180 0v1090h121v-289q0 -184 -6 -326q29 33 51.5 60.5t46.5 58.5l434 496h144l-418 -476l455 -614h-140l-397 537l-170 -168v-369h-121z" />
<glyph unicode="&#x139;" horiz-adv-x="1054" d="M180 1614v19q37 39 83 94t88 112.5t69 102.5h139v-17q-31 -43 -81 -100t-107.5 -113.5t-108.5 -97.5h-82zM205 0v1462h119v-1356h684v-106h-803z" />
<glyph unicode="&#x13a;" horiz-adv-x="475" d="M150 1708v19q37 39 83 94t88 112.5t69 102.5h139v-17q-31 -43 -81 -100t-107.5 -113.5t-108.5 -97.5h-82zM180 0v1556h117v-1556h-117z" />
<glyph unicode="&#x13b;" horiz-adv-x="1054" d="M205 0v1462h119v-1356h684v-106h-803zM483 -434q16 33 34.5 89t34 116.5t21.5 103.5h119v-14q-16 -68 -55 -156t-88 -158h-66v19z" />
<glyph unicode="&#x13c;" horiz-adv-x="475" d="M119 -434q16 33 34.5 89t34 116.5t21.5 103.5h119v-14q-16 -68 -55 -156t-88 -158h-66v19zM180 0v1556h117v-1556h-117z" />
<glyph unicode="&#x13d;" horiz-adv-x="1054" d="M205 0v1462h119v-1356h684v-106h-803zM793 1135v18q14 35 31.5 91.5t30.5 114.5t19 103h119v-16q-16 -68 -53 -155t-80 -156h-67z" />
<glyph unicode="&#x13e;" horiz-adv-x="475" d="M180 0v1556h117v-1556h-117zM377 1229v18q14 35 31.5 91.5t30.5 114.5t19 103h119v-16q-16 -68 -53 -155t-80 -156h-67z" />
<glyph unicode="&#x13f;" horiz-adv-x="1054" d="M205 0v1462h119v-1356h684v-106h-803zM680 770q0 88 78 88q80 0 80 -88q0 -90 -80 -90q-78 0 -78 90z" />
<glyph unicode="&#x140;" horiz-adv-x="487" d="M180 0v1556h117v-1556h-117zM401 789q0 88 78 88q80 0 80 -88q0 -90 -80 -90q-78 0 -78 90z" />
<glyph unicode="&#x141;" horiz-adv-x="1054" d="M25 545l180 114v803h119v-733l315 197l53 -86l-368 -226v-508h684v-106h-803v543l-131 -80z" />
<glyph unicode="&#x142;" horiz-adv-x="475" d="M2 639l174 115v802h117v-729l149 101l50 -80l-199 -133v-715h-117v639l-123 -82z" />
<glyph unicode="&#x143;" horiz-adv-x="1492" d="M205 0v1462h127l844 -1274h8q-4 63 -6 163t-2 184v927h110v-1462h-127l-846 1278h-6q4 -80 6 -169t2 -187v-922h-110zM660 1614v19q37 39 83 94t88 112.5t69 102.5h139v-17q-31 -43 -81 -100t-107.5 -113.5t-108.5 -97.5h-82z" />
<glyph unicode="&#x144;" horiz-adv-x="1220" d="M180 0v1090h94l17 -189h8q43 90 136.5 149.5t232.5 59.5q186 0 284.5 -96t98.5 -301v-713h-117v705q0 156 -70.5 229.5t-208.5 73.5q-360 0 -360 -414v-594h-115zM541 1241v19q37 39 83 94t88 112.5t69 102.5h139v-17q-31 -43 -81 -100t-107.5 -113.5t-108.5 -97.5h-82z " />
<glyph unicode="&#x145;" horiz-adv-x="1492" d="M205 0v1462h127l844 -1274h8q-4 63 -6 163t-2 184v927h110v-1462h-127l-846 1278h-6q4 -80 6 -169t2 -187v-922h-110zM629 -434q16 33 34.5 89t34 116.5t21.5 103.5h119v-14q-16 -68 -55 -156t-88 -158h-66v19z" />
<glyph unicode="&#x146;" horiz-adv-x="1220" d="M180 0v1090h94l17 -189h8q43 90 136.5 149.5t232.5 59.5q186 0 284.5 -96t98.5 -301v-713h-117v705q0 156 -70.5 229.5t-208.5 73.5q-360 0 -360 -414v-594h-115zM498 -434q16 33 34.5 89t34 116.5t21.5 103.5h119v-14q-16 -68 -55 -156t-88 -158h-66v19z" />
<glyph unicode="&#x147;" horiz-adv-x="1492" d="M205 0v1462h127l844 -1274h8q-4 63 -6 163t-2 184v927h110v-1462h-127l-846 1278h-6q4 -80 6 -169t2 -187v-922h-110zM442 1919v19h82q55 -45 113.5 -104.5t103.5 -117.5q49 57 107.5 117t113.5 105h84v-19q-39 -39 -87 -94t-92 -110.5t-69 -100.5h-114q-25 45 -68 100.5 t-90 110.5t-84 94z" />
<glyph unicode="&#x148;" horiz-adv-x="1220" d="M180 0v1090h94l17 -189h8q43 90 136.5 149.5t232.5 59.5q186 0 284.5 -96t98.5 -301v-713h-117v705q0 156 -70.5 229.5t-208.5 73.5q-360 0 -360 -414v-594h-115zM324 1546v19h82q55 -45 113.5 -104.5t103.5 -117.5q49 57 107.5 117t113.5 105h84v-19q-39 -39 -87 -94 t-92 -110.5t-69 -100.5h-114q-25 45 -68 100.5t-90 110.5t-84 94z" />
<glyph unicode="&#x149;" horiz-adv-x="1298" d="M0 961q25 76 48 163.5t40.5 176t25.5 161.5h117l14 -20q-23 -117 -67.5 -245t-93.5 -236h-84zM258 0v1090h94l17 -189h8q43 90 136.5 149.5t232.5 59.5q186 0 284.5 -96t98.5 -301v-713h-117v705q0 156 -70.5 229.5t-208.5 73.5q-360 0 -360 -414v-594h-115z" />
<glyph unicode="&#x14a;" horiz-adv-x="1492" d="M205 0v1462h127l844 -1255h8q-4 72 -6 169t-2 189v897h110v-1454q0 -188 -90 -284.5t-254 -96.5q-49 0 -92 8.5t-68 18.5v104q33 -10 74 -17t86 -7q102 0 167 63.5t67 212.5l-863 1268h-6q4 -74 6 -172t2 -197v-909h-110z" />
<glyph unicode="&#x14b;" horiz-adv-x="1220" d="M180 0v1090h94l17 -189h8q45 90 137 149.5t232 59.5q188 0 286.5 -96t98.5 -301v-918q0 -139 -67.5 -213t-188.5 -74q-45 0 -77 6.5t-58 16.5v100q29 -12 60.5 -17t63.5 -5q70 0 109 45t39 141v910q0 156 -70.5 229.5t-208.5 73.5q-360 0 -360 -414v-594h-115z" />
<glyph unicode="&#x14c;" horiz-adv-x="1572" d="M127 735q0 223 74.5 391t223 263.5t368.5 95.5q211 0 355 -91t220 -259.5t76 -401.5q0 -223 -74 -393t-220 -265t-364 -95q-221 0 -367.5 95t-219 266t-72.5 394zM252 733q0 -195 57.5 -341t176 -227t300.5 -81q184 0 302 81t174.5 226.5t56.5 341.5q0 303 -132 474 t-394 171q-182 0 -303 -80.5t-179.5 -226t-58.5 -338.5zM502 1622v99h565v-99h-565z" />
<glyph unicode="&#x14d;" horiz-adv-x="1208" d="M117 545q0 266 132 415.5t361 149.5q156 0 263.5 -70.5t163 -197.5t55.5 -297t-56.5 -297t-166 -197.5t-267.5 -70.5q-152 0 -260.5 69.5t-166.5 196.5t-58 299zM238 545q0 -209 88 -337t276 -128q190 0 279.5 128t89.5 337q0 135 -37 239.5t-117 164t-209 59.5 q-186 0 -278 -123t-92 -340zM320 1249v99h565v-99h-565z" />
<glyph unicode="&#x14e;" horiz-adv-x="1572" d="M127 735q0 223 74.5 391t223 263.5t368.5 95.5q211 0 355 -91t220 -259.5t76 -401.5q0 -223 -74 -393t-220 -265t-364 -95q-221 0 -367.5 95t-219 266t-72.5 394zM252 733q0 -195 57.5 -341t176 -227t300.5 -81q184 0 302 81t174.5 226.5t56.5 341.5q0 303 -132 474 t-394 171q-182 0 -303 -80.5t-179.5 -226t-58.5 -338.5zM504 1866h82q8 -84 58 -119t143 -35q90 0 143 36t61 118h82q-12 -119 -84.5 -185.5t-201.5 -66.5q-131 0 -203 66.5t-80 185.5z" />
<glyph unicode="&#x14f;" horiz-adv-x="1208" d="M117 545q0 266 132 415.5t361 149.5q156 0 263.5 -70.5t163 -197.5t55.5 -297t-56.5 -297t-166 -197.5t-267.5 -70.5q-152 0 -260.5 69.5t-166.5 196.5t-58 299zM238 545q0 -209 88 -337t276 -128q190 0 279.5 128t89.5 337q0 135 -37 239.5t-117 164t-209 59.5 q-186 0 -278 -123t-92 -340zM320 1493h82q8 -84 58 -119t143 -35q90 0 143 36t61 118h82q-12 -119 -84.5 -185.5t-201.5 -66.5q-131 0 -203 66.5t-80 185.5z" />
<glyph unicode="&#x150;" horiz-adv-x="1572" d="M127 735q0 223 74.5 391t223 263.5t368.5 95.5q211 0 355 -91t220 -259.5t76 -401.5q0 -223 -74 -393t-220 -265t-364 -95q-221 0 -367.5 95t-219 266t-72.5 394zM252 733q0 -195 57.5 -341t176 -227t300.5 -81q184 0 302 81t174.5 226.5t56.5 341.5q0 303 -132 474 t-394 171q-182 0 -303 -80.5t-179.5 -226t-58.5 -338.5zM549 1614v19q33 39 70.5 94t72.5 112.5t58 102.5h129v-17q-27 -43 -70 -100t-92 -113.5t-94 -97.5h-74zM893 1614v19q33 39 71 94t72.5 112.5t57.5 102.5h129v-17q-27 -43 -70 -100t-92 -113.5t-94 -97.5h-74z" />
<glyph unicode="&#x151;" horiz-adv-x="1208" d="M117 545q0 266 132 415.5t361 149.5q156 0 263.5 -70.5t163 -197.5t55.5 -297t-56.5 -297t-166 -197.5t-267.5 -70.5q-152 0 -260.5 69.5t-166.5 196.5t-58 299zM238 545q0 -209 88 -337t276 -128q190 0 279.5 128t89.5 337q0 135 -37 239.5t-117 164t-209 59.5 q-186 0 -278 -123t-92 -340zM369 1241v19q33 39 70.5 94t72.5 112.5t58 102.5h129v-17q-27 -43 -70 -100t-92 -113.5t-94 -97.5h-74zM713 1241v19q33 39 71 94t72.5 112.5t57.5 102.5h129v-17q-27 -43 -70 -100t-92 -113.5t-94 -97.5h-74z" />
<glyph unicode="&#x152;" horiz-adv-x="1871" d="M127 735q0 223 73.5 390t220 259.5t361.5 92.5q53 0 96.5 -4.5t92.5 -10.5h774v-106h-660v-537h621v-104h-621v-609h660v-106h-778q-41 -4 -85 -8t-96 -4q-221 0 -367.5 93t-219 262t-72.5 392zM250 733q0 -195 58.5 -339t177 -223t300.5 -79q55 0 101.5 5t79.5 16v1237 q-33 10 -77 15t-99 5q-182 0 -302 -79t-179.5 -222t-59.5 -336z" />
<glyph unicode="&#x153;" horiz-adv-x="1957" d="M115 545q0 264 131 414.5t360 150.5q160 0 262.5 -80t149.5 -215q51 131 152 213t255 82q137 0 230.5 -64.5t140.5 -177t47 -258.5v-82h-766q0 -221 98.5 -333.5t282.5 -112.5q102 0 176 16.5t164 57.5v-107q-80 -37 -159.5 -53t-182.5 -16q-170 0 -278.5 77.5 t-157.5 212.5q-53 -133 -157.5 -211.5t-266.5 -78.5q-150 0 -257.5 69.5t-165.5 196.5t-58 299zM238 545q0 -215 87 -340t273 -125q188 0 274 124t86 337t-84 340t-272 127q-182 0 -273 -119t-91 -344zM1079 627h641q0 172 -72.5 277.5t-224.5 105.5q-147 0 -238 -97.5 t-106 -285.5z" />
<glyph unicode="&#x154;" horiz-adv-x="1228" d="M205 0v1462h364q262 0 394.5 -92t132.5 -309q0 -168 -89 -262t-223 -135l402 -664h-142l-372 631h-348v-631h-119zM324 733h276q178 0 275.5 84t97.5 240q0 168 -101.5 233.5t-312.5 65.5h-235v-623zM545 1614v19q37 39 83 94t88 112.5t69 102.5h139v-17 q-31 -43 -81 -100t-107.5 -113.5t-108.5 -97.5h-82z" />
<glyph unicode="&#x155;" horiz-adv-x="806" d="M180 0v1090h99l12 -205h6q41 92 124 157.5t206 65.5q86 0 147 -18l-16 -107q-33 8 -66 12t-69 4q-152 0 -239 -109.5t-87 -291.5v-598h-117zM379 1241v19q37 39 83 94t88 112.5t69 102.5h139v-17q-31 -43 -81 -100t-107.5 -113.5t-108.5 -97.5h-82z" />
<glyph unicode="&#x156;" horiz-adv-x="1228" d="M205 0v1462h364q262 0 394.5 -92t132.5 -309q0 -168 -89 -262t-223 -135l402 -664h-142l-372 631h-348v-631h-119zM324 733h276q178 0 275.5 84t97.5 240q0 168 -101.5 233.5t-312.5 65.5h-235v-623zM532 -434q16 33 34.5 89t34 116.5t21.5 103.5h119v-14 q-16 -68 -55 -156t-88 -158h-66v19z" />
<glyph unicode="&#x157;" horiz-adv-x="806" d="M119 -434q16 33 34.5 89t34 116.5t21.5 103.5h119v-14q-16 -68 -55 -156t-88 -158h-66v19zM180 0v1090h99l12 -205h6q41 92 124 157.5t206 65.5q86 0 147 -18l-16 -107q-33 8 -66 12t-69 4q-152 0 -239 -109.5t-87 -291.5v-598h-117z" />
<glyph unicode="&#x158;" horiz-adv-x="1228" d="M205 0v1462h364q262 0 394.5 -92t132.5 -309q0 -168 -89 -262t-223 -135l402 -664h-142l-372 631h-348v-631h-119zM324 733h276q178 0 275.5 84t97.5 240q0 168 -101.5 233.5t-312.5 65.5h-235v-623zM332 1919v19h82q55 -45 113.5 -104.5t103.5 -117.5q49 57 107.5 117 t113.5 105h84v-19q-39 -39 -87 -94t-92 -110.5t-69 -100.5h-114q-25 45 -68 100.5t-90 110.5t-84 94z" />
<glyph unicode="&#x159;" horiz-adv-x="806" d="M164 1546v19h82q55 -45 113.5 -104.5t103.5 -117.5q49 57 107.5 117t113.5 105h84v-19q-39 -39 -87 -94t-92 -110.5t-69 -100.5h-114q-25 45 -68 100.5t-90 110.5t-84 94zM180 0v1090h99l12 -205h6q41 92 124 157.5t206 65.5q86 0 147 -18l-16 -107q-33 8 -66 12t-69 4 q-152 0 -239 -109.5t-87 -291.5v-598h-117z" />
<glyph unicode="&#x15a;" horiz-adv-x="1118" d="M111 45v117q78 -31 181 -54.5t224 -23.5q168 0 273.5 72.5t105.5 216.5q0 86 -40 142t-123 98t-212 85q-123 43 -211 93.5t-135 127t-47 193.5q0 121 60.5 203t166 125t240.5 43q106 0 202.5 -20.5t182.5 -57.5l-41 -102q-172 74 -348 73q-152 0 -247 -66.5t-95 -195.5 q0 -94 41 -150.5t118.5 -95.5t190.5 -77q129 -45 222 -95.5t144.5 -124t51.5 -190.5q0 -131 -65.5 -220t-180.5 -135t-262 -46q-131 0 -229.5 18t-167.5 47zM494 1614v19q37 39 83 94t88 112.5t69 102.5h139v-17q-31 -43 -81 -100t-107.5 -113.5t-108.5 -97.5h-82z" />
<glyph unicode="&#x15b;" horiz-adv-x="958" d="M94 49v113q72 -37 164 -60.5t188 -23.5q160 0 232 54t72 149q0 90 -75 138t-224 99q-100 35 -177 70t-120 91t-43 152q0 131 106.5 205t284.5 74q98 0 183 -19.5t155 -48.5l-41 -96q-63 29 -143.5 47.5t-159.5 18.5q-129 0 -201 -45t-72 -131q0 -66 35 -104t100.5 -65.5 t159.5 -60.5q96 -33 175 -69.5t125 -94t46 -153.5q0 -150 -109.5 -229.5t-312.5 -79.5q-115 0 -201.5 20t-146.5 49zM393 1241v19q37 39 83 94t88 112.5t69 102.5h139v-17q-31 -43 -81 -100t-107.5 -113.5t-108.5 -97.5h-82z" />
<glyph unicode="&#x15c;" horiz-adv-x="1118" d="M111 45v117q78 -31 181 -54.5t224 -23.5q168 0 273.5 72.5t105.5 216.5q0 86 -40 142t-123 98t-212 85q-123 43 -211 93.5t-135 127t-47 193.5q0 121 60.5 203t166 125t240.5 43q106 0 202.5 -20.5t182.5 -57.5l-41 -102q-172 74 -348 73q-152 0 -247 -66.5t-95 -195.5 q0 -94 41 -150.5t118.5 -95.5t190.5 -77q129 -45 222 -95.5t144.5 -124t51.5 -190.5q0 -131 -65.5 -220t-180.5 -135t-262 -46q-131 0 -229.5 18t-167.5 47zM281 1614v16q37 41 85 96.5t91 112t70 99.5h112q25 -43 69 -99.5t91 -112t86 -96.5v-16h-84q-55 45 -112.5 104.5 t-106.5 116.5q-49 -57 -106.5 -116.5t-112.5 -104.5h-82z" />
<glyph unicode="&#x15d;" horiz-adv-x="958" d="M94 49v113q72 -37 164 -60.5t188 -23.5q160 0 232 54t72 149q0 90 -75 138t-224 99q-100 35 -177 70t-120 91t-43 152q0 131 106.5 205t284.5 74q98 0 183 -19.5t155 -48.5l-41 -96q-63 29 -143.5 47.5t-159.5 18.5q-129 0 -201 -45t-72 -131q0 -66 35 -104t100.5 -65.5 t159.5 -60.5q96 -33 175 -69.5t125 -94t46 -153.5q0 -150 -109.5 -229.5t-312.5 -79.5q-115 0 -201.5 20t-146.5 49zM180 1241v16q37 41 85 96.5t91 112t70 99.5h112q25 -43 69 -99.5t91 -112t86 -96.5v-16h-84q-55 45 -112.5 104.5t-106.5 116.5q-49 -57 -106.5 -116.5 t-112.5 -104.5h-82z" />
<glyph unicode="&#x15e;" horiz-adv-x="1118" d="M111 45v117q78 -31 181 -54.5t224 -23.5q168 0 273.5 72.5t105.5 216.5q0 86 -40 142t-123 98t-212 85q-123 43 -211 93.5t-135 127t-47 193.5q0 121 60.5 203t166 125t240.5 43q106 0 202.5 -20.5t182.5 -57.5l-41 -102q-172 74 -348 73q-152 0 -247 -66.5t-95 -195.5 q0 -94 41 -150.5t118.5 -95.5t190.5 -77q129 -45 222 -95.5t144.5 -124t51.5 -190.5q0 -131 -65.5 -220t-180.5 -135t-262 -46q-131 0 -229.5 18t-167.5 47zM344 -399q20 -6 48.5 -8.5t63.5 -2.5q76 0 121 29t45 86q0 59 -52 87t-147 32l89 176h86l-62 -121q82 -10 133 -51 t51 -119q0 -94 -70.5 -147.5t-195.5 -53.5q-70 0 -110 13v80z" />
<glyph unicode="&#x15f;" horiz-adv-x="958" d="M94 49v113q72 -37 164 -60.5t188 -23.5q160 0 232 54t72 149q0 90 -75 138t-224 99q-100 35 -177 70t-120 91t-43 152q0 131 106.5 205t284.5 74q98 0 183 -19.5t155 -48.5l-41 -96q-63 29 -143.5 47.5t-159.5 18.5q-129 0 -201 -45t-72 -131q0 -66 35 -104t100.5 -65.5 t159.5 -60.5q96 -33 175 -69.5t125 -94t46 -153.5q0 -150 -109.5 -229.5t-312.5 -79.5q-115 0 -201.5 20t-146.5 49zM287 -399q20 -6 48.5 -8.5t63.5 -2.5q76 0 121 29t45 86q0 59 -52 87t-147 32l89 176h86l-62 -121q82 -10 133 -51t51 -119q0 -94 -70.5 -147.5 t-195.5 -53.5q-70 0 -110 13v80z" />
<glyph unicode="&#x160;" horiz-adv-x="1118" d="M111 45v117q78 -31 181 -54.5t224 -23.5q168 0 273.5 72.5t105.5 216.5q0 86 -40 142t-123 98t-212 85q-123 43 -211 93.5t-135 127t-47 193.5q0 121 60.5 203t166 125t240.5 43q106 0 202.5 -20.5t182.5 -57.5l-41 -102q-172 74 -348 73q-152 0 -247 -66.5t-95 -195.5 q0 -94 41 -150.5t118.5 -95.5t190.5 -77q129 -45 222 -95.5t144.5 -124t51.5 -190.5q0 -131 -65.5 -220t-180.5 -135t-262 -46q-131 0 -229.5 18t-167.5 47zM279 1919v19h82q55 -45 113.5 -104.5t103.5 -117.5q49 57 107.5 117t113.5 105h84v-19q-39 -39 -87 -94t-92 -110.5 t-69 -100.5h-114q-25 45 -68 100.5t-90 110.5t-84 94z" />
<glyph unicode="&#x161;" horiz-adv-x="958" d="M94 49v113q72 -37 164 -60.5t188 -23.5q160 0 232 54t72 149q0 90 -75 138t-224 99q-100 35 -177 70t-120 91t-43 152q0 131 106.5 205t284.5 74q98 0 183 -19.5t155 -48.5l-41 -96q-63 29 -143.5 47.5t-159.5 18.5q-129 0 -201 -45t-72 -131q0 -66 35 -104t100.5 -65.5 t159.5 -60.5q96 -33 175 -69.5t125 -94t46 -153.5q0 -150 -109.5 -229.5t-312.5 -79.5q-115 0 -201.5 20t-146.5 49zM178 1546v19h82q55 -45 113.5 -104.5t103.5 -117.5q49 57 107.5 117t113.5 105h84v-19q-39 -39 -87 -94t-92 -110.5t-69 -100.5h-114q-25 45 -68 100.5 t-90 110.5t-84 94z" />
<glyph unicode="&#x162;" horiz-adv-x="1085" d="M12 1356v106h1061v-106h-471v-1356h-119v1356h-471zM344 -399q20 -6 48.5 -8.5t63.5 -2.5q76 0 121 29t45 86q0 59 -52 87t-147 32l89 176h86l-62 -121q82 -10 133 -51t51 -119q0 -94 -70.5 -147.5t-195.5 -53.5q-70 0 -110 13v80z" />
<glyph unicode="&#x163;" horiz-adv-x="696" d="M27 995v66l161 37l41 252h74v-260h336v-95h-336v-688q0 -229 184 -229q45 0 87 7t71 17v-94q-33 -12 -77 -20t-97 -8q-135 0 -209 76.5t-74 246.5v692h-161zM218 -399q20 -6 48.5 -8.5t63.5 -2.5q76 0 121 29t45 86q0 59 -52 87t-147 32l89 176h86l-62 -121 q82 -10 133 -51t51 -119q0 -94 -70.5 -147.5t-195.5 -53.5q-70 0 -110 13v80z" />
<glyph unicode="&#x164;" horiz-adv-x="1085" d="M12 1356v106h1061v-106h-471v-1356h-119v1356h-471zM240 1919v19h82q55 -45 113.5 -104.5t103.5 -117.5q49 57 107.5 117t113.5 105h84v-19q-39 -39 -87 -94t-92 -110.5t-69 -100.5h-114q-25 45 -68 100.5t-90 110.5t-84 94z" />
<glyph unicode="&#x165;" horiz-adv-x="696" d="M27 995v66l161 37l41 252h74v-260h336v-95h-336v-688q0 -229 184 -229q45 0 87 7t71 17v-94q-33 -12 -77 -20t-97 -8q-135 0 -209 76.5t-74 246.5v692h-161zM656 1229v18q14 35 31.5 91.5t30.5 114.5t19 103h119v-16q-16 -68 -53 -155t-80 -156h-67z" />
<glyph unicode="&#x166;" horiz-adv-x="1085" d="M12 1356v106h1061v-106h-471v-557h344v-103h-344v-696h-119v696h-348v103h348v557h-471z" />
<glyph unicode="&#x167;" horiz-adv-x="696" d="M27 995v66l161 37l41 252h74v-260h336v-95h-336v-323h307v-94h-307v-271q0 -229 184 -229q45 0 87 7t71 17v-94q-33 -12 -77 -20t-97 -8q-135 0 -209 76.5t-74 246.5v275h-145v94h145v323h-161z" />
<glyph unicode="&#x168;" horiz-adv-x="1478" d="M188 520v942h119v-942q0 -213 110.5 -324.5t323.5 -111.5q207 0 318.5 111.5t111.5 312.5v954h117v-946q0 -250 -145.5 -393t-409.5 -143q-262 0 -403.5 143t-141.5 397zM385 1626q8 111 61.5 171.5t143.5 60.5q47 0 87 -20.5t75.5 -47t69.5 -47t71 -20.5q45 0 77.5 29.5 t45.5 107.5h78q-8 -111 -63.5 -172.5t-141.5 -61.5q-47 0 -87 20.5t-75 47.5t-70 47.5t-75 20.5q-45 0 -76 -29t-43 -107h-78z" />
<glyph unicode="&#x169;" horiz-adv-x="1220" d="M164 377v713h119v-705q0 -156 69.5 -230.5t208.5 -74.5q360 0 361 416v594h116v-1090h-96l-16 186h-6q-45 -88 -138.5 -147t-232.5 -59q-385 0 -385 397zM250 1253q8 111 61.5 171.5t143.5 60.5q47 0 87 -20.5t75.5 -47t69.5 -47t71 -20.5q45 0 77.5 29.5t45.5 107.5h78 q-8 -111 -63.5 -172.5t-141.5 -61.5q-47 0 -87 20.5t-75 47.5t-70 47.5t-75 20.5q-45 0 -76 -29t-43 -107h-78z" />
<glyph unicode="&#x16a;" horiz-adv-x="1478" d="M188 520v942h119v-942q0 -213 110.5 -324.5t323.5 -111.5q207 0 318.5 111.5t111.5 312.5v954h117v-946q0 -250 -145.5 -393t-409.5 -143q-262 0 -403.5 143t-141.5 397zM455 1622v99h565v-99h-565z" />
<glyph unicode="&#x16b;" horiz-adv-x="1220" d="M164 377v713h119v-705q0 -156 69.5 -230.5t208.5 -74.5q360 0 361 416v594h116v-1090h-96l-16 186h-6q-45 -88 -138.5 -147t-232.5 -59q-385 0 -385 397zM326 1249v99h565v-99h-565z" />
<glyph unicode="&#x16c;" horiz-adv-x="1478" d="M188 520v942h119v-942q0 -213 110.5 -324.5t323.5 -111.5q207 0 318.5 111.5t111.5 312.5v954h117v-946q0 -250 -145.5 -393t-409.5 -143q-262 0 -403.5 143t-141.5 397zM457 1866h82q8 -84 58 -119t143 -35q90 0 143 36t61 118h82q-12 -119 -84.5 -185.5t-201.5 -66.5 q-131 0 -203 66.5t-80 185.5z" />
<glyph unicode="&#x16d;" horiz-adv-x="1220" d="M164 377v713h119v-705q0 -156 69.5 -230.5t208.5 -74.5q360 0 361 416v594h116v-1090h-96l-16 186h-6q-45 -88 -138.5 -147t-232.5 -59q-385 0 -385 397zM328 1493h82q8 -84 58 -119t143 -35q90 0 143 36t61 118h82q-12 -119 -84.5 -185.5t-201.5 -66.5q-131 0 -203 66.5 t-80 185.5z" />
<glyph unicode="&#x16e;" horiz-adv-x="1478" d="M188 520v942h119v-942q0 -213 110.5 -324.5t323.5 -111.5q207 0 318.5 111.5t111.5 312.5v954h117v-946q0 -250 -145.5 -393t-409.5 -143q-262 0 -403.5 143t-141.5 397zM524 1831q0 94 61.5 151.5t153.5 57.5q90 0 152.5 -58.5t62.5 -150.5q0 -98 -62.5 -155.5 t-152.5 -57.5t-152.5 57.5t-62.5 155.5zM602 1831q0 -59 37 -97t100 -38q59 0 97 38t38 97q0 57 -39 96t-96 39q-59 0 -98 -38.5t-39 -96.5z" />
<glyph unicode="&#x16f;" horiz-adv-x="1220" d="M164 377v713h119v-705q0 -156 69.5 -230.5t208.5 -74.5q360 0 361 416v594h116v-1090h-96l-16 186h-6q-45 -88 -138.5 -147t-232.5 -59q-385 0 -385 397zM393 1458q0 94 61.5 151.5t153.5 57.5q90 0 152.5 -58.5t62.5 -150.5q0 -98 -62.5 -155.5t-152.5 -57.5 t-152.5 57.5t-62.5 155.5zM471 1458q0 -59 37 -97t100 -38q59 0 97 38t38 97q0 57 -39 96t-96 39q-59 0 -98 -38.5t-39 -96.5z" />
<glyph unicode="&#x170;" horiz-adv-x="1478" d="M188 520v942h119v-942q0 -213 110.5 -324.5t323.5 -111.5q207 0 318.5 111.5t111.5 312.5v954h117v-946q0 -250 -145.5 -393t-409.5 -143q-262 0 -403.5 143t-141.5 397zM504 1614v19q33 39 70.5 94t72.5 112.5t58 102.5h129v-17q-27 -43 -70 -100t-92 -113.5t-94 -97.5 h-74zM848 1614v19q33 39 71 94t72.5 112.5t57.5 102.5h129v-17q-27 -43 -70 -100t-92 -113.5t-94 -97.5h-74z" />
<glyph unicode="&#x171;" horiz-adv-x="1220" d="M164 377v713h119v-705q0 -156 69.5 -230.5t208.5 -74.5q360 0 361 416v594h116v-1090h-96l-16 186h-6q-45 -88 -138.5 -147t-232.5 -59q-385 0 -385 397zM373 1241v19q33 39 70.5 94t72.5 112.5t58 102.5h129v-17q-27 -43 -70 -100t-92 -113.5t-94 -97.5h-74zM717 1241 v19q33 39 71 94t72.5 112.5t57.5 102.5h129v-17q-27 -43 -70 -100t-92 -113.5t-94 -97.5h-74z" />
<glyph unicode="&#x172;" horiz-adv-x="1478" d="M188 520v942h119v-942q0 -213 110.5 -324.5t323.5 -111.5q207 0 318.5 111.5t111.5 312.5v954h117v-946q0 -297 -198 -438q-72 -76 -122 -151.5t-50 -159.5q0 -68 26.5 -97.5t79.5 -29.5q31 0 56.5 4t41.5 8v-82q-23 -6 -50.5 -11t-63.5 -5q-90 0 -139.5 47t-49.5 149 q0 70 33 135.5t82 120.5q-90 -27 -201 -26q-262 0 -403.5 143t-141.5 397z" />
<glyph unicode="&#x173;" horiz-adv-x="1220" d="M164 377v713h119v-705q0 -156 69.5 -230.5t208.5 -74.5q360 0 361 416v594h116v-1090h-96l-16 186h-6q-45 -88 -138.5 -147t-232.5 -59q-385 0 -385 397zM758 -266q0 80 56.5 155.5t140.5 137.5l67 -27q-70 -61 -117 -122.5t-47 -131.5q0 -106 105 -106q33 0 57.5 4 t40.5 8v-82q-20 -6 -49 -11t-66 -5q-90 0 -139 45t-49 135z" />
<glyph unicode="&#x174;" horiz-adv-x="1843" d="M47 1462h123l264 -1003q23 -86 40.5 -157t29.5 -138q12 70 28.5 143.5t40.5 157.5l283 997h119l291 -1003q29 -88 45 -161t28 -138q8 68 24.5 138.5t41.5 158.5l270 1005h123l-397 -1462h-119l-307 1075q-41 152 -62 240q-6 -41 -19 -98.5t-32 -122.5l-305 -1094h-119z M619 1614v16q37 41 85 96.5t91 112t70 99.5h112q25 -43 69 -99.5t91 -112t86 -96.5v-16h-84q-55 45 -112.5 104.5t-106.5 116.5q-49 -57 -106.5 -116.5t-112.5 -104.5h-82z" />
<glyph unicode="&#x175;" horiz-adv-x="1507" d="M29 1090h121l184 -674q25 -90 42 -159t25 -122h5q12 49 28.5 116.5t44.5 149.5l226 689h118l217 -689q20 -74 41 -143.5t29 -122.5h8q6 49 23.5 120t40.5 161l178 674h119l-297 -1090h-129l-222 709q-20 68 -38.5 128t-30.5 113h-4q-12 -53 -28.5 -114.5t-39.5 -128.5 l-231 -707h-123zM463 1241v16q37 41 85 96.5t91 112t70 99.5h112q25 -43 69 -99.5t91 -112t86 -96.5v-16h-84q-55 45 -112.5 104.5t-106.5 116.5q-49 -57 -106.5 -116.5t-112.5 -104.5h-82z" />
<glyph unicode="&#x176;" horiz-adv-x="1097" d="M0 1462h131l418 -782l418 782h131l-488 -897v-565h-118v557zM246 1614v16q37 41 85 96.5t91 112t70 99.5h112q25 -43 69 -99.5t91 -112t86 -96.5v-16h-84q-55 45 -112.5 104.5t-106.5 116.5q-49 -57 -106.5 -116.5t-112.5 -104.5h-82z" />
<glyph unicode="&#x177;" horiz-adv-x="960" d="M0 1090h125l260 -678q33 -90 57.5 -161t38.5 -126h6q14 47 39 120.5t58 164.5l254 680h125l-492 -1285q-55 -143 -131 -222t-205 -79q-41 0 -71.5 6.5t-59.5 14.5v98q53 -18 117 -18q86 0 140 53t95 162l72 184zM178 1241v16q37 41 85 96.5t91 112t70 99.5h112 q25 -43 69 -99.5t91 -112t86 -96.5v-16h-84q-55 45 -112.5 104.5t-106.5 116.5q-49 -57 -106.5 -116.5t-112.5 -104.5h-82z" />
<glyph unicode="&#x178;" horiz-adv-x="1097" d="M0 1462h131l418 -782l418 782h131l-488 -897v-565h-118v557zM285 1766q0 82 69 82q74 0 74 -82q0 -84 -74 -84q-69 0 -69 84zM666 1766q0 82 69 82q74 0 74 -82q0 -84 -74 -84q-69 0 -69 84z" />
<glyph unicode="&#x179;" horiz-adv-x="1177" d="M76 0v88l850 1268h-809v106h956v-88l-848 -1268h873v-106h-1022zM506 1614v19q37 39 83 94t88 112.5t69 102.5h139v-17q-31 -43 -81 -100t-107.5 -113.5t-108.5 -97.5h-82z" />
<glyph unicode="&#x17a;" horiz-adv-x="948" d="M82 0v76l639 919h-594v95h733v-82l-639 -914h643v-94h-782zM385 1241v19q37 39 83 94t88 112.5t69 102.5h139v-17q-31 -43 -81 -100t-107.5 -113.5t-108.5 -97.5h-82z" />
<glyph unicode="&#x17b;" horiz-adv-x="1177" d="M76 0v88l850 1268h-809v106h956v-88l-848 -1268h873v-106h-1022zM508 1778q0 88 78 88q80 0 80 -88q0 -90 -80 -90q-78 0 -78 90z" />
<glyph unicode="&#x17c;" horiz-adv-x="948" d="M82 0v76l639 919h-594v95h733v-82l-639 -914h643v-94h-782zM389 1405q0 88 78 88q80 0 80 -88q0 -90 -80 -90q-78 0 -78 90z" />
<glyph unicode="&#x17d;" horiz-adv-x="1177" d="M76 0v88l850 1268h-809v106h956v-88l-848 -1268h873v-106h-1022zM291 1919v19h82q55 -45 113.5 -104.5t103.5 -117.5q49 57 107.5 117t113.5 105h84v-19q-39 -39 -87 -94t-92 -110.5t-69 -100.5h-114q-25 45 -68 100.5t-90 110.5t-84 94z" />
<glyph unicode="&#x17e;" horiz-adv-x="948" d="M82 0v76l639 919h-594v95h733v-82l-639 -914h643v-94h-782zM170 1546v19h82q55 -45 113.5 -104.5t103.5 -117.5q49 57 107.5 117t113.5 105h84v-19q-39 -39 -87 -94t-92 -110.5t-69 -100.5h-114q-25 45 -68 100.5t-90 110.5t-84 94z" />
<glyph unicode="&#x17f;" horiz-adv-x="634" d="M180 0v1190q0 188 88 282.5t246 94.5q51 0 94 -8.5t80 -20.5l-26 -96q-33 8 -70 16t-80 8q-104 0 -159.5 -67.5t-55.5 -210.5v-1188h-117z" />
<glyph unicode="&#x180;" horiz-adv-x="1226" d="M25 1266v92h153v198h117v-198h467v-92h-467v-140q0 -57 -2 -124.5t-6 -108.5h8q41 92 134 154.5t237 62.5q211 0 327.5 -142.5t116.5 -420.5q0 -258 -118 -412.5t-343 -154.5q-137 0 -224 57t-128 139h-10l-21 -176h-88v1266h-153zM295 532q0 -221 79 -336.5t261 -115.5 q176 0 265 122t89 347q0 461 -338 461q-190 0 -273 -119t-83 -344v-15z" />
<glyph unicode="&#x181;" horiz-adv-x="1449" d="M20 1206q0 119 72 187.5t215 68.5h459q272 0 400 -84t128 -272q0 -127 -71.5 -217t-210.5 -115v-8q160 -25 243.5 -110t83.5 -240q0 -141 -65.5 -233.5t-181 -137.5t-269.5 -45h-461v1358h-53q-96 0 -139 -42t-43 -114q0 -35 7 -65.5t13 -44.5h-106q-20 47 -21 114z M481 102h334q397 0 397 320q0 152 -102 222.5t-313 70.5h-316v-613zM481 817h314q203 0 289.5 69.5t86.5 207.5q0 141 -96 202.5t-307 61.5h-287v-541z" />
<glyph unicode="&#x182;" horiz-adv-x="1226" d="M205 0v1462h827v-106h-708v-533h262q274 0 395 -99t121 -302q0 -205 -120 -313.5t-372 -108.5h-405zM324 104h270q203 0 294 77t91 241q0 172 -102.5 234.5t-307.5 62.5h-245v-615z" />
<glyph unicode="&#x183;" horiz-adv-x="1226" d="M178 0v1556h817v-102h-700v-328q0 -57 -2 -124.5t-6 -108.5h8q41 92 134 154.5t237 62.5q211 0 327.5 -142.5t116.5 -420.5q0 -258 -118 -412.5t-343 -154.5q-137 0 -224 57t-128 139h-10l-21 -176h-88zM295 532q0 -221 79 -336.5t261 -115.5q176 0 265 122t89 347 q0 461 -338 461q-190 0 -273 -119t-83 -344v-15z" />
<glyph unicode="&#x184;" horiz-adv-x="1243" d="M197 459v1003h118v-639h291q264 0 390 -104.5t126 -300.5q0 -190 -113.5 -309t-336.5 -119q-254 0 -364.5 124t-110.5 345zM315 467q0 -197 86.5 -285t270.5 -88q164 0 245.5 85t81.5 239q0 168 -105.5 234.5t-303.5 66.5h-275v-252z" />
<glyph unicode="&#x185;" horiz-adv-x="1224" d="M176 532v1024h115v-430q0 -57 -2 -124.5t-4 -108.5h6q41 90 134 153.5t239 63.5q209 0 325.5 -142.5t116.5 -420.5q0 -258 -117 -412.5t-348 -154.5q-219 0 -342 139t-123 413zM291 530q0 -219 92 -334.5t260 -115.5q172 0 258 122t86 347q0 461 -340 461 q-190 0 -273 -119t-83 -344v-17z" />
<glyph unicode="&#x186;" horiz-adv-x="1275" d="M72 1397q82 41 189.5 63.5t230.5 22.5q223 0 368.5 -91.5t217 -256t71.5 -385.5q0 -223 -80 -397.5t-233.5 -273.5t-376.5 -99q-117 0 -203 16t-162 43v104q80 -25 165 -41t187 -16q184 0 313.5 84t197 233.5t67.5 346.5q0 190 -59.5 330.5t-181 218t-306.5 77.5 q-96 0 -188 -22.5t-170 -61.5z" />
<glyph unicode="&#x187;" horiz-adv-x="1275" d="M127 735q0 217 83 386t239.5 265.5t377.5 96.5q143 0 279 -41v80q0 235 205 235q41 0 70.5 -7t48.5 -15v-101q-16 6 -45 13.5t-64 7.5q-53 0 -83 -30t-30 -97v-123l-47 -107q-78 39 -159.5 58.5t-174.5 19.5q-180 0 -309 -81t-197.5 -225t-68.5 -337q0 -197 62.5 -342 t185.5 -225t307 -80q106 0 195.5 16.5t168.5 40.5v-102q-76 -29 -167 -45t-209 -16q-221 0 -370 94t-223.5 264t-74.5 397z" />
<glyph unicode="&#x188;" horiz-adv-x="983" d="M117 539q0 182 65.5 310t183 194.5t273.5 66.5q45 0 87 -6t81 -14v233q0 250 213 250q39 0 64.5 -7t45.5 -16v-100q-16 6 -42.5 13t-59.5 7q-55 0 -87 -32.5t-32 -108.5v-272l-32 -103q-115 51 -238 52q-193 0 -297 -125t-104 -340q0 -205 92 -332t284 -127 q82 0 154 16.5t129 42.5v-104q-53 -27 -123 -42t-158 -15q-240 0 -369.5 146t-129.5 413z" />
<glyph unicode="&#x189;" horiz-adv-x="1456" d="M47 672v106h166v684h397q348 0 532.5 -183t184.5 -534q0 -369 -194.5 -557t-567.5 -188h-352v672h-166zM332 104h225q647 0 647 637q0 617 -616 617h-256v-580h393v-106h-393v-568z" />
<glyph unicode="&#x18a;" horiz-adv-x="1609" d="M20 1206q0 123 72 189.5t215 66.5h459q346 0 531.5 -183t185.5 -534q0 -369 -194.5 -557t-567.5 -188h-363v1358h-49q-96 0 -139 -42t-43 -114q0 -35 7 -65.5t13 -44.5h-106q-20 47 -21 114zM477 104h234q645 0 645 637q0 616 -615 617h-264v-1254z" />
<glyph unicode="&#x18b;" horiz-adv-x="1226" d="M111 401q0 205 135 322t422 117h225v516h-703v106h822v-1462h-375q-526 0 -526 401zM233 408q0 -158 101.5 -231t314.5 -73h244v633h-213q-213 0 -330 -71.5t-117 -257.5z" />
<glyph unicode="&#x18c;" horiz-adv-x="1226" d="M117 532q0 283 124 430.5t341 147.5q137 0 223 -59.5t127 -149.5h8q-2 49 -5 108.5t-3 104.5v340h-699v102h816v-1556h-95l-16 188h-6q-43 -86 -129.5 -147t-231.5 -61q-219 0 -336.5 140t-117.5 412zM238 532q0 -223 86 -337.5t262 -114.5q188 0 268 114.5t80 329.5v21 q0 225 -80 345t-260 120q-176 0 -266 -124t-90 -354z" />
<glyph unicode="&#x18d;" horiz-adv-x="1200" d="M117 623q0 227 129 357t356 130q143 0 251.5 -54t170 -155.5t61.5 -244.5q0 -190 -113.5 -318.5t-328.5 -193.5q127 -74 197.5 -146.5t70.5 -189.5q0 -135 -100 -209t-254 -74q-115 0 -209 29t-184 74l49 94q82 -45 166 -71.5t182 -26.5q115 0 173 52t58 132 q0 61 -29.5 106.5t-91 88.5t-159.5 96q-117 66 -206 137.5t-139 164.5t-50 222zM237 623q0 -154 83.5 -252t226.5 -170q113 29 208 83t152 144.5t57 227.5q0 164 -98 259t-264 95q-176 0 -270.5 -101.5t-94.5 -285.5z" />
<glyph unicode="&#x18e;" horiz-adv-x="1132" d="M125 0v106h684v609h-645v104h645v537h-684v106h803v-1462h-803z" />
<glyph unicode="&#x18f;" horiz-adv-x="1456" d="M119 719v59h1085q-8 279 -147.5 438.5t-409.5 159.5q-129 0 -232.5 -21.5t-189.5 -51.5v110q78 29 179.5 49.5t242.5 20.5q219 0 371.5 -90t232.5 -258t80 -402q0 -231 -71.5 -400t-211 -261t-343.5 -92q-299 0 -442.5 183t-143.5 556zM244 672q0 -301 111.5 -443.5 t349.5 -142.5t364.5 155.5t134.5 430.5h-960z" />
<glyph unicode="&#x190;" horiz-adv-x="1157" d="M113 389q0 156 89 249t244 124v6q-117 27 -194.5 107.5t-77.5 234.5q0 168 123 270.5t338 102.5q141 0 248.5 -37t185.5 -90l-57 -86q-78 47 -164 78.5t-211 31.5q-150 0 -245 -71.5t-95 -206.5q0 -139 95 -215t304 -76h209v-102h-215q-219 0 -336.5 -78t-117.5 -234 t104 -236.5t303 -80.5q117 0 230.5 29.5t201.5 74.5v-112q-84 -39 -194.5 -65.5t-243.5 -26.5q-272 0 -398 110.5t-126 298.5z" />
<glyph unicode="&#x191;" horiz-adv-x="1036" d="M-37 -266q23 -8 48.5 -14.5t56.5 -6.5q66 0 101.5 42t35.5 134v1573h803v-106h-684v-602h647v-107h-647v-766q0 -139 -67.5 -206.5t-178.5 -67.5q-39 0 -65.5 6t-49.5 16v105z" />
<glyph unicode="&#x192;" horiz-adv-x="1169" d="M190 -373q33 -8 65 -13t69 -5q92 0 136 54t44 177v1010h-207v63l207 35v160q0 197 80.5 286t242.5 89q55 0 101.5 -10.5t87.5 -22.5l-29 -96q-33 10 -74 19t-86 9q-106 0 -157.5 -62.5t-51.5 -213.5v-160h283v-96h-278v-1016q0 -164 -75 -245t-218 -81q-45 0 -79 5.5 t-61 13.5v100z" />
<glyph unicode="&#x193;" horiz-adv-x="1482" d="M127 729q0 221 89 392t257 267.5t404 96.5q178 0 325 -51v88q0 235 207 235q41 0 70.5 -7t48.5 -15v-101q-16 6 -45 13.5t-66 7.5q-53 0 -81.5 -30t-28.5 -97v-131l-50 -107q-186 88 -389 88q-193 0 -331 -82t-212.5 -228t-74.5 -339q0 -315 156.5 -480t457.5 -165 q106 0 189.5 15.5t150.5 37.5v500h-411v108h530v-679q-106 -43 -225 -64.5t-258 -21.5q-348 0 -530.5 198.5t-182.5 550.5z" />
<glyph unicode="&#x194;" horiz-adv-x="1216" d="M-4 1462h127l354 -848q35 -88 63.5 -160.5t45.5 -129.5q16 57 43.5 129.5t64.5 164.5l350 844h127l-518 -1241q70 -135 111 -248.5t41 -214.5q0 -106 -58.5 -178t-162.5 -72q-102 0 -160.5 71t-58.5 179q0 102 45 220t110 243zM475 -233q0 -78 31 -115t80 -37 q106 0 106 147q0 78 -30.5 167t-75.5 182q-45 -94 -78 -184.5t-33 -159.5z" />
<glyph unicode="&#x195;" horiz-adv-x="1875" d="M180 0v1556h115v-499q0 -82 -6 -156h8q41 90 132 149.5t226 59.5q180 0 275.5 -96t95.5 -301v-318q0 -162 68.5 -239.5t220.5 -77.5q147 0 214.5 81t67.5 251v696h115v-700q0 -217 -98 -323t-299 -106q-406 0 -406 406v322q0 156 -69.5 229.5t-200.5 73.5 q-344 0 -344 -414v-594h-115z" />
<glyph unicode="&#x196;" horiz-adv-x="659" d="M184 291v1171h119v-1155q0 -119 45 -170t131 -51q45 0 87 7t73 18v-101q-67 -30 -176 -30q-121 0 -200 67.5t-79 243.5z" />
<glyph unicode="&#x197;" horiz-adv-x="636" d="M72 709v104h186v551l-154 25v73h428v-73l-155 -25v-551h188v-104h-188v-613l155 -22v-74h-428v74l154 22v613h-186z" />
<glyph unicode="&#x198;" horiz-adv-x="1204" d="M205 0v1462h119v-768q41 49 86 99.5t88 103.5l395 422q82 92 139 124t127 32q29 0 49.5 -4.5t34.5 -10.5v-96q-14 4 -36.5 6t-43.5 2q-41 0 -81 -24.5t-95 -81.5l-393 -424l610 -842h-143l-549 758l-188 -187v-571h-119z" />
<glyph unicode="&#x199;" horiz-adv-x="1011" d="M180 0v1278q0 139 62.5 213t187.5 74q31 0 59.5 -5.5t47.5 -11.5v-102q-16 6 -40 11t-55 5q-70 0 -108.5 -43t-38.5 -137v-516q0 -66 -1 -136.5t-3 -137.5h4q23 31 57.5 72.5t65.5 74.5l413 451h140l-430 -467l467 -623h-140l-409 545l-164 -168v-377h-115z" />
<glyph unicode="&#x19a;" horiz-adv-x="475" d="M29 739v92h151v725h117v-725h152v-92h-152v-739h-117v739h-151z" />
<glyph unicode="&#x19b;" horiz-adv-x="1046" d="M-12 0l471 1090l-45 135l-230 -68l-28 88l221 66q-35 90 -73 123.5t-107 33.5q-31 0 -56.5 -4t-46.5 -10v98q25 6 54.5 11.5t64.5 5.5q111 0 167 -50.5t107 -175.5l238 70l27 -88l-230 -68l375 -1073q20 -57 44 -80.5t56 -23.5q16 0 31.5 3t24.5 7v-92q-33 -16 -86 -16 q-66 0 -104 35.5t-64 111.5l-205 590q-20 61 -44 127.5t-34 116.5h-8q-16 -55 -37.5 -115t-46.5 -117l-313 -731h-123z" />
<glyph unicode="&#x19c;" horiz-adv-x="2039" d="M182 414v1048h119v-1046q0 -176 72.5 -254t216.5 -78q182 0 273 99.5t91 324.5v954h119v-1046q0 -176 72 -254t217 -78q182 0 272 105.5t90 338.5v934h119v-1462h-94l-20 190h-7q-45 -88 -138 -149t-241 -61q-154 0 -238.5 60t-121.5 169h-8q-49 -106 -152 -167.5 t-250 -61.5q-193 0 -292 100t-99 334z" />
<glyph unicode="&#x19d;" horiz-adv-x="1492" d="M-37 -266q25 -8 49.5 -14.5t55.5 -6.5q66 0 101.5 42t35.5 134v1573h127l844 -1274h8q-4 63 -6 163t-2 184v927h110v-1462h-127l-846 1278h-6q4 -80 6 -169t2 -187v-1041q0 -139 -63 -206.5t-174 -67.5q-39 0 -65.5 6t-49.5 16v105z" />
<glyph unicode="&#x19e;" horiz-adv-x="1220" d="M180 0v1090h94l17 -189h8q43 90 136.5 149.5t232.5 59.5q186 0 284.5 -96t98.5 -301v-1205h-117v1197q0 156 -69.5 229.5t-209.5 73.5q-360 0 -360 -414v-594h-115z" />
<glyph unicode="&#x19f;" horiz-adv-x="1572" d="M127 735q0 223 74.5 391t223 263.5t368.5 95.5q211 0 355 -91t220 -259.5t76 -401.5q0 -223 -74 -393t-220 -265t-364 -95q-221 0 -367.5 95t-219 266t-72.5 394zM252 692q6 -182 65.5 -319t176 -213t292.5 -76t292 74.5t175.5 212t65.5 321.5h-1067zM252 797h1065 q-14 274 -145 427.5t-379 153.5q-174 0 -292 -72.5t-178.5 -203.5t-70.5 -305z" />
<glyph unicode="&#x1a0;" horiz-adv-x="1572" d="M127 735q0 223 74.5 391t223 263.5t368.5 95.5q168 0 293.5 -58.5t207.5 -166.5q78 23 117 94t39 202h119l12 -16q-25 -283 -238 -358q99 -179 99 -449q0 -223 -74 -393t-219 -265t-363 -95q-221 0 -367.5 95t-219 266t-72.5 394zM252 733q0 -195 57.5 -341t175 -227 t301.5 -81t302 81t174.5 226.5t56.5 341.5q0 303 -132 474t-394 171q-184 0 -304 -80.5t-178.5 -226t-58.5 -338.5z" />
<glyph unicode="&#x1a1;" horiz-adv-x="1212" d="M117 545q0 266 132 415.5t361 149.5q115 0 202 -39t146 -108q78 29 113 100.5t35 193.5h119l12 -16q-16 -143 -71.5 -229t-151.5 -125q78 -139 78 -342q0 -170 -56.5 -297t-166 -197.5t-267.5 -70.5q-152 0 -260.5 69.5t-166.5 196.5t-58 299zM238 545q0 -215 88 -340 t276 -125q193 0 281 125t88 340q0 209 -85 336t-278 127q-186 0 -278 -119t-92 -344z" />
<glyph unicode="&#x1a2;" horiz-adv-x="2183" d="M127 735q0 223 72.5 391t215 263.5t351.5 95.5q150 0 264.5 -52.5t194.5 -146.5q55 90 152.5 143.5t224.5 53.5q188 0 290.5 -107.5t102.5 -331.5v-1044h-119v1038q0 170 -75 254t-216 84q-225 0 -307 -164q113 -188 113 -479q0 -223 -71 -393t-212 -265t-350 -95 t-349.5 95t-211 266t-70.5 394zM252 733q0 -195 55 -341t169 -227t284 -81q174 0 285.5 81t166 226.5t54.5 341.5q0 303 -127 474t-373 171q-172 0 -286.5 -80.5t-171 -226t-56.5 -338.5z" />
<glyph unicode="&#x1a3;" horiz-adv-x="1695" d="M117 545q0 266 128 415.5t353 149.5q104 0 187 -34t141 -97q45 57 118.5 94t167.5 37q315 0 316 -381v-1221h-115v1213q0 287 -221 287q-74 0 -127 -26t-90 -71q45 -72 67.5 -164.5t22.5 -201.5q0 -170 -55.5 -297t-161 -197.5t-258.5 -70.5q-147 0 -254 69.5t-163 196.5 t-56 299zM238 545q0 -209 86 -337t266 -128q184 0 270 128t86 337q0 135 -36 239.5t-112.5 164t-201.5 59.5q-180 0 -269 -123t-89 -340z" />
<glyph unicode="&#x1a4;" horiz-adv-x="1359" d="M20 1206q0 119 72 187.5t215 68.5h416q526 0 526 -413q0 -211 -135 -331t-422 -120h-215v-598h-119v1358h-49q-96 0 -139 -42t-43 -114q0 -35 7 -65.5t13 -44.5h-106q-20 47 -21 114zM477 700h203q213 0 329.5 75t116.5 267q0 164 -101 240t-314 76h-234v-658z" />
<glyph unicode="&#x1a5;" horiz-adv-x="1226" d="M180 -483v1763q0 137 63.5 212t190.5 75q41 0 76 -7.5t55 -15.5v-100q-18 8 -48 13t-68 5q-76 0 -113 -43t-37 -137v-180q0 -43 -3 -106.5t-5 -106.5h8q41 90 130 155.5t241 65.5q209 0 326.5 -140.5t117.5 -418.5q0 -279 -123 -425t-332 -146q-143 0 -231 61t-129 147 h-8q4 -53 6 -112.5t2 -112.5v-446h-119zM299 545q0 -233 85 -349t261 -116q170 0 258 125t88 348q0 219 -84 337t-254 118q-182 0 -267 -114t-87 -329v-20z" />
<glyph unicode="&#x1a6;" horiz-adv-x="1228" d="M205 0v1462h119v-205h245q262 0 394.5 -92t132.5 -309q0 -168 -89 -262t-223 -135l402 -664h-142l-372 631h-348v-426h-119zM324 528h276q178 0 275.5 84t97.5 240q0 168 -101.5 233.5t-312.5 65.5h-235v-623z" />
<glyph unicode="&#x1a7;" horiz-adv-x="1118" d="M98 367q0 121 55.5 195.5t154 126.5t224.5 102q113 43 192 83.5t120 98t41 147.5q0 131 -89 193.5t-243 62.5q-84 0 -172 -20.5t-170 -57.5l-37 103q84 37 179.5 59.5t197.5 22.5q201 0 328 -89t127 -270q0 -117 -48.5 -195.5t-138.5 -132t-213 -98.5q-127 -47 -213 -91 t-130 -100t-44 -147q0 -139 103.5 -207.5t271.5 -68.5q119 0 225.5 26.5t184.5 57.5v-115q-68 -29 -171.5 -51t-236.5 -22q-145 0 -258 43t-176.5 129t-63.5 215z" />
<glyph unicode="&#x1a8;" horiz-adv-x="958" d="M82 283q0 94 46 152.5t125 97t179 73.5q94 35 162 63.5t103.5 67.5t35.5 103q0 84 -70.5 128t-199.5 44q-72 0 -149.5 -18.5t-141.5 -47.5l-41 96q70 29 154 48.5t174 19.5q188 0 287.5 -69.5t99.5 -204.5q0 -92 -45 -148.5t-123 -95.5t-178 -74q-154 -53 -228.5 -103 t-74.5 -141q0 -92 69.5 -144t229.5 -52q96 0 192 23.5t166 56.5v-109q-59 -29 -151.5 -49t-206.5 -20q-414 0 -414 303z" />
<glyph unicode="&#x1a9;" horiz-adv-x="1136" d="M63 0v96l529 666l-516 604v96h966v-108h-600h-111.5t-109.5 2l508 -590l-526 -660h899v-106h-1039z" />
<glyph unicode="&#x1aa;" horiz-adv-x="724" d="M-18 1337q0 94 62.5 162t193.5 68q121 0 189.5 -73t68.5 -206v-1456q0 -117 47 -169t137 -52q43 0 82 6t61 14v-94q-55 -25 -155 -24q-129 0 -208 70.5t-79 240.5v1282h-139q-127 0 -193.5 61.5t-66.5 169.5zM90 1339q0 -133 166 -133h125v74q0 186 -152 186 q-70 0 -104.5 -36.5t-34.5 -90.5z" />
<glyph unicode="&#x1ab;" horiz-adv-x="696" d="M27 995v66l161 37l41 252h74v-260h336v-95h-336v-688q0 -113 43 -171t141 -58q45 0 87 7t71 17v-346q0 -119 -58 -183.5t-169 -64.5q-41 0 -71 8.5t-48 16.5v100q20 -10 49 -16t62 -6q59 0 94 35t35 108v232q-35 -6 -76 -6q-129 0 -202 76.5t-73 246.5v692h-161z" />
<glyph unicode="&#x1ac;" horiz-adv-x="1093" d="M20 1204q0 119 70 188.5t221 69.5h783v-106h-471v-1356h-119v1356h-189q-98 0 -142 -41t-44 -111q0 -37 8 -68.5t15 -45.5h-111q-8 20 -14.5 52t-6.5 62z" />
<glyph unicode="&#x1ad;" horiz-adv-x="696" d="M27 995v66l161 37v200q0 129 67.5 199t190.5 70q45 0 80 -7.5t60 -17.5v-100q-20 8 -60.5 15t-81.5 7q-141 0 -141 -159v-215h336v-95h-336v-688q0 -229 184 -229q45 0 87 7t71 17v-94q-33 -12 -77 -20t-97 -8q-135 0 -209 76.5t-74 246.5v692h-161z" />
<glyph unicode="&#x1ae;" horiz-adv-x="1085" d="M12 1356v106h1061v-106h-471v-1444q0 -115 45 -161t123 -46q33 0 59.5 6t47.5 15v-105q-45 -22 -123 -22q-131 0 -201 73.5t-70 229.5v1454h-471z" />
<glyph unicode="&#x1af;" horiz-adv-x="1527" d="M188 520v942h119v-944q0 -211 112.5 -322.5t325.5 -111.5q209 0 317.5 111.5t108.5 312.5v954h117v-205q88 18 129 89t41 210h119l12 -16q-16 -152 -82.5 -247t-218.5 -126v-651q0 -250 -140 -393t-407 -143q-266 0 -409.5 143t-143.5 397z" />
<glyph unicode="&#x1b0;" horiz-adv-x="1277" d="M164 377v713h119v-705q0 -156 69.5 -230.5t208.5 -74.5q360 0 361 416v594h116v-127q84 20 121 92.5t37 201.5h117l12 -16q-14 -143 -77.5 -241.5t-209.5 -125.5v-874h-96l-16 186h-6q-45 -88 -138.5 -147t-230.5 -59q-387 0 -387 397z" />
<glyph unicode="&#x1b1;" horiz-adv-x="1589" d="M82 1356v106h571v-98q-203 -127 -300 -296t-97 -411q0 -270 142.5 -421.5t398.5 -151.5q254 0 394 154.5t140 418.5q0 248 -100.5 413t-292.5 294v98h571v-106h-415q102 -70 185 -168t131 -229.5t48 -303.5q0 -205 -81 -356.5t-229.5 -236.5t-350.5 -85q-207 0 -355.5 81 t-228.5 232.5t-80 362.5q0 258 101.5 428t259.5 275h-412z" />
<glyph unicode="&#x1b2;" horiz-adv-x="1478" d="M188 520v942h119v-942q0 -213 110.5 -324.5t323.5 -111.5q207 0 318.5 111.5t111.5 312.5v700q0 90 -40.5 129t-106.5 39q-45 0 -85 -12t-67 -29v107q29 16 73 28.5t99 12.5q115 0 179.5 -67.5t64.5 -198.5v-701q0 -250 -145.5 -393t-409.5 -143q-262 0 -403.5 143 t-141.5 397z" />
<glyph unicode="&#x1b3;" horiz-adv-x="1146" d="M-2 1364v102q16 6 41.5 12.5t60.5 6.5q74 0 118 -38t81 -116l307 -651l412 782h129l-481 -897v-565h-119v557l-350 721q-25 49 -50.5 75.5t-70.5 26.5q-49 0 -78 -16z" />
<glyph unicode="&#x1b4;" horiz-adv-x="1034" d="M0 1090h125l260 -678q33 -90 57.5 -161t38.5 -126h6q14 47 40 120.5t59 164.5l194 522q33 90 77 133t122 43q31 0 57.5 -5t42.5 -13v-95q-12 4 -30.5 8.5t-38.5 4.5q-49 0 -77 -31t-52 -92l-410 -1080q-55 -143 -131 -222t-205 -79q-41 0 -71.5 6.5t-59.5 14.5v98 q53 -18 117 -18q86 0 141 53t98 162l68 184z" />
<glyph unicode="&#x1b5;" horiz-adv-x="1177" d="M76 0v88l416 621h-328v98h393l369 549h-809v106h956v-88l-379 -567h305v-98h-370l-404 -603h873v-106h-1022z" />
<glyph unicode="&#x1b6;" horiz-adv-x="948" d="M82 0v76l303 436h-266v98h336l266 385h-594v95h733v-82l-278 -398h266v-98h-336l-291 -418h643v-94h-782z" />
<glyph unicode="&#x1b7;" horiz-adv-x="1189" d="M78 66v112q88 -47 199.5 -72.5t218.5 -25.5q205 0 311 88t106 246t-113.5 233.5t-336.5 75.5h-123v100l500 533h-729v106h884v-94l-516 -545q272 -4 415.5 -104.5t143.5 -304.5q0 -195 -137 -314.5t-405 -119.5q-250 0 -418 86z" />
<glyph unicode="&#x1b8;" horiz-adv-x="1161" d="M106 418q0 217 143.5 325.5t377.5 112.5l-465 512v94h876v-106h-723l459 -508v-90h-119q-203 0 -313.5 -82t-110.5 -258q0 -160 105.5 -249t310.5 -89q113 0 222.5 26.5t199.5 69.5v-110q-86 -41 -192.5 -63.5t-239.5 -22.5q-178 0 -296 56t-176.5 155.5t-58.5 226.5z " />
<glyph unicode="&#x1b9;" horiz-adv-x="958" d="M59 -41q0 227 144.5 347t402.5 128l-497 570v86h784v-103h-639l494 -565v-86h-101q-227 0 -348 -90t-121 -283q0 -164 101.5 -259t277.5 -95q106 0 200.5 23.5t164.5 56.5v-111q-70 -33 -161 -51.5t-212 -18.5q-154 0 -263.5 57.5t-168 159t-58.5 234.5z" />
<glyph unicode="&#x1ba;" horiz-adv-x="983" d="M57 -250q0 106 78 174t279 76q166 8 244.5 66.5t78.5 199.5q0 100 -51 153.5t-141 73t-207 19.5h-96v90l399 385h-557v103h727v-86l-414 -394q129 -2 232.5 -33.5t165 -105.5t61.5 -203q0 -174 -108.5 -266t-333.5 -100q-143 -8 -192.5 -47t-49.5 -107q0 -66 63.5 -102.5 t190.5 -36.5q104 0 186 17.5t152 45.5v-108q-57 -23 -143 -39.5t-195 -16.5q-172 0 -270.5 60.5t-98.5 181.5z" />
<glyph unicode="&#x1bb;" horiz-adv-x="1169" d="M111 0v98l507 621h-430v96h500q72 102 107.5 188.5t35.5 192.5q0 133 -77.5 203.5t-212.5 70.5q-102 0 -185.5 -37.5t-154.5 -97.5l-64 82q82 68 181.5 112t226.5 44q188 0 297.5 -99.5t109.5 -275.5q0 -109 -33.5 -199t-99.5 -184h209v-96h-274l-508 -617v-6h790v-96 h-925z" />
<glyph unicode="&#x1bc;" horiz-adv-x="1175" d="M111 1356v106h884v-106h-569v-471h111q150 0 265.5 -49.5t182 -145.5t66.5 -239q0 -225 -144.5 -348t-390.5 -123q-127 0 -222 24.5t-165 56.5v115q82 -41 179.5 -68.5t209.5 -27.5q184 0 296 91t112 280q0 176 -114 253.5t-292 77.5h-213v574h-196z" />
<glyph unicode="&#x1bd;" horiz-adv-x="925" d="M61 53v111q68 -33 156 -57.5t193 -24.5q156 0 236.5 69.5t80.5 184.5q0 113 -74.5 171t-234.5 58h-185v422h-151v103h719v-103h-461v-323h106q213 0 305.5 -89.5t92.5 -232.5q0 -96 -46 -177t-143 -131t-249 -50q-111 0 -200 20.5t-145 48.5z" />
<glyph unicode="&#x1be;" horiz-adv-x="923" d="M90 41v111q66 -31 150 -52.5t178 -21.5q166 0 232.5 58.5t66.5 148.5q0 63 -30 103t-86 67.5t-136 56.5q-55 20 -93 51t-57.5 85t-19.5 147v200h-176v66l176 37l41 252h76v-260h333v-95h-333v-198q0 -100 28.5 -137t87.5 -58q82 -29 152 -64.5t110.5 -93t40.5 -149.5 q0 -143 -104 -229t-311 -86q-113 0 -193 17t-133 44z" />
<glyph unicode="&#x1bf;" horiz-adv-x="1216" d="M180 -483v1573h96l15 -209h6q39 90 127 159.5t244 69.5q190 0 306 -118t116 -337q0 -201 -96.5 -348t-274.5 -231t-422 -90v-469h-117zM297 84q317 16 494.5 162.5t177.5 406.5q0 164 -85 259.5t-237 95.5q-188 0 -269 -118t-81 -335v-471z" />
<glyph unicode="&#x1c0;" horiz-adv-x="710" d="M303 0v1556h107v-1556h-107z" />
<glyph unicode="&#x1c1;" horiz-adv-x="1116" d="M303 0v1556h107v-1556h-107zM709 0v1556h107v-1556h-107z" />
<glyph unicode="&#x1c2;" horiz-adv-x="1056" d="M135 567v101h340v241h-340v101h340v546h107v-546h340v-101h-340v-241h340v-101h-340v-567h-107v567h-340z" />
<glyph unicode="&#x1c3;" horiz-adv-x="501" d="M160 78q0 100 90 100t90 -100t-90 -101q-90 1 -90 101zM184 1462h140l-29 -1077h-84z" />
<glyph unicode="&#x1c4;" horiz-adv-x="2613" d="M205 0v1462h405q348 0 532.5 -183.5t184.5 -533.5q0 -369 -194.5 -557t-567.5 -188h-360zM324 104h233q647 0 647 637q0 616 -616 617h-264v-1254zM1512 0v88l850 1268h-809v106h956v-88l-848 -1268h873v-106h-1022zM1724 1919v19h82q55 -45 113.5 -104.5t103.5 -117.5 q49 57 107.5 117t113.5 105h84v-19q-39 -39 -87 -94t-92 -110.5t-69 -100.5h-114q-25 45 -68 100.5t-90 110.5t-84 94z" />
<glyph unicode="&#x1c5;" horiz-adv-x="2404" d="M205 0v1462h405q348 0 532.5 -183.5t184.5 -533.5q0 -369 -194.5 -557t-567.5 -188h-360zM324 104h233q647 0 647 637q0 616 -616 617h-264v-1254zM1538 0v76l639 919h-594v95h733v-82l-639 -914h643v-94h-782zM1626 1546v19h82q55 -45 113.5 -104.5t103.5 -117.5 q49 57 107.5 117t113.5 105h84v-19q-39 -39 -87 -94t-92 -110.5t-69 -100.5h-114q-25 45 -68 100.5t-90 110.5t-84 94z" />
<glyph unicode="&#x1c6;" horiz-adv-x="2174" d="M117 532q0 283 124 430.5t341 147.5q137 0 223 -59.5t127 -149.5h8q-2 49 -5 108.5t-3 104.5v442h117v-1556h-95l-16 188h-6q-43 -86 -129.5 -147t-231.5 -61q-219 0 -336.5 140t-117.5 412zM238 532q0 -223 86 -337.5t262 -114.5q188 0 268 114.5t80 329.5v21 q0 225 -80 345t-260 120q-176 0 -266 -124t-90 -354zM1309 0v76l639 919h-594v95h733v-82l-639 -914h643v-94h-782zM1397 1546v19h82q55 -45 113.5 -104.5t103.5 -117.5q49 57 107.5 117t113.5 105h84v-19q-39 -39 -87 -94t-92 -110.5t-69 -100.5h-114q-25 45 -68 100.5 t-90 110.5t-84 94z" />
<glyph unicode="&#x1c7;" horiz-adv-x="1572" d="M205 0v1462h119v-1356h684v-106h-803zM875 -242q31 -8 69.5 -16t83.5 -8q229 0 230 274v1454h119v-1450q0 -180 -87.5 -282.5t-259.5 -102.5q-53 0 -90 8.5t-65 16.5v106z" />
<glyph unicode="&#x1c8;" horiz-adv-x="1531" d="M205 0v1462h119v-1356h684v-106h-803zM949 -369q57 -23 129 -22q74 0 115.5 45t41.5 141v1295h115v-1295q0 -139 -68.5 -213t-193.5 -74q-88 0 -139 23v100zM1215 1405q0 88 78 88q82 0 81 -88q0 -90 -81 -90q-78 0 -78 90z" />
<glyph unicode="&#x1c9;" horiz-adv-x="952" d="M180 0v1556h117v-1556h-117zM369 -369q57 -23 129 -22q74 0 115.5 45t41.5 141v1295h115v-1295q0 -139 -68.5 -213t-193.5 -74q-88 0 -139 23v100zM635 1405q0 88 78 88q82 0 81 -88q0 -90 -81 -90q-78 0 -78 90z" />
<glyph unicode="&#x1ca;" horiz-adv-x="2009" d="M205 0v1462h127l844 -1274h8q-4 63 -6 163t-2 184v927h110v-1462h-127l-846 1278h-6q4 -80 6 -169t2 -187v-922h-110zM1313 -242q31 -8 69.5 -16t83.5 -8q229 0 230 274v1454h119v-1450q0 -180 -87.5 -282.5t-259.5 -102.5q-53 0 -90 8.5t-65 16.5v106z" />
<glyph unicode="&#x1cb;" horiz-adv-x="1968" d="M205 0v1462h127l844 -1274h8q-4 63 -6 163t-2 184v927h110v-1462h-127l-846 1278h-6q4 -80 6 -169t2 -187v-922h-110zM1387 -369q57 -23 129 -22q74 0 115.5 45t41.5 141v1295h115v-1295q0 -139 -68.5 -213t-193.5 -74q-88 0 -139 23v100zM1653 1405q0 88 78 88 q82 0 81 -88q0 -90 -81 -90q-78 0 -78 90z" />
<glyph unicode="&#x1cc;" horiz-adv-x="1695" d="M180 0v1090h94l17 -189h8q43 90 136.5 149.5t232.5 59.5q186 0 284.5 -96t98.5 -301v-713h-117v705q0 156 -70.5 229.5t-208.5 73.5q-360 0 -360 -414v-594h-115zM1115 -369q57 -23 129 -22q74 0 115.5 45t41.5 141v1295h115v-1295q0 -139 -68.5 -213t-193.5 -74 q-88 0 -139 23v100zM1381 1405q0 88 78 88q82 0 81 -88q0 -90 -81 -90q-78 0 -78 90z" />
<glyph unicode="&#x1cd;" horiz-adv-x="1245" d="M0 0l573 1466h111l561 -1466h-125l-194 504h-607l-198 -504h-121zM324 1919v19h82q55 -45 113.5 -104.5t103.5 -117.5q49 57 107.5 117t113.5 105h84v-19q-39 -39 -87 -94t-92 -110.5t-69 -100.5h-114q-25 45 -68 100.5t-90 110.5t-84 94zM358 610h531l-197 529 q-8 29 -28.5 90t-36.5 108q-16 -53 -35 -107t-31 -93z" />
<glyph unicode="&#x1ce;" horiz-adv-x="1097" d="M96 285q0 162 132 247.5t388 96.5l199 10v76q0 162 -64.5 228.5t-189.5 66.5q-84 0 -161.5 -21.5t-155.5 -62.5l-37 94q76 39 168 63.5t190 24.5q184 0 274.5 -90t90.5 -285v-733h-88l-23 184h-4q-57 -92 -143 -148t-238 -56q-156 0 -247 77.5t-91 227.5zM217 283 q0 -100 63.5 -152.5t174.5 -52.5q170 0 263 96t97 270v105l-184 -8q-209 -8 -311.5 -70.5t-102.5 -187.5zM242 1546v19h82q55 -45 113.5 -104.5t103.5 -117.5q49 57 107.5 117t113.5 105h84v-19q-39 -39 -87 -94t-92 -110.5t-69 -100.5h-114q-25 45 -68 100.5t-90 110.5 t-84 94z" />
<glyph unicode="&#x1cf;" horiz-adv-x="636" d="M16 1919v19h82q55 -45 113.5 -104.5t103.5 -117.5q49 57 107.5 117t113.5 105h84v-19q-39 -39 -87 -94t-92 -110.5t-69 -100.5h-114q-25 45 -68 100.5t-90 110.5t-84 94zM102 0v74l156 22v1268l-156 25v73h430v-73l-155 -25v-1268l155 -22v-74h-430z" />
<glyph unicode="&#x1d0;" horiz-adv-x="475" d="M-65 1546v19h82q55 -45 113.5 -104.5t103.5 -117.5q49 57 107.5 117t113.5 105h84v-19q-39 -39 -87 -94t-92 -110.5t-69 -100.5h-114q-25 45 -68 100.5t-90 110.5t-84 94zM180 0v1090h115v-1090h-115z" />
<glyph unicode="&#x1d1;" horiz-adv-x="1572" d="M127 735q0 223 74.5 391t223 263.5t368.5 95.5q211 0 355 -91t220 -259.5t76 -401.5q0 -223 -74 -393t-220 -265t-364 -95q-221 0 -367.5 95t-219 266t-72.5 394zM252 733q0 -195 57.5 -341t176 -227t300.5 -81q184 0 302 81t174.5 226.5t56.5 341.5q0 303 -132 474 t-394 171q-182 0 -303 -80.5t-179.5 -226t-58.5 -338.5zM483 1919v19h82q55 -45 113.5 -104.5t103.5 -117.5q49 57 107.5 117t113.5 105h84v-19q-39 -39 -87 -94t-92 -110.5t-69 -100.5h-114q-25 45 -68 100.5t-90 110.5t-84 94z" />
<glyph unicode="&#x1d2;" horiz-adv-x="1208" d="M117 545q0 266 132 415.5t361 149.5q156 0 263.5 -70.5t163 -197.5t55.5 -297t-56.5 -297t-166 -197.5t-267.5 -70.5q-152 0 -260.5 69.5t-166.5 196.5t-58 299zM238 545q0 -209 88 -337t276 -128q190 0 279.5 128t89.5 337q0 135 -37 239.5t-117 164t-209 59.5 q-186 0 -278 -123t-92 -340zM301 1546v19h82q55 -45 113.5 -104.5t103.5 -117.5q49 57 107.5 117t113.5 105h84v-19q-39 -39 -87 -94t-92 -110.5t-69 -100.5h-114q-25 45 -68 100.5t-90 110.5t-84 94z" />
<glyph unicode="&#x1d3;" horiz-adv-x="1478" d="M188 520v942h119v-942q0 -213 110.5 -324.5t323.5 -111.5q207 0 318.5 111.5t111.5 312.5v954h117v-946q0 -250 -145.5 -393t-409.5 -143q-262 0 -403.5 143t-141.5 397zM436 1919v19h82q55 -45 113.5 -104.5t103.5 -117.5q49 57 107.5 117t113.5 105h84v-19 q-39 -39 -87 -94t-92 -110.5t-69 -100.5h-114q-25 45 -68 100.5t-90 110.5t-84 94z" />
<glyph unicode="&#x1d4;" horiz-adv-x="1220" d="M164 377v713h119v-705q0 -156 69.5 -230.5t208.5 -74.5q360 0 361 416v594h116v-1090h-96l-16 186h-6q-45 -88 -138.5 -147t-232.5 -59q-385 0 -385 397zM307 1546v19h82q55 -45 113.5 -104.5t103.5 -117.5q49 57 107.5 117t113.5 105h84v-19q-39 -39 -87 -94t-92 -110.5 t-69 -100.5h-114q-25 45 -68 100.5t-90 110.5t-84 94z" />
<glyph unicode="&#x1d5;" horiz-adv-x="1478" d="M188 520v942h119v-942q0 -213 110.5 -324.5t323.5 -111.5q207 0 318.5 111.5t111.5 312.5v954h117v-946q0 -250 -145.5 -393t-409.5 -143q-262 0 -403.5 143t-141.5 397zM456 1946v98h566v-98h-566zM477 1733q-1 82 69 82q74 0 74 -82t-74 -82q-70 0 -69 82zM858 1733 q-1 82 69 82q74 0 74 -82t-74 -82q-70 0 -69 82z" />
<glyph unicode="&#x1d6;" horiz-adv-x="1220" d="M164 377v713h119v-705q0 -156 69.5 -230.5t208.5 -74.5q360 0 361 416v594h116v-1090h-96l-16 186h-6q-45 -88 -138.5 -147t-232.5 -59q-385 0 -385 397zM327 1573v98h566v-98h-566zM348 1360q-1 82 69 82q74 0 74 -82t-74 -82q-70 0 -69 82zM729 1360q-1 82 69 82 q74 0 74 -82t-74 -82q-70 0 -69 82z" />
<glyph unicode="&#x1d7;" horiz-adv-x="1478" d="M188 520v942h119v-942q0 -213 110.5 -324.5t323.5 -111.5q207 0 318.5 111.5t111.5 312.5v954h117v-946q0 -250 -145.5 -393t-409.5 -143q-262 0 -403.5 143t-141.5 397zM477 1733q0 82 69 82q74 0 74 -82t-74 -82q-70 0 -69 82zM665 1889v16q53 57 114.5 133t100.5 143 h138v-18q-29 -41 -74 -90t-97.5 -97.5t-99.5 -86.5h-82zM858 1733q0 82 69 82q74 0 74 -82t-74 -82q-70 0 -69 82z" />
<glyph unicode="&#x1d8;" horiz-adv-x="1220" d="M164 377v713h119v-705q0 -156 69.5 -230.5t208.5 -74.5q360 0 361 416v594h116v-1090h-96l-16 186h-6q-45 -88 -138.5 -147t-232.5 -59q-385 0 -385 397zM348 1360q0 82 69 82q74 0 74 -82t-74 -82q-70 0 -69 82zM536 1516v16q53 57 114.5 133t100.5 143h138v-18 q-29 -41 -74 -90t-97.5 -97.5t-99.5 -86.5h-82zM729 1360q0 82 69 82q74 0 74 -82t-74 -82q-70 0 -69 82z" />
<glyph unicode="&#x1d9;" horiz-adv-x="1478" d="M188 520v942h119v-942q0 -213 110.5 -324.5t323.5 -111.5q207 0 318.5 111.5t111.5 312.5v954h117v-946q0 -250 -145.5 -393t-409.5 -143q-262 0 -403.5 143t-141.5 397zM440 2163v18h78q57 -43 114.5 -89t106.5 -101q51 55 107.5 103t111.5 87h80v-18q-37 -35 -84 -83 t-90 -99.5t-68 -91.5h-114q-25 41 -68 92t-90 99t-84 83zM477 1733q0 82 69 82q74 0 74 -82t-74 -82q-70 0 -69 82zM858 1733q0 82 69 82q74 0 74 -82t-74 -82q-70 0 -69 82z" />
<glyph unicode="&#x1da;" horiz-adv-x="1220" d="M164 377v713h119v-705q0 -156 69.5 -230.5t208.5 -74.5q360 0 361 416v594h116v-1090h-96l-16 186h-6q-45 -88 -138.5 -147t-232.5 -59q-385 0 -385 397zM311 1790v18h78q57 -43 114.5 -89t106.5 -101q51 55 107.5 103t111.5 87h80v-18q-37 -35 -84 -83t-90 -99.5 t-68 -91.5h-114q-25 41 -68 92t-90 99t-84 83zM348 1360q0 82 69 82q74 0 74 -82t-74 -82q-70 0 -69 82zM729 1360q0 82 69 82q74 0 74 -82t-74 -82q-70 0 -69 82z" />
<glyph unicode="&#x1db;" horiz-adv-x="1478" d="M188 520v942h119v-942q0 -213 110.5 -324.5t323.5 -111.5q207 0 318.5 111.5t111.5 312.5v954h117v-946q0 -250 -145.5 -393t-409.5 -143q-262 0 -403.5 143t-141.5 397zM465 2163v18h139q39 -68 100.5 -143.5t114.5 -132.5v-16h-82q-72 57 -149.5 135t-122.5 139z M477 1733q-1 82 69 82q74 0 74 -82t-74 -82q-70 0 -69 82zM858 1733q-1 82 69 82q74 0 74 -82t-74 -82q-70 0 -69 82z" />
<glyph unicode="&#x1dc;" horiz-adv-x="1220" d="M164 377v713h119v-705q0 -156 69.5 -230.5t208.5 -74.5q360 0 361 416v594h116v-1090h-96l-16 186h-6q-45 -88 -138.5 -147t-232.5 -59q-385 0 -385 397zM336 1790v18h139q39 -68 100.5 -143.5t114.5 -132.5v-16h-82q-72 57 -149.5 135t-122.5 139zM348 1360q-1 82 69 82 q74 0 74 -82t-74 -82q-70 0 -69 82zM729 1360q-1 82 69 82q74 0 74 -82t-74 -82q-70 0 -69 82z" />
<glyph unicode="&#x1dd;" horiz-adv-x="1130" d="M115 479v82h778q0 215 -100.5 331t-288.5 116q-102 0 -178 -16.5t-166 -57.5v106q82 37 162 53.5t186 16.5q244 0 375 -149.5t131 -407.5q0 -166 -56.5 -296t-163 -203.5t-257.5 -73.5q-139 0 -233.5 64.5t-141.5 177t-47 257.5zM236 463q0 -172 73.5 -278.5 t229.5 -106.5q150 0 242 100.5t108 284.5h-653z" />
<glyph unicode="&#x1de;" horiz-adv-x="1245" d="M0 0l573 1466h111l561 -1466h-125l-194 504h-607l-198 -504h-121zM344 1946v98h566v-98h-566zM358 610h531l-197 529q-8 29 -28.5 90t-36.5 108q-16 -53 -35 -107t-31 -93zM365 1733q-1 82 69 82q74 0 74 -82t-74 -82q-70 0 -69 82zM746 1733q-1 82 69 82q74 0 74 -82 t-74 -82q-70 0 -69 82z" />
<glyph unicode="&#x1df;" horiz-adv-x="1097" d="M96 285q0 162 132 247.5t388 96.5l199 10v76q0 162 -64.5 228.5t-189.5 66.5q-84 0 -161.5 -21.5t-155.5 -62.5l-37 94q76 39 168 63.5t190 24.5q184 0 274.5 -90t90.5 -285v-733h-88l-23 184h-4q-57 -92 -143 -148t-238 -56q-156 0 -247 77.5t-91 227.5zM217 283 q0 -100 63.5 -152.5t174.5 -52.5q170 0 263 96t97 270v105l-184 -8q-209 -8 -311.5 -70.5t-102.5 -187.5zM262 1573v98h566v-98h-566zM283 1360q-1 82 69 82q74 0 74 -82t-74 -82q-70 0 -69 82zM664 1360q-1 82 69 82q74 0 74 -82t-74 -82q-70 0 -69 82z" />
<glyph unicode="&#x1e0;" horiz-adv-x="1245" d="M0 0l573 1466h111l561 -1466h-125l-194 504h-607l-198 -504h-121zM344 1903v96h566v-96h-566zM358 610h531l-197 529q-8 29 -28.5 90t-36.5 108q-16 -53 -35 -107t-31 -93zM549 1688q0 90 78 90q82 0 82 -90q0 -88 -82 -89q-78 0 -78 89z" />
<glyph unicode="&#x1e1;" horiz-adv-x="1097" d="M96 285q0 162 132 247.5t388 96.5l199 10v76q0 162 -64.5 228.5t-189.5 66.5q-84 0 -161.5 -21.5t-155.5 -62.5l-37 94q76 39 168 63.5t190 24.5q184 0 274.5 -90t90.5 -285v-733h-88l-23 184h-4q-57 -92 -143 -148t-238 -56q-156 0 -247 77.5t-91 227.5zM217 283 q0 -100 63.5 -152.5t174.5 -52.5q170 0 263 96t97 270v105l-184 -8q-209 -8 -311.5 -70.5t-102.5 -187.5zM262 1575v96h566v-96h-566zM465 1360q0 90 80 90q78 0 78 -90q0 -88 -78 -88q-80 0 -80 88z" />
<glyph unicode="&#x1e2;" horiz-adv-x="1683" d="M-2 0l661 1462h951v-106h-658v-537h617v-104h-617v-609h658v-106h-776v504h-482l-227 -504h-127zM399 610h435v746h-103zM635 1622v99h565v-99h-565z" />
<glyph unicode="&#x1e3;" horiz-adv-x="1755" d="M96 285q0 162 130 247.5t374 96.5l191 10v78q0 160 -66 226.5t-184 66.5q-78 0 -156 -21.5t-156 -62.5l-36 94q78 41 170 64.5t186 23.5q135 0 215 -58.5t108 -185.5q49 111 141.5 178.5t223.5 67.5t222 -64.5t137 -177t44 -258.5v-80h-731q0 -223 94.5 -335.5 t264.5 -112.5q94 0 166.5 16.5t160.5 57.5v-107q-80 -37 -157.5 -53t-171.5 -16q-156 0 -262.5 73.5t-155.5 200.5q-55 -125 -151.5 -199.5t-260.5 -74.5q-158 0 -249 77.5t-91 227.5zM217 283q0 -100 61.5 -152.5t172.5 -52.5q160 0 247.5 96t89.5 270v105l-174 -8 q-197 -8 -297 -70.5t-100 -187.5zM598 1249v99h565v-99h-565zM913 627h605q2 172 -69 278.5t-214 106.5q-133 0 -220 -98.5t-102 -286.5z" />
<glyph unicode="&#x1e4;" horiz-adv-x="1482" d="M127 725q0 223 89 394t257 268.5t404 97.5q119 0 227 -22.5t203 -65.5l-50 -107q-186 88 -391 88q-195 0 -332 -80.5t-210.5 -226t-73.5 -342.5q0 -324 156.5 -484.5t457.5 -160.5q106 0 189.5 14.5t150.5 40.5v185h-368v98h368v225h-411v107h530v-332h131v-98h-131v-256 q-102 -41 -217 -64.5t-256 -23.5q-365 0 -544 198.5t-179 546.5z" />
<glyph unicode="&#x1e5;" horiz-adv-x="1226" d="M117 551q0 256 118 407.5t343 151.5q129 0 214 -49t136 -137h6l18 166h95v-1199h139v-96h-150q-23 -131 -135.5 -209t-322.5 -78q-123 0 -217.5 20.5t-172.5 53.5v113q78 -39 177.5 -62.5t216.5 -23.5q147 0 229 47t104 139h-360v96h375v170q0 78 6 160h-6 q-45 -106 -139.5 -159.5t-225.5 -53.5q-213 0 -330.5 140.5t-117.5 402.5zM238 549q0 -215 87 -329t253 -114q135 0 211.5 54.5t109.5 147.5t33 212v66q0 201 -77 311.5t-265 110.5q-176 0 -264 -121t-88 -338z" />
<glyph unicode="&#x1e6;" horiz-adv-x="1482" d="M127 729q0 221 89 392t257 267.5t404 96.5q119 0 227 -22.5t203 -65.5l-50 -107q-186 88 -389 88q-193 0 -331 -82t-212.5 -228t-74.5 -339q0 -315 156.5 -480t457.5 -165q106 0 189.5 15.5t150.5 37.5v500h-411v108h530v-679q-106 -43 -225 -64.5t-258 -21.5 q-348 0 -530.5 198.5t-182.5 550.5zM518 1919v19h82q55 -45 113.5 -104.5t103.5 -117.5q49 57 107.5 117t113.5 105h84v-19q-39 -39 -87 -94t-92 -110.5t-69 -100.5h-114q-25 45 -68 100.5t-90 110.5t-84 94z" />
<glyph unicode="&#x1e7;" horiz-adv-x="1226" d="M117 537q0 264 118 418.5t343 154.5q129 0 214 -49t136 -137h6l18 166h95v-1125q0 -215 -110 -336t-359 -121q-123 0 -217.5 20.5t-172.5 53.5v113q78 -39 177.5 -62.5t216.5 -23.5q178 0 263 94t85 256v64q0 43 2 86t4 84h-6q-45 -106 -139.5 -159.5t-225.5 -53.5 q-213 0 -330.5 143t-117.5 414zM238 535q0 -223 87 -340t253 -117q135 0 211.5 55t109.5 151.5t33 219.5v69q0 209 -77 322t-265 113q-176 0 -264 -124t-88 -349zM291 1546v19h82q55 -45 113.5 -104.5t103.5 -117.5q49 57 107.5 117t113.5 105h84v-19q-39 -39 -87 -94 t-92 -110.5t-69 -100.5h-114q-25 45 -68 100.5t-90 110.5t-84 94z" />
<glyph unicode="&#x1e8;" horiz-adv-x="1204" d="M205 0v1462h119v-760q41 47 86 95.5t90 97.5l540 567h148l-594 -622l610 -840h-143l-555 758l-182 -174v-584h-119zM344 1919v19h82q55 -45 113.5 -104.5t103.5 -117.5q49 57 107.5 117t113.5 105h84v-19q-39 -39 -87 -94t-92 -110.5t-69 -100.5h-114q-25 45 -68 100.5 t-90 110.5t-84 94z" />
<glyph unicode="&#x1e9;" horiz-adv-x="1011" d="M-65 2013v19h82q55 -45 113.5 -104.5t103.5 -117.5q49 57 107.5 117t113.5 105h84v-19q-39 -39 -87 -94t-92 -110.5t-69 -100.5h-114q-25 45 -68 100.5t-90 110.5t-84 94zM180 0v1556h115v-790q0 -66 -2 -136.5t-2 -140.5h2q27 33 60.5 75t64.5 75l413 451h140l-430 -467 l467 -623h-140l-409 545l-164 -168v-377h-115z" />
<glyph unicode="&#x1ea;" horiz-adv-x="1572" d="M127 735q0 223 74.5 391t223 263.5t368.5 95.5q211 0 355 -91t220 -259.5t76 -401.5q0 -223 -74 -393t-220 -265t-364 -95q-221 0 -367.5 95t-219 266t-72.5 394zM252 733q0 -195 57.5 -341t176 -227t300.5 -81q184 0 302 81t174.5 226.5t56.5 341.5q0 303 -132 474 t-394 171q-182 0 -303 -80.5t-179.5 -226t-58.5 -338.5zM635 -266q0 80 56.5 155.5t140.5 137.5l67 -27q-70 -61 -117 -122.5t-47 -131.5q0 -106 105 -106q33 0 57.5 4t40.5 8v-82q-20 -6 -49 -11t-66 -5q-90 0 -139 45t-49 135z" />
<glyph unicode="&#x1eb;" horiz-adv-x="1208" d="M117 545q0 266 132 415.5t361 149.5q156 0 263.5 -70.5t163 -197.5t55.5 -297t-56.5 -297t-166 -197.5t-267.5 -70.5q-152 0 -260.5 69.5t-166.5 196.5t-58 299zM238 545q0 -209 88 -337t276 -128q190 0 279.5 128t89.5 337q0 135 -37 239.5t-117 164t-209 59.5 q-186 0 -278 -123t-92 -340zM475 -266q0 80 56.5 155.5t140.5 137.5l67 -27q-70 -61 -117 -122.5t-47 -131.5q0 -106 105 -106q33 0 57.5 4t40.5 8v-82q-20 -6 -49 -11t-66 -5q-90 0 -139 45t-49 135z" />
<glyph unicode="&#x1ec;" horiz-adv-x="1572" d="M127 735q0 223 74.5 391t223 263.5t368.5 95.5q211 0 355 -91t220 -259.5t76 -401.5q0 -223 -74 -393t-220 -265t-364 -95q-221 0 -367.5 95t-219 266t-72.5 394zM252 733q0 -195 57.5 -341t176 -227t300.5 -81q184 0 302 81t174.5 226.5t56.5 341.5q0 303 -132 474 t-394 171q-182 0 -303 -80.5t-179.5 -226t-58.5 -338.5zM502 1622v99h565v-99h-565zM672 -266q0 80 56.5 155.5t140.5 137.5l67 -27q-70 -61 -117 -122.5t-47 -131.5q0 -106 105 -106q33 0 57.5 4t40.5 8v-82q-20 -6 -49 -11t-66 -5q-90 0 -139 45t-49 135z" />
<glyph unicode="&#x1ed;" horiz-adv-x="1208" d="M117 545q0 266 132 415.5t361 149.5q156 0 263.5 -70.5t163 -197.5t55.5 -297t-56.5 -297t-166 -197.5t-267.5 -70.5q-152 0 -260.5 69.5t-166.5 196.5t-58 299zM238 545q0 -209 88 -337t276 -128q190 0 279.5 128t89.5 337q0 135 -37 239.5t-117 164t-209 59.5 q-186 0 -278 -123t-92 -340zM320 1249v99h565v-99h-565zM475 -266q0 80 56.5 155.5t140.5 137.5l67 -27q-70 -61 -117 -122.5t-47 -131.5q0 -106 105 -106q33 0 57.5 4t40.5 8v-82q-20 -6 -49 -11t-66 -5q-90 0 -139 45t-49 135z" />
<glyph unicode="&#x1ee;" horiz-adv-x="1189" d="M78 66v112q88 -47 199.5 -72.5t218.5 -25.5q205 0 311 88t106 246t-113.5 233.5t-336.5 75.5h-123v100l500 533h-729v106h884v-94l-516 -545q272 -4 415.5 -104.5t143.5 -304.5q0 -195 -137 -314.5t-405 -119.5q-250 0 -418 86zM260 1919v19h82q55 -45 113.5 -104.5 t103.5 -117.5q49 57 107.5 117t113.5 105h84v-19q-39 -39 -87 -94t-92 -110.5t-69 -100.5h-114q-25 45 -68 100.5t-90 110.5t-84 94z" />
<glyph unicode="&#x1ef;" horiz-adv-x="958" d="M31 -311q72 -33 164 -56.5t198 -23.5q176 0 278.5 101.5t102.5 273.5q0 182 -121 267t-350 85h-98v86l495 565h-639v103h787v-86l-504 -570q264 -8 405.5 -121.5t141.5 -326.5q0 -141 -60.5 -249t-173 -168.5t-268.5 -60.5q-115 0 -202 18.5t-156 51.5v111zM148 1546v19 h82q55 -45 113.5 -104.5t103.5 -117.5q49 57 107.5 117t113.5 105h84v-19q-39 -39 -87 -94t-92 -110.5t-69 -100.5h-114q-25 45 -68 100.5t-90 110.5t-84 94z" />
<glyph unicode="&#x1f0;" horiz-adv-x="475" d="M-106 -369q57 -23 129 -22q74 0 115.5 45t41.5 141v1295h115v-1295q0 -139 -68.5 -213t-193.5 -74q-88 0 -139 23v100zM-65 1546v19h82q55 -45 113.5 -104.5t103.5 -117.5q49 57 107.5 117t113.5 105h84v-19q-39 -39 -87 -94t-92 -110.5t-69 -100.5h-114 q-25 45 -68 100.5t-90 110.5t-84 94z" />
<glyph unicode="&#x1f1;" horiz-adv-x="2613" d="M205 0v1462h405q348 0 532.5 -183.5t184.5 -533.5q0 -369 -194.5 -557t-567.5 -188h-360zM324 104h233q647 0 647 637q0 616 -616 617h-264v-1254zM1512 0v88l850 1268h-809v106h956v-88l-848 -1268h873v-106h-1022z" />
<glyph unicode="&#x1f2;" horiz-adv-x="2404" d="M205 0v1462h405q348 0 532.5 -183.5t184.5 -533.5q0 -369 -194.5 -557t-567.5 -188h-360zM324 104h233q647 0 647 637q0 616 -616 617h-264v-1254zM1538 0v76l639 919h-594v95h733v-82l-639 -914h643v-94h-782z" />
<glyph unicode="&#x1f3;" horiz-adv-x="2174" d="M117 532q0 283 124 430.5t341 147.5q137 0 223 -59.5t127 -149.5h8q-2 49 -5 108.5t-3 104.5v442h117v-1556h-95l-16 188h-6q-43 -86 -129.5 -147t-231.5 -61q-219 0 -336.5 140t-117.5 412zM238 532q0 -223 86 -337.5t262 -114.5q188 0 268 114.5t80 329.5v21 q0 225 -80 345t-260 120q-176 0 -266 -124t-90 -354zM1309 0v76l639 919h-594v95h733v-82l-639 -914h643v-94h-782z" />
<glyph unicode="&#x1f4;" horiz-adv-x="1482" d="M127 729q0 221 89 392t257 267.5t404 96.5q119 0 227 -22.5t203 -65.5l-50 -107q-186 88 -389 88q-193 0 -331 -82t-212.5 -228t-74.5 -339q0 -315 156.5 -480t457.5 -165q106 0 189.5 15.5t150.5 37.5v500h-411v108h530v-679q-106 -43 -225 -64.5t-258 -21.5 q-348 0 -530.5 198.5t-182.5 550.5zM733 1614v19q37 39 83 94t88 112.5t69 102.5h139v-17q-31 -43 -81 -100t-107.5 -113.5t-108.5 -97.5h-82z" />
<glyph unicode="&#x1f5;" horiz-adv-x="1226" d="M117 537q0 264 118 418.5t343 154.5q129 0 214 -49t136 -137h6l18 166h95v-1125q0 -215 -110 -336t-359 -121q-123 0 -217.5 20.5t-172.5 53.5v113q78 -39 177.5 -62.5t216.5 -23.5q178 0 263 94t85 256v64q0 43 2 86t4 84h-6q-45 -106 -139.5 -159.5t-225.5 -53.5 q-213 0 -330.5 143t-117.5 414zM238 535q0 -223 87 -340t253 -117q135 0 211.5 55t109.5 151.5t33 219.5v69q0 209 -77 322t-265 113q-176 0 -264 -124t-88 -349zM506 1241v19q37 39 83 94t88 112.5t69 102.5h139v-17q-31 -43 -81 -100t-107.5 -113.5t-108.5 -97.5h-82z" />
<glyph unicode="&#x1f6;" horiz-adv-x="1984" d="M205 0v1462h119v-643h723v643h118v-1097q0 -152 71 -215.5t189 -63.5q117 0 183.5 66.5t66.5 212.5v725h117v-730q0 -188 -99.5 -284t-271.5 -96q-176 0 -275 95t-99 287v351h-723v-713h-119z" />
<glyph unicode="&#x1f7;" horiz-adv-x="1288" d="M205 -492v1956h94l18 -243h7q31 68 85 128t138 98t203 38t215 -52.5t153.5 -165t57.5 -292.5q0 -342 -223.5 -593t-633.5 -394v-480h-114zM319 98q221 78 387 201t258.5 291t92.5 381q0 147 -43 237t-118 131t-167 41q-205 0 -307.5 -131t-102.5 -366v-785z" />
<glyph unicode="&#x1f8;" horiz-adv-x="1492" d="M205 0v1462h127l844 -1274h8q-4 63 -6 163t-2 184v927h110v-1462h-127l-846 1278h-6q4 -80 6 -169t2 -187v-922h-110zM488 1925v17h137q27 -45 69 -102.5t88 -113t85 -93.5v-19h-82q-51 41 -108.5 97.5t-108.5 113.5t-80 100z" />
<glyph unicode="&#x1f9;" horiz-adv-x="1220" d="M180 0v1090h94l17 -189h8q43 90 136.5 149.5t232.5 59.5q186 0 284.5 -96t98.5 -301v-713h-117v705q0 156 -70.5 229.5t-208.5 73.5q-360 0 -360 -414v-594h-115zM369 1552v17h137q27 -45 69 -102.5t88 -113t85 -93.5v-19h-82q-51 41 -108.5 97.5t-108.5 113.5t-80 100z " />
<glyph unicode="&#x1fa;" horiz-adv-x="1245" d="M-8 0l557 1214q-66 18 -103.5 68.5t-37.5 132.5q0 96 61 153.5t158 57.5q94 0 155.5 -57.5t61.5 -153.5q0 -78 -37 -128t-102 -73l546 -1214h-125l-196 434h-617l-196 -434h-125zM356 543h533l-201 456q-12 33 -28.5 76t-32.5 88q-16 -45 -32.5 -88t-31.5 -76zM483 1413 q0 -68 39.5 -105.5t102.5 -37.5t102 38t39 105q0 66 -39 103.5t-102 37.5t-102.5 -37.5t-39.5 -103.5zM563 1692v14q53 55 111.5 127t95.5 137h139v-16q-43 -57 -117.5 -132t-146.5 -130h-82z" />
<glyph unicode="&#x1fb;" horiz-adv-x="1097" d="M96 285q0 162 132 247.5t388 96.5l199 10v76q0 162 -64.5 228.5t-189.5 66.5q-84 0 -161.5 -21.5t-155.5 -62.5l-37 94q76 39 168 63.5t190 24.5q184 0 274.5 -90t90.5 -285v-733h-88l-23 184h-4q-57 -92 -143 -148t-238 -56q-156 0 -247 77.5t-91 227.5zM217 283 q0 -100 63.5 -152.5t174.5 -52.5q170 0 263 96t97 270v105l-184 -8q-209 -8 -311.5 -70.5t-102.5 -187.5zM348 1421q0 94 62.5 151.5t154.5 57.5q90 0 152.5 -58.5t62.5 -150.5q0 -98 -62.5 -155.5t-152.5 -57.5q-92 0 -154.5 57.5t-62.5 155.5zM428 1421q0 -59 37 -97 t100 -38q57 0 96 38t39 97q0 57 -40 96t-95 39q-57 0 -97 -38.5t-40 -96.5zM463 1702v14q53 49 112.5 115.5t98.5 122.5h166v-12q-29 -37 -80 -79t-107.5 -84t-103.5 -77h-86z" />
<glyph unicode="&#x1fc;" horiz-adv-x="1683" d="M-2 0l661 1462h951v-106h-658v-537h617v-104h-617v-609h658v-106h-776v504h-482l-227 -504h-127zM399 610h435v746h-103zM830 1614v19q37 39 83 94t88 112.5t69 102.5h139v-17q-31 -43 -81 -100t-107.5 -113.5t-108.5 -97.5h-82z" />
<glyph unicode="&#x1fd;" horiz-adv-x="1755" d="M96 285q0 162 130 247.5t374 96.5l191 10v78q0 160 -66 226.5t-184 66.5q-78 0 -156 -21.5t-156 -62.5l-36 94q78 41 170 64.5t186 23.5q135 0 215 -58.5t108 -185.5q49 111 141.5 178.5t223.5 67.5t222 -64.5t137 -177t44 -258.5v-80h-731q0 -223 94.5 -335.5 t264.5 -112.5q94 0 166.5 16.5t160.5 57.5v-107q-80 -37 -157.5 -53t-171.5 -16q-156 0 -262.5 73.5t-155.5 200.5q-55 -125 -151.5 -199.5t-260.5 -74.5q-158 0 -249 77.5t-91 227.5zM217 283q0 -100 61.5 -152.5t172.5 -52.5q160 0 247.5 96t89.5 270v105l-174 -8 q-197 -8 -297 -70.5t-100 -187.5zM795 1241v19q37 39 83 94t88 112.5t69 102.5h139v-17q-31 -43 -81 -100t-107.5 -113.5t-108.5 -97.5h-82zM913 627h605q2 172 -69 278.5t-214 106.5q-133 0 -220 -98.5t-102 -286.5z" />
<glyph unicode="&#x1fe;" horiz-adv-x="1572" d="M127 735q0 223 74.5 391t223 263.5t368.5 95.5q115 0 211 -30t172 -83l110 150l82 -58l-115 -157q92 -98 141.5 -244t49.5 -330q0 -223 -74 -393t-220 -265t-364 -95q-125 0 -224 31.5t-177 90.5l-115 -159l-84 55l123 170q-90 102 -136 246.5t-46 320.5zM252 733 q0 -143 31.5 -262t97.5 -203l731 1010q-125 100 -319 100q-182 0 -303 -80.5t-179.5 -226t-58.5 -338.5zM451 195q61 -51 146 -81t189 -30q184 0 302 81t174.5 226t56.5 342q0 309 -135 475zM698 1614v19q37 39 83 94t88 112.5t69 102.5h139v-17q-31 -43 -81 -100 t-107.5 -113.5t-108.5 -97.5h-82z" />
<glyph unicode="&#x1ff;" horiz-adv-x="1208" d="M117 545q0 266 132 415.5t361 149.5q174 0 287 -94l98 131l82 -53l-108 -142q123 -153 123 -407q0 -170 -56.5 -297t-166 -197.5t-267.5 -70.5q-92 0 -164.5 26.5t-130.5 73.5l-108 -141l-80 57l119 149q-57 76 -89 176.5t-32 223.5zM238 545q0 -90 16 -168t51 -135 l529 690q-41 35 -97.5 55.5t-128.5 20.5q-186 0 -278 -123t-92 -340zM369 164q43 -41 101 -62.5t132 -21.5q190 0 279.5 128t89.5 337q0 92 -17.5 172t-54.5 139zM516 1241v19q37 39 83 94t88 112.5t69 102.5h139v-17q-31 -43 -81 -100t-107.5 -113.5t-108.5 -97.5h-82z" />
<glyph unicode="&#x200;" horiz-adv-x="1245" d="M0 0l573 1466h111l561 -1466h-125l-194 504h-607l-198 -504h-121zM198 1925v17h131q23 -45 57.5 -102.5t72.5 -113t71 -93.5v-19h-74q-45 41 -94 97.5t-93 113.5t-71 100zM358 610h531l-197 529q-8 29 -28.5 90t-36.5 108q-16 -53 -35 -107t-31 -93zM542 1925v17h131 q23 -45 57.5 -102.5t72.5 -113t71 -93.5v-19h-74q-45 41 -94 97.5t-93 113.5t-71 100z" />
<glyph unicode="&#x201;" horiz-adv-x="1097" d="M96 285q0 162 132 247.5t388 96.5l199 10v76q0 162 -64.5 228.5t-189.5 66.5q-84 0 -161.5 -21.5t-155.5 -62.5l-37 94q76 39 168 63.5t190 24.5q184 0 274.5 -90t90.5 -285v-733h-88l-23 184h-4q-57 -92 -143 -148t-238 -56q-156 0 -247 77.5t-91 227.5zM117 1552v17 h131q23 -45 57.5 -102.5t72.5 -113t71 -93.5v-19h-74q-45 41 -94 97.5t-93 113.5t-71 100zM217 283q0 -100 63.5 -152.5t174.5 -52.5q170 0 263 96t97 270v105l-184 -8q-209 -8 -311.5 -70.5t-102.5 -187.5zM461 1552v17h131q23 -45 57.5 -102.5t72.5 -113t71 -93.5v-19h-74 q-45 41 -94 97.5t-93 113.5t-71 100z" />
<glyph unicode="&#x202;" horiz-adv-x="1245" d="M0 0l573 1466h111l561 -1466h-125l-194 504h-607l-198 -504h-121zM344 1614q12 117 85 184.5t202 67.5q131 0 203 -66.5t80 -185.5h-82q-8 82 -58.5 119t-144.5 37q-184 0 -203 -156h-82zM358 610h531l-197 529q-8 29 -28.5 90t-36.5 108q-16 -53 -35 -107t-31 -93z" />
<glyph unicode="&#x203;" horiz-adv-x="1097" d="M96 285q0 162 132 247.5t388 96.5l199 10v76q0 162 -64.5 228.5t-189.5 66.5q-84 0 -161.5 -21.5t-155.5 -62.5l-37 94q76 39 168 63.5t190 24.5q184 0 274.5 -90t90.5 -285v-733h-88l-23 184h-4q-57 -92 -143 -148t-238 -56q-156 0 -247 77.5t-91 227.5zM217 283 q0 -100 63.5 -152.5t174.5 -52.5q170 0 263 96t97 270v105l-184 -8q-209 -8 -311.5 -70.5t-102.5 -187.5zM262 1241q12 117 85 184.5t202 67.5q131 0 203 -66.5t80 -185.5h-82q-8 82 -58.5 119t-144.5 37q-184 0 -203 -156h-82z" />
<glyph unicode="&#x204;" horiz-adv-x="1132" d="M201 1925v17h131q23 -45 57.5 -102.5t72.5 -113t71 -93.5v-19h-74q-45 41 -94 97.5t-93 113.5t-71 100zM205 0v1462h803v-106h-684v-537h645v-104h-645v-609h684v-106h-803zM545 1925v17h131q23 -45 57.5 -102.5t72.5 -113t71 -93.5v-19h-74q-45 41 -94 97.5t-93 113.5 t-71 100z" />
<glyph unicode="&#x205;" horiz-adv-x="1130" d="M117 537q0 166 56 296t162.5 203.5t258.5 73.5q139 0 233.5 -64.5t141.5 -177t47 -258.5v-82h-778q0 -215 100 -330.5t289 -115.5q102 0 178 16.5t166 57.5v-107q-82 -37 -162 -53t-186 -16q-244 0 -375 149.5t-131 407.5zM151 1552v17h131q23 -45 57.5 -102.5t72.5 -113 t71 -93.5v-19h-74q-45 41 -94 97.5t-93 113.5t-71 100zM240 627h653q0 172 -72.5 278.5t-228.5 106.5q-150 0 -243 -100.5t-109 -284.5zM495 1552v17h131q23 -45 57.5 -102.5t72.5 -113t71 -93.5v-19h-74q-45 41 -94 97.5t-93 113.5t-71 100z" />
<glyph unicode="&#x206;" horiz-adv-x="1132" d="M205 0v1462h803v-106h-684v-537h645v-104h-645v-609h684v-106h-803zM348 1614q12 117 85 184.5t202 67.5q131 0 203 -66.5t80 -185.5h-82q-8 82 -58.5 119t-144.5 37q-184 0 -203 -156h-82z" />
<glyph unicode="&#x207;" horiz-adv-x="1130" d="M117 537q0 166 56 296t162.5 203.5t258.5 73.5q139 0 233.5 -64.5t141.5 -177t47 -258.5v-82h-778q0 -215 100 -330.5t289 -115.5q102 0 178 16.5t166 57.5v-107q-82 -37 -162 -53t-186 -16q-244 0 -375 149.5t-131 407.5zM240 627h653q0 172 -72.5 278.5t-228.5 106.5 q-150 0 -243 -100.5t-109 -284.5zM295 1241q12 117 85 184.5t202 67.5q131 0 203 -66.5t80 -185.5h-82q-8 82 -58.5 119t-144.5 37q-184 0 -203 -156h-82z" />
<glyph unicode="&#x208;" horiz-adv-x="636" d="M-111 1925v17h131q23 -45 57.5 -102.5t72.5 -113t71 -93.5v-19h-74q-45 41 -94 97.5t-93 113.5t-71 100zM102 0v74l156 22v1268l-156 25v73h430v-73l-155 -25v-1268l155 -22v-74h-430zM233 1925v17h131q23 -45 57.5 -102.5t72.5 -113t71 -93.5v-19h-74q-45 41 -94 97.5 t-93 113.5t-71 100z" />
<glyph unicode="&#x209;" horiz-adv-x="475" d="M-191 1552v17h131q23 -45 57.5 -102.5t72.5 -113t71 -93.5v-19h-74q-45 41 -94 97.5t-93 113.5t-71 100zM153 1552v17h131q23 -45 57.5 -102.5t72.5 -113t71 -93.5v-19h-74q-45 41 -94 97.5t-93 113.5t-71 100zM180 0v1090h115v-1090h-115z" />
<glyph unicode="&#x20a;" horiz-adv-x="636" d="M36 1614q12 117 85 184.5t202 67.5q131 0 203 -66.5t80 -185.5h-82q-8 82 -58.5 119t-144.5 37q-184 0 -203 -156h-82zM102 0v74l156 22v1268l-156 25v73h430v-73l-155 -25v-1268l155 -22v-74h-430z" />
<glyph unicode="&#x20b;" horiz-adv-x="475" d="M-45 1241q12 117 85 184.5t202 67.5q131 0 203 -66.5t80 -185.5h-82q-8 82 -58.5 119t-144.5 37q-184 0 -203 -156h-82zM180 0v1090h115v-1090h-115z" />
<glyph unicode="&#x20c;" horiz-adv-x="1572" d="M127 735q0 223 74.5 391t223 263.5t368.5 95.5q211 0 355 -91t220 -259.5t76 -401.5q0 -223 -74 -393t-220 -265t-364 -95q-221 0 -367.5 95t-219 266t-72.5 394zM252 733q0 -195 57.5 -341t176 -227t300.5 -81q184 0 302 81t174.5 226.5t56.5 341.5q0 303 -132 474 t-394 171q-182 0 -303 -80.5t-179.5 -226t-58.5 -338.5zM358 1925v17h131q23 -45 57.5 -102.5t72.5 -113t71 -93.5v-19h-74q-45 41 -94 97.5t-93 113.5t-71 100zM702 1925v17h131q23 -45 57.5 -102.5t72.5 -113t71 -93.5v-19h-74q-45 41 -94 97.5t-93 113.5t-71 100z" />
<glyph unicode="&#x20d;" horiz-adv-x="1208" d="M117 545q0 266 132 415.5t361 149.5q156 0 263.5 -70.5t163 -197.5t55.5 -297t-56.5 -297t-166 -197.5t-267.5 -70.5q-152 0 -260.5 69.5t-166.5 196.5t-58 299zM176 1552v17h131q23 -45 57.5 -102.5t72.5 -113t71 -93.5v-19h-74q-45 41 -94 97.5t-93 113.5t-71 100z M238 545q0 -209 88 -337t276 -128q190 0 279.5 128t89.5 337q0 135 -37 239.5t-117 164t-209 59.5q-186 0 -278 -123t-92 -340zM520 1552v17h131q23 -45 57.5 -102.5t72.5 -113t71 -93.5v-19h-74q-45 41 -94 97.5t-93 113.5t-71 100z" />
<glyph unicode="&#x20e;" horiz-adv-x="1572" d="M127 735q0 223 74.5 391t223 263.5t368.5 95.5q211 0 355 -91t220 -259.5t76 -401.5q0 -223 -74 -393t-220 -265t-364 -95q-221 0 -367.5 95t-219 266t-72.5 394zM252 733q0 -195 57.5 -341t176 -227t300.5 -81q184 0 302 81t174.5 226.5t56.5 341.5q0 303 -132 474 t-394 171q-182 0 -303 -80.5t-179.5 -226t-58.5 -338.5zM503 1614q12 117 85 184.5t202 67.5q131 0 203 -66.5t80 -185.5h-82q-8 82 -58.5 119t-144.5 37q-184 0 -203 -156h-82z" />
<glyph unicode="&#x20f;" horiz-adv-x="1208" d="M117 545q0 266 132 415.5t361 149.5q156 0 263.5 -70.5t163 -197.5t55.5 -297t-56.5 -297t-166 -197.5t-267.5 -70.5q-152 0 -260.5 69.5t-166.5 196.5t-58 299zM238 545q0 -209 88 -337t276 -128q190 0 279.5 128t89.5 337q0 135 -37 239.5t-117 164t-209 59.5 q-186 0 -278 -123t-92 -340zM321 1241q12 117 85 184.5t202 67.5q131 0 203 -66.5t80 -185.5h-82q-8 82 -58.5 119t-144.5 37q-184 0 -203 -156h-82z" />
<glyph unicode="&#x210;" horiz-adv-x="1228" d="M205 0v1462h364q262 0 394.5 -92t132.5 -309q0 -168 -89 -262t-223 -135l402 -664h-142l-372 631h-348v-631h-119zM205 1925v17h131q23 -45 57.5 -102.5t72.5 -113t71 -93.5v-19h-74q-45 41 -94 97.5t-93 113.5t-71 100zM324 733h276q178 0 275.5 84t97.5 240 q0 168 -101.5 233.5t-312.5 65.5h-235v-623zM549 1925v17h131q23 -45 57.5 -102.5t72.5 -113t71 -93.5v-19h-74q-45 41 -94 97.5t-93 113.5t-71 100z" />
<glyph unicode="&#x211;" horiz-adv-x="806" d="M39 1552v17h131q23 -45 57.5 -102.5t72.5 -113t71 -93.5v-19h-74q-45 41 -94 97.5t-93 113.5t-71 100zM180 0v1090h99l12 -205h6q41 92 124 157.5t206 65.5q86 0 147 -18l-16 -107q-33 8 -66 12t-69 4q-152 0 -239 -109.5t-87 -291.5v-598h-117zM383 1552v17h131 q23 -45 57.5 -102.5t72.5 -113t71 -93.5v-19h-74q-45 41 -94 97.5t-93 113.5t-71 100z" />
<glyph unicode="&#x212;" horiz-adv-x="1228" d="M205 0v1462h364q262 0 394.5 -92t132.5 -309q0 -168 -89 -262t-223 -135l402 -664h-142l-372 631h-348v-631h-119zM324 733h276q178 0 275.5 84t97.5 240q0 168 -101.5 233.5t-312.5 65.5h-235v-623zM352 1614q12 117 85 184.5t202 67.5q131 0 203 -66.5t80 -185.5h-82 q-8 82 -58.5 119t-144.5 37q-184 0 -203 -156h-82z" />
<glyph unicode="&#x213;" horiz-adv-x="806" d="M180 0v1090h99l12 -205h6q41 92 124 157.5t206 65.5q86 0 147 -18l-16 -107q-33 8 -66 12t-69 4q-152 0 -239 -109.5t-87 -291.5v-598h-117zM184 1241q12 117 85 184.5t202 67.5q131 0 203 -66.5t80 -185.5h-82q-8 82 -58.5 119t-144.5 37q-184 0 -203 -156h-82z" />
<glyph unicode="&#x214;" horiz-adv-x="1478" d="M188 520v942h119v-942q0 -213 110.5 -324.5t323.5 -111.5q207 0 318.5 111.5t111.5 312.5v954h117v-946q0 -250 -145.5 -393t-409.5 -143q-262 0 -403.5 143t-141.5 397zM311 1925v17h131q23 -45 57.5 -102.5t72.5 -113t71 -93.5v-19h-74q-45 41 -94 97.5t-93 113.5 t-71 100zM655 1925v17h131q23 -45 57.5 -102.5t72.5 -113t71 -93.5v-19h-74q-45 41 -94 97.5t-93 113.5t-71 100z" />
<glyph unicode="&#x215;" horiz-adv-x="1220" d="M164 377v713h119v-705q0 -156 69.5 -230.5t208.5 -74.5q360 0 361 416v594h116v-1090h-96l-16 186h-6q-45 -88 -138.5 -147t-232.5 -59q-385 0 -385 397zM180 1552v17h131q23 -45 57.5 -102.5t72.5 -113t71 -93.5v-19h-74q-45 41 -94 97.5t-93 113.5t-71 100zM524 1552 v17h131q23 -45 57.5 -102.5t72.5 -113t71 -93.5v-19h-74q-45 41 -94 97.5t-93 113.5t-71 100z" />
<glyph unicode="&#x216;" horiz-adv-x="1478" d="M188 520v942h119v-942q0 -213 110.5 -324.5t323.5 -111.5q207 0 318.5 111.5t111.5 312.5v954h117v-946q0 -250 -145.5 -393t-409.5 -143q-262 0 -403.5 143t-141.5 397zM456 1614q12 117 85 184.5t202 67.5q131 0 203 -66.5t80 -185.5h-82q-8 82 -58.5 119t-144.5 37 q-184 0 -203 -156h-82z" />
<glyph unicode="&#x217;" horiz-adv-x="1220" d="M164 377v713h119v-705q0 -156 69.5 -230.5t208.5 -74.5q360 0 361 416v594h116v-1090h-96l-16 186h-6q-45 -88 -138.5 -147t-232.5 -59q-385 0 -385 397zM327 1241q12 117 85 184.5t202 67.5q131 0 203 -66.5t80 -185.5h-82q-8 82 -58.5 119t-144.5 37q-184 0 -203 -156 h-82z" />
<glyph unicode="&#x218;" horiz-adv-x="1118" d="M111 45v117q78 -31 181 -54.5t224 -23.5q168 0 273.5 72.5t105.5 216.5q0 86 -40 142t-123 98t-212 85q-123 43 -211 93.5t-135 127t-47 193.5q0 121 60.5 203t166 125t240.5 43q106 0 202.5 -20.5t182.5 -57.5l-41 -102q-172 74 -348 73q-152 0 -247 -66.5t-95 -195.5 q0 -94 41 -150.5t118.5 -95.5t190.5 -77q129 -45 222 -95.5t144.5 -124t51.5 -190.5q0 -131 -65.5 -220t-180.5 -135t-262 -46q-131 0 -229.5 18t-167.5 47zM418 -434q16 33 34.5 89t34 116.5t21.5 103.5h119v-14q-16 -68 -55 -156t-88 -158h-66v19z" />
<glyph unicode="&#x219;" horiz-adv-x="958" d="M94 49v113q72 -37 164 -60.5t188 -23.5q160 0 232 54t72 149q0 90 -75 138t-224 99q-100 35 -177 70t-120 91t-43 152q0 131 106.5 205t284.5 74q98 0 183 -19.5t155 -48.5l-41 -96q-63 29 -143.5 47.5t-159.5 18.5q-129 0 -201 -45t-72 -131q0 -66 35 -104t100.5 -65.5 t159.5 -60.5q96 -33 175 -69.5t125 -94t46 -153.5q0 -150 -109.5 -229.5t-312.5 -79.5q-115 0 -201.5 20t-146.5 49zM360 -434q16 33 34.5 89t34 116.5t21.5 103.5h119v-14q-16 -68 -55 -156t-88 -158h-66v19z" />
<glyph unicode="&#x21a;" horiz-adv-x="1085" d="M12 1356v106h1061v-106h-471v-1356h-119v1356h-471zM424 -434q16 33 34.5 89t34 116.5t21.5 103.5h119v-14q-16 -68 -55 -156t-88 -158h-66v19z" />
<glyph unicode="&#x21b;" horiz-adv-x="696" d="M27 995v66l161 37l41 252h74v-260h336v-95h-336v-688q0 -229 184 -229q45 0 87 7t71 17v-94q-33 -12 -77 -20t-97 -8q-135 0 -209 76.5t-74 246.5v692h-161zM291 -434q16 33 34.5 89t34 116.5t21.5 103.5h119v-14q-16 -68 -55 -156t-88 -158h-66v19z" />
<glyph unicode="&#x21c;" horiz-adv-x="1142" d="M82 -254q307 78 487.5 166t258 192.5t77.5 237.5q0 137 -67.5 221t-194.5 142q-70 -25 -147.5 -47.5t-159.5 -43.5l-25 99q186 47 312.5 95t191 117.5t64.5 184.5q0 96 -44 155.5t-118 87t-158 27.5q-123 0 -220 -35.5t-187 -97.5l-62 84q109 78 222.5 115t248.5 37 q115 0 215.5 -37t162.5 -119t62 -213t-68.5 -217t-182.5 -143q117 -53 198.5 -148.5t81.5 -261.5q0 -180 -98 -309t-307 -225.5t-543 -178.5v115z" />
<glyph unicode="&#x21d;" horiz-adv-x="983" d="M61 -385q221 49 377 113.5t239 158t83 226.5q0 115 -56.5 186.5t-158.5 118.5q-55 -25 -122 -44.5t-138 -37.5l-23 90q170 45 272.5 92t148.5 109.5t46 150.5q0 123 -81 178.5t-193 55.5q-90 0 -170 -21.5t-150 -58.5l-41 88q168 90 361 90q111 0 199.5 -36t141 -108.5 t52.5 -187.5q0 -106 -54.5 -182t-150.5 -129q94 -43 166 -126t72 -228q0 -174 -102.5 -289t-287 -189t-430.5 -127v107z" />
<glyph unicode="&#x21e;" horiz-adv-x="1482" d="M205 0v1462h119v-643h833v643h119v-1462h-119v713h-833v-713h-119zM447 1919v19h82q55 -45 113.5 -104.5t103.5 -117.5q49 57 107.5 117t113.5 105h84v-19q-39 -39 -87 -94t-92 -110.5t-69 -100.5h-114q-25 45 -68 100.5t-90 110.5t-84 94z" />
<glyph unicode="&#x21f;" horiz-adv-x="1220" d="M-65 2013v19h82q55 -45 113.5 -104.5t103.5 -117.5q49 57 107.5 117t113.5 105h84v-19q-39 -39 -87 -94t-92 -110.5t-69 -100.5h-114q-25 45 -68 100.5t-90 110.5t-84 94zM180 0v1556h115v-499q0 -82 -6 -156h8q41 90 135 149.5t234 59.5q186 0 285.5 -96t99.5 -301v-713 h-117v705q0 156 -70.5 229.5t-208.5 73.5q-360 0 -360 -414v-594h-115z" />
<glyph unicode="&#x220;" horiz-adv-x="1427" d="M205 0v1462h94l16 -221h9q51 102 162.5 172t275.5 70q229 0 352 -123t123 -393v-1459h-119v1453q0 219 -89 318t-277 99q-223 0 -325.5 -120.5t-102.5 -344.5v-913h-119z" />
<glyph unicode="&#x221;" horiz-adv-x="1748" d="M117 532q0 283 124 430.5t341 147.5q137 0 223 -59.5t127 -149.5h8q-2 49 -5 108.5t-3 104.5v442h117v-1189q0 -63 9 -114.5t27 -84.5q53 117 145.5 202t239.5 85q117 0 185.5 -55.5t68.5 -151.5q0 -106 -84 -177t-276 -71q-74 0 -134.5 4t-88.5 10q-10 -45 -18.5 -106.5 t-12.5 -114.5l-106 6q4 63 14 131t26 123q-63 47 -81 156h-7q-47 -102 -134 -165.5t-249 -63.5q-219 0 -337.5 140t-118.5 412zM238 532q0 -223 86 -337.5t262 -114.5q188 0 268 113.5t80 330.5v21q0 225 -80 345t-260 120q-176 0 -266 -124t-90 -354zM1169 111 q33 -6 85.5 -10.5t113.5 -4.5q139 0 191.5 40t52.5 106q0 53 -39 83.5t-117 30.5q-80 0 -135 -33.5t-92 -90t-60 -121.5z" />
<glyph unicode="&#x222;" horiz-adv-x="1339" d="M115 463q0 127 44 214t118.5 139t162.5 73q-125 33 -189.5 127t-64.5 270v197h119v-195q0 -182 81 -266t280 -84t284.5 84t85.5 272v189h119v-195q0 -180 -67.5 -271t-188.5 -130q88 -18 164 -70.5t120 -139.5t42 -216q0 -236 -147.5 -360t-407.5 -124q-166 0 -291 57.5 t-194.5 166t-69.5 262.5zM240 463q0 -180 109.5 -280.5t322.5 -100.5t321.5 99.5t108.5 279.5q0 184 -104.5 279.5t-333.5 95.5q-213 0 -318.5 -96.5t-105.5 -276.5z" />
<glyph unicode="&#x223;" horiz-adv-x="1220" d="M123 477q0 133 39 222t104.5 142.5t143.5 76.5q-106 27 -165 109.5t-59 268.5v234h117v-227q0 -188 71.5 -261t231.5 -73q109 0 178.5 29.5t103.5 104.5t34 208v219h114v-232q0 -184 -60.5 -269t-162.5 -114q80 -23 145.5 -75t104.5 -142t37 -223q-2 -242 -133.5 -370 t-356.5 -128q-143 0 -253.5 58.5t-172 170t-61.5 271.5zM244 477q0 -188 96 -293.5t274 -105.5q176 0 270.5 103.5t94.5 293.5q0 193 -90 293t-283 100q-178 0 -270 -101t-92 -290z" />
<glyph unicode="&#x224;" horiz-adv-x="1177" d="M76 0v88l850 1268h-809v106h956v-88l-848 -1268h873v-106h-1022zM801 -254q16 -6 41 -12t53 -6q94 0 94 116v156h-36v106h143v-258q0 -109 -47.5 -167t-145.5 -58q-31 0 -58.5 7.5t-43.5 15.5v100z" />
<glyph unicode="&#x225;" horiz-adv-x="948" d="M82 0v76l639 919h-594v95h733v-82l-639 -914h653v-246q0 -109 -48 -167t-144 -58q-33 0 -60.5 7.5t-43.5 15.5v100q16 -6 40.5 -12t53.5 -6q94 0 94 116v156h-684z" />
<glyph unicode="&#x226;" horiz-adv-x="1245" d="M0 0l573 1466h111l561 -1466h-125l-194 504h-607l-198 -504h-121zM358 610h531l-197 529q-8 29 -28.5 90t-36.5 108q-16 -53 -35 -107t-31 -93zM541 1778q0 88 78 88q80 0 80 -88q0 -90 -80 -90q-78 0 -78 90z" />
<glyph unicode="&#x227;" horiz-adv-x="1097" d="M96 285q0 162 132 247.5t388 96.5l199 10v76q0 162 -64.5 228.5t-189.5 66.5q-84 0 -161.5 -21.5t-155.5 -62.5l-37 94q76 39 168 63.5t190 24.5q184 0 274.5 -90t90.5 -285v-733h-88l-23 184h-4q-57 -92 -143 -148t-238 -56q-156 0 -247 77.5t-91 227.5zM217 283 q0 -100 63.5 -152.5t174.5 -52.5q170 0 263 96t97 270v105l-184 -8q-209 -8 -311.5 -70.5t-102.5 -187.5zM459 1405q0 88 78 88q80 0 80 -88q0 -90 -80 -90q-78 0 -78 90z" />
<glyph unicode="&#x228;" horiz-adv-x="1132" d="M205 0v1462h803v-106h-684v-537h645v-104h-645v-609h684v-106h-803zM410 -399q20 -6 48.5 -8.5t63.5 -2.5q76 0 121 29t45 86q0 59 -52 87t-147 32l89 176h86l-62 -121q82 -10 133 -51t51 -119q0 -94 -70.5 -147.5t-195.5 -53.5q-70 0 -110 13v80z" />
<glyph unicode="&#x229;" horiz-adv-x="1130" d="M117 537q0 166 56 296t162.5 203.5t258.5 73.5q139 0 233.5 -64.5t141.5 -177t47 -258.5v-82h-778q0 -215 100 -330.5t289 -115.5q102 0 178 16.5t166 57.5v-107q-82 -37 -162 -53t-186 -16q-244 0 -375 149.5t-131 407.5zM240 627h653q0 172 -72.5 278.5t-228.5 106.5 q-150 0 -243 -100.5t-109 -284.5zM408 -399q20 -6 48.5 -8.5t63.5 -2.5q76 0 121 29t45 86q0 59 -52 87t-147 32l89 176h86l-62 -121q82 -10 133 -51t51 -119q0 -94 -70.5 -147.5t-195.5 -53.5q-70 0 -110 13v80z" />
<glyph unicode="&#x22a;" horiz-adv-x="1572" d="M127 735q0 223 74.5 391t223 263.5t368.5 95.5q211 0 355 -91t220 -259.5t76 -401.5q0 -223 -74 -393t-220 -265t-364 -95q-221 0 -367.5 95t-219 266t-72.5 394zM252 733q0 -195 57.5 -341t176 -227t300.5 -81q184 0 302 81t174.5 226.5t56.5 341.5q0 303 -132 474 t-394 171q-182 0 -303 -80.5t-179.5 -226t-58.5 -338.5zM503 1946v98h566v-98h-566zM524 1733q-1 82 69 82q74 0 74 -82t-74 -82q-70 0 -69 82zM905 1733q-1 82 69 82q74 0 74 -82t-74 -82q-70 0 -69 82z" />
<glyph unicode="&#x22b;" horiz-adv-x="1208" d="M117 545q0 266 132 415.5t361 149.5q156 0 263.5 -70.5t163 -197.5t55.5 -297t-56.5 -297t-166 -197.5t-267.5 -70.5q-152 0 -260.5 69.5t-166.5 196.5t-58 299zM238 545q0 -209 88 -337t276 -128q190 0 279.5 128t89.5 337q0 135 -37 239.5t-117 164t-209 59.5 q-186 0 -278 -123t-92 -340zM321 1573v98h566v-98h-566zM342 1360q-1 82 69 82q74 0 74 -82t-74 -82q-70 0 -69 82zM723 1360q-1 82 69 82q74 0 74 -82t-74 -82q-70 0 -69 82z" />
<glyph unicode="&#x22c;" horiz-adv-x="1572" d="M127 735q0 223 74.5 391t223 263.5t368.5 95.5q211 0 355 -91t220 -259.5t76 -401.5q0 -223 -74 -393t-220 -265t-364 -95q-221 0 -367.5 95t-219 266t-72.5 394zM252 733q0 -195 57.5 -341t176 -227t300.5 -81q184 0 302 81t174.5 226.5t56.5 341.5q0 303 -132 474 t-394 171q-182 0 -303 -80.5t-179.5 -226t-58.5 -338.5zM448 1610q10 104 59.5 160.5t131.5 56.5q47 0 85.5 -19.5t72.5 -44t68 -44t68 -19.5q45 0 74 28.5t41 98.5h78q-8 -102 -59.5 -159.5t-133.5 -57.5q-45 0 -83.5 18.5t-72.5 44t-68 44t-73 18.5q-43 0 -71.5 -28.5 t-38.5 -96.5h-78zM503 1946v98h566v-98h-566z" />
<glyph unicode="&#x22d;" horiz-adv-x="1208" d="M117 545q0 266 132 415.5t361 149.5q156 0 263.5 -70.5t163 -197.5t55.5 -297t-56.5 -297t-166 -197.5t-267.5 -70.5q-152 0 -260.5 69.5t-166.5 196.5t-58 299zM238 545q0 -209 88 -337t276 -128q190 0 279.5 128t89.5 337q0 135 -37 239.5t-117 164t-209 59.5 q-186 0 -278 -123t-92 -340zM266 1237q10 104 59.5 160.5t131.5 56.5q47 0 85.5 -19.5t72.5 -44t68 -44t68 -19.5q45 0 74 28.5t41 98.5h78q-8 -102 -59.5 -159.5t-133.5 -57.5q-45 0 -83.5 18.5t-72.5 44t-68 44t-73 18.5q-43 0 -71.5 -28.5t-38.5 -96.5h-78zM321 1573v98 h566v-98h-566z" />
<glyph unicode="&#x22e;" horiz-adv-x="1572" d="M127 735q0 223 74.5 391t223 263.5t368.5 95.5q211 0 355 -91t220 -259.5t76 -401.5q0 -223 -74 -393t-220 -265t-364 -95q-221 0 -367.5 95t-219 266t-72.5 394zM252 733q0 -195 57.5 -341t176 -227t300.5 -81q184 0 302 81t174.5 226.5t56.5 341.5q0 303 -132 474 t-394 171q-182 0 -303 -80.5t-179.5 -226t-58.5 -338.5zM700 1778q0 88 78 88q80 0 80 -88q0 -90 -80 -90q-78 0 -78 90z" />
<glyph unicode="&#x22f;" horiz-adv-x="1208" d="M117 545q0 266 132 415.5t361 149.5q156 0 263.5 -70.5t163 -197.5t55.5 -297t-56.5 -297t-166 -197.5t-267.5 -70.5q-152 0 -260.5 69.5t-166.5 196.5t-58 299zM238 545q0 -209 88 -337t276 -128q190 0 279.5 128t89.5 337q0 135 -37 239.5t-117 164t-209 59.5 q-186 0 -278 -123t-92 -340zM520 1405q0 88 78 88q80 0 80 -88q0 -90 -80 -90q-78 0 -78 90z" />
<glyph unicode="&#x230;" horiz-adv-x="1572" d="M127 735q0 223 74.5 391t223 263.5t368.5 95.5q211 0 355 -91t220 -259.5t76 -401.5q0 -223 -74 -393t-220 -265t-364 -95q-221 0 -367.5 95t-219 266t-72.5 394zM252 733q0 -195 57.5 -341t176 -227t300.5 -81q184 0 302 81t174.5 226.5t56.5 341.5q0 303 -132 474 t-394 171q-182 0 -303 -80.5t-179.5 -226t-58.5 -338.5zM503 1903v96h566v-96h-566zM708 1688q0 90 78 90q82 0 82 -90q0 -88 -82 -89q-78 0 -78 89z" />
<glyph unicode="&#x231;" horiz-adv-x="1208" d="M117 545q0 266 132 415.5t361 149.5q156 0 263.5 -70.5t163 -197.5t55.5 -297t-56.5 -297t-166 -197.5t-267.5 -70.5q-152 0 -260.5 69.5t-166.5 196.5t-58 299zM238 545q0 -209 88 -337t276 -128q190 0 279.5 128t89.5 337q0 135 -37 239.5t-117 164t-209 59.5 q-186 0 -278 -123t-92 -340zM321 1575v96h566v-96h-566zM524 1360q0 90 80 90q78 0 78 -90q0 -88 -78 -88q-80 0 -80 88z" />
<glyph unicode="&#x232;" horiz-adv-x="1097" d="M0 1462h131l418 -782l418 782h131l-488 -897v-565h-118v557zM264 1622v99h565v-99h-565z" />
<glyph unicode="&#x233;" horiz-adv-x="960" d="M0 1090h125l260 -678q33 -90 57.5 -161t38.5 -126h6q14 47 39 120.5t58 164.5l254 680h125l-492 -1285q-55 -143 -131 -222t-205 -79q-41 0 -71.5 6.5t-59.5 14.5v98q53 -18 117 -18q86 0 140 53t95 162l72 184zM197 1249v99h565v-99h-565z" />
<glyph unicode="&#x234;" horiz-adv-x="739" d="M33 -16q29 88 67.5 164.5t83.5 130.5q-4 29 -4 65.5v69.5v1142h117v-1183q33 20 76 36.5t98 16.5q117 0 179.5 -60.5t62.5 -156.5q0 -102 -70 -165.5t-180 -63.5q-96 0 -157.5 45t-92.5 122q-25 -35 -47.5 -89t-38.5 -107zM299 258q6 -78 46 -131t118 -53 q66 0 102.5 36.5t36.5 94.5q0 57 -37 91t-102 34q-47 0 -89 -19.5t-75 -52.5z" />
<glyph unicode="&#x235;" horiz-adv-x="1495" d="M180 0v1090h94l17 -189h8q43 90 136 149.5t233 59.5q186 0 284.5 -96t98.5 -301v-340q33 20 75.5 36.5t98.5 16.5q115 0 178 -63.5t63 -157.5q0 -106 -69.5 -165.5t-179.5 -59.5q-94 0 -157 45t-93 120q-25 -35 -46.5 -88t-39.5 -106l-95 33q31 88 69 164.5t83 130.5 q-2 29 -3 61.5t-1 62.5v302q0 156 -70.5 229.5t-208.5 73.5q-360 0 -360 -414v-594h-115zM1053 258q6 -78 46 -131t118 -53q68 0 103.5 36.5t35.5 94.5q0 57 -37 91t-102 34q-47 0 -89.5 -19.5t-74.5 -52.5z" />
<glyph unicode="&#x236;" horiz-adv-x="747" d="M27 995v66l161 37l41 252h74v-260h336v-95h-336v-622q33 20 77 36.5t99 16.5q115 0 177.5 -63.5t62.5 -157.5q0 -106 -69.5 -165.5t-178.5 -59.5q-94 0 -156.5 45t-95.5 120q-23 -35 -45.5 -88t-38.5 -106l-94 33q29 88 66.5 164.5t82.5 130.5q-2 33 -2 69.5v69.5v577 h-161zM307 258q6 -78 45 -131t119 -53q68 0 103.5 36.5t35.5 94.5q0 57 -36.5 91t-102.5 34q-49 0 -90 -19.5t-74 -52.5z" />
<glyph unicode="&#x237;" horiz-adv-x="475" d="M-106 -369q57 -23 129 -22q74 0 115.5 45t41.5 141v1295h115v-1295q0 -139 -68.5 -213t-193.5 -74q-88 0 -139 23v100z" />
<glyph unicode="&#x238;" horiz-adv-x="1980" d="M117 541q0 279 119.5 424t334.5 145q145 0 232.5 -63.5t128.5 -153.5h8q-2 39 -5 105.5t-3 123.5v434h117v-430q0 -57 -2.5 -124.5t-6.5 -108.5h9q41 90 129 153.5t231 63.5q215 0 335 -144.5t120 -422.5q0 -258 -117 -410.5t-354 -152.5q-307 0 -404 294 q-47 -147 -150 -220.5t-253 -73.5q-238 0 -353.5 151.5t-115.5 409.5zM238 541q0 -221 87 -341t263 -120q174 0 260 122t86 345q0 225 -81 345t-269 120q-174 0 -260 -124t-86 -347zM1049 547q0 -231 85 -349t261 -118t262 119.5t86 345.5q0 229 -87 347t-263 118 q-184 0 -264 -117t-80 -346z" />
<glyph unicode="&#x239;" horiz-adv-x="1980" d="M117 549q0 258 116.5 409.5t352.5 151.5q313 0 405 -295q47 150 150.5 222.5t255.5 72.5q238 0 352.5 -151.5t114.5 -409.5q0 -279 -120 -424t-335 -145q-143 0 -231 63t-129 154h-9q4 -37 6.5 -103.5t2.5 -126.5v-450h-117v448q0 59 2 126t4 108h-6q-39 -90 -127 -154.5 t-234 -64.5q-215 0 -334.5 145t-119.5 424zM238 547q0 -229 86 -348t262 -119q184 0 265 117.5t81 347.5q0 467 -346 467q-176 0 -262 -120t-86 -345zM1049 545q0 -227 79.5 -346t268.5 -119q174 0 260 124t86 347q0 221 -86 341t-264 120q-176 0 -260 -123t-84 -344z" />
<glyph unicode="&#x23a;" horiz-adv-x="1245" d="M0 0l573 1466h111l102 -266l123 356h95l-168 -485l409 -1071h-125l-194 504h-289l-227 -658h-95l228 658h-224l-198 -504h-121zM358 610h224l147 428l-37 101q-8 29 -28.5 90t-36.5 108q-16 -53 -35 -107t-31 -93zM676 610h213l-111 297z" />
<glyph unicode="&#x23b;" horiz-adv-x="1275" d="M127 735q0 217 83 386t239.5 265.5t377.5 96.5q84 0 164 -13l31 86h96l-37 -106q70 -18 131 -49l-47 -103q-59 29 -121 48l-428 -1233q86 -27 191 -27q106 0 195.5 16.5t168.5 40.5v-102q-76 -29 -167 -45t-209 -16q-117 0 -215 26l-56 -160h-96l66 191 q-182 82 -274.5 263t-92.5 435zM252 733q0 -209 70.5 -360.5t209.5 -225.5l424 1219q-63 10 -129 10q-180 0 -309 -81t-197.5 -225t-68.5 -337z" />
<glyph unicode="&#x23c;" horiz-adv-x="974" d="M117 539q0 182 65.5 310t183 194.5t273.5 66.5q43 0 84 -4l133 377h96l-137 -393q51 -12 94 -33l-32 -103q-45 20 -99 33l-309 -881q63 -25 145 -24q82 0 154 16.5t129 42.5v-104q-53 -27 -123 -42t-158 -15q-100 0 -182 26l-131 -371h-96l143 408q-233 133 -233 496z M238 541q0 -131 36.5 -231.5t112.5 -157.5l301 852q-25 2 -49 2q-193 0 -297 -125t-104 -340z" />
<glyph unicode="&#x23d;" horiz-adv-x="1054" d="M16 678v98h189v686h119v-686h376v-98h-376v-572h684v-106h-803v678h-189z" />
<glyph unicode="&#x23e;" horiz-adv-x="1085" d="M12 1356v106h869l47 94h100l-47 -94h92v-106h-145l-326 -651v-705h-119v469l-311 -623h-100l411 824v686h-471zM602 905l225 451h-225v-451z" />
<glyph unicode="&#x23f;" horiz-adv-x="958" d="M94 49v113q72 -37 164 -60.5t188 -23.5q160 0 232 54t72 149q0 90 -75 138t-224 99q-100 35 -177 70t-120 91t-43 152q0 131 106.5 205t284.5 74q98 0 183 -19.5t155 -48.5l-41 -96q-63 29 -143.5 47.5t-159.5 18.5q-129 0 -201 -45t-72 -131q0 -66 35 -104t100.5 -65.5 t159.5 -60.5q96 -33 175 -69.5t125 -94t46 -153.5q0 -158 -116.5 -233.5t-317.5 -75.5q29 -27 44 -67t28 -85q29 -117 74 -168t147 -51q41 0 82 9t67 17v-98q-25 -8 -67.5 -18.5t-95.5 -10.5q-102 0 -163 33t-96.5 101.5t-60.5 173.5q-18 82 -55 125t-109 61 q-39 10 -72.5 22.5t-58.5 24.5z" />
<glyph unicode="&#x240;" horiz-adv-x="948" d="M82 0v76l639 919h-594v95h733v-82l-643 -918q113 -14 179.5 -74.5t107.5 -187.5q37 -117 93 -168t173 -51q45 0 84 7t68 19v-100q-27 -10 -67 -18.5t-97 -8.5q-111 0 -180.5 35t-112.5 102.5t-74 170.5q-35 102 -94 143t-174 41h-41z" />
<glyph unicode="&#x241;" horiz-adv-x="864" d="M12 1380q70 45 162 74t205 29q199 0 311.5 -105.5t112.5 -292.5q0 -131 -51.5 -227t-141.5 -168t-207 -123v-567h-118v635q109 39 198.5 97.5t143 143.5t53.5 205q0 139 -78 217t-229 78q-90 0 -174 -26.5t-144 -65.5z" />
<glyph unicode="&#x242;" horiz-adv-x="847" d="M20 1008q70 43 158 71.5t201 28.5q199 0 305.5 -104.5t106.5 -282.5q0 -176 -109 -299t-281 -201v-221h-116v285q109 39 196.5 95t139 139t51.5 198q0 139 -78 215t-221 76q-90 0 -169 -27t-138 -63z" />
<glyph unicode="&#x243;" horiz-adv-x="1294" d="M33 365v106h172v991h405q270 0 399.5 -84t129.5 -272q0 -127 -74 -217t-211 -115v-8q160 -25 243 -110t83 -240q0 -141 -64.5 -233.5t-180.5 -137.5t-267 -45h-463v365h-172zM324 102h333q397 0 398 320q0 152 -101.5 222.5t-314.5 70.5h-315v-244h309v-106h-309v-263z M324 817h313q201 0 290 69.5t89 207.5q0 141 -96.5 202.5t-309.5 61.5h-286v-541z" />
<glyph unicode="&#x244;" horiz-adv-x="1478" d="M25 758v106h163v598h119v-598h864v598h117v-598h166v-106h-166v-242q0 -250 -145.5 -393t-409.5 -143q-262 0 -403.5 143t-141.5 397v238h-163zM307 520q0 -213 110.5 -324.5t323.5 -111.5q207 0 318.5 111.5t111.5 312.5v250h-864v-238z" />
<glyph unicode="&#x245;" horiz-adv-x="1200" d="M0 0l537 1462h122l539 -1462h-125l-385 1044q-29 78 -51.5 150t-38.5 129q-16 -57 -38.5 -126t-51.5 -150l-383 -1047h-125z" />
<glyph unicode="&#x246;" horiz-adv-x="1132" d="M205 0v1462h622l29 94h92l-28 -94h88v-106h-119l-162 -537h242v-104h-275l-182 -609h496v-106h-527l-47 -154h-94l47 154h-182zM324 106h94l184 609h-278v-609zM324 819h309l162 537h-471v-537z" />
<glyph unicode="&#x247;" horiz-adv-x="1130" d="M117 537q0 166 56 296t162.5 203.5t258.5 73.5q61 0 115 -12l129 372h96l-141 -405q111 -57 167 -177t56 -278v-82h-410l-143 -417q72 -29 164 -29q102 0 178 16.5t166 57.5v-107q-82 -37 -162 -53t-186 -16q-109 0 -195 30l-135 -387h-96l147 426q-111 66 -169 191 t-58 297zM238 528q0 -260 143 -372l129 372h-272zM240 627h305l131 374q-39 11 -84 11q-150 0 -243 -100.5t-109 -284.5zM641 627h252q0 117 -33 204t-102 134z" />
<glyph unicode="&#x248;" horiz-adv-x="516" d="M-180 -242q31 -10 68.5 -17t82.5 -7q115 0 173.5 63.5t58.5 196.5v668h-183v104h183v696h119v-696h182v-104h-182v-658q0 -190 -89.5 -283.5t-259.5 -93.5q-49 0 -87 8.5t-66 18.5v104z" />
<glyph unicode="&#x249;" horiz-adv-x="475" d="M-106 -369q57 -23 129 -22q74 0 115.5 45t41.5 141v717h-164v98h164v480h115v-480h168v-98h-168v-717q0 -139 -68.5 -213t-193.5 -74q-88 0 -139 23v100zM180.5 1425.5q12.5 22.5 32.5 36.5q20 12 40.5 7t37.5 -33q18 -29 7 -52.5t-32 -35.5q-45 -29 -82 24 q-16 31 -3.5 53.5z" />
<glyph unicode="&#x24a;" horiz-adv-x="1536" d="M129 735q0 223 69.5 391t208 261.5t345.5 93.5q180 0 304 -81t175 -202h6l16 264h99v-1663q0 -102 36.5 -145t110.5 -43q29 0 53.5 6t44.5 14v-102q-20 -10 -48.5 -17.5t-63.5 -7.5q-121 0 -186.5 70t-65.5 213v291q0 45 2 96t4 94h-6q-53 -125 -175 -206.5t-315 -81.5 q-203 0 -340 95t-205.5 266t-68.5 394zM252 733q0 -195 54 -341t165 -227t279 -81q242 0 362.5 132t120.5 380v276q0 504 -483 504q-166 0 -277 -81t-166 -225t-55 -337z" />
<glyph unicode="&#x24b;" horiz-adv-x="1226" d="M115 541q0 258 116.5 413.5t341.5 155.5q139 0 226.5 -59.5t128.5 -141.5h6l16 181h94v-1285q0 -113 34 -156.5t100 -43.5q35 0 60.5 7t43.5 15v-94q-18 -12 -51 -20.5t-76 -8.5q-102 0 -163.5 67t-61.5 226v195q0 43 1 103.5t5 103.5h-8q-41 -94 -135.5 -156.5 t-237.5 -62.5q-207 0 -323.5 142t-116.5 419zM233 541q0 -225 84 -344t256 -119q188 0 271.5 115.5t85.5 330.5v29q0 225 -81 341t-263 116q-176 0 -264.5 -125t-88.5 -344z" />
<glyph unicode="&#x24c;" horiz-adv-x="1228" d="M20 631v102h185v729h364q262 0 394.5 -92t132.5 -309q0 -168 -89 -262t-223 -135l402 -664h-142l-372 631h-348v-631h-119v631h-185zM324 733h276q178 0 275.5 84t97.5 240q0 168 -101.5 233.5t-312.5 65.5h-235v-623z" />
<glyph unicode="&#x24d;" horiz-adv-x="806" d="M25 524v99h155v467h99l12 -205h6q41 92 124 157.5t206 65.5q86 0 147 -18l-16 -107q-33 8 -66 12t-69 4q-145 0 -232.5 -102t-93.5 -274h276v-99h-276v-524h-117v524h-155z" />
<glyph unicode="&#x24e;" horiz-adv-x="1097" d="M0 1462h131l141 -266h553l142 266h131l-146 -266h121v-106h-178l-285 -525v-565h-118v557l-289 533h-183v106h125zM330 1090l219 -410l219 410h-438z" />
<glyph unicode="&#x24f;" horiz-adv-x="960" d="M0 1090h125l143 -373h430l140 373h125l-144 -373h129v-99h-166l-311 -813q-55 -143 -131 -222t-205 -79q-41 0 -71.5 6.5t-59.5 14.5v98q53 -18 117 -18q86 0 140 53t95 162l72 184l-242 614h-176v99h137zM305 618l80 -206q33 -90 57.5 -161t38.5 -126h6q14 47 39 120.5 t58 164.5l78 208h-357z" />
<glyph unicode="&#x250;" horiz-adv-x="1097" d="M168 357v733h88l23 -184h4q57 92 143 148t238 56q156 0 247 -77.5t91 -227.5q0 -162 -132 -247.5t-388 -96.5l-199 -10v-76q0 -162 64.5 -228.5t189.5 -66.5q84 0 161.5 21.5t155.5 62.5l37 -94q-76 -39 -168 -63.5t-190 -24.5q-184 0 -274.5 90t-90.5 285zM283 541 l184 8q209 8 311.5 70.5t102.5 187.5q0 100 -63.5 152.5t-174.5 52.5q-170 0 -263 -96t-97 -270v-105z" />
<glyph unicode="&#x251;" horiz-adv-x="1226" d="M117 537q0 283 120.5 428t333.5 145q143 0 230.5 -61.5t128.5 -151.5h6l16 193h97v-1090h-99l-14 195h-6q-43 -90 -130 -152.5t-239 -62.5q-209 0 -326.5 141t-117.5 416zM238 537q0 -221 86 -339t254 -118q190 0 272 114.5t82 329.5v21q0 225 -81 345t-267 120 q-170 0 -258 -122t-88 -351z" />
<glyph unicode="&#x252;" horiz-adv-x="1226" d="M178 0v1090h99l14 -195h6q43 90 130 152.5t239 62.5q209 0 326.5 -141t117.5 -416q0 -283 -120.5 -428t-333.5 -145q-143 0 -230.5 61.5t-128.5 151.5h-6l-16 -193h-97zM295 545q0 -225 81 -345t267 -120q170 0 258 122t88 351q0 221 -86 339t-254 118 q-190 0 -272 -114.5t-82 -329.5v-21z" />
<glyph unicode="&#x253;" horiz-adv-x="1226" d="M178 0v1270q0 143 66.5 220t199.5 77q35 0 66 -6.5t55 -12.5v-102q-18 6 -45.5 11t-60.5 5q-80 0 -122 -45t-42 -143v-160q0 -57 -2 -118.5t-6 -102.5h8q41 92 134 154.5t237 62.5q211 0 327.5 -142.5t116.5 -420.5q0 -258 -118 -412.5t-343 -154.5q-137 0 -224 57 t-128 139h-10l-21 -176h-88zM295 547q0 -233 78 -350t262 -117q176 0 265 122t89 347q0 461 -338 461q-190 0 -273 -119t-83 -344z" />
<glyph unicode="&#x254;" horiz-adv-x="974" d="M68 1053q53 25 138 41t167 16q238 0 362.5 -139.5t124.5 -407.5q0 -272 -135 -427.5t-377 -155.5q-88 0 -156.5 14t-121.5 39v108q57 -27 128.5 -43t151.5 -16q137 0 222 61.5t125 169t40 244.5q0 217 -91 334t-286 117q-57 0 -130.5 -14.5t-129.5 -43.5z" />
<glyph unicode="&#x255;" horiz-adv-x="1048" d="M119 -51q16 61 41.5 119.5t54.5 109.5q-92 143 -92 361q0 182 65.5 310t184 194.5t274.5 66.5q78 0 147.5 -14.5t123.5 -38.5l-33 -103q-55 25 -119 38.5t-121 13.5q-193 0 -297 -125t-104 -340q0 -152 51 -256q70 82 168 132t213 50q135 0 213 -63.5t78 -165.5 q0 -127 -97.5 -192.5t-238.5 -65.5q-215 0 -344 116q-41 -78 -74 -186zM348 193q45 -53 116 -83t165 -30q109 0 167 44t58 109q0 55 -46 93.5t-140 38.5q-190 0 -320 -172z" />
<glyph unicode="&#x256;" horiz-adv-x="1226" d="M115 539q0 279 121.5 425t332.5 146q143 0 230.5 -61.5t130.5 -147.5h8q-4 45 -6 106.5t-2 106.5v442h117v-1724q0 -127 41.5 -174t119.5 -47q41 0 73 7t48 13v-94q-20 -8 -58 -16t-83 -8q-115 0 -186.5 70.5t-71.5 240.5v168q0 41 2 102.5t6 102.5h-8 q-43 -88 -132 -152.5t-239 -64.5q-211 0 -327.5 141t-116.5 418zM236 537q-1 -457 337 -457q184 0 270.5 114.5t86.5 329.5v21q0 233 -85 349t-263 116q-168 0 -257 -123t-89 -350z" />
<glyph unicode="&#x257;" horiz-adv-x="1226" d="M117 532q0 283 124 430.5t341 147.5q137 0 223 -59.5t127 -149.5h8q-2 49 -5 108.5t-3 104.5v184q0 133 62.5 200t168.5 67q39 0 73 -6.5t58 -16.5v-100q-51 20 -116 20q-129 0 -129 -159v-1303h-95l-16 188h-6q-43 -86 -129.5 -147t-231.5 -61q-219 0 -336.5 140 t-117.5 412zM238 532q0 -223 86 -337.5t262 -114.5q188 0 268 114.5t80 329.5v21q0 225 -80 345t-260 120q-176 0 -266 -124t-90 -354z" />
<glyph unicode="&#x258;" horiz-adv-x="1130" d="M114 528h778q0 -215 -100 -330.5t-289 -115.5q-102 0 -178 16.5t-166 57.5v-107q82 -37 162 -53t186 -16q244 0 375 149.5t131 407.5q0 166 -56 296t-162.5 203.5t-258.5 73.5q-139 0 -233.5 -64.5t-141.5 -177t-47 -258.5v-82zM237 627q0 172 72.5 278.5t228.5 106.5 q150 0 243 -100.5t109 -284.5h-653z" />
<glyph unicode="&#x259;" horiz-adv-x="1130" d="M115 479v82h778q0 215 -100.5 331t-288.5 116q-102 0 -178 -16.5t-166 -57.5v106q82 37 162 53.5t186 16.5q244 0 375 -149.5t131 -407.5q0 -166 -56.5 -296t-163 -203.5t-257.5 -73.5q-139 0 -233.5 64.5t-141.5 177t-47 257.5zM236 463q0 -172 73.5 -278.5 t229.5 -106.5q150 0 242 100.5t108 284.5h-653z" />
<glyph unicode="&#x25a;" horiz-adv-x="1562" d="M113 469l768 203q-14 94 -58.5 170t-124.5 121t-198 45q-94 0 -177 -19.5t-163 -52.5v104q80 33 161.5 51.5t184.5 18.5q207 0 332 -109.5t159 -298.5l203 56l29 -109q29 -100 63.5 -141t91.5 -41q41 0 78 12.5t70 28.5l31 -94q-43 -20 -92.5 -37t-102.5 -17 q-104 0 -160.5 72t-93.5 203l-104 -29q0 -186 -47.5 -327.5t-153 -220t-277.5 -78.5q-205 0 -312 130t-107 359zM236 401q4 -86 33.5 -159.5t95.5 -117.5t172 -44q135 0 211.5 64.5t108.5 176t32 252.5z" />
<glyph unicode="&#x25b;" horiz-adv-x="940" d="M92 291q0 117 65.5 184.5t176.5 95.5v7q-104 31 -153.5 93t-49.5 152q0 98 52.5 162t141.5 94.5t197 30.5q109 0 186.5 -18.5t155.5 -51.5l-41 -96q-66 29 -139.5 47.5t-161.5 18.5q-279 0 -278 -193q0 -100 85 -147t244 -47h115v-99h-137q-168 0 -255 -55t-87 -174 q0 -104 83 -160.5t232 -56.5q102 0 185.5 21.5t154.5 52.5v-103q-57 -29 -144 -49t-202 -20q-217 0 -321.5 88t-104.5 223z" />
<glyph unicode="&#x25c;" horiz-adv-x="942" d="M66 51v111q72 -37 158.5 -60.5t189.5 -23.5q133 0 222 57.5t89 175.5q0 115 -82 164t-242 49h-145v99h133q135 0 217 47t82 149q0 190 -258 191q-90 0 -158.5 -19.5t-144.5 -54.5l-41 96q78 37 164 57.5t186 20.5q172 0 269.5 -73.5t97.5 -209.5q0 -94 -52.5 -155.5 t-144.5 -85.5v-8q111 -25 172.5 -93.5t61.5 -179.5q0 -150 -112 -237.5t-314 -87.5q-111 0 -201 19t-147 52z" />
<glyph unicode="&#x25d;" horiz-adv-x="1327" d="M66 51v111q72 -37 158.5 -60.5t189.5 -23.5q133 0 222 57.5t89 175.5q0 115 -82 164t-242 49h-145v99h133q135 0 217 47t82 149q0 190 -258 191q-90 0 -158.5 -19.5t-144.5 -54.5l-41 96q78 37 164 57.5t186 20.5q135 0 225.5 -46t122.5 -134l179 51l30 -109 q27 -98 62 -139t92 -41q43 0 80 11.5t67 29.5l33 -94q-43 -23 -92 -38t-100 -15q-104 0 -163 70.5t-91 201.5l-78 -20v-11q0 -94 -52.5 -155.5t-144.5 -85.5v-8q111 -25 172.5 -93.5t61.5 -179.5q0 -150 -112 -237.5t-314 -87.5q-111 0 -201 19t-147 52z" />
<glyph unicode="&#x25e;" horiz-adv-x="1150" d="M117 539q0 260 132 415.5t394 155.5q178 0 277.5 -78t99.5 -209q0 -98 -53.5 -158.5t-151.5 -84.5v-7q106 -20 174 -83.5t68 -182.5q0 -139 -108.5 -233t-334.5 -94q-254 0 -375.5 151.5t-121.5 407.5zM238 539q0 -225 94 -342t295 -117q152 0 232.5 63.5t80.5 169.5 q0 113 -88 160t-254 47h-86v98h66q160 0 243.5 45.5t83.5 151.5q0 86 -65.5 139.5t-198.5 53.5q-207 0 -305 -125t-98 -344z" />
<glyph unicode="&#x25f;" horiz-adv-x="475" d="M-106 -369q57 -23 129 -22q74 0 115.5 45t41.5 141v717h-164v98h164v480h115v-480h168v-98h-168v-717q0 -139 -68.5 -213t-193.5 -74q-88 0 -139 23v100z" />
<glyph unicode="&#x260;" horiz-adv-x="1226" d="M115 537q0 264 118.5 418.5t344.5 154.5q129 0 214 -51t138 -137h8q-4 41 -6 88t-2 92v196q0 133 63.5 200t169.5 67q37 0 72 -6.5t55 -16.5v-100q-47 20 -114 20q-131 0 -132 -159v-1338q0 -215 -110.5 -336t-358.5 -121q-121 0 -216 20.5t-171 53.5v113 q76 -39 176.5 -62.5t217.5 -23.5q178 0 263 94t85 256v64q0 43 2 91t2 79h-4q-96 -213 -365 -213q-213 0 -331.5 143t-118.5 414zM236 535q0 -223 88 -340t254 -117q135 0 211.5 55t108.5 151.5t32 219.5v69q0 209 -76 322t-264 113q-176 0 -265 -124t-89 -349z" />
<glyph unicode="&#x261;" horiz-adv-x="1226" d="M117 537q0 264 118 418.5t343 154.5q129 0 214 -49t136 -137h6l18 166h95v-1125q0 -215 -110 -336t-359 -121q-123 0 -217.5 20.5t-172.5 53.5v113q78 -39 177.5 -62.5t216.5 -23.5q178 0 263 94t85 256v64q0 43 2 86t4 84h-6q-45 -106 -139.5 -159.5t-225.5 -53.5 q-213 0 -330.5 143t-117.5 414zM238 535q0 -223 87 -340t253 -117q135 0 211.5 55t109.5 151.5t33 219.5v69q0 209 -77 322t-265 113q-176 0 -264 -124t-88 -349z" />
<glyph unicode="&#x262;" horiz-adv-x="1175" d="M109 543q0 180 71.5 307t199.5 194.5t296 67.5q102 0 186 -19.5t150 -52.5l-45 -106q-66 33 -138.5 53.5t-150.5 20.5q-211 0 -330 -124t-119 -339q0 -217 105.5 -339t308.5 -122q80 0 143.5 12.5t118.5 28.5v346h-287v98h406v-512q-90 -35 -181 -55t-204 -20 q-240 0 -385 144t-145 417z" />
<glyph unicode="&#x263;" horiz-adv-x="960" d="M0 1090h127l250 -570q29 -68 59.5 -142.5t46.5 -125.5h9q16 51 45.5 125t60.5 145l250 568h127l-420 -930q63 -125 102 -222.5t39 -195.5q0 -100 -57.5 -165.5t-155.5 -65.5q-94 0 -151.5 64.5t-57.5 166.5q0 100 43 201.5t101 214.5zM381 -254q0 -70 30.5 -102.5 t75.5 -32.5t74 32.5t29 102.5q0 68 -30 148.5t-73 164.5q-45 -84 -75.5 -165.5t-30.5 -147.5z" />
<glyph unicode="&#x264;" horiz-adv-x="1038" d="M-6 989v96q16 8 40.5 15.5t55.5 7.5q68 0 112 -34t97 -116l135 -213q27 -39 47.5 -71.5t34.5 -63.5h6q14 29 36 64t48 74l137 213q49 76 95 111.5t116 35.5q31 0 52.5 -5t37.5 -13v-99q-12 6 -33.5 11.5t-43.5 5.5q-43 0 -74 -28t-76 -95l-231 -353q66 -94 100.5 -169.5 t34.5 -165.5q0 -98 -55.5 -156.5t-149.5 -58.5t-149.5 57t-55.5 154q0 94 39 170.5t105 168.5l-240 363q-39 59 -69.5 86t-75.5 27q-27 2 -46.5 -6.5t-29.5 -12.5zM420 203q0 -63 27.5 -92t68.5 -29t69.5 28.5t28.5 92.5q0 66 -26.5 124t-67.5 119q-45 -66 -72.5 -123 t-27.5 -120z" />
<glyph unicode="&#x265;" horiz-adv-x="1220" d="M170 377v713h117v-705q0 -156 70.5 -229.5t208.5 -73.5q360 0 360 414v594h115v-1556h-115v499q0 82 6 156h-8q-41 -90 -135 -149.5t-234 -59.5q-186 0 -285.5 96t-99.5 301z" />
<glyph unicode="&#x266;" horiz-adv-x="1220" d="M180 0v1298q0 133 62.5 200t169.5 67q39 0 72.5 -6.5t56.5 -16.5v-100q-47 20 -115 20q-131 0 -131 -159v-246q0 -82 -6 -156h8q41 90 135 149.5t234 59.5q186 0 285.5 -96t99.5 -301v-713h-117v705q0 156 -70.5 229.5t-208.5 73.5q-360 0 -360 -414v-594h-115z" />
<glyph unicode="&#x267;" horiz-adv-x="1236" d="M180 0v1298q0 133 63 200t169 67q39 0 72.5 -6.5t56.5 -16.5v-100q-47 20 -115 20q-131 0 -131 -159v-246q0 -82 -6 -156h8q41 90 135 149.5t234 59.5q186 0 285.5 -96t99.5 -301v-938q0 -131 -62.5 -199t-169.5 -68q-39 0 -72.5 8.5t-56.5 16.5v100q49 -23 117 -22 q127 0 127 162v932q0 156 -70.5 229.5t-208.5 73.5q-360 0 -360 -414v-594h-115z" />
<glyph unicode="&#x268;" horiz-adv-x="475" d="M20 530v99h160v461h115v-461h160v-99h-160v-530h-115v530h-160zM160 1405q0 88 78 88q82 0 81 -88q0 -90 -81 -90q-78 0 -78 90z" />
<glyph unicode="&#x269;" horiz-adv-x="645" d="M166 299v791h117v-783q0 -119 45 -174t141 -55q39 0 78 6t63 12v-94q-25 -10 -68.5 -16t-86.5 -6q-133 0 -211 70.5t-78 248.5z" />
<glyph unicode="&#x26a;" horiz-adv-x="628" d="M102 0v74l154 20v899l-154 23v74h424v-74l-153 -23v-899l153 -20v-74h-424z" />
<glyph unicode="&#x26b;" horiz-adv-x="598" d="M-55 684q10 111 62 170t140 59q29 0 51.5 -8t43.5 -20v671h116v-737q23 -16 46.5 -28.5t50.5 -12.5q45 0 77.5 31t45.5 106h77q-10 -109 -64 -170t-142 -61q-27 0 -48.5 7t-42.5 18v-709h-116v778q-25 16 -48.5 28.5t-52.5 12.5q-45 0 -76.5 -29.5t-41.5 -105.5h-78z" />
<glyph unicode="&#x26c;" horiz-adv-x="622" d="M-25 815q0 74 47.5 127t143.5 53q82 0 125 -61v622h119v-827h192v-98h-192v-631h-119v631h-103q-104 0 -158.5 49t-54.5 135zM84 817q0 -47 32 -67.5t85 -20.5h90v19q0 59 -25.5 104t-91.5 45q-47 0 -68.5 -23.5t-21.5 -56.5z" />
<glyph unicode="&#x26d;" horiz-adv-x="475" d="M180 -193v1749h115v-1738q0 -113 43 -162t129 -49q33 0 65.5 6t53.5 14v-94q-20 -8 -54 -16.5t-79 -8.5q-125 0 -199 67t-74 232z" />
<glyph unicode="&#x26e;" horiz-adv-x="1243" d="M180 0v1556h117v-466h838v-86l-504 -570q545 -14 545 -448q0 -141 -60.5 -249t-173 -168.5t-268.5 -60.5q-113 0 -201 18.5t-158 51.5v111q70 -33 162 -56.5t201 -23.5q176 0 278.5 101.5t102.5 273.5q0 182 -120 267t-349 85h-101v86l498 565h-690v-987h-117z" />
<glyph unicode="&#x26f;" horiz-adv-x="1830" d="M168 363v727h115v-721q0 -147 65.5 -217t179.5 -70q156 0 240 91.5t84 281.5v635h115v-721q0 -147 65.5 -217t180.5 -70q156 0 239.5 95.5t83.5 294.5v618h115v-1090h-94l-17 172h-8q-41 -80 -124 -136t-212 -56q-119 0 -201 51t-114 154h-8q-45 -98 -139.5 -151.5 t-221.5 -53.5q-162 0 -253 92t-91 291z" />
<glyph unicode="&#x270;" horiz-adv-x="1830" d="M168 362v728h115v-721q0 -147 65.5 -218t179.5 -71q156 0 240 91t84 284v635h115v-721q0 -147 65.5 -218t179.5 -71q154 0 238 96t84 295v619h117v-1582h-117v496q0 37 2 84t4 82h-8q-43 -80 -126 -135t-210 -55q-117 0 -200 51t-119 151h-9q-45 -100 -139 -151t-217 -51 q-164 0 -254 92t-90 290z" />
<glyph unicode="&#x271;" horiz-adv-x="1830" d="M180 0v1090h94l17 -172h8q41 80 124 136t212 56q117 0 197.5 -49t117.5 -152h11q49 98 142 149.5t216 51.5q162 0 253 -92t91 -291v-952q0 -131 -62.5 -199t-168.5 -68q-39 0 -73 8.5t-56 16.5v100q20 -10 51.5 -16t62.5 -6q131 0 131 162v948q0 147 -65.5 217t-179.5 70 q-156 0 -240 -91.5t-84 -281.5v-635h-115v721q0 147 -65.5 217t-180.5 70q-156 0 -239.5 -95.5t-83.5 -294.5v-618h-115z" />
<glyph unicode="&#x272;" horiz-adv-x="1220" d="M-82 -369q25 -12 56.5 -18t60.5 -6q72 0 108.5 47t36.5 153v1283h94l17 -189h8q43 90 136.5 149.5t232.5 59.5q186 0 284.5 -96t98.5 -301v-713h-117v705q0 156 -70.5 229.5t-208.5 73.5q-360 0 -360 -414v-793q0 -162 -71.5 -227.5t-170.5 -65.5q-41 0 -76.5 8.5 t-58.5 18.5v96z" />
<glyph unicode="&#x273;" horiz-adv-x="1220" d="M180 0v1090h94l17 -189h8q43 90 136 149.5t233 59.5q186 0 284.5 -96t98.5 -301v-881q0 -127 44 -174t122 -47q35 0 66.5 7t49.5 13v-94q-20 -8 -56 -16t-77 -8q-117 0 -191.5 70.5t-74.5 240.5v881q0 156 -70.5 229.5t-208.5 73.5q-360 0 -360 -414v-594h-115z" />
<glyph unicode="&#x274;" horiz-adv-x="1222" d="M172 0v1098h135l651 -942q-4 53 -6 120.5t-2 114.5v707h113v-1098h-133l-651 942q4 -45 4 -115.5v-113.5v-713h-111z" />
<glyph unicode="&#x275;" horiz-adv-x="1208" d="M117 545q0 266 132 415.5t361 149.5q156 0 263.5 -70.5t163 -197.5t55.5 -297t-56.5 -297t-166 -197.5t-267.5 -70.5q-152 0 -260.5 69.5t-166.5 196.5t-58 299zM238 508q6 -199 96 -313.5t268 -114.5q184 0 272.5 115.5t96.5 312.5h-733zM238 608h733q-12 180 -98.5 290 t-264.5 110q-174 0 -266 -103.5t-104 -296.5z" />
<glyph unicode="&#x276;" horiz-adv-x="1755" d="M109 553q0 172 60 299t170.5 196.5t266.5 69.5q129 0 223.5 -57t151.5 -160v197h674v-101h-561v-370h530v-101h-530v-426h561v-100h-674v205q-57 -102 -152.5 -162.5t-226.5 -60.5q-147 0 -259 70.5t-173 199.5t-61 301zM227 553q0 -209 95.5 -340t283.5 -131 q184 0 278.5 129t94.5 342q0 215 -95.5 339t-279.5 124q-174 0 -275.5 -127t-101.5 -336z" />
<glyph unicode="&#x277;" horiz-adv-x="1523" d="M117 475q0 299 167 467t478 168q303 0 473 -168t170 -467q0 -135 -37 -247.5t-118 -180t-210 -67.5q-115 0 -181 52t-95 144h-6q-29 -92 -98.5 -144t-178.5 -52q-174 0 -269 131t-95 364zM233 477q0 -195 68 -296t191 -101q106 0 159.5 78t53.5 215v305h114v-305 q0 -143 53.5 -218t159.5 -75q127 0 191.5 104.5t64.5 292.5q0 262 -138 396.5t-388 134.5q-252 0 -390.5 -134.5t-138.5 -396.5z" />
<glyph unicode="&#x278;" horiz-adv-x="1394" d="M115 545q0 250 138 397.5t390 163.5v450h111v-450q244 -16 384 -163.5t140 -397.5q0 -240 -137 -392.5t-387 -168.5v-476h-115v476q-244 14 -384 162.5t-140 398.5zM236 545q0 -209 102 -330t305 -133v924q-205 -14 -306 -135t-101 -326zM754 82q201 16 302 139t101 324 q0 207 -101 326t-302 133v-922z" />
<glyph unicode="&#x279;" horiz-adv-x="806" d="M33 0l16 107q33 -8 66 -12t69 -4q152 0 239 109.5t87 291.5v598h117v-1090h-99l-12 205h-6q-41 -92 -124 -157.5t-206 -65.5q-86 0 -147 18z" />
<glyph unicode="&#x27a;" horiz-adv-x="806" d="M33 0l16 106q66 -18 135 -18q152 0 239 110.5t87 293.5v1064h117v-1556h-99l-12 205h-6q-41 -92 -124 -157.5t-206 -65.5q-86 0 -147 18z" />
<glyph unicode="&#x27b;" horiz-adv-x="806" d="M33 0l16 106q66 -18 135 -18q152 0 239 110.5t87 293.5v598h117v-1258q0 -127 43 -174t121 -47q41 0 70.5 7t47.5 13v-94q-20 -8 -57 -16t-84 -8q-113 0 -185.5 70.5t-72.5 240.5v225q0 33 2 78t4 78h-6q-41 -92 -124 -157.5t-206 -65.5q-86 0 -147 18z" />
<glyph unicode="&#x27c;" horiz-adv-x="806" d="M180 -492v1582h99l12 -205h6q41 92 124 157.5t206 65.5q86 0 147 -18l-16 -107q-33 8 -66 12t-69 4q-152 0 -239 -109.5t-87 -291.5v-1090h-117z" />
<glyph unicode="&#x27d;" horiz-adv-x="806" d="M180 -176v1266h99l12 -205h6q41 92 124 157.5t206 65.5q86 0 147 -18l-16 -107q-33 8 -66 12t-69 4q-152 0 -239 -109.5t-87 -291.5v-766q0 -117 46 -169t136 -52q39 0 71 6t52 14v-94q-25 -8 -57.5 -16t-77.5 -8q-131 0 -209 70.5t-78 240.5z" />
<glyph unicode="&#x27e;" horiz-adv-x="688" d="M170 0v766q0 182 85 263t232 81q51 0 97.5 -11.5t74.5 -21.5l-16 -102q-27 8 -66.5 20.5t-91.5 12.5q-96 0 -147 -59.5t-51 -190.5v-758h-117z" />
<glyph unicode="&#x27f;" horiz-adv-x="688" d="M31 1077q29 10 77 21.5t101 11.5q152 0 231.5 -82t79.5 -262v-1258h-114v1250q0 129 -47.5 189.5t-151.5 60.5q-51 0 -92 -11.5t-68 -21.5z" />
<glyph unicode="&#x280;" horiz-adv-x="1048" d="M172 0v1098h385q193 0 293 -80t100 -232q0 -92 -35.5 -156.5t-94 -102.5t-124.5 -52l316 -475h-135l-299 461h-289v-461h-117zM289 561h270q133 0 205 60.5t72 164.5q0 102 -69 156.5t-224 54.5h-254v-436z" />
<glyph unicode="&#x281;" horiz-adv-x="1048" d="M172 0h385q193 0 293 80t100 232q0 92 -35.5 156.5t-94 102.5t-124.5 52l316 475h-135l-299 -461h-289v461h-117v-1098zM289 101v436h270q133 0 205 -60.5t72 -164.5q0 -102 -69 -156.5t-224 -54.5h-254z" />
<glyph unicode="&#x282;" horiz-adv-x="958" d="M94 162q72 -37 164 -60.5t188 -23.5q160 0 232 54t72 149q0 90 -75 138t-224 99q-100 35 -177 70t-120 91t-43 152q0 131 106.5 205t284.5 74q98 0 183 -19.5t155 -48.5l-41 -96q-63 29 -143.5 47.5t-159.5 18.5q-129 0 -201 -45t-72 -131q0 -66 35 -104t100.5 -65.5 t159.5 -60.5q96 -33 175 -69.5t125 -94t46 -153.5q0 -150 -109.5 -229.5t-312.5 -79.5q-68 0 -127 9t-106 21v-203q0 -201 160 -200q35 0 66.5 6t56.5 16v-94q-27 -10 -59 -18.5t-77 -8.5q-121 0 -191.5 66t-70.5 223v365z" />
<glyph unicode="&#x283;" horiz-adv-x="471" d="M-100 -371q23 -8 52.5 -15t61.5 -7q82 0 120 51t38 174v1419q0 168 73.5 241t188.5 73q76 0 113 -21v-94q-16 6 -42 11t-52 5q-80 0 -121 -49t-41 -170v-1421q0 -170 -70.5 -244t-187.5 -74q-43 0 -77 7.5t-56 17.5v96z" />
<glyph unicode="&#x284;" horiz-adv-x="471" d="M-100 -371q23 -8 52.5 -15t61.5 -7q82 0 120 51t38 174v713h-170v98h170v608q0 168 73.5 241t188.5 73q76 0 113 -21v-94q-16 6 -42 11t-52 5q-80 0 -121 -49t-41 -170v-604h176v-98h-176v-719q0 -170 -70.5 -244t-187.5 -74q-43 0 -77 7.5t-56 17.5v96z" />
<glyph unicode="&#x285;" horiz-adv-x="471" d="M-84 999v95q16 8 47 16t70 8q115 0 183.5 -73.5t68.5 -229.5v-991q0 -123 37.5 -170t115.5 -47q33 0 63.5 7t51.5 15v-96q-20 -10 -54 -17.5t-77 -7.5q-113 0 -183.5 70t-70.5 242v991q0 106 -40 156.5t-120 50.5q-27 0 -52.5 -6t-39.5 -13z" />
<glyph unicode="&#x286;" horiz-adv-x="471" d="M-201 -274q0 102 67.5 162.5t201.5 60.5h104v1294q0 170 75 241.5t193 71.5q41 0 75 -8t56 -18v-94q-20 8 -49.5 15t-62.5 7q-80 0 -124 -48t-44 -175v-1286h155v-99h-155q-4 -195 -71.5 -268.5t-178.5 -73.5q-106 0 -174 59.5t-68 158.5zM-88 -272q0 -53 30 -87t91 -34 q66 0 102.5 45t36.5 160v38h-96q-78 0 -121 -29.5t-43 -92.5z" />
<glyph unicode="&#x287;" horiz-adv-x="696" d="M51 988v94q33 12 77 20t97 8q135 0 209 -76.5t74 -246.5v-692h161v-66l-161 -37l-41 -252h-74v260h-336v95h336v688q0 229 -184 229q-45 0 -87 -7t-71 -17z" />
<glyph unicode="&#x288;" horiz-adv-x="696" d="M27 995v66l161 37l41 252h74v-260h336v-95h-336v-1157q0 -229 184 -229q45 0 87 7t71 17v-94q-33 -12 -77 -21.5t-97 -9.5q-135 0 -209 77t-74 247v1163h-161z" />
<glyph unicode="&#x289;" horiz-adv-x="1220" d="M20 528v99h144v463h119v-463h639v463h116v-463h154v-99h-154v-528h-96l-16 186h-6q-45 -88 -138.5 -147t-232.5 -59q-385 0 -385 397v151h-144zM283 385q0 -156 69.5 -230.5t208.5 -74.5q360 0 361 416v32h-639v-143z" />
<glyph unicode="&#x28a;" horiz-adv-x="1175" d="M53 989v101h451v-95q-135 -72 -211 -195.5t-76 -307.5q0 -188 96.5 -302t276.5 -114q178 0 275.5 115.5t97.5 302.5q0 184 -84 310t-203 191v95h450v-101h-299q115 -84 184.5 -202.5t69.5 -292.5q0 -158 -61.5 -275t-172 -180.5t-257.5 -63.5t-258 62.5t-173.5 178.5 t-62.5 276q0 168 64.5 290.5t189.5 206.5h-297z" />
<glyph unicode="&#x28b;" horiz-adv-x="1171" d="M168 403v687h115v-680q0 -174 75.5 -252t227.5 -78q156 0 229.5 79t73.5 251v393q0 117 -40 165t-120 48q-31 0 -58.5 -5t-47.5 -12v103q20 6 51.5 11t62.5 5q127 0 198 -67.5t71 -231.5v-416q0 -207 -103.5 -315t-316.5 -108q-418 0 -418 423z" />
<glyph unicode="&#x28c;" horiz-adv-x="960" d="M0 0l418 1090h125l418 -1090h-123l-270 723q-27 68 -48.5 133.5t-33.5 116.5h-8q-14 -51 -36 -117.5t-46 -132.5l-271 -723h-125z" />
<glyph unicode="&#x28d;" horiz-adv-x="1507" d="M28 0l297 1090h129l222 -709q20 -68 38.5 -128t30.5 -113h4q12 53 28.5 114.5t39.5 128.5l231 707h123l307 -1090h-121l-184 674q-25 90 -42 159t-25 122h-5q-12 -49 -28.5 -116.5t-44.5 -149.5l-226 -689h-118l-217 689q-20 74 -41 143.5t-29 122.5h-8 q-6 -49 -23.5 -120t-40.5 -161l-178 -674h-119z" />
<glyph unicode="&#x28e;" horiz-adv-x="960" d="M-2 0l492 1285q55 143 131 222t205 79q41 0 71.5 -6.5t59.5 -14.5v-98q-53 18 -117 18q-86 0 -140 -53t-95 -162l-72 -184l428 -1086h-125l-260 678q-33 90 -57.5 161t-38.5 126h-6q-14 -47 -39 -120.5t-58 -164.5l-254 -680h-125z" />
<glyph unicode="&#x28f;" horiz-adv-x="913" d="M6 1090h131l318 -572l321 572h131l-393 -672v-418h-117v418z" />
<glyph unicode="&#x290;" horiz-adv-x="948" d="M82 0v80l641 915h-596v95h733v-89l-641 -907h645v-327q0 -90 31 -125t88 -35q25 0 52.5 6t45.5 14v-94q-18 -8 -49.5 -16.5t-68.5 -8.5q-94 0 -152.5 58.5t-58.5 193.5v240h-670z" />
<glyph unicode="&#x291;" horiz-adv-x="1085" d="M82 0v80l641 915h-596v95h733v-89l-641 -907h203q82 166 182.5 256t235.5 90q102 0 163.5 -56t61.5 -142q0 -109 -79 -175.5t-257 -66.5h-242q-16 -37 -34.5 -82t-34.5 -94l-94 37q12 37 25 71.5t28 67.5h-295zM532 94h199q125 0 173 43t48 101q0 45 -31.5 75.5 t-89.5 30.5q-90 0 -161.5 -65.5t-137.5 -184.5z" />
<glyph unicode="&#x292;" horiz-adv-x="958" d="M31 -311q72 -33 164 -56.5t198 -23.5q176 0 278.5 101.5t102.5 273.5q0 182 -121 267t-350 85h-98v86l495 565h-639v103h787v-86l-504 -570q264 -8 405.5 -121.5t141.5 -326.5q0 -141 -60.5 -249t-173 -168.5t-268.5 -60.5q-115 0 -202 18.5t-156 51.5v111z" />
<glyph unicode="&#x293;" horiz-adv-x="958" d="M-37 -223q0 104 83 175t245 71q133 0 246.5 -46.5t207.5 -128.5q8 20 18.5 59.5t10.5 84.5q-4 184 -124 264t-349 80h-96v86l495 565h-639v103h787v-86l-504 -570q264 -8 405.5 -118.5t141.5 -319.5q0 -74 -17.5 -129t-37.5 -94q37 -41 75.5 -85t73.5 -94l-82 -69 q-35 45 -68.5 86t-64.5 74q-57 -61 -166.5 -119t-271.5 -58q-96 0 -180 29t-136.5 88.5t-52.5 151.5zM76 -225q0 -80 72.5 -123t183.5 -43q127 0 215 44t141 105q-94 88 -191.5 126t-201.5 38q-119 0 -169 -43t-50 -104z" />
<glyph unicode="&#x294;" horiz-adv-x="843" d="M20 1464q70 45 158 73t201 28q199 0 305.5 -104.5t106.5 -291.5q0 -188 -109 -312t-281 -202v-655h-116v719q109 39 196.5 97t139 143t51.5 204q0 147 -78 224t-221 77q-90 0 -169 -26.5t-138 -65.5z" />
<glyph unicode="&#x295;" horiz-adv-x="843" d="M53 1169q0 -188 109 -312t281 -202v-655h116v719q-109 39 -196.5 97t-139 143t-51.5 204q0 147 78 224t221 77q90 0 169 -26.5t138 -65.5l46 92q-70 45 -158 73t-201 28q-199 0 -305.5 -104.5t-106.5 -291.5z" />
<glyph unicode="&#x296;" horiz-adv-x="843" d="M20 80l46 90q59 -37 138 -63.5t169 -26.5q143 0 221 76.5t78 224.5q0 119 -51.5 204t-139.5 143t-196 97v723h116v-659q172 -78 281 -202t109 -312q0 -186 -106.5 -290.5t-305.5 -104.5q-113 0 -201 27.5t-158 72.5z" />
<glyph unicode="&#x297;" horiz-adv-x="970" d="M117 315q0 297 69.5 471.5t188.5 249t266 74.5q84 0 153.5 -14.5t114.5 -34.5l-32 -103q-51 18 -113 33t-125 15q-119 0 -210 -68t-141 -218.5t-50 -400.5q0 -270 49 -423.5t136 -217t204 -63.5q82 0 148.5 16.5t119.5 36.5v-104q-51 -23 -116.5 -38t-155.5 -15 q-158 0 -271.5 78.5t-174 256t-60.5 469.5z" />
<glyph unicode="&#x298;" horiz-adv-x="1572" d="M127 735q0 223 74.5 391t223 263.5t368.5 95.5q211 0 355 -91t220 -259.5t76 -401.5q0 -223 -74 -393t-220 -265t-364 -95q-221 0 -367.5 95t-219 266t-72.5 394zM252 733q0 -195 57.5 -341t176 -227t300.5 -81q184 0 302 81t174.5 226.5t56.5 341.5q0 303 -132 474 t-394 171q-182 0 -303 -80.5t-179.5 -226t-58.5 -338.5zM701 729q0 100 90 100t90 -100t-90 -101q-90 1 -90 101z" />
<glyph unicode="&#x299;" horiz-adv-x="1163" d="M180 0v1090h455q180 0 276.5 -67t96.5 -200q0 -104 -55.5 -162.5t-145.5 -78.5v-9q106 -16 174 -79.5t68 -182.5q0 -141 -96.5 -226t-305.5 -85h-467zM297 98h330q152 0 226.5 51t74.5 162q0 113 -77 162t-228 49h-326v-424zM297 623h313q143 0 211 47t68 141 q0 84 -60.5 131t-201.5 47h-330v-366z" />
<glyph unicode="&#x29a;" horiz-adv-x="1177" d="M94 293q0 117 65.5 185.5t176.5 99.5v4q-106 31 -155.5 90t-49.5 149q0 96 53.5 161t145.5 96.5t205 31.5q252 0 375.5 -153.5t123.5 -411.5q0 -170 -55 -297t-168 -197.5t-283 -70.5q-221 0 -327.5 88t-106.5 225zM211 299q0 -106 83 -162.5t232 -56.5q201 0 294 121 t93 344q0 217 -87.5 340t-288.5 123q-141 0 -217 -50.5t-76 -144.5q0 -100 85 -145t244 -45h66v-99h-86q-166 0 -254 -54t-88 -171z" />
<glyph unicode="&#x29b;" horiz-adv-x="1177" d="M109 543q0 180 71.5 307t199.5 194.5t296 67.5q129 0 229 -35v230q0 262 225 262q41 0 69 -7.5t46 -13.5v-102q-18 6 -46 13t-60 7q-59 0 -93 -34.5t-34 -116.5v-275l-45 -106q-66 33 -138.5 53.5t-150.5 20.5q-211 0 -330 -124t-119 -339q0 -217 105.5 -339t308.5 -122 q80 0 143.5 12.5t118.5 28.5v346h-287v98h406v-512q-90 -35 -181 -55t-204 -20q-240 0 -385 144t-145 417z" />
<glyph unicode="&#x29c;" horiz-adv-x="1261" d="M180 0v1090h117v-474h668v474h116v-1090h-116v516h-668v-516h-117z" />
<glyph unicode="&#x29d;" horiz-adv-x="475" d="M-180 -274q0 102 64.5 162.5t195.5 60.5h100v1141h115v-1141h156v-99h-156q-4 -195 -70 -268.5t-172 -73.5q-102 0 -167.5 59.5t-65.5 158.5zM-68 -272q0 -53 28 -87t87 -34t95 45t36 160v38h-92q-154 0 -154 -122zM160 1405q0 88 78 88q82 0 81 -88q1 -90 -81 -90 q-78 0 -78 90z" />
<glyph unicode="&#x29e;" horiz-adv-x="1011" d="M4 1090h140l409 -545l164 168v377h115v-1556h-115v790q0 66 2 136.5t2 140.5h-2q-27 -33 -60.5 -75t-64.5 -75l-413 -451h-140l430 467z" />
<glyph unicode="&#x29f;" horiz-adv-x="892" d="M180 0v1090h117v-990h551v-100h-668z" />
<glyph unicode="&#x2a0;" horiz-adv-x="1226" d="M115 539q0 279 121.5 425t332.5 146q143 0 230.5 -61.5t130.5 -147.5h8q-4 45 -6 106.5t-2 106.5v158q0 162 70.5 227.5t166.5 65.5q45 0 82 -7.5t58 -17.5v-96q-49 23 -121 22q-70 0 -104.5 -46t-34.5 -154v-1758h-117v484q0 41 2 102.5t6 102.5h-8q-43 -88 -132 -152.5 t-239 -64.5q-211 0 -327.5 141t-116.5 418zM236 537q-1 -457 337 -457q184 0 270.5 114.5t86.5 329.5v21q0 233 -85 349t-263 116q-168 0 -257 -123t-89 -350z" />
<glyph unicode="&#x2a1;" horiz-adv-x="843" d="M20 1464q70 45 158 73t201 28q199 0 305.5 -104.5t106.5 -291.5q0 -188 -108 -312t-271 -202v-229h215v-100h-215v-326h-117v326h-197v100h197v293q104 39 189 97t136.5 143t51.5 204q0 147 -78 224t-221 77q-90 0 -169 -26.5t-138 -65.5z" />
<glyph unicode="&#x2a2;" horiz-adv-x="843" d="M51 1169q0 186 107.5 291t304.5 105q115 0 201 -28t157 -73l-43 -92q-61 39 -140 65.5t-169 26.5q-145 0 -222 -76.5t-77 -224.5q0 -119 51 -204t137 -143t191 -97v-293h192v-100h-192v-326h-119v326h-217v100h217v229q-164 78 -271.5 202t-107.5 312z" />
<glyph unicode="&#x2a3;" horiz-adv-x="1906" d="M117 532q0 283 124 430.5t341 147.5q137 0 223 -59.5t127 -149.5h8q-2 49 -5 108.5t-3 104.5v442h117v-466h770v-82l-639 -914h643v-94h-869l-16 188h-6q-43 -86 -129.5 -147t-231.5 -61q-219 0 -336.5 140t-117.5 412zM238 532q0 -223 86 -337.5t262 -114.5 q188 0 268 114.5t80 329.5v21q0 225 -80 345t-260 120q-176 0 -266 -124t-90 -354zM1049 88l630 907h-630v-907z" />
<glyph unicode="&#x2a4;" horiz-adv-x="1929" d="M117 532q0 283 124 430.5t341 147.5q137 0 223 -59.5t127 -149.5h8q-2 49 -5 108.5t-3 104.5v442h117v-466h770v-86l-504 -570q264 -8 405.5 -121.5t141.5 -326.5q0 -141 -60.5 -249t-173 -168.5t-268.5 -60.5q-115 0 -202 18.5t-157 51.5v111q72 -33 164 -56.5 t199 -23.5q176 0 278.5 101.5t102.5 273.5q0 182 -121 267t-350 85h-98v86l495 565h-622v-987h-95l-16 188h-6q-43 -86 -129 -147t-232 -61q-219 0 -336.5 140t-117.5 412zM238 532q0 -223 86 -337.5t262 -114.5q188 0 268 114.5t80 329.5v21q0 225 -80 345t-260 120 q-176 0 -266 -124t-90 -354z" />
<glyph unicode="&#x2a5;" horiz-adv-x="2039" d="M117 532q0 283 124 430.5t341 147.5q137 0 223 -59.5t127 -149.5h8q-2 49 -5 108.5t-3 104.5v442h117v-466h770v-89l-639 -907h200q82 166 182.5 256t237.5 90q100 0 161.5 -56t61.5 -142q0 -109 -77.5 -175.5t-257.5 -66.5h-240q-16 -37 -35 -82t-37 -94l-94 37 q12 37 26.5 71.5t28.5 67.5h-383l-16 188h-6q-43 -86 -129 -147t-232 -61q-219 0 -336.5 140t-117.5 412zM238 532q0 -223 86 -337.5t262 -114.5q188 0 268 114.5t80 329.5v21q0 225 -80 345t-260 120q-176 0 -266 -124t-90 -354zM1049 90l634 905h-634v-905zM1493 94h199 q125 0 173 43t48 101q0 45 -32 75.5t-91 30.5q-90 0 -162 -65.5t-135 -184.5z" />
<glyph unicode="&#x2a6;" horiz-adv-x="1542" d="M27 995v66l161 37l41 252h74v-260h615q37 8 78.5 14t88.5 6q98 0 182.5 -19.5t155.5 -48.5l-43 -96q-61 29 -141 47.5t-162 18.5q-129 0 -199.5 -45t-70.5 -131q0 -63 35 -100.5t100.5 -63t159.5 -60.5q96 -35 175 -70.5t125 -92t46 -146.5q0 -303 -422 -303h-555 q-135 0 -209 77t-74 247v671h-161zM303 328q0 -230 184 -230h541q168 0 236.5 51.5t68.5 145.5q0 82 -74.5 129t-224.5 100q-100 35 -178 70t-121 89t-43 148q0 49 17.5 90.5t48.5 73.5h-455v-667z" />
<glyph unicode="&#x2a7;" horiz-adv-x="1054" d="M27 995v66l161 37l41 252h74v-260h350v161q0 168 74 241t188 73q72 0 113 -21v-94q-16 6 -41.5 11t-52.5 5q-80 0 -122 -49t-42 -170v-1421q0 -170 -70.5 -244t-185.5 -74q-43 0 -78 7.5t-55 17.5v96q20 -8 51 -15t64 -7q80 0 118.5 51t38.5 174v176q-35 -12 -79 -20 t-91 -8q-143 0 -219 76.5t-76 246.5v692h-161zM303 307q0 -113 46.5 -171t148.5 -58q41 0 82 7t73 17v893h-350v-688z" />
<glyph unicode="&#x2a8;" horiz-adv-x="1693" d="M27 995v66l161 37l41 252h74v-260h336v-95h-336v-688q0 -117 49 -173t135 -56q102 0 184.5 44t155.5 107q-66 125 -65 310q0 182 65.5 310t184 194.5t274.5 66.5q78 0 147.5 -14.5t122.5 -38.5l-32 -103q-55 25 -119 38.5t-121 13.5q-193 0 -296 -125t-103 -340 q0 -74 11 -130.5t30 -99.5q74 61 170 108.5t219 47.5q135 0 213 -63.5t78 -165.5q0 -127 -97.5 -192.5t-238.5 -65.5q-127 0 -226.5 41.5t-166.5 125.5q-78 -66 -172.5 -116.5t-221.5 -50.5q-139 0 -217 76.5t-78 246.5v692h-161zM967 219q98 -139 301 -139q109 0 167 44 t58 109q0 55 -46 93.5t-140 38.5q-98 0 -184.5 -43t-155.5 -103z" />
<glyph unicode="&#x2a9;" horiz-adv-x="1689" d="M27 995v64l200 35v106q0 188 81 277.5t245 89.5q57 0 104.5 -9.5t85.5 -21.5l-26 -98q-37 12 -79 20t-85 8q-111 0 -160 -62.5t-49 -201.5v-112h399l19 -189h8q43 90 134 149.5t231 59.5q188 0 286.5 -96t98.5 -301v-918q0 -139 -67.5 -213t-186.5 -74q-84 0 -136 23v100 q53 -23 123 -22q70 0 111 45t41 141v910q0 156 -71.5 229.5t-209.5 73.5q-358 0 -358 -414v-594h-117v995h-305v-995h-117v995h-200z" />
<glyph unicode="&#x2aa;" horiz-adv-x="1323" d="M180 0v1556h117v-1343q86 -53 203.5 -94t265.5 -41q190 0 269 54t79 149q0 90 -75.5 138t-223.5 99q-102 35 -179 70t-121 91t-44 152q0 131 107.5 205t285.5 74q98 0 184.5 -19.5t155.5 -48.5l-43 -96q-63 29 -142 47.5t-161 18.5q-129 0 -200.5 -45t-71.5 -131 q0 -66 34.5 -104t100 -65.5t160.5 -60.5q98 -33 177 -69.5t125 -94t46 -153.5q0 -150 -119 -229.5t-348 -79.5q-160 0 -274.5 37.5t-190.5 78.5v-96h-117z" />
</font>
</defs>
</svg>
