<?xml version="1.0" standalone="no"?>
<!DOCTYPE svg PUBLIC "-//W3C//DTD SVG 1.1//EN" "http://www.w3.org/Graphics/SVG/1.1/DTD/svg11.dtd" >
<svg xmlns="http://www.w3.org/2000/svg" xmlns:xlink="http://www.w3.org/1999/xlink" version="1.1">
<metadata></metadata>
<defs>
<font id="noto_sansregular" horiz-adv-x="0" >
<font-face units-per-em="2048" ascent="1638" descent="-410" />
<missing-glyph horiz-adv-x="532" />
<glyph />
<glyph />
<glyph unicode="&#xd;" horiz-adv-x="532" />
<glyph unicode=" "  horiz-adv-x="532" />
<glyph unicode="&#x09;" horiz-adv-x="532" />
<glyph unicode="&#xa0;" horiz-adv-x="532" />
<glyph unicode="!" horiz-adv-x="550" d="M147 111q0 76 37 106.5t90 30.5q51 0 89 -31t38 -106q0 -74 -37.5 -107t-89.5 -33q-53 0 -90 33t-37 107zM166 1462h219l-51 -1050h-117z" />
<glyph unicode="&#x22;" horiz-adv-x="835" d="M133 1462h195l-41 -528h-113zM508 1462h194l-40 -528h-113z" />
<glyph unicode="#" horiz-adv-x="1323" d="M51 428v137h285l65 328h-274v135h299l82 434h147l-82 -434h295l82 434h142l-82 -434h260v-135h-287l-63 -328h280v-137h-307l-84 -428h-145l84 428h-293l-80 -428h-144l78 428h-258zM481 565h293l64 328h-293z" />
<glyph unicode="$" horiz-adv-x="1171" d="M127 168v174q70 -33 178.5 -57.5t212.5 -26.5v414q-203 55 -297 139t-94 229q0 152 105.5 238t285.5 96v180h131v-178q109 -4 198 -24.5t163 -51.5l-56 -151q-66 27 -144.5 46t-160.5 26v-412q135 -39 225.5 -83t136.5 -108.5t46 -166.5q0 -143 -106.5 -232.5 t-301.5 -109.5v-228h-131v219q-113 2 -219 19.5t-172 48.5zM303 1055q0 -82 46 -126t169 -75v363q-111 -8 -163 -51.5t-52 -110.5zM649 268q121 12 176.5 56.5t55.5 113.5q0 78 -49.5 117t-182.5 74v-361z" />
<glyph unicode="%" horiz-adv-x="1701" d="M100 1026q0 217 71.5 337t227.5 120q150 0 229 -120t79 -337t-75 -339t-233 -122q-145 0 -222 122t-77 339zM250 1026q0 -164 36 -248t113 -84q158 0 158 332q0 330 -158 330q-78 0 -113.5 -83t-35.5 -247zM367 0l811 1462h157l-811 -1462h-157zM995 440q0 217 71.5 337 t227.5 120q150 0 229 -120t79 -337t-75 -338.5t-233 -121.5q-145 0 -222 121.5t-77 338.5zM1145 440q0 -166 36 -248.5t113 -82.5q158 0 158 331q0 328 -158 328q-78 0 -113.5 -82t-35.5 -246z" />
<glyph unicode="&#x26;" horiz-adv-x="1499" d="M109 381q0 156 85 252t230 178q-66 74 -122 158t-56 196q0 150 100.5 235t276.5 85q164 0 259 -83t95 -233q0 -129 -83 -219t-210 -164l395 -380q53 63 87 146t57 179h182q-33 -133 -82 -244.5t-127 -195.5l299 -291h-244l-178 172q-96 -86 -215 -139t-289 -53 q-213 0 -336.5 104t-123.5 297zM297 387q0 -113 76 -180.5t202 -67.5q131 0 224.5 43t158.5 103l-426 413q-111 -66 -173 -133t-62 -178zM422 1167q0 -74 39 -136t112 -138q121 70 173.5 131t52.5 145q0 74 -49.5 121t-133.5 47q-86 0 -140 -45t-54 -125z" />
<glyph unicode="'" horiz-adv-x="460" d="M133 1462h195l-41 -528h-113z" />
<glyph unicode="(" horiz-adv-x="614" d="M82 561q0 250 72.5 482.5t228.5 418.5h170q-143 -193 -216 -424t-73 -475q0 -238 73 -466t214 -421h-168q-156 180 -228.5 408.5t-72.5 476.5z" />
<glyph unicode=")" horiz-adv-x="614" d="M61 1462h170q156 -186 228.5 -418.5t72.5 -482.5q0 -248 -72.5 -476t-228.5 -409h-168q141 193 214 421.5t73 465.5q0 244 -72.5 475.5t-216.5 423.5z" />
<glyph unicode="*" horiz-adv-x="1128" d="M84 1085l29 189l389 -111l-43 393h200l-41 -393l394 111l28 -189l-376 -30l243 -324l-176 -96l-174 358l-158 -358l-182 96l240 324z" />
<glyph unicode="+" horiz-adv-x="1171" d="M102 649v146h408v424h147v-424h408v-146h-408v-422h-147v422h-408z" />
<glyph unicode="," horiz-adv-x="548" d="M84 -264q29 117 58.5 256t43.5 246h193l14 -23q-29 -109 -78 -239t-98 -240h-133z" />
<glyph unicode="-" horiz-adv-x="659" d="M82 469v160h496v-160h-496z" />
<glyph unicode="." horiz-adv-x="548" d="M147 111q0 76 37 106.5t88 30.5t90 -31t39 -106q0 -74 -38.5 -107t-90.5 -33q-51 0 -88 33t-37 107z" />
<glyph unicode="/" horiz-adv-x="761" d="M20 0l545 1462h176l-544 -1462h-177z" />
<glyph unicode="0" horiz-adv-x="1171" d="M100 733q0 238 48.5 406t155 257t280.5 89q246 0 366.5 -198t120.5 -554q0 -238 -49 -405.5t-156.5 -257.5t-281.5 -90q-248 0 -366 199.5t-118 553.5zM281 733q0 -301 68.5 -450.5t234.5 -149.5q164 0 234.5 148.5t70.5 451.5q0 299 -70.5 448.5t-234.5 149.5 q-166 0 -234.5 -149.5t-68.5 -448.5z" />
<glyph unicode="1" horiz-adv-x="1171" d="M182 1155l396 307h149v-1462h-176v1022q0 88 2 141.5t6 110.5q-33 -33 -60.5 -55.5t-66.5 -57.5l-156 -127z" />
<glyph unicode="2" horiz-adv-x="1171" d="M98 0v150l383 387q109 111 185.5 196.5t115.5 167.5t39 182q0 121 -71.5 183.5t-186.5 62.5q-109 0 -188.5 -37t-163.5 -102l-96 121q86 72 197.5 122t250.5 50q205 0 324 -104.5t119 -284.5q0 -115 -47.5 -215.5t-131.5 -198.5t-196 -207l-305 -301v-8h739v-164h-967z " />
<glyph unicode="3" horiz-adv-x="1171" d="M92 59v168q92 -47 198.5 -71.5t205.5 -24.5q197 0 283.5 77t86.5 212q0 137 -107.5 197.5t-301.5 60.5h-142v153h144q180 0 273 76t93 201q0 106 -71.5 164.5t-194.5 58.5q-119 0 -203 -34.5t-166 -88.5l-90 123q78 61 194 106.5t263 45.5q229 0 341 -102.5t112 -260.5 q0 -147 -83 -234t-220 -116v-8q174 -20 261 -110.5t87 -235.5q0 -129 -59.5 -227.5t-183.5 -153.5t-318 -55q-115 0 -213.5 17t-188.5 62z" />
<glyph unicode="4" horiz-adv-x="1171" d="M43 332v153l688 985h187v-976h212v-162h-212v-332h-175v332h-700zM219 494h524v460q0 106 3.5 181t7.5 143h-9q-16 -39 -40.5 -84t-47.5 -76z" />
<glyph unicode="5" horiz-adv-x="1171" d="M129 59v170q74 -45 179.5 -70.5t201.5 -25.5q162 0 261 77t99 239q0 143 -88 219.5t-278 76.5q-57 0 -131 -10t-119 -20l-90 57l55 690h733v-164h-579l-35 -424q35 6 94 14.5t131 8.5q223 0 357.5 -112.5t134.5 -317.5q0 -227 -144.5 -357t-402.5 -130q-115 0 -213 20 t-166 59z" />
<glyph unicode="6" horiz-adv-x="1171" d="M113 625q0 158 27.5 310t100 276t203.5 198t338 74q43 0 95.5 -4t85.5 -15v-153q-37 12 -84.5 18t-92.5 6q-141 0 -235 -47t-148.5 -129t-79 -188.5t-30.5 -227.5h12q47 72 131 122t215 50q190 0 307 -115.5t117 -328.5q0 -229 -126 -360t-339 -131q-139 0 -251.5 69.5 t-179 213t-66.5 362.5zM295 506q0 -88 35 -175t104.5 -143.5t173.5 -56.5q129 0 209 83t80 257q0 139 -70.5 221t-212.5 82q-96 0 -167.5 -40t-111.5 -102.5t-40 -125.5z" />
<glyph unicode="7" horiz-adv-x="1171" d="M90 1298v164h981v-139l-594 -1323h-198l600 1298h-789z" />
<glyph unicode="8" horiz-adv-x="1171" d="M100 373q0 98 42 173t112 128t149 90q-109 61 -182.5 148t-73.5 223q0 111 57.5 188.5t156 118.5t223.5 41q193 0 315.5 -90t122.5 -260q0 -88 -38 -154t-101.5 -116t-139.5 -89q90 -45 164 -98t118 -125t44 -172q0 -184 -131 -291.5t-348 -107.5q-238 0 -364 103 t-126 290zM276 371q0 -106 76 -177t234 -71q150 0 228.5 70.5t78.5 183.5q0 106 -84 177t-223 124l-33 12q-135 -59 -206 -132.5t-71 -186.5zM324 1126q0 -76 35.5 -127t97 -86.5t135.5 -68.5q106 45 179 108.5t73 173.5q0 102 -71.5 156.5t-190.5 54.5q-115 0 -186.5 -54 t-71.5 -157z" />
<glyph unicode="9" horiz-adv-x="1171" d="M102 989q0 154 57.5 264.5t163 170t246.5 59.5q139 0 252 -71t178.5 -213t65.5 -361q0 -158 -27.5 -310.5t-100.5 -276.5t-205 -197.5t-339 -73.5q-41 0 -96 5t-88 15v154q80 -27 180 -27q143 0 236.5 47t148.5 128t80 188.5t29 226.5h-13q-47 -70 -131 -120t-217 -50 q-188 0 -304 115.5t-116 326.5zM281 991q0 -141 68.5 -222t211.5 -81q98 0 170 40t112 101.5t40 126.5q0 88 -35 174.5t-105 143.5t-174 57q-127 0 -207.5 -84t-80.5 -256z" />
<glyph unicode=":" horiz-adv-x="548" d="M147 111q0 76 37 106.5t88 30.5t90 -31t39 -106q0 -74 -38.5 -107t-90.5 -33q-51 0 -88 33t-37 107zM147 987q0 78 37 108.5t88 30.5t90 -30.5t39 -108.5q0 -74 -38.5 -106.5t-90.5 -32.5q-51 0 -88 32.5t-37 106.5z" />
<glyph unicode=";" horiz-adv-x="548" d="M63 -264q18 76 39 166t38.5 177t27.5 159h192l15 -23q-27 -109 -77 -240t-99 -239h-136zM143 987q0 78 37 108.5t88 30.5q53 0 91 -30.5t38 -108.5q0 -74 -37.5 -106.5t-91.5 -32.5q-51 0 -88 32.5t-37 106.5z" />
<glyph unicode="&#x3c;" horiz-adv-x="1171" d="M102 662v102l965 481v-160l-772 -364l772 -324v-159z" />
<glyph unicode="=" horiz-adv-x="1171" d="M115 444v146h938v-146h-938zM115 852v145h938v-145h-938z" />
<glyph unicode="&#x3e;" horiz-adv-x="1171" d="M102 238v159l772 322l-772 366v160l965 -481v-102z" />
<glyph unicode="?" horiz-adv-x="888" d="M25 1382q82 43 181 72t222 29q195 0 301.5 -96.5t106.5 -262.5q0 -92 -30 -156.5t-84 -118.5t-128 -116q-70 -57 -104.5 -100t-47 -86t-12.5 -101v-34h-143v55q0 78 15 134t53 106.5t104 107.5q78 66 123 112t63.5 89t18.5 104q0 98 -63.5 151.5t-184.5 53.5 q-100 0 -178 -25.5t-150 -60.5zM240 111q0 76 35.5 106.5t91.5 30.5q51 0 88 -31t37 -106q0 -74 -37 -107t-88 -33q-55 0 -91 33t-36 107z" />
<glyph unicode="@" horiz-adv-x="1841" d="M119 573q0 190 59.5 353.5t172 283t273 186t363.5 66.5q213 0 379 -88t261 -252t95 -391q0 -94 -21.5 -184t-66.5 -163t-110.5 -117t-155.5 -44q-94 0 -148.5 54.5t-66.5 123.5h-10q-37 -76 -108.5 -127t-180.5 -51q-158 0 -242 104.5t-84 276.5q0 133 53.5 237.5 t150.5 164t231 59.5q90 0 177 -15.5t136 -33.5l-21 -416q-2 -37 -2 -52.5v-21.5q0 -109 38 -142.5t89 -33.5q63 0 107.5 52.5t68 138.5t23.5 192q0 188 -77 321.5t-211 203t-304 69.5q-233 0 -394 -96t-244 -265t-83 -386q0 -303 160 -465t461 -162q125 0 238.5 27.5 t201.5 60.5v-139q-88 -37 -197.5 -60.5t-242.5 -23.5q-242 0 -414 90t-263 259t-91 406zM688 600q0 -133 51.5 -191.5t141.5 -58.5q115 0 165 86t58 223l12 256q-27 8 -67.5 14.5t-83.5 6.5q-100 0 -162 -49t-88.5 -126t-26.5 -161z" />
<glyph unicode="A" horiz-adv-x="1308" d="M0 0l571 1468h166l570 -1468h-191l-176 453h-580l-174 -453h-186zM422 616h463l-164 443q-6 16 -20.5 59t-28 89t-21.5 71q-16 -63 -33.5 -123.5t-29.5 -95.5z" />
<glyph unicode="B" horiz-adv-x="1331" d="M199 0v1462h417q272 0 413.5 -82t141.5 -280q0 -129 -71.5 -214t-206.5 -110v-10q92 -16 167 -55t118 -111t43 -184q0 -199 -136.5 -307.5t-371.5 -108.5h-514zM383 156h295q195 0 270.5 75.5t75.5 198.5q0 115 -79 185.5t-281 70.5h-281v-530zM383 840h270 q186 0 257 60.5t71 178.5q0 121 -85 173.5t-271 52.5h-242v-465z" />
<glyph unicode="C" horiz-adv-x="1294" d="M125 733q0 221 81 390t238.5 264.5t382.5 95.5q231 0 404 -86l-74 -156q-68 31 -151 55.5t-181 24.5q-236 0 -371 -157.5t-135 -432.5q0 -272 126 -431t378 -159q94 0 180.5 16.5t170.5 41.5v-160q-82 -31 -169 -45t-208 -14q-223 0 -373 92t-224.5 262t-74.5 399z" />
<glyph unicode="D" horiz-adv-x="1495" d="M199 0v1462h450q219 0 382 -82t251 -242t88 -393q0 -371 -201.5 -558t-562.5 -187h-407zM383 158h199h2q592 0 592 581q0 293 -144.5 429.5t-408.5 136.5h-240v-1147z" />
<glyph unicode="E" horiz-adv-x="1138" d="M199 0v1462h817v-162h-633v-456h596v-160h-596v-522h633v-162h-817z" />
<glyph unicode="F" horiz-adv-x="1062" d="M199 0v1462h817v-162h-633v-518h594v-161h-594v-621h-184z" />
<glyph unicode="G" horiz-adv-x="1490" d="M125 731q0 227 89 396t259 262.5t410 93.5q123 0 232.5 -22.5t203.5 -63.5l-70 -160q-78 33 -175 58.5t-202 25.5q-262 0 -408.5 -158.5t-146.5 -431.5q0 -174 56.5 -308t177.5 -209t317 -75q96 0 164 10.5t123 24.5v434h-321v164h505v-717q-119 -39 -239.5 -57 t-274.5 -18q-227 0 -382.5 91t-236.5 260t-81 400z" />
<glyph unicode="H" horiz-adv-x="1517" d="M199 0v1462h184v-618h750v618h184v-1462h-184v682h-750v-682h-184z" />
<glyph unicode="I" horiz-adv-x="694" d="M82 0v106l172 39v1170l-172 41v106h528v-106l-172 -41v-1170l172 -39v-106h-528z" />
<glyph unicode="J" horiz-adv-x="559" d="M-160 -207q33 -10 70 -15t78 -5q51 0 97 20.5t74.5 70.5t28.5 144v1454h185v-1439q0 -211 -104.5 -311.5t-276.5 -100.5q-49 0 -86 7t-66 20v155z" />
<glyph unicode="K" horiz-adv-x="1267" d="M199 0v1462h184v-721q61 70 124.5 139.5t127.5 139.5l395 442h215l-579 -637l602 -825h-217l-519 698l-149 -131v-567h-184z" />
<glyph unicode="L" horiz-adv-x="1073" d="M199 0v1462h184v-1298h639v-164h-823z" />
<glyph unicode="M" horiz-adv-x="1857" d="M199 0v1462h272l451 -1198h8l459 1198h270v-1462h-182v899q0 106 5 210.5t9 170.5h-8l-488 -1280h-151l-482 1282h-8q6 -63 10.5 -170.5t4.5 -224.5v-887h-170z" />
<glyph unicode="N" horiz-adv-x="1556" d="M199 0v1462h213l780 -1210h8q-2 33 -5 98.5t-6 142t-3 144.5v825h172v-1462h-215l-783 1214h-8q4 -72 10.5 -178t6.5 -219v-817h-170z" />
<glyph unicode="O" horiz-adv-x="1599" d="M125 735q0 223 73.5 392t224 263.5t380.5 94.5q219 0 368.5 -93.5t226.5 -262.5t77 -396t-77 -396t-227.5 -263t-369.5 -94q-227 0 -378 94t-224.5 264t-73.5 397zM319 733q0 -276 117 -435t365 -159t363.5 159t115.5 435t-114.5 433t-362.5 157q-250 0 -367 -157 t-117 -433z" />
<glyph unicode="P" horiz-adv-x="1239" d="M199 0v1462h387q287 0 418 -112.5t131 -317.5q0 -121 -54.5 -226.5t-182.5 -171t-347 -65.5h-168v-569h-184zM383 727h147q209 0 311.5 67.5t102.5 229.5q0 141 -91 211t-284 70h-186v-578z" />
<glyph unicode="Q" horiz-adv-x="1599" d="M125 735q0 223 73.5 392t224 263.5t380.5 94.5q219 0 368.5 -93.5t226.5 -262.5t77 -396q0 -268 -107.5 -457.5t-318.5 -259.5l350 -364h-264l-283 330q-12 0 -25.5 -1t-25.5 -1q-227 0 -378 94t-224.5 264t-73.5 397zM319 733q0 -276 117 -435t365 -159t363.5 159 t115.5 435t-114.5 433t-362.5 157q-250 0 -367 -157t-117 -433z" />
<glyph unicode="R" horiz-adv-x="1273" d="M199 0v1462h403q272 0 402.5 -103.5t130.5 -311.5q0 -117 -43 -195t-110 -125t-140 -72l401 -655h-215l-354 604h-291v-604h-184zM383 760h219q178 0 260 70.5t82 207.5q0 143 -86 204t-266 61h-209v-543z" />
<glyph unicode="S" horiz-adv-x="1124" d="M104 49v176q74 -33 183.5 -59.5t226.5 -26.5q162 0 246 63.5t84 172.5q0 72 -31 121t-106.5 90t-206.5 90q-188 68 -282.5 166t-94.5 268q0 115 59.5 199t164 129t243.5 45q119 0 219 -22.5t184 -59.5l-57 -158q-76 33 -166 55.5t-184 22.5q-137 0 -207 -58.5t-70 -154.5 q0 -74 31 -123t100.5 -89t188.5 -83q129 -47 218 -101.5t135 -130t46 -190.5q0 -195 -141.5 -303t-380.5 -108q-123 0 -227.5 18t-174.5 51z" />
<glyph unicode="T" horiz-adv-x="1138" d="M20 1300v162h1096v-162h-454v-1300h-185v1300h-457z" />
<glyph unicode="U" horiz-adv-x="1497" d="M184 520v942h185v-948q0 -178 95 -276.5t288 -98.5q199 0 287.5 105.5t88.5 271.5v946h183v-946q0 -152 -61.5 -273.5t-188.5 -192t-320 -70.5q-274 0 -415.5 148t-141.5 392z" />
<glyph unicode="V" horiz-adv-x="1228" d="M0 1462h193l329 -938q33 -90 54.5 -169t37.5 -150q14 72 37 151.5t56 171.5l327 934h195l-522 -1462h-185z" />
<glyph unicode="W" horiz-adv-x="1904" d="M25 1462h192l227 -893q25 -94 42.5 -182t27.5 -166q10 80 30.5 174t47.5 185l258 882h190l269 -889q29 -94 49 -188t31 -164q8 76 27.5 165t43.5 185l226 891h192l-389 -1462h-186l-285 958q-18 57 -33.5 118t-27 107t-13.5 64q-2 -27 -22.5 -113.5t-47.5 -181.5 l-276 -952h-186z" />
<glyph unicode="X" horiz-adv-x="1200" d="M8 0l486 762l-455 700h205l358 -573l361 573h194l-452 -696l487 -766h-209l-387 635l-393 -635h-195z" />
<glyph unicode="Y" horiz-adv-x="1159" d="M0 1462h201l379 -719l381 719h198l-487 -895v-567h-185v559z" />
<glyph unicode="Z" horiz-adv-x="1171" d="M78 0v139l770 1159h-746v164h969v-139l-770 -1159h791v-164h-1014z" />
<glyph unicode="[" horiz-adv-x="673" d="M164 -324v1786h459v-147h-283v-1491h283v-148h-459z" />
<glyph unicode="\" horiz-adv-x="761" d="M20 1462h177l546 -1462h-178z" />
<glyph unicode="]" horiz-adv-x="673" d="M51 -176h283v1491h-283v147h459v-1786h-459v148z" />
<glyph unicode="^" horiz-adv-x="1171" d="M78 547l434 926h102l480 -926h-160l-369 735l-327 -735h-160z" />
<glyph unicode="_" horiz-adv-x="909" d="M-4 -184h917v-131h-917v131z" />
<glyph unicode="`" horiz-adv-x="575" d="M82 1548v21h215q23 -45 56.5 -101.5t71.5 -110.5t69 -91v-25h-121q-47 37 -106.5 95.5t-110 116.5t-74.5 95z" />
<glyph unicode="a" horiz-adv-x="1148" d="M94 305q0 164 129 253t398 97l186 7v65q0 137 -59.5 190.5t-167.5 53.5q-86 0 -164 -25.5t-146 -58.5l-55 135q72 39 170.5 66.5t204.5 27.5q201 0 297 -88t96 -280v-748h-131l-35 156h-8q-72 -90 -151.5 -133t-217.5 -43q-150 0 -248 78.5t-98 246.5zM281 303 q0 -92 56 -135t144 -43q137 0 230.5 77t93.5 236v99l-162 -7q-205 -8 -283.5 -65t-78.5 -162z" />
<glyph unicode="b" horiz-adv-x="1259" d="M174 0v1556h180v-378q0 -70 -3 -130.5t-7 -95.5h10q47 70 129 117t211 47q205 0 329 -142.5t124 -424.5q0 -283 -125 -426t-328 -143q-129 0 -211 47t-129 112h-14l-37 -139h-129zM354 547q0 -203 66.5 -310.5t247.5 -107.5q147 0 220 108.5t73 313.5q0 416 -297 416 q-176 0 -243 -100.5t-67 -311.5v-8z" />
<glyph unicode="c" horiz-adv-x="983" d="M113 543q0 203 66.5 329.5t183 186t264.5 59.5q82 0 160.5 -17.5t127.5 -41.5l-55 -150q-49 18 -114.5 35t-122.5 17q-324 0 -324 -416q0 -199 79 -304.5t234 -105.5q88 0 158 18.5t127 45.5v-160q-55 -29 -122 -44t-161 -15q-147 0 -259.5 59t-177 184t-64.5 320z" />
<glyph unicode="d" horiz-adv-x="1259" d="M113 547q0 283 123.5 427t328.5 144q127 0 208 -47t132 -115h13q-4 27 -8.5 79t-4.5 83v438h180v-1556h-145l-27 147h-8q-49 -70 -131 -118.5t-211 -48.5q-205 0 -327.5 142t-122.5 425zM299 543q0 -197 73 -305.5t220 -108.5q174 0 244.5 95t70.5 288v33 q0 205 -67.5 314.5t-249.5 109.5q-145 0 -218 -116t-73 -310z" />
<glyph unicode="e" horiz-adv-x="1155" d="M113 541q0 180 60 309t170 198.5t255 69.5q139 0 241.5 -61.5t157 -173t54.5 -260.5v-109h-752q4 -186 95 -283.5t255 -97.5q104 0 185 19.5t167 56.5v-158q-84 -37 -165.5 -54t-194.5 -17q-158 0 -276.5 63t-185 188t-66.5 310zM303 657h559q-2 139 -65.5 226.5 t-200.5 87.5q-129 0 -204 -83t-89 -231z" />
<glyph unicode="f" horiz-adv-x="704" d="M31 958v84l192 62v63q0 213 93.5 306.5t263.5 93.5q63 0 118.5 -11.5t94.5 -25.5l-48 -141q-33 10 -75.5 20t-87.5 10q-90 0 -134.5 -60.5t-44.5 -189.5v-71h277v-140h-277v-958h-180v958h-192z" />
<glyph unicode="g" horiz-adv-x="1259" d="M113 547q0 262 119.5 416.5t330.5 154.5q109 0 196 -41t148 -125h11l24 146h143v-1116q0 -236 -119.5 -355t-371.5 -119q-242 0 -395 70v166q162 -86 405 -86q141 0 222 83t81 226v43q0 25 2 71t4 64h-8q-110 -165 -337 -165h-3q-213 0 -332.5 149.5t-119.5 417.5z M299 545q0 -203 73.5 -310.5t219.5 -107.5q166 0 241.5 89t75.5 288v43q0 223 -77.5 321.5t-243.5 98.5q-137 0 -213 -109.5t-76 -312.5z" />
<glyph unicode="h" horiz-adv-x="1265" d="M174 0v1556h180v-456q0 -82 -10 -154h12q53 84 144.5 127t197.5 43q199 0 300.5 -95t101.5 -306v-715h-178v702q0 264 -246 265q-184 0 -253 -103.5t-69 -296.5v-567h-180z" />
<glyph unicode="i" horiz-adv-x="528" d="M160 1395q0 59 30.5 86.5t75.5 27.5q41 0 73 -27.5t32 -86.5t-32 -87t-73 -28q-45 0 -75.5 27.5t-30.5 87.5zM174 0v1098h180v-1098h-180z" />
<glyph unicode="j" horiz-adv-x="528" d="M-113 -322q31 -10 64 -15t72 -5q66 0 108.5 36t42.5 136v1268h180v-1262q0 -154 -73.5 -241t-235.5 -87q-53 0 -92 7.5t-66 17.5v145zM160 1395q0 59 30.5 86.5t75.5 27.5q41 0 73 -27.5t32 -86.5t-32 -87t-73 -28q-45 0 -75.5 28t-30.5 87z" />
<glyph unicode="k" horiz-adv-x="1093" d="M174 0v1556h178v-813q0 -33 -3 -86t-5 -92h8q12 16 37 47t50.5 63t43.5 52l351 371h210l-444 -469l475 -629h-217l-381 512l-125 -109v-403h-178z" />
<glyph unicode="l" horiz-adv-x="528" d="M174 0v1556h180v-1556h-180z" />
<glyph unicode="m" horiz-adv-x="1914" d="M174 0v1098h145l27 -150h10q51 86 138.5 128t185.5 42q258 0 336 -184h10q55 94 149 139t203 45q186 0 278.5 -96t92.5 -307v-715h-178v707q0 260 -223 260q-160 0 -228.5 -92.5t-68.5 -268.5v-606h-179v707q0 260 -225 260q-166 0 -229.5 -102.5t-63.5 -295.5v-569h-180 z" />
<glyph unicode="n" horiz-adv-x="1265" d="M174 0v1098h145l27 -150h10q53 86 147.5 128t198.5 42q197 0 297.5 -96t100.5 -307v-715h-178v702q0 264 -246 265q-182 0 -252 -102.5t-70 -295.5v-569h-180z" />
<glyph unicode="o" horiz-adv-x="1239" d="M113 551q0 272 136 419.5t374 147.5q147 0 261.5 -66.5t179 -192.5t64.5 -308q0 -272 -138 -421.5t-374 -149.5q-145 0 -258.5 66.5t-179 194.5t-65.5 310zM299 551q0 -195 77 -308.5t245 -113.5q166 0 243.5 113.5t77.5 308.5t-78 305.5t-246 110.5t-243.5 -110.5 t-75.5 -305.5z" />
<glyph unicode="p" horiz-adv-x="1259" d="M174 -492v1590h148l24 -150h8q49 72 129 121t213 49q203 0 327 -141t124 -426q0 -281 -124 -426t-329 -145q-127 0 -210 47t-130 112h-12q2 -35 7 -88t5 -92v-451h-180zM354 551q0 -203 66.5 -312.5t247.5 -109.5q98 0 163.5 54.5t97.5 150.5t32 219q0 188 -72.5 301 t-224.5 113q-168 0 -238 -94.5t-72 -286.5v-35z" />
<glyph unicode="q" horiz-adv-x="1259" d="M113 547q0 283 126 427t326 144q129 0 211 -49t131 -121h8l27 150h143v-1590h-180v469q0 37 2 86.5t8 83.5h-12q-47 -70 -130 -118.5t-214 -48.5q-199 0 -322.5 142t-123.5 425zM299 543q0 -195 71.5 -304.5t223.5 -109.5q168 0 239.5 93t73.5 286v37q0 209 -69.5 316.5 t-247.5 107.5q-147 0 -219 -116t-72 -310z" />
<glyph unicode="r" horiz-adv-x="845" d="M174 0v1098h148l20 -201h8q51 90 136 155.5t200 65.5q31 0 65.5 -3t63.5 -9l-22 -166q-27 6 -60 10t-59 4q-84 0 -158 -46t-118 -129t-44 -193v-586h-180z" />
<glyph unicode="s" horiz-adv-x="980" d="M104 827q0 139 114 215t298 76q100 0 187.5 -20.5t162.5 -53.5l-61 -143q-70 29 -145.5 49.5t-155.5 20.5q-111 0 -169.5 -36t-58.5 -97q0 -47 27 -78t89.5 -61.5t166.5 -69.5t178 -80t113 -99.5t39 -146.5q0 -160 -119 -241.5t-319 -81.5q-115 0 -198 18t-147 51v164 q66 -33 159 -60.5t190 -27.5q137 0 198.5 44t61.5 118q0 41 -22.5 73.5t-81 65.5t-167.5 74q-106 41 -182 82t-117 98t-41 147z" />
<glyph unicode="t" horiz-adv-x="739" d="M33 958v86l157 72l72 234h107v-252h317v-140h-317v-634q0 -100 48 -148.5t124 -48.5q41 0 84 6t69 17v-138q-29 -14 -82 -23t-102 -9q-86 0 -158.5 29.5t-118 103t-45.5 206.5v639h-155z" />
<glyph unicode="u" horiz-adv-x="1265" d="M162 379v719h182v-707q0 -262 244 -262q182 0 252.5 102.5t70.5 294.5v572h181v-1098h-148l-26 145h-9q-53 -86 -147 -125.5t-201 -39.5q-199 0 -299 95t-100 304z" />
<glyph unicode="v" horiz-adv-x="1040" d="M0 1098h193l233 -647q16 -45 34.5 -100.5t33 -106.5t20.5 -84h8q6 33 22.5 85t35 106.5t34.5 99.5l234 647h192l-417 -1098h-207z" />
<glyph unicode="w" horiz-adv-x="1609" d="M23 1100h186l151 -586q23 -88 43.5 -178t28.5 -150h8q6 35 18.5 86.5t27 107.5t28.5 101l195 619h196l189 -619q20 -72 42.5 -153.5t30.5 -139.5h9q6 51 27.5 141.5t45.5 184.5l154 586h184l-305 -1098h-211l-188 619q-27 84 -47.5 163.5t-28.5 126.5h-8 q-8 -47 -26.5 -126.5t-47.5 -166.5l-197 -616h-204z" />
<glyph unicode="x" horiz-adv-x="1083" d="M37 0l397 561l-379 537h205l283 -414l280 414h203l-379 -537l400 -561h-205l-299 438l-303 -438h-203z" />
<glyph unicode="y" horiz-adv-x="1044" d="M2 1098h193l237 -625q31 -84 55.5 -157.5t36.5 -141.5h8q12 51 39 134t56 167l223 623h194l-473 -1250q-59 -156 -149 -248t-250 -92q-49 0 -86 5.5t-63 11.5v143q23 -4 54.5 -8t65.5 -4q94 0 151.5 53t92.5 141l57 146z" />
<glyph unicode="z" horiz-adv-x="962" d="M80 0v119l590 839h-555v140h753v-135l-581 -824h596v-139h-803z" />
<glyph unicode="{" horiz-adv-x="778" d="M57 496v149q121 2 185.5 45t64.5 146v303q0 164 112.5 243.5t293.5 79.5v-147q-106 -4 -167 -48t-61 -145v-295q0 -211 -223 -249v-13q223 -39 223 -250v-301q0 -100 59.5 -144t168.5 -46v-148q-188 2 -297 82t-109 244v301q0 104 -64.5 148.5t-185.5 44.5z" />
<glyph unicode="|" horiz-adv-x="1128" d="M489 -494v2050h150v-2050h-150z" />
<glyph unicode="}" horiz-adv-x="778" d="M66 -176q106 4 166.5 48t60.5 144v297q0 211 223 250v12q-223 39 -223 250v299q0 100 -59.5 144.5t-167.5 46.5v147q188 -2 296.5 -82t108.5 -243v-299q0 -104 64.5 -148.5t185.5 -44.5v-149q-121 -2 -185.5 -45t-64.5 -146v-305q0 -164 -112.5 -244t-292.5 -80v148z" />
<glyph unicode="~" horiz-adv-x="1171" d="M102 588v160q98 109 246 108q57 0 116.5 -12.5t153.5 -52.5q74 -33 122 -44.5t91 -11.5q59 0 123 35t113 86v-158q-100 -111 -246 -110q-59 0 -118.5 13t-151.5 52q-74 33 -122 44.5t-93 11.5q-57 0 -120.5 -35t-113.5 -86z" />
<glyph unicode="&#xa1;" horiz-adv-x="550" d="M147 979q0 74 37 106.5t90 32.5t90 -32.5t37 -106.5q0 -78 -36.5 -107.5t-90.5 -29.5q-53 0 -90 29.5t-37 107.5zM162 -373l51 1049h119l51 -1049h-221z" />
<glyph unicode="&#xa2;" horiz-adv-x="1171" d="M186 741q0 186 49.5 305t138.5 182.5t210 82.5v172h139v-164q76 -4 147.5 -20.5t122.5 -38.5l-53 -150q-53 20 -120.5 36.5t-123.5 16.5q-168 0 -246.5 -104.5t-78.5 -315.5q0 -213 80.5 -310t236.5 -97q90 0 156.5 17.5t130.5 43.5v-157q-55 -27 -114.5 -43.5 t-139.5 -18.5v-198h-137v204q-121 18 -210 80t-138.5 177.5t-49.5 299.5z" />
<glyph unicode="&#xa3;" horiz-adv-x="1171" d="M66 0v152q88 20 145 86.5t57 201.5v215h-196v136h196v303q0 182 114 284.5t302 102.5q113 0 202 -24.5t161 -59.5l-64 -144q-61 29 -137 53.5t-158 24.5q-117 0 -178 -60.5t-61 -195.5v-284h417v-136h-417v-213q0 -125 -43.5 -185t-96.5 -93h787v-164h-1030z" />
<glyph unicode="&#xa4;" horiz-adv-x="1171" d="M121 1087l100 97l135 -131q47 33 105.5 52t124.5 19q63 0 119.5 -19.5t105.5 -51.5l137 131l99 -97l-132 -137q31 -47 51.5 -105.5t20.5 -121.5q0 -129 -72 -229l129 -136l-96 -96l-137 131q-47 -33 -104.5 -51t-120.5 -18q-131 0 -230 71l-135 -131l-98 96l133 136 q-33 47 -52.5 105.5t-19.5 121.5q0 61 19.5 119.5t52.5 105.5zM322 723q0 -74 34.5 -134.5t95 -95t134.5 -34.5t134 34.5t96 95t36 134.5q0 76 -36 136.5t-96.5 96t-133.5 35.5q-74 0 -134.5 -35.5t-95 -96t-34.5 -136.5z" />
<glyph unicode="&#xa5;" horiz-adv-x="1171" d="M29 1462h190l365 -714l366 714h189l-412 -768h254v-131h-309v-168h309v-131h-309v-264h-176v264h-310v131h310v168h-310v131h250z" />
<glyph unicode="&#xa6;" horiz-adv-x="1128" d="M489 287h150v-781h-150v781zM489 776v780h150v-780h-150z" />
<glyph unicode="&#xa7;" horiz-adv-x="1050" d="M121 57v154q66 -31 162 -57.5t192 -26.5q152 0 209 43t57 102q0 39 -19.5 68t-75.5 59.5t-169 73.5q-109 39 -184.5 83t-115.5 103.5t-40 149.5q0 100 49.5 163.5t112.5 94.5q-74 39 -115 96.5t-41 139.5q0 123 104.5 193.5t299.5 70.5q115 0 193.5 -19.5t156.5 -50.5 l-55 -137q-72 29 -140.5 48t-166.5 19q-123 0 -173.5 -31.5t-50.5 -88.5t57.5 -97.5t213.5 -97.5q158 -59 245.5 -132t87.5 -196q0 -104 -47 -170.5t-106 -101.5q72 -39 111.5 -93t39.5 -132q0 -141 -117.5 -219t-328.5 -78q-115 0 -199 17.5t-147 49.5zM291 829 q0 -76 64.5 -128t228.5 -113l45 -17q47 27 89 72t42 115q0 51 -27.5 92t-97.5 79t-197 77q-57 -14 -102 -61.5t-45 -115.5z" />
<glyph unicode="&#xa8;" horiz-adv-x="1187" d="M305 1395q0 53 27.5 76.5t68.5 23.5q39 0 68 -23.5t29 -76.5q0 -51 -29 -77t-68 -26q-41 0 -68.5 26t-27.5 77zM690 1395q0 53 27.5 76.5t66.5 23.5t68 -23.5t29 -76.5q0 -51 -29 -77t-68 -26t-66.5 26t-27.5 77z" />
<glyph unicode="&#xa9;" horiz-adv-x="1703" d="M100 731q0 164 55.5 301t157 238.5t238.5 157t301 55.5q156 0 292 -55.5t239.5 -157t162 -238.5t58.5 -301t-55.5 -301t-157 -238.5t-238.5 -156.5t-301 -55t-301 55t-238.5 156.5t-157 238.5t-55.5 301zM215 731q0 -133 47 -249.5t132 -205t202 -138.5t256 -50 q131 0 245.5 47t203 134t137.5 204t49 258q0 133 -47 250t-132 205t-201 138t-255 50q-184 0 -328.5 -83t-226.5 -228t-82 -332zM479 731q0 133 47 236.5t139.5 162t225.5 58.5t252 -62l-60 -125q-102 53 -190 54q-121 0 -187.5 -87t-66.5 -237q0 -158 58.5 -241.5 t193.5 -83.5q47 0 105.5 13t109.5 34v-131q-49 -23 -100 -36.5t-123 -13.5q-203 0 -303.5 126t-100.5 333z" />
<glyph unicode="&#xaa;" horiz-adv-x="731" d="M66 987q0 203 323 215l115 4v45q0 68 -43 94.5t-103 26.5q-57 0 -109 -15.5t-97 -37.5l-46 100q53 27 118.5 43.5t137.5 16.5q133 0 201 -55.5t68 -176.5v-450h-96l-25 86q-41 -43 -99.5 -71t-134.5 -28q-96 0 -153 50.5t-57 152.5zM197 987q0 -53 29.5 -75.5t80.5 -22.5 q104 0 150.5 48t46.5 130v47l-98 -4q-123 -4 -166 -36t-43 -87z" />
<glyph unicode="&#xab;" horiz-adv-x="1042" d="M82 526v27l344 412l129 -74l-287 -350l287 -351l-129 -75zM487 526v27l349 412l127 -74l-287 -350l287 -351l-127 -75z" />
<glyph unicode="&#xac;" horiz-adv-x="1171" d="M102 649v146h963v-533h-145v387h-818z" />
<glyph unicode="&#xad;" horiz-adv-x="659" d="M82 469v160h496v-160h-496z" />
<glyph unicode="&#xae;" horiz-adv-x="1703" d="M100 731q0 164 55.5 301t157 238.5t238.5 157t301 55.5q156 0 292 -55.5t239.5 -157t162 -238.5t58.5 -301t-55.5 -301t-157 -238.5t-238.5 -156.5t-301 -55t-301 55t-238.5 156.5t-157 238.5t-55.5 301zM215 731q0 -133 47 -249.5t132 -205t202 -138.5t256 -50 q131 0 245.5 47t203 134t137.5 204t49 258q0 133 -47 250t-132 205t-201 138t-255 50q-184 0 -328.5 -83t-226.5 -228t-82 -332zM571 283v895h263q168 0 245.5 -67t77.5 -198q0 -96 -49 -152t-111 -81l238 -397h-176l-205 354h-127v-354h-156zM727 764h102q80 0 125 40 t45 105q0 72 -40.5 105t-131.5 33h-100v-283z" />
<glyph unicode="&#xaf;" horiz-adv-x="1024" d="M-6 1556v136h1036v-136h-1036z" />
<glyph unicode="&#xb0;" horiz-adv-x="876" d="M113 1167q0 139 87 227.5t238 88.5q143 0 234.5 -88t91.5 -228q0 -139 -91.5 -226t-234.5 -87q-147 0 -236 87t-89 226zM246 1167q0 -86 47 -139t147 -53q98 0 144.5 53t46.5 139q0 90 -48 143.5t-143 53.5q-100 0 -147 -53.5t-47 -143.5z" />
<glyph unicode="&#xb1;" horiz-adv-x="1171" d="M102 0v145h965v-145h-965zM102 655v146h408v424h147v-424h408v-146h-408v-422h-147v422h-408z" />
<glyph unicode="&#xb2;" horiz-adv-x="716" d="M49 852v111l236 229q84 80 126 130t57 89t15 86q0 63 -37.5 97t-99.5 34q-61 0 -111.5 -23.5t-103.5 -64.5l-72 94q59 51 130 82t159 31q131 0 206 -64.5t75 -177.5q0 -100 -60.5 -180t-175.5 -188l-166 -158h400v-127h-578z" />
<glyph unicode="&#xb3;" horiz-adv-x="716" d="M35 893v129q143 -70 270 -70q106 0 155.5 42t49.5 114q0 74 -59.5 107.5t-165.5 33.5h-117v113h117q102 0 150 40t48 103t-42 94t-101 31q-63 0 -117.5 -21.5t-109.5 -56.5l-74 95q63 45 133 72.5t166 27.5q145 0 219 -63.5t74 -161.5q0 -84 -44 -136.5t-106 -72.5v-6 q80 -16 128 -67.5t48 -135.5q0 -119 -87 -193.5t-267 -74.5q-76 0 -141.5 13t-126.5 44z" />
<glyph unicode="&#xb4;" horiz-adv-x="575" d="M82 1241v25q29 37 65.5 91t71.5 110.5t57 101.5h218v-21q-27 -37 -77 -95t-108.5 -116.5t-107.5 -95.5h-119z" />
<glyph unicode="&#xb5;" horiz-adv-x="1275" d="M174 -492v1590h180v-709q0 -260 246 -260q182 0 252 102.5t70 294.5v572h180v-1098h-146l-28 147h-10q-53 -82 -134.5 -124.5t-195.5 -42.5q-80 0 -137.5 25.5t-98.5 66.5h-8q4 -37 7 -99.5t3 -144.5v-320h-180z" />
<glyph unicode="&#xb6;" horiz-adv-x="1341" d="M113 1042q0 195 56 307.5t158.5 159.5t235.5 47h561v-1816h-118v1702h-209v-1702h-119v819q-31 -10 -71 -14t-75 -4q-127 0 -221 47t-146 157.5t-52 296.5z" />
<glyph unicode="&#xb7;" horiz-adv-x="548" d="M147 723q0 76 37 106.5t88 30.5t90 -31t39 -106q0 -74 -38.5 -107t-90.5 -33q-51 0 -88 33t-37 107z" />
<glyph unicode="&#xb8;" horiz-adv-x="460" d="M29 -369q18 -4 49 -7t59 -3q74 0 113 19.5t39 70.5q0 53 -54.5 78t-132.5 35l88 176h119l-53 -109q74 -16 126 -57t52 -119q0 -98 -75.5 -152.5t-227.5 -54.5q-66 0 -102 11v112z" />
<glyph unicode="&#xb9;" horiz-adv-x="716" d="M76 1540l266 189h150v-877h-146v565q0 53 3 96t5 86q-20 -18 -44.5 -39.5t-51.5 -39.5l-111 -80z" />
<glyph unicode="&#xba;" horiz-adv-x="770" d="M66 1133q0 168 86 257t235 89q145 0 232.5 -88t87.5 -258q0 -166 -88.5 -257.5t-235.5 -91.5q-137 0 -227 89.5t-90 259.5zM195 1133q0 -121 44 -180.5t146 -59.5q100 0 145 59.5t45 180.5t-45 179t-145 58t-145 -58t-45 -179z" />
<glyph unicode="&#xbb;" horiz-adv-x="1042" d="M80 190l287 351l-287 350l127 74l346 -412v-27l-346 -411zM485 190l287 351l-287 350l127 74l349 -412v-27l-349 -411z" />
<glyph unicode="&#xbc;" horiz-adv-x="1525" d="M70 1274l266 188h149v-876h-145v565q0 53 2 96t6 86q-20 -18 -44.5 -39.5t-51.5 -40.5l-111 -79zM258 0l893 1462h154l-893 -1462h-154zM829 197v106l404 580h149v-564h125v-122h-125v-197h-153v197h-400zM973 319h256v191q0 43 2 100.5t4 106.5q-10 -23 -43 -73t-55 -85 z" />
<glyph unicode="&#xbd;" horiz-adv-x="1579" d="M45 1274l266 188h150v-876h-146v565q0 53 2 96t7 86q-20 -18 -45 -39.5t-52 -40.5l-110 -79zM197 0l893 1462h153l-893 -1462h-153zM911 0v111l236 229q82 80 125 130t58.5 89t15.5 86q0 63 -38 97t-100 34q-61 0 -112.5 -23.5t-102.5 -64.5l-71 94q59 51 129.5 82 t158.5 31q131 0 206 -64.5t75 -177.5q0 -100 -61.5 -180t-174.5 -188l-165 -158h399v-127h-578z" />
<glyph unicode="&#xbe;" horiz-adv-x="1599" d="M31 627v129q143 -70 270 -70q106 0 155.5 42t49.5 114q0 74 -59.5 107.5t-165.5 33.5h-117v113h117q102 0 150 40t48 103t-42 94t-101 31q-63 0 -117.5 -21.5t-109.5 -56.5l-74 94q63 45 133 73t166 28q145 0 219 -63.5t74 -162.5q0 -84 -44 -136t-106 -72v-7 q80 -16 128 -67t48 -135q0 -119 -87 -194t-267 -75q-76 0 -141.5 13.5t-126.5 44.5zM348 0l893 1462h154l-893 -1462h-154zM903 197v106l404 580h149v-564h125v-122h-125v-197h-153v197h-400zM1047 319h256v191q0 43 2 100.5t4 106.5q-10 -23 -43 -73t-56 -85z" />
<glyph unicode="&#xbf;" horiz-adv-x="888" d="M49 -34q0 92 30 156.5t84 118.5t128 116q70 57 104.5 100t47 86t12.5 101v34h143v-55q0 -78 -15 -134t-53 -106.5t-104 -107.5q-78 -66 -123 -112t-63.5 -89t-18.5 -104q0 -98 63.5 -151.5t184.5 -53.5q100 0 178 25.5t150 60.5l63 -143q-82 -43 -181 -72t-222 -29 q-195 0 -301.5 96.5t-106.5 262.5zM393 979q0 74 37 107t88 33q55 0 91 -33t36 -107q0 -76 -35.5 -106.5t-91.5 -30.5q-51 0 -88 31t-37 106z" />
<glyph unicode="&#xc0;" horiz-adv-x="1308" d="M0 0l571 1468h166l570 -1468h-191l-176 453h-580l-174 -453h-186zM383 1913v21h215q23 -45 56.5 -101.5t71.5 -110.5t69 -91v-25h-121q-47 37 -106.5 95.5t-110 116.5t-74.5 95zM422 616h463l-164 443q-6 16 -20.5 59t-28 89t-21.5 71q-16 -63 -33.5 -123.5t-29.5 -95.5z " />
<glyph unicode="&#xc1;" horiz-adv-x="1308" d="M0 0l571 1468h166l570 -1468h-191l-176 453h-580l-174 -453h-186zM422 616h463l-164 443q-6 16 -20.5 59t-28 89t-21.5 71q-16 -63 -33.5 -123.5t-29.5 -95.5zM528 1606v25q29 37 65.5 91t71.5 110.5t57 101.5h218v-21q-27 -37 -77 -95t-108.5 -116.5t-107.5 -95.5h-119z " />
<glyph unicode="&#xc2;" horiz-adv-x="1308" d="M0 0l571 1468h166l570 -1468h-191l-176 453h-580l-174 -453h-186zM309 1606v23q37 39 86 93t94 110.5t72 101.5h184q25 -45 71 -101.5t96 -110.5t89 -93v-23h-127q-53 33 -110.5 81t-112.5 103q-55 -55 -110.5 -103t-108.5 -81h-123zM422 616h463l-164 443 q-6 16 -20.5 59t-28 89t-21.5 71q-16 -63 -33.5 -123.5t-29.5 -95.5z" />
<glyph unicode="&#xc3;" horiz-adv-x="1308" d="M0 0l571 1468h166l570 -1468h-191l-176 453h-580l-174 -453h-186zM275 1606q12 121 70.5 191.5t154.5 70.5q61 0 115.5 -29.5t103.5 -58.5t92 -29q47 0 73 30t40 89h103q-12 -121 -69.5 -191.5t-154.5 -70.5q-57 0 -111.5 28.5t-104.5 58.5t-95 30q-49 0 -73.5 -30 t-39.5 -89h-104zM422 616h463l-164 443q-6 16 -20.5 59t-28 89t-21.5 71q-16 -63 -33.5 -123.5t-29.5 -95.5z" />
<glyph unicode="&#xc4;" horiz-adv-x="1308" d="M0 0l571 1468h166l570 -1468h-191l-176 453h-580l-174 -453h-186zM362 1760q0 53 27.5 76.5t68.5 23.5q39 0 68 -23.5t29 -76.5q0 -51 -29 -77t-68 -26q-41 0 -68.5 26t-27.5 77zM422 616h463l-164 443q-6 16 -20.5 59t-28 89t-21.5 71q-16 -63 -33.5 -123.5t-29.5 -95.5 zM747 1760q0 53 27.5 76.5t66.5 23.5t68 -23.5t29 -76.5q0 -51 -29 -77t-68 -26t-66.5 26t-27.5 77z" />
<glyph unicode="&#xc5;" horiz-adv-x="1308" d="M0 0l571 1468h166l570 -1468h-191l-176 453h-580l-174 -453h-186zM422 616h463l-164 443q-6 16 -20.5 59t-28 89t-21.5 71q-16 -63 -33.5 -123.5t-29.5 -95.5zM426 1583q0 102 61.5 158.5t161.5 56.5q96 0 161.5 -56t65.5 -157q0 -104 -64.5 -161.5t-162.5 -57.5 q-100 0 -161.5 57.5t-61.5 159.5zM534 1583q0 -53 30 -84t85 -31q51 0 83 31t32 84t-33 84t-82 31t-82 -31t-33 -84z" />
<glyph unicode="&#xc6;" horiz-adv-x="1804" d="M-2 0l694 1462h989v-162h-577v-456h538v-160h-538v-522h577v-162h-761v453h-512l-220 -453h-190zM479 616h441v682h-119z" />
<glyph unicode="&#xc7;" horiz-adv-x="1294" d="M125 733q0 221 81 390t238.5 264.5t382.5 95.5q231 0 404 -86l-74 -156q-68 31 -151 55.5t-181 24.5q-236 0 -371 -157.5t-135 -432.5q0 -272 126 -431t378 -159q94 0 180.5 16.5t170.5 41.5v-160q-82 -31 -169 -45t-208 -14q-223 0 -373 92t-224.5 262t-74.5 399z M564 -369q18 -4 49 -7t59 -3q74 0 113 19.5t39 70.5q0 53 -54.5 78t-132.5 35l88 176h119l-53 -109q74 -16 126 -57t52 -119q0 -98 -75.5 -152.5t-227.5 -54.5q-66 0 -102 11v112z" />
<glyph unicode="&#xc8;" horiz-adv-x="1138" d="M199 0v1462h817v-162h-633v-456h596v-160h-596v-522h633v-162h-817zM356 1913v21h215q23 -45 56.5 -101.5t71.5 -110.5t69 -91v-25h-121q-47 37 -106.5 95.5t-110 116.5t-74.5 95z" />
<glyph unicode="&#xc9;" horiz-adv-x="1138" d="M199 0v1462h817v-162h-633v-456h596v-160h-596v-522h633v-162h-817zM502 1606v25q29 37 65.5 91t71.5 110.5t57 101.5h218v-21q-27 -37 -77 -95t-108.5 -116.5t-107.5 -95.5h-119z" />
<glyph unicode="&#xca;" horiz-adv-x="1138" d="M199 0v1462h817v-162h-633v-456h596v-160h-596v-522h633v-162h-817zM283 1606v23q37 39 86 93t94 110.5t72 101.5h184q25 -45 71 -101.5t96 -110.5t89 -93v-23h-127q-53 33 -110.5 81t-112.5 103q-55 -55 -110.5 -103t-108.5 -81h-123z" />
<glyph unicode="&#xcb;" horiz-adv-x="1138" d="M199 0v1462h817v-162h-633v-456h596v-160h-596v-522h633v-162h-817zM336 1760q0 53 27.5 76.5t68.5 23.5q39 0 68 -23.5t29 -76.5q0 -51 -29 -77t-68 -26q-41 0 -68.5 26t-27.5 77zM721 1760q0 53 27.5 76.5t66.5 23.5t68 -23.5t29 -76.5q0 -51 -29 -77t-68 -26t-66.5 26 t-27.5 77z" />
<glyph unicode="&#xcc;" horiz-adv-x="694" d="M80 1913v21h215q23 -45 56.5 -101.5t71.5 -110.5t69 -91v-25h-121q-47 37 -106.5 95.5t-110 116.5t-74.5 95zM82 0v106l172 39v1170l-172 41v106h528v-106l-172 -41v-1170l172 -39v-106h-528z" />
<glyph unicode="&#xcd;" horiz-adv-x="694" d="M82 0v106l172 39v1170l-172 41v106h528v-106l-172 -41v-1170l172 -39v-106h-528zM225 1606v25q29 37 65.5 91t71.5 110.5t57 101.5h218v-21q-27 -37 -77 -95t-108.5 -116.5t-107.5 -95.5h-119z" />
<glyph unicode="&#xce;" horiz-adv-x="694" d="M6 1606v23q37 39 86 93t94 110.5t72 101.5h184q25 -45 71 -101.5t96 -110.5t89 -93v-23h-127q-53 33 -110.5 81t-112.5 103q-55 -55 -110.5 -103t-108.5 -81h-123zM82 0v106l172 39v1170l-172 41v106h528v-106l-172 -41v-1170l172 -39v-106h-528z" />
<glyph unicode="&#xcf;" horiz-adv-x="694" d="M59 1760q0 53 27.5 76.5t68.5 23.5q39 0 68 -23.5t29 -76.5q0 -51 -29 -77t-68 -26q-41 0 -68.5 26t-27.5 77zM82 0v106l172 39v1170l-172 41v106h528v-106l-172 -41v-1170l172 -39v-106h-528zM444 1760q0 53 27.5 76.5t66.5 23.5t68 -23.5t29 -76.5q0 -51 -29 -77 t-68 -26t-66.5 26t-27.5 77z" />
<glyph unicode="&#xd0;" horiz-adv-x="1495" d="M61 643v160h152v659h436q219 0 381 -82t251 -241.5t89 -393.5q0 -371 -201.5 -558t-564.5 -187h-391v643h-152zM397 158h185q594 0 594 581q0 293 -145.5 429.5t-407.5 136.5h-226v-502h365v-160h-365v-485z" />
<glyph unicode="&#xd1;" horiz-adv-x="1556" d="M199 0v1462h213l780 -1210h8q-2 33 -5 98.5t-6 142t-3 144.5v825h172v-1462h-215l-783 1214h-8q4 -72 10.5 -178t6.5 -219v-817h-170zM401 1606q12 121 70.5 191.5t154.5 70.5q61 0 115.5 -29.5t103.5 -58.5t92 -29q47 0 73 30t40 89h103q-12 -121 -69.5 -191.5 t-154.5 -70.5q-57 0 -111.5 28.5t-104.5 58.5t-95 30q-49 0 -73.5 -30t-39.5 -89h-104z" />
<glyph unicode="&#xd2;" horiz-adv-x="1599" d="M125 735q0 223 73.5 392t224 263.5t380.5 94.5q219 0 368.5 -93.5t226.5 -262.5t77 -396t-77 -396t-227.5 -263t-369.5 -94q-227 0 -378 94t-224.5 264t-73.5 397zM319 733q0 -276 117 -435t365 -159t363.5 159t115.5 435t-114.5 433t-362.5 157q-250 0 -367 -157 t-117 -433zM533 1913v21h215q23 -45 56.5 -101.5t71.5 -110.5t69 -91v-25h-121q-47 37 -106.5 95.5t-110 116.5t-74.5 95z" />
<glyph unicode="&#xd3;" horiz-adv-x="1599" d="M125 735q0 223 73.5 392t224 263.5t380.5 94.5q219 0 368.5 -93.5t226.5 -262.5t77 -396t-77 -396t-227.5 -263t-369.5 -94q-227 0 -378 94t-224.5 264t-73.5 397zM319 733q0 -276 117 -435t365 -159t363.5 159t115.5 435t-114.5 433t-362.5 157q-250 0 -367 -157 t-117 -433zM678 1606v25q29 37 65.5 91t71.5 110.5t57 101.5h218v-21q-27 -37 -77 -95t-108.5 -116.5t-107.5 -95.5h-119z" />
<glyph unicode="&#xd4;" horiz-adv-x="1599" d="M125 735q0 223 73.5 392t224 263.5t380.5 94.5q219 0 368.5 -93.5t226.5 -262.5t77 -396t-77 -396t-227.5 -263t-369.5 -94q-227 0 -378 94t-224.5 264t-73.5 397zM319 733q0 -276 117 -435t365 -159t363.5 159t115.5 435t-114.5 433t-362.5 157q-250 0 -367 -157 t-117 -433zM459 1606v23q37 39 86 93t94 110.5t72 101.5h184q25 -45 71 -101.5t96 -110.5t89 -93v-23h-127q-53 33 -110.5 81t-112.5 103q-55 -55 -110.5 -103t-108.5 -81h-123z" />
<glyph unicode="&#xd5;" horiz-adv-x="1599" d="M125 735q0 223 73.5 392t224 263.5t380.5 94.5q219 0 368.5 -93.5t226.5 -262.5t77 -396t-77 -396t-227.5 -263t-369.5 -94q-227 0 -378 94t-224.5 264t-73.5 397zM319 733q0 -276 117 -435t365 -159t363.5 159t115.5 435t-114.5 433t-362.5 157q-250 0 -367 -157 t-117 -433zM424 1606q12 121 70.5 191.5t154.5 70.5q61 0 115.5 -29.5t103.5 -58.5t92 -29q47 0 73 30t40 89h103q-12 -121 -69.5 -191.5t-154.5 -70.5q-57 0 -111.5 28.5t-104.5 58.5t-95 30q-49 0 -73.5 -30t-39.5 -89h-104z" />
<glyph unicode="&#xd6;" horiz-adv-x="1599" d="M125 735q0 223 73.5 392t224 263.5t380.5 94.5q219 0 368.5 -93.5t226.5 -262.5t77 -396t-77 -396t-227.5 -263t-369.5 -94q-227 0 -378 94t-224.5 264t-73.5 397zM319 733q0 -276 117 -435t365 -159t363.5 159t115.5 435t-114.5 433t-362.5 157q-250 0 -367 -157 t-117 -433zM512 1760q0 53 27.5 76.5t68.5 23.5q39 0 68 -23.5t29 -76.5q0 -51 -29 -77t-68 -26q-41 0 -68.5 26t-27.5 77zM897 1760q0 53 27.5 76.5t66.5 23.5t68 -23.5t29 -76.5q0 -51 -29 -77t-68 -26t-66.5 26t-27.5 77z" />
<glyph unicode="&#xd7;" horiz-adv-x="1171" d="M131 1069l107 107l346 -351l350 351l102 -105l-348 -348l346 -348l-102 -105l-350 346l-342 -346l-107 105l346 348z" />
<glyph unicode="&#xd8;" horiz-adv-x="1599" d="M125 735q0 223 73.5 392t224 263.5t380.5 94.5q106 0 197.5 -24.5t166.5 -67.5l95 135l124 -84l-104 -146q193 -203 193 -565q0 -227 -77 -396t-227.5 -263t-369.5 -94q-229 0 -379 96l-98 -139l-125 81l106 152q-90 100 -135 243.5t-45 321.5zM319 733q0 -127 24 -228.5 t73 -176.5l653 923q-106 72 -266 72q-250 0 -367 -157t-117 -433zM520 217q53 -37 124 -57.5t157 -20.5q248 0 363.5 159t115.5 435q0 262 -104 414z" />
<glyph unicode="&#xd9;" horiz-adv-x="1497" d="M184 520v942h185v-948q0 -178 95 -276.5t288 -98.5q199 0 287.5 105.5t88.5 271.5v946h183v-946q0 -152 -61.5 -273.5t-188.5 -192t-320 -70.5q-274 0 -415.5 148t-141.5 392zM481 1913v21h215q23 -45 56.5 -101.5t71.5 -110.5t69 -91v-25h-121q-47 37 -106.5 95.5 t-110 116.5t-74.5 95z" />
<glyph unicode="&#xda;" horiz-adv-x="1497" d="M184 520v942h185v-948q0 -178 95 -276.5t288 -98.5q199 0 287.5 105.5t88.5 271.5v946h183v-946q0 -152 -61.5 -273.5t-188.5 -192t-320 -70.5q-274 0 -415.5 148t-141.5 392zM627 1606v25q29 37 65.5 91t71.5 110.5t57 101.5h218v-21q-27 -37 -77 -95t-108.5 -116.5 t-107.5 -95.5h-119z" />
<glyph unicode="&#xdb;" horiz-adv-x="1497" d="M184 520v942h185v-948q0 -178 95 -276.5t288 -98.5q199 0 287.5 105.5t88.5 271.5v946h183v-946q0 -152 -61.5 -273.5t-188.5 -192t-320 -70.5q-274 0 -415.5 148t-141.5 392zM408 1606v23q37 39 86 93t94 110.5t72 101.5h184q25 -45 71 -101.5t96 -110.5t89 -93v-23 h-127q-53 33 -110.5 81t-112.5 103q-55 -55 -110.5 -103t-108.5 -81h-123z" />
<glyph unicode="&#xdc;" horiz-adv-x="1497" d="M184 520v942h185v-948q0 -178 95 -276.5t288 -98.5q199 0 287.5 105.5t88.5 271.5v946h183v-946q0 -152 -61.5 -273.5t-188.5 -192t-320 -70.5q-274 0 -415.5 148t-141.5 392zM461 1760q0 53 27.5 76.5t68.5 23.5q39 0 68 -23.5t29 -76.5q0 -51 -29 -77t-68 -26 q-41 0 -68.5 26t-27.5 77zM846 1760q0 53 27.5 76.5t66.5 23.5t68 -23.5t29 -76.5q0 -51 -29 -77t-68 -26t-66.5 26t-27.5 77z" />
<glyph unicode="&#xdd;" horiz-adv-x="1159" d="M0 1462h201l379 -719l381 719h198l-487 -895v-567h-185v559zM457 1606v25q29 37 65.5 91t71.5 110.5t57 101.5h218v-21q-27 -37 -77 -95t-108.5 -116.5t-107.5 -95.5h-119z" />
<glyph unicode="&#xde;" horiz-adv-x="1239" d="M199 0v1462h184v-254h197q297 0 426 -112.5t129 -313.5q0 -123 -53.5 -229.5t-181.5 -171t-351 -64.5h-166v-317h-184zM383 473h147q215 0 314.5 68.5t99.5 230.5q0 141 -89 210t-290 69h-182v-578z" />
<glyph unicode="&#xdf;" horiz-adv-x="1292" d="M174 0v1196q0 137 59.5 218t162 117t231.5 36q199 0 320.5 -75.5t121.5 -227.5q0 -70 -28.5 -122t-71.5 -92t-86 -73t-72 -64.5t-29 -68.5q0 -29 13.5 -50.5t52.5 -51t115 -80.5q111 -74 174 -151t63 -198q0 -174 -106.5 -253.5t-274.5 -79.5q-96 0 -170 18t-127 51v162 q51 -33 130 -59.5t161 -26.5q113 0 162 47t49 129q0 74 -42 124t-151 122q-129 84 -176 144.5t-47 142.5q0 63 28 108t70 79t83.5 66.5t69.5 71.5t28 94q0 86 -73 125t-187 39q-72 0 -134.5 -19.5t-100.5 -67.5t-38 -134v-1196h-180z" />
<glyph unicode="&#xe0;" horiz-adv-x="1148" d="M94 305q0 164 129 253t398 97l186 7v65q0 137 -59.5 190.5t-167.5 53.5q-86 0 -164 -25.5t-146 -58.5l-55 135q72 39 170.5 66.5t204.5 27.5q201 0 297 -88t96 -280v-748h-131l-35 156h-8q-72 -90 -151.5 -133t-217.5 -43q-150 0 -248 78.5t-98 246.5zM281 303 q0 -92 56 -135t144 -43q137 0 230.5 77t93.5 236v99l-162 -7q-205 -8 -283.5 -65t-78.5 -162zM307 1548v21h215q23 -45 56.5 -101.5t71.5 -110.5t69 -91v-25h-121q-47 37 -106.5 95.5t-110 116.5t-74.5 95z" />
<glyph unicode="&#xe1;" horiz-adv-x="1148" d="M94 305q0 164 129 253t398 97l186 7v65q0 137 -59.5 190.5t-167.5 53.5q-86 0 -164 -25.5t-146 -58.5l-55 135q72 39 170.5 66.5t204.5 27.5q201 0 297 -88t96 -280v-748h-131l-35 156h-8q-72 -90 -151.5 -133t-217.5 -43q-150 0 -248 78.5t-98 246.5zM281 303 q0 -92 56 -135t144 -43q137 0 230.5 77t93.5 236v99l-162 -7q-205 -8 -283.5 -65t-78.5 -162zM453 1241v25q29 37 65.5 91t71.5 110.5t57 101.5h218v-21q-27 -37 -77 -95t-108.5 -116.5t-107.5 -95.5h-119z" />
<glyph unicode="&#xe2;" horiz-adv-x="1148" d="M94 305q0 164 129 253t398 97l186 7v65q0 137 -59.5 190.5t-167.5 53.5q-86 0 -164 -25.5t-146 -58.5l-55 135q72 39 170.5 66.5t204.5 27.5q201 0 297 -88t96 -280v-748h-131l-35 156h-8q-72 -90 -151.5 -133t-217.5 -43q-150 0 -248 78.5t-98 246.5zM234 1241v23 q37 39 86 93t94 110.5t72 101.5h184q25 -45 71 -101.5t96 -110.5t89 -93v-23h-127q-53 33 -110.5 81t-112.5 103q-55 -55 -110.5 -103t-108.5 -81h-123zM281 303q0 -92 56 -135t144 -43q137 0 230.5 77t93.5 236v99l-162 -7q-205 -8 -283.5 -65t-78.5 -162z" />
<glyph unicode="&#xe3;" horiz-adv-x="1148" d="M94 305q0 164 129 253t398 97l186 7v65q0 137 -59.5 190.5t-167.5 53.5q-86 0 -164 -25.5t-146 -58.5l-55 135q72 39 170.5 66.5t204.5 27.5q201 0 297 -88t96 -280v-748h-131l-35 156h-8q-72 -90 -151.5 -133t-217.5 -43q-150 0 -248 78.5t-98 246.5zM199 1241 q12 121 70.5 191.5t154.5 70.5q61 0 115.5 -29.5t103.5 -58.5t92 -29q47 0 73 30t40 89h103q-12 -121 -69.5 -191.5t-154.5 -70.5q-57 0 -111.5 28.5t-104.5 58.5t-95 30q-49 0 -73.5 -30t-39.5 -89h-104zM281 303q0 -92 56 -135t144 -43q137 0 230.5 77t93.5 236v99 l-162 -7q-205 -8 -283.5 -65t-78.5 -162z" />
<glyph unicode="&#xe4;" horiz-adv-x="1148" d="M94 305q0 164 129 253t398 97l186 7v65q0 137 -59.5 190.5t-167.5 53.5q-86 0 -164 -25.5t-146 -58.5l-55 135q72 39 170.5 66.5t204.5 27.5q201 0 297 -88t96 -280v-748h-131l-35 156h-8q-72 -90 -151.5 -133t-217.5 -43q-150 0 -248 78.5t-98 246.5zM281 303 q0 -92 56 -135t144 -43q137 0 230.5 77t93.5 236v99l-162 -7q-205 -8 -283.5 -65t-78.5 -162zM287 1395q0 53 27.5 76.5t68.5 23.5q39 0 68 -23.5t29 -76.5q0 -51 -29 -77t-68 -26q-41 0 -68.5 26t-27.5 77zM672 1395q0 53 27.5 76.5t66.5 23.5t68 -23.5t29 -76.5 q0 -51 -29 -77t-68 -26t-66.5 26t-27.5 77z" />
<glyph unicode="&#xe5;" horiz-adv-x="1148" d="M94 305q0 164 129 253t398 97l186 7v65q0 137 -59.5 190.5t-167.5 53.5q-86 0 -164 -25.5t-146 -58.5l-55 135q72 39 170.5 66.5t204.5 27.5q201 0 297 -88t96 -280v-748h-131l-35 156h-8q-72 -90 -151.5 -133t-217.5 -43q-150 0 -248 78.5t-98 246.5zM281 303 q0 -92 56 -135t144 -43q137 0 230.5 77t93.5 236v99l-162 -7q-205 -8 -283.5 -65t-78.5 -162zM354 1458q0 102 61.5 158.5t161.5 56.5q96 0 161.5 -56t65.5 -157q0 -104 -64.5 -161.5t-162.5 -57.5q-100 0 -161.5 57.5t-61.5 159.5zM462 1458q0 -53 30 -84t85 -31 q51 0 83 31t32 84t-33 84t-82 31t-82 -31t-33 -84z" />
<glyph unicode="&#xe6;" horiz-adv-x="1769" d="M94 305q0 164 123 253t377 97l184 7v69q0 133 -62.5 186.5t-166.5 53.5q-82 0 -161 -24.5t-146 -59.5l-56 135q72 39 174.5 66.5t202.5 27.5q127 0 210 -42t126 -134q53 84 139 131t197 47q133 0 229.5 -61.5t148.5 -172t52 -257.5v-111h-702q4 -197 84.5 -290t232.5 -93 q100 0 179 19.5t157 56.5v-158q-82 -37 -161 -54t-181 -17q-289 0 -416 231q-72 -106 -165 -168.5t-251 -62.5q-150 0 -249 78.5t-99 246.5zM281 303q0 -92 52 -135t138 -43q129 0 216 77t87 236v99l-153 -7q-193 -8 -266.5 -65t-73.5 -162zM967 657h508q0 141 -58.5 227.5 t-183.5 86.5q-119 0 -187.5 -81t-78.5 -233z" />
<glyph unicode="&#xe7;" horiz-adv-x="983" d="M113 543q0 203 66.5 329.5t183 186t264.5 59.5q82 0 160.5 -17.5t127.5 -41.5l-55 -150q-49 18 -114.5 35t-122.5 17q-324 0 -324 -416q0 -199 79 -304.5t234 -105.5q88 0 158 18.5t127 45.5v-160q-55 -29 -122 -44t-161 -15q-147 0 -259.5 59t-177 184t-64.5 320z M377 -369q18 -4 49 -7t59 -3q74 0 113 19.5t39 70.5q0 53 -54.5 78t-132.5 35l88 176h119l-53 -109q74 -16 126 -57t52 -119q0 -98 -75.5 -152.5t-227.5 -54.5q-66 0 -102 11v112z" />
<glyph unicode="&#xe8;" horiz-adv-x="1155" d="M113 541q0 180 60 309t170 198.5t255 69.5q139 0 241.5 -61.5t157 -173t54.5 -260.5v-109h-752q4 -186 95 -283.5t255 -97.5q104 0 185 19.5t167 56.5v-158q-84 -37 -165.5 -54t-194.5 -17q-158 0 -276.5 63t-185 188t-66.5 310zM303 657h559q-2 139 -65.5 226.5 t-200.5 87.5q-129 0 -204 -83t-89 -231zM315 1548v21h215q23 -45 56.5 -101.5t71.5 -110.5t69 -91v-25h-121q-47 37 -106.5 95.5t-110 116.5t-74.5 95z" />
<glyph unicode="&#xe9;" horiz-adv-x="1155" d="M113 541q0 180 60 309t170 198.5t255 69.5q139 0 241.5 -61.5t157 -173t54.5 -260.5v-109h-752q4 -186 95 -283.5t255 -97.5q104 0 185 19.5t167 56.5v-158q-84 -37 -165.5 -54t-194.5 -17q-158 0 -276.5 63t-185 188t-66.5 310zM303 657h559q-2 139 -65.5 226.5 t-200.5 87.5q-129 0 -204 -83t-89 -231zM461 1241v25q29 37 65.5 91t71.5 110.5t57 101.5h218v-21q-27 -37 -77 -95t-108.5 -116.5t-107.5 -95.5h-119z" />
<glyph unicode="&#xea;" horiz-adv-x="1155" d="M113 541q0 180 60 309t170 198.5t255 69.5q139 0 241.5 -61.5t157 -173t54.5 -260.5v-109h-752q4 -186 95 -283.5t255 -97.5q104 0 185 19.5t167 56.5v-158q-84 -37 -165.5 -54t-194.5 -17q-158 0 -276.5 63t-185 188t-66.5 310zM242 1241v23q37 39 86 93t94 110.5 t72 101.5h184q25 -45 71 -101.5t96 -110.5t89 -93v-23h-127q-53 33 -110.5 81t-112.5 103q-55 -55 -110.5 -103t-108.5 -81h-123zM303 657h559q-2 139 -65.5 226.5t-200.5 87.5q-129 0 -204 -83t-89 -231z" />
<glyph unicode="&#xeb;" horiz-adv-x="1155" d="M113 541q0 180 60 309t170 198.5t255 69.5q139 0 241.5 -61.5t157 -173t54.5 -260.5v-109h-752q4 -186 95 -283.5t255 -97.5q104 0 185 19.5t167 56.5v-158q-84 -37 -165.5 -54t-194.5 -17q-158 0 -276.5 63t-185 188t-66.5 310zM295 1395q0 53 27.5 76.5t68.5 23.5 q39 0 68 -23.5t29 -76.5q0 -51 -29 -77t-68 -26q-41 0 -68.5 26t-27.5 77zM303 657h559q-2 139 -65.5 226.5t-200.5 87.5q-129 0 -204 -83t-89 -231zM680 1395q0 53 27.5 76.5t66.5 23.5t68 -23.5t29 -76.5q0 -51 -29 -77t-68 -26t-66.5 26t-27.5 77z" />
<glyph unicode="&#xec;" horiz-adv-x="528" d="M-4 1548v21h215q23 -45 56.5 -101.5t71.5 -110.5t69 -91v-25h-121q-47 37 -106.5 95.5t-110 116.5t-74.5 95zM174 0v1098h180v-1098h-180z" />
<glyph unicode="&#xed;" horiz-adv-x="528" d="M141 1241v25q29 37 65.5 91t71.5 110.5t57 101.5h218v-21q-27 -37 -77 -95t-108.5 -116.5t-107.5 -95.5h-119zM174 0v1098h180v-1098h-180z" />
<glyph unicode="&#xee;" horiz-adv-x="528" d="M-78 1241v23q37 39 86 93t94 110.5t72 101.5h184q25 -45 71 -101.5t96 -110.5t89 -93v-23h-127q-53 33 -110.5 81t-112.5 103q-55 -55 -110.5 -103t-108.5 -81h-123zM174 0v1098h180v-1098h-180z" />
<glyph unicode="&#xef;" horiz-adv-x="528" d="M-25 1395q0 53 27.5 76.5t68.5 23.5q39 0 68 -23.5t29 -76.5q0 -51 -29 -77t-68 -26q-41 0 -68.5 26t-27.5 77zM174 0v1098h180v-1098h-180zM360 1395q0 53 27.5 76.5t66.5 23.5t68 -23.5t29 -76.5q0 -51 -29 -77t-68 -26t-66.5 26t-27.5 77z" />
<glyph unicode="&#xf0;" horiz-adv-x="1239" d="M113 477q0 229 130 360.5t351 131.5q106 0 188 -29t131 -90l9 4q-33 117 -100.5 215t-153.5 176l-267 -153l-77 112l229 131q-43 29 -90 56.5t-94 52.5l73 123q66 -31 132.5 -68t125.5 -80l236 137l78 -110l-203 -117q139 -131 228 -324.5t89 -441.5q0 -293 -137 -438 t-375 -145q-147 0 -260.5 60t-178 172t-64.5 265zM295 471q0 -152 78 -248t248 -96t247.5 99.5t77.5 287.5q0 127 -79.5 218t-245.5 91q-172 0 -249 -91t-77 -261z" />
<glyph unicode="&#xf1;" horiz-adv-x="1265" d="M174 0v1098h145l27 -150h10q53 86 147.5 128t198.5 42q197 0 297.5 -96t100.5 -307v-715h-178v702q0 264 -246 265q-182 0 -252 -102.5t-70 -295.5v-569h-180zM256 1241q12 121 70.5 191.5t154.5 70.5q61 0 115.5 -29.5t103.5 -58.5t92 -29q47 0 73 30t40 89h103 q-12 -121 -69.5 -191.5t-154.5 -70.5q-57 0 -111.5 28.5t-104.5 58.5t-95 30q-49 0 -73.5 -30t-39.5 -89h-104z" />
<glyph unicode="&#xf2;" horiz-adv-x="1239" d="M113 551q0 272 136 419.5t374 147.5q147 0 261.5 -66.5t179 -192.5t64.5 -308q0 -272 -138 -421.5t-374 -149.5q-145 0 -258.5 66.5t-179 194.5t-65.5 310zM299 551q0 -195 77 -308.5t245 -113.5q166 0 243.5 113.5t77.5 308.5t-78 305.5t-246 110.5t-243.5 -110.5 t-75.5 -305.5zM352 1548v21h215q23 -45 56.5 -101.5t71.5 -110.5t69 -91v-25h-121q-47 37 -106.5 95.5t-110 116.5t-74.5 95z" />
<glyph unicode="&#xf3;" horiz-adv-x="1239" d="M113 551q0 272 136 419.5t374 147.5q147 0 261.5 -66.5t179 -192.5t64.5 -308q0 -272 -138 -421.5t-374 -149.5q-145 0 -258.5 66.5t-179 194.5t-65.5 310zM299 551q0 -195 77 -308.5t245 -113.5q166 0 243.5 113.5t77.5 308.5t-78 305.5t-246 110.5t-243.5 -110.5 t-75.5 -305.5zM498 1241v25q29 37 65.5 91t71.5 110.5t57 101.5h218v-21q-27 -37 -77 -95t-108.5 -116.5t-107.5 -95.5h-119z" />
<glyph unicode="&#xf4;" horiz-adv-x="1239" d="M113 551q0 272 136 419.5t374 147.5q147 0 261.5 -66.5t179 -192.5t64.5 -308q0 -272 -138 -421.5t-374 -149.5q-145 0 -258.5 66.5t-179 194.5t-65.5 310zM279 1241v23q37 39 86 93t94 110.5t72 101.5h184q25 -45 71 -101.5t96 -110.5t89 -93v-23h-127q-53 33 -110.5 81 t-112.5 103q-55 -55 -110.5 -103t-108.5 -81h-123zM299 551q0 -195 77 -308.5t245 -113.5q166 0 243.5 113.5t77.5 308.5t-78 305.5t-246 110.5t-243.5 -110.5t-75.5 -305.5z" />
<glyph unicode="&#xf5;" horiz-adv-x="1239" d="M113 551q0 272 136 419.5t374 147.5q147 0 261.5 -66.5t179 -192.5t64.5 -308q0 -272 -138 -421.5t-374 -149.5q-145 0 -258.5 66.5t-179 194.5t-65.5 310zM244 1241q12 121 70.5 191.5t154.5 70.5q61 0 115.5 -29.5t103.5 -58.5t92 -29q47 0 73 30t40 89h103 q-12 -121 -69.5 -191.5t-154.5 -70.5q-57 0 -111.5 28.5t-104.5 58.5t-95 30q-49 0 -73.5 -30t-39.5 -89h-104zM299 551q0 -195 77 -308.5t245 -113.5q166 0 243.5 113.5t77.5 308.5t-78 305.5t-246 110.5t-243.5 -110.5t-75.5 -305.5z" />
<glyph unicode="&#xf6;" horiz-adv-x="1239" d="M113 551q0 272 136 419.5t374 147.5q147 0 261.5 -66.5t179 -192.5t64.5 -308q0 -272 -138 -421.5t-374 -149.5q-145 0 -258.5 66.5t-179 194.5t-65.5 310zM299 551q0 -195 77 -308.5t245 -113.5q166 0 243.5 113.5t77.5 308.5t-78 305.5t-246 110.5t-243.5 -110.5 t-75.5 -305.5zM332 1395q0 53 27.5 76.5t68.5 23.5q39 0 68 -23.5t29 -76.5q0 -51 -29 -77t-68 -26q-41 0 -68.5 26t-27.5 77zM717 1395q0 53 27.5 76.5t66.5 23.5t68 -23.5t29 -76.5q0 -51 -29 -77t-68 -26t-66.5 26t-27.5 77z" />
<glyph unicode="&#xf7;" horiz-adv-x="1171" d="M102 649v146h965v-146h-965zM469 373q0 70 34 96.5t81 26.5t79.5 -27t32.5 -96q0 -66 -32.5 -95.5t-79.5 -29.5t-81 29.5t-34 95.5zM469 1071q0 70 34 96.5t81 26.5t79.5 -26.5t32.5 -96.5q0 -66 -32.5 -95.5t-79.5 -29.5t-81 30t-34 95z" />
<glyph unicode="&#xf8;" horiz-adv-x="1239" d="M113 551q0 272 136 419.5t374 147.5q150 0 268 -74l80 115l121 -78l-93 -129q59 -72 94 -173t35 -228q0 -272 -138 -421.5t-374 -149.5q-150 0 -264 67l-82 -115l-118 80l92 127q-63 74 -97 176.5t-34 235.5zM299 551q0 -78 11.5 -144.5t37.5 -117.5l451 626 q-74 51 -181 52q-168 0 -243.5 -110.5t-75.5 -305.5zM444 176q70 -47 177 -47q166 0 243.5 113.5t77.5 308.5q0 152 -47 252z" />
<glyph unicode="&#xf9;" horiz-adv-x="1265" d="M162 379v719h182v-707q0 -262 244 -262q182 0 252.5 102.5t70.5 294.5v572h181v-1098h-148l-26 145h-9q-53 -86 -147 -125.5t-201 -39.5q-199 0 -299 95t-100 304zM365 1548v21h215q23 -45 56.5 -101.5t71.5 -110.5t69 -91v-25h-121q-47 37 -106.5 95.5t-110 116.5 t-74.5 95z" />
<glyph unicode="&#xfa;" horiz-adv-x="1265" d="M162 379v719h182v-707q0 -262 244 -262q182 0 252.5 102.5t70.5 294.5v572h181v-1098h-148l-26 145h-9q-53 -86 -147 -125.5t-201 -39.5q-199 0 -299 95t-100 304zM510 1241v25q29 37 65.5 91t71.5 110.5t57 101.5h218v-21q-27 -37 -77 -95t-108.5 -116.5t-107.5 -95.5 h-119z" />
<glyph unicode="&#xfb;" horiz-adv-x="1265" d="M162 379v719h182v-707q0 -262 244 -262q182 0 252.5 102.5t70.5 294.5v572h181v-1098h-148l-26 145h-9q-53 -86 -147 -125.5t-201 -39.5q-199 0 -299 95t-100 304zM291 1241v23q37 39 86 93t94 110.5t72 101.5h184q25 -45 71 -101.5t96 -110.5t89 -93v-23h-127 q-53 33 -110.5 81t-112.5 103q-55 -55 -110.5 -103t-108.5 -81h-123z" />
<glyph unicode="&#xfc;" horiz-adv-x="1265" d="M162 379v719h182v-707q0 -262 244 -262q182 0 252.5 102.5t70.5 294.5v572h181v-1098h-148l-26 145h-9q-53 -86 -147 -125.5t-201 -39.5q-199 0 -299 95t-100 304zM344 1395q0 53 27.5 76.5t68.5 23.5q39 0 68 -23.5t29 -76.5q0 -51 -29 -77t-68 -26q-41 0 -68.5 26 t-27.5 77zM729 1395q0 53 27.5 76.5t66.5 23.5t68 -23.5t29 -76.5q0 -51 -29 -77t-68 -26t-66.5 26t-27.5 77z" />
<glyph unicode="&#xfd;" horiz-adv-x="1044" d="M2 1098h193l237 -625q31 -84 55.5 -157.5t36.5 -141.5h8q12 51 39 134t56 167l223 623h194l-473 -1250q-59 -156 -149 -248t-250 -92q-49 0 -86 5.5t-63 11.5v143q23 -4 54.5 -8t65.5 -4q94 0 151.5 53t92.5 141l57 146zM399 1241v25q29 37 65.5 91t71.5 110.5t57 101.5 h218v-21q-27 -37 -77 -95t-108.5 -116.5t-107.5 -95.5h-119z" />
<glyph unicode="&#xfe;" horiz-adv-x="1259" d="M174 -492v2048h180v-458q0 -29 -2 -75t-4 -73h8q49 70 129 119t211 49q203 0 327 -143t124 -424t-124 -426t-327 -145q-129 0 -211 47t-131 112h-12q2 -16 5 -49t5 -67.5t2 -55.5v-459h-180zM354 551q0 -203 66.5 -312.5t247.5 -109.5q152 0 222.5 109.5t70.5 314.5 q0 207 -72 310.5t-223 103.5q-170 0 -240 -94.5t-72 -282.5v-39z" />
<glyph unicode="&#xff;" horiz-adv-x="1044" d="M2 1098h193l237 -625q31 -84 55.5 -157.5t36.5 -141.5h8q12 51 39 134t56 167l223 623h194l-473 -1250q-59 -156 -149 -248t-250 -92q-49 0 -86 5.5t-63 11.5v143q23 -4 54.5 -8t65.5 -4q94 0 151.5 53t92.5 141l57 146zM233 1395q0 53 27.5 76.5t68.5 23.5 q39 0 68 -23.5t29 -76.5q0 -51 -29 -77t-68 -26q-41 0 -68.5 26t-27.5 77zM618 1395q0 53 27.5 76.5t66.5 23.5t68 -23.5t29 -76.5q0 -51 -29 -77t-68 -26t-66.5 26t-27.5 77z" />
<glyph unicode="&#x100;" horiz-adv-x="1308" d="M0 0l571 1468h166l570 -1468h-191l-176 453h-580l-174 -453h-186zM346 1606v145h608v-145h-608zM422 616h463l-164 443q-6 16 -20.5 59t-28 89t-21.5 71q-16 -63 -33.5 -123.5t-29.5 -95.5z" />
<glyph unicode="&#x101;" horiz-adv-x="1148" d="M94 305q0 164 129 253t398 97l186 7v65q0 137 -59.5 190.5t-167.5 53.5q-86 0 -164 -25.5t-146 -58.5l-55 135q72 39 170.5 66.5t204.5 27.5q201 0 297 -88t96 -280v-748h-131l-35 156h-8q-72 -90 -151.5 -133t-217.5 -43q-150 0 -248 78.5t-98 246.5zM270 1241v145h608 v-145h-608zM281 303q0 -92 56 -135t144 -43q137 0 230.5 77t93.5 236v99l-162 -7q-205 -8 -283.5 -65t-78.5 -162z" />
<glyph unicode="&#x102;" horiz-adv-x="1308" d="M0 0l571 1468h166l570 -1468h-191l-176 453h-580l-174 -453h-186zM342 1881h111q8 -84 60 -107t146 -23q80 0 138.5 25t68.5 105h113q-10 -123 -93 -199t-231 -76q-152 0 -228.5 74t-84.5 201zM422 616h463l-164 443q-6 16 -20.5 59t-28 89t-21.5 71 q-16 -63 -33.5 -123.5t-29.5 -95.5z" />
<glyph unicode="&#x103;" horiz-adv-x="1148" d="M94 305q0 164 129 253t398 97l186 7v65q0 137 -59.5 190.5t-167.5 53.5q-86 0 -164 -25.5t-146 -58.5l-55 135q72 39 170.5 66.5t204.5 27.5q201 0 297 -88t96 -280v-748h-131l-35 156h-8q-72 -90 -151.5 -133t-217.5 -43q-150 0 -248 78.5t-98 246.5zM266 1516h111 q8 -84 60 -107t146 -23q80 0 138.5 25t68.5 105h113q-10 -123 -93 -199t-231 -76q-152 0 -228.5 74t-84.5 201zM281 303q0 -92 56 -135t144 -43q137 0 230.5 77t93.5 236v99l-162 -7q-205 -8 -283.5 -65t-78.5 -162z" />
<glyph unicode="&#x104;" horiz-adv-x="1308" d="M0 0l571 1468h166l570 -1468h-191l-176 453h-580l-174 -453h-186zM422 616h463l-164 443q-6 16 -20.5 59t-28 89t-21.5 71q-16 -63 -33.5 -123.5t-29.5 -95.5zM969 -258q0 57 29.5 113.5t73.5 101.5t85 74l99 -31q-70 -66 -105 -120.5t-35 -117.5q0 -92 93 -92 q35 0 58 5.5t40 7.5v-115q-29 -8 -58.5 -13.5t-68.5 -5.5q-109 0 -160 51.5t-51 141.5z" />
<glyph unicode="&#x105;" horiz-adv-x="1148" d="M94 305q0 164 129 253t398 97l186 7v65q0 137 -59.5 190.5t-167.5 53.5q-86 0 -164 -25.5t-146 -58.5l-55 135q72 39 170.5 66.5t204.5 27.5q201 0 297 -88t96 -280v-748h-131l-35 156h-8q-72 -90 -151.5 -133t-217.5 -43q-150 0 -248 78.5t-98 246.5zM281 303 q0 -92 56 -135t144 -43q137 0 230.5 77t93.5 236v99l-162 -7q-205 -8 -283.5 -65t-78.5 -162zM696 -258q0 57 29.5 113.5t73.5 101.5t85 74l99 -31q-70 -66 -105 -120.5t-35 -117.5q0 -92 93 -92q35 0 58 5.5t40 7.5v-115q-29 -8 -58.5 -13.5t-68.5 -5.5q-109 0 -160 51.5 t-51 141.5z" />
<glyph unicode="&#x106;" horiz-adv-x="1294" d="M125 733q0 221 81 390t238.5 264.5t382.5 95.5q231 0 404 -86l-74 -156q-68 31 -151 55.5t-181 24.5q-236 0 -371 -157.5t-135 -432.5q0 -272 126 -431t378 -159q94 0 180.5 16.5t170.5 41.5v-160q-82 -31 -169 -45t-208 -14q-223 0 -373 92t-224.5 262t-74.5 399z M655 1606v25q29 37 65.5 91t71.5 110.5t57 101.5h218v-21q-27 -37 -77 -95t-108.5 -116.5t-107.5 -95.5h-119z" />
<glyph unicode="&#x107;" horiz-adv-x="983" d="M113 543q0 203 66.5 329.5t183 186t264.5 59.5q82 0 160.5 -17.5t127.5 -41.5l-55 -150q-49 18 -114.5 35t-122.5 17q-324 0 -324 -416q0 -199 79 -304.5t234 -105.5q88 0 158 18.5t127 45.5v-160q-55 -29 -122 -44t-161 -15q-147 0 -259.5 59t-177 184t-64.5 320z M459 1241v25q29 37 65.5 91t71.5 110.5t57 101.5h218v-21q-27 -37 -77 -95t-108.5 -116.5t-107.5 -95.5h-119z" />
<glyph unicode="&#x108;" horiz-adv-x="1294" d="M125 733q0 221 81 390t238.5 264.5t382.5 95.5q231 0 404 -86l-74 -156q-68 31 -151 55.5t-181 24.5q-236 0 -371 -157.5t-135 -432.5q0 -272 126 -431t378 -159q94 0 180.5 16.5t170.5 41.5v-160q-82 -31 -169 -45t-208 -14q-223 0 -373 92t-224.5 262t-74.5 399z M436 1606v23q37 39 86 93t94 110.5t72 101.5h184q25 -45 71 -101.5t96 -110.5t89 -93v-23h-127q-53 33 -110.5 81t-112.5 103q-55 -55 -110.5 -103t-108.5 -81h-123z" />
<glyph unicode="&#x109;" horiz-adv-x="983" d="M113 543q0 203 66.5 329.5t183 186t264.5 59.5q82 0 160.5 -17.5t127.5 -41.5l-55 -150q-49 18 -114.5 35t-122.5 17q-324 0 -324 -416q0 -199 79 -304.5t234 -105.5q88 0 158 18.5t127 45.5v-160q-55 -29 -122 -44t-161 -15q-147 0 -259.5 59t-177 184t-64.5 320z M240 1241v23q37 39 86 93t94 110.5t72 101.5h184q25 -45 71 -101.5t96 -110.5t89 -93v-23h-127q-53 33 -110.5 81t-112.5 103q-55 -55 -110.5 -103t-108.5 -81h-123z" />
<glyph unicode="&#x10a;" horiz-adv-x="1294" d="M125 733q0 221 81 390t238.5 264.5t382.5 95.5q231 0 404 -86l-74 -156q-68 31 -151 55.5t-181 24.5q-236 0 -371 -157.5t-135 -432.5q0 -272 126 -431t378 -159q94 0 180.5 16.5t170.5 41.5v-160q-82 -31 -169 -45t-208 -14q-223 0 -373 92t-224.5 262t-74.5 399z M678 1760q0 59 30.5 86.5t75.5 27.5q41 0 73 -27.5t32 -86.5t-32 -87t-73 -28q-45 0 -75.5 27.5t-30.5 87.5z" />
<glyph unicode="&#x10b;" horiz-adv-x="983" d="M113 543q0 203 66.5 329.5t183 186t264.5 59.5q82 0 160.5 -17.5t127.5 -41.5l-55 -150q-49 18 -114.5 35t-122.5 17q-324 0 -324 -416q0 -199 79 -304.5t234 -105.5q88 0 158 18.5t127 45.5v-160q-55 -29 -122 -44t-161 -15q-147 0 -259.5 59t-177 184t-64.5 320z M481 1395q0 59 30.5 86.5t75.5 27.5q41 0 73 -27.5t32 -86.5t-32 -87t-73 -28q-45 0 -75.5 27.5t-30.5 87.5z" />
<glyph unicode="&#x10c;" horiz-adv-x="1294" d="M125 733q0 221 81 390t238.5 264.5t382.5 95.5q231 0 404 -86l-74 -156q-68 31 -151 55.5t-181 24.5q-236 0 -371 -157.5t-135 -432.5q0 -272 126 -431t378 -159q94 0 180.5 16.5t170.5 41.5v-160q-82 -31 -169 -45t-208 -14q-223 0 -373 92t-224.5 262t-74.5 399z M432 1907v27h123q53 -35 110.5 -84t108.5 -105q55 55 112.5 104.5t110.5 84.5h127v-27q-39 -39 -89 -92t-96 -108.5t-71 -100.5h-184q-27 45 -72 100.5t-94 108.5t-86 92z" />
<glyph unicode="&#x10d;" horiz-adv-x="983" d="M113 543q0 203 66.5 329.5t183 186t264.5 59.5q82 0 160.5 -17.5t127.5 -41.5l-55 -150q-49 18 -114.5 35t-122.5 17q-324 0 -324 -416q0 -199 79 -304.5t234 -105.5q88 0 158 18.5t127 45.5v-160q-55 -29 -122 -44t-161 -15q-147 0 -259.5 59t-177 184t-64.5 320z M236 1542v27h123q53 -35 110.5 -84t108.5 -105q55 55 112.5 104.5t110.5 84.5h127v-27q-39 -39 -89 -92t-96 -108.5t-71 -100.5h-184q-27 45 -72 100.5t-94 108.5t-86 92z" />
<glyph unicode="&#x10e;" horiz-adv-x="1495" d="M199 0v1462h450q219 0 382 -82t251 -242t88 -393q0 -371 -201.5 -558t-562.5 -187h-407zM383 158h199q594 -1 594 581q0 293 -144.5 429.5t-408.5 136.5h-240v-1147zM393 1907v27h123q53 -35 110.5 -84t108.5 -105q55 55 112.5 104.5t110.5 84.5h127v-27q-39 -39 -89 -92 t-96 -108.5t-71 -100.5h-184q-27 45 -72 100.5t-94 108.5t-86 92z" />
<glyph unicode="&#x10f;" horiz-adv-x="1259" d="M113 547q0 283 123.5 427t328.5 144q127 0 208 -47t132 -115h13q-4 27 -8.5 79t-4.5 83v438h180v-1556h-145l-27 147h-8q-49 -70 -131 -118.5t-211 -48.5q-205 0 -327.5 142t-122.5 425zM299 543q0 -197 73 -305.5t220 -108.5q174 0 244.5 95t70.5 288v33 q0 205 -67.5 314.5t-249.5 109.5q-145 0 -218 -116t-73 -310zM1163 1229v24q12 39 26.5 93.5t25 109.5t16.5 100h178v-18q-8 -37 -31.5 -92t-54.5 -113.5t-62 -103.5h-98z" />
<glyph unicode="&#x110;" horiz-adv-x="1495" d="M61 643v160h152v659h436q219 0 381 -82t251 -241.5t89 -393.5q0 -371 -201.5 -558t-564.5 -187h-391v643h-152zM397 158h185q594 0 594 581q0 293 -145.5 429.5t-407.5 136.5h-226v-502h365v-160h-365v-485z" />
<glyph unicode="&#x111;" horiz-adv-x="1263" d="M113 543q0 287 123.5 428t326.5 141q129 0 210 -47t132 -115h13q-4 27 -8.5 79t-4.5 85v125h-436v135h436v182h180v-182h156v-135h-156v-1239h-147l-27 147h-8q-49 -70 -131 -118.5t-209 -48.5q-207 0 -328.5 141t-121.5 422zM301 541q0 -197 71.5 -304.5t221.5 -107.5 q172 0 242.5 94t70.5 285v35q0 207 -67.5 313.5t-249.5 106.5q-145 0 -217 -113t-72 -309z" />
<glyph unicode="&#x112;" horiz-adv-x="1138" d="M199 0v1462h817v-162h-633v-456h596v-160h-596v-522h633v-162h-817zM320 1606v145h608v-145h-608z" />
<glyph unicode="&#x113;" horiz-adv-x="1155" d="M113 541q0 180 60 309t170 198.5t255 69.5q139 0 241.5 -61.5t157 -173t54.5 -260.5v-109h-752q4 -186 95 -283.5t255 -97.5q104 0 185 19.5t167 56.5v-158q-84 -37 -165.5 -54t-194.5 -17q-158 0 -276.5 63t-185 188t-66.5 310zM279 1241v145h608v-145h-608zM303 657 h559q-2 139 -65.5 226.5t-200.5 87.5q-129 0 -204 -83t-89 -231z" />
<glyph unicode="&#x114;" horiz-adv-x="1138" d="M199 0v1462h817v-162h-633v-456h596v-160h-596v-522h633v-162h-817zM315 1881h111q8 -84 60 -107t146 -23q80 0 138.5 25t68.5 105h113q-10 -123 -93 -199t-231 -76q-152 0 -228.5 74t-84.5 201z" />
<glyph unicode="&#x115;" horiz-adv-x="1155" d="M113 541q0 180 60 309t170 198.5t255 69.5q139 0 241.5 -61.5t157 -173t54.5 -260.5v-109h-752q4 -186 95 -283.5t255 -97.5q104 0 185 19.5t167 56.5v-158q-84 -37 -165.5 -54t-194.5 -17q-158 0 -276.5 63t-185 188t-66.5 310zM275 1516h111q8 -84 60 -107t146 -23 q80 0 138.5 25t68.5 105h113q-10 -123 -93 -199t-231 -76q-152 0 -228.5 74t-84.5 201zM303 657h559q-2 139 -65.5 226.5t-200.5 87.5q-129 0 -204 -83t-89 -231z" />
<glyph unicode="&#x116;" horiz-adv-x="1138" d="M199 0v1462h817v-162h-633v-456h596v-160h-596v-522h633v-162h-817zM524 1760q0 59 30.5 86.5t75.5 27.5q41 0 73 -27.5t32 -86.5t-32 -87t-73 -28q-45 0 -75.5 27.5t-30.5 87.5z" />
<glyph unicode="&#x117;" horiz-adv-x="1155" d="M113 541q0 180 60 309t170 198.5t255 69.5q139 0 241.5 -61.5t157 -173t54.5 -260.5v-109h-752q4 -186 95 -283.5t255 -97.5q104 0 185 19.5t167 56.5v-158q-84 -37 -165.5 -54t-194.5 -17q-158 0 -276.5 63t-185 188t-66.5 310zM303 657h559q-2 139 -65.5 226.5 t-200.5 87.5q-129 0 -204 -83t-89 -231zM483 1395q0 59 30.5 86.5t75.5 27.5q41 0 73 -27.5t32 -86.5t-32 -87t-73 -28q-45 0 -75.5 27.5t-30.5 87.5z" />
<glyph unicode="&#x118;" horiz-adv-x="1138" d="M199 0v1462h817v-162h-633v-456h596v-160h-596v-522h633v-162h-817zM668 -258q0 57 29.5 113.5t73.5 101.5t85 74l99 -31q-70 -66 -105 -120.5t-35 -117.5q0 -92 93 -92q35 0 58 5.5t40 7.5v-115q-29 -8 -58.5 -13.5t-68.5 -5.5q-109 0 -160 51.5t-51 141.5z" />
<glyph unicode="&#x119;" horiz-adv-x="1155" d="M113 541q0 180 60 309t170 198.5t255 69.5q139 0 241.5 -61.5t157 -173t54.5 -260.5v-109h-752q4 -186 95 -283.5t255 -97.5q104 0 185 19.5t167 56.5v-158q-84 -66 -128 -115t-60 -91t-16 -83q0 -92 92 -92q33 0 57.5 5.5t40.5 7.5v-115q-29 -8 -57.5 -13.5t-69.5 -5.5 q-109 0 -160 51.5t-51 141.5q0 70 42 134.5t93 111.5q-63 -8 -143 -8q-158 0 -276.5 63t-185 188t-66.5 310zM303 657h559q-2 139 -65.5 226.5t-200.5 87.5q-129 0 -204 -83t-89 -231z" />
<glyph unicode="&#x11a;" horiz-adv-x="1138" d="M199 0v1462h817v-162h-633v-456h596v-160h-596v-522h633v-162h-817zM279 1907v27h123q53 -35 110.5 -84t108.5 -105q55 55 112.5 104.5t110.5 84.5h127v-27q-39 -39 -89 -92t-96 -108.5t-71 -100.5h-184q-27 45 -72 100.5t-94 108.5t-86 92z" />
<glyph unicode="&#x11b;" horiz-adv-x="1155" d="M113 541q0 180 60 309t170 198.5t255 69.5q139 0 241.5 -61.5t157 -173t54.5 -260.5v-109h-752q4 -186 95 -283.5t255 -97.5q104 0 185 19.5t167 56.5v-158q-84 -37 -165.5 -54t-194.5 -17q-158 0 -276.5 63t-185 188t-66.5 310zM238 1542v27h123q53 -35 110.5 -84 t108.5 -105q55 55 112.5 104.5t110.5 84.5h127v-27q-39 -39 -89 -92t-96 -108.5t-71 -100.5h-184q-27 45 -72 100.5t-94 108.5t-86 92zM303 657h559q-2 139 -65.5 226.5t-200.5 87.5q-129 0 -204 -83t-89 -231z" />
<glyph unicode="&#x11c;" horiz-adv-x="1490" d="M125 731q0 227 89 396t259 262.5t410 93.5q123 0 232.5 -22.5t203.5 -63.5l-70 -160q-78 33 -175 58.5t-202 25.5q-262 0 -408.5 -158.5t-146.5 -431.5q0 -174 56.5 -308t177.5 -209t317 -75q96 0 164 10.5t123 24.5v434h-321v164h505v-717q-119 -39 -239.5 -57 t-274.5 -18q-227 0 -382.5 91t-236.5 260t-81 400zM488 1606v23q37 39 86 93t94 110.5t72 101.5h184q25 -45 71 -101.5t96 -110.5t89 -93v-23h-127q-53 33 -110.5 81t-112.5 103q-55 -55 -110.5 -103t-108.5 -81h-123z" />
<glyph unicode="&#x11d;" horiz-adv-x="1259" d="M113 547q0 262 119.5 416.5t330.5 154.5q109 0 196 -41t148 -125h11l24 146h143v-1116q0 -236 -119.5 -355t-371.5 -119q-242 0 -395 70v166q162 -86 405 -86q141 0 222 83t81 226v43q0 25 2 71t4 64h-8q-111 -166 -340 -165q-213 0 -332.5 149.5t-119.5 417.5zM266 1241 v23q37 39 86 93t94 110.5t72 101.5h184q25 -45 71 -101.5t96 -110.5t89 -93v-23h-127q-53 33 -110.5 81t-112.5 103q-55 -55 -110.5 -103t-108.5 -81h-123zM299 545q0 -203 73.5 -310.5t219.5 -107.5q166 0 241.5 89t75.5 288v43q0 223 -77.5 321.5t-243.5 98.5 q-137 0 -213 -109.5t-76 -312.5z" />
<glyph unicode="&#x11e;" horiz-adv-x="1490" d="M125 731q0 227 89 396t259 262.5t410 93.5q123 0 232.5 -22.5t203.5 -63.5l-70 -160q-78 33 -175 58.5t-202 25.5q-262 0 -408.5 -158.5t-146.5 -431.5q0 -174 56.5 -308t177.5 -209t317 -75q96 0 164 10.5t123 24.5v434h-321v164h505v-717q-119 -39 -239.5 -57 t-274.5 -18q-227 0 -382.5 91t-236.5 260t-81 400zM520 1881h111q8 -84 60 -107t146 -23q80 0 138.5 25t68.5 105h113q-10 -123 -93 -199t-231 -76q-152 0 -228.5 74t-84.5 201z" />
<glyph unicode="&#x11f;" horiz-adv-x="1259" d="M113 547q0 262 119.5 416.5t330.5 154.5q109 0 196 -41t148 -125h11l24 146h143v-1116q0 -236 -119.5 -355t-371.5 -119q-242 0 -395 70v166q162 -86 405 -86q141 0 222 83t81 226v43q0 25 2 71t4 64h-8q-111 -166 -340 -165q-213 0 -332.5 149.5t-119.5 417.5zM299 545 q0 -203 73.5 -310.5t219.5 -107.5q166 0 241.5 89t75.5 288v43q0 223 -77.5 321.5t-243.5 98.5q-137 0 -213 -109.5t-76 -312.5zM299 1516h111q8 -84 60 -107t146 -23q80 0 138.5 25t68.5 105h113q-10 -123 -93 -199t-231 -76q-152 0 -228.5 74t-84.5 201z" />
<glyph unicode="&#x120;" horiz-adv-x="1490" d="M125 731q0 227 89 396t259 262.5t410 93.5q123 0 232.5 -22.5t203.5 -63.5l-70 -160q-78 33 -175 58.5t-202 25.5q-262 0 -408.5 -158.5t-146.5 -431.5q0 -174 56.5 -308t177.5 -209t317 -75q96 0 164 10.5t123 24.5v434h-321v164h505v-717q-119 -39 -239.5 -57 t-274.5 -18q-227 0 -382.5 91t-236.5 260t-81 400zM729 1760q0 59 30.5 86.5t75.5 27.5q41 0 73 -27.5t32 -86.5t-32 -87t-73 -28q-45 0 -75.5 27.5t-30.5 87.5z" />
<glyph unicode="&#x121;" horiz-adv-x="1259" d="M113 547q0 262 119.5 416.5t330.5 154.5q109 0 196 -41t148 -125h11l24 146h143v-1116q0 -236 -119.5 -355t-371.5 -119q-242 0 -395 70v166q162 -86 405 -86q141 0 222 83t81 226v43q0 25 2 71t4 64h-8q-111 -166 -340 -165q-213 0 -332.5 149.5t-119.5 417.5zM299 545 q0 -203 73.5 -310.5t219.5 -107.5q166 0 241.5 89t75.5 288v43q0 223 -77.5 321.5t-243.5 98.5q-137 0 -213 -109.5t-76 -312.5zM508 1395q0 59 30.5 86.5t75.5 27.5q41 0 73 -27.5t32 -86.5t-32 -87t-73 -28q-45 0 -75.5 27.5t-30.5 87.5z" />
<glyph unicode="&#x122;" horiz-adv-x="1490" d="M125 731q0 227 89 396t259 262.5t410 93.5q123 0 232.5 -22.5t203.5 -63.5l-70 -160q-78 33 -175 58.5t-202 25.5q-262 0 -408.5 -158.5t-146.5 -431.5q0 -174 56.5 -308t177.5 -209t317 -75q96 0 164 10.5t123 24.5v434h-321v164h505v-717q-119 -39 -239.5 -57 t-274.5 -18q-227 0 -382.5 91t-236.5 260t-81 400zM693 -428q14 35 32.5 89t32.5 112.5t19 101.5h178v-18q-10 -37 -35 -93.5t-58.5 -115t-70.5 -101.5h-98v25z" />
<glyph unicode="&#x123;" horiz-adv-x="1259" d="M113 547q0 262 119.5 416.5t330.5 154.5q109 0 196 -41t148 -125h11l24 146h143v-1116q0 -236 -119.5 -355t-371.5 -119q-242 0 -395 70v166q162 -86 405 -86q141 0 222 83t81 226v43q0 25 2 71t4 64h-8q-111 -166 -340 -165q-213 0 -332.5 149.5t-119.5 417.5zM299 545 q0 -203 73.5 -310.5t219.5 -107.5q166 0 241.5 89t75.5 288v43q0 223 -77.5 321.5t-243.5 98.5q-137 0 -213 -109.5t-76 -312.5zM479 1241v19q10 37 34.5 92t58.5 113.5t71 103.5h100v-25q-16 -35 -33.5 -89t-32 -111.5t-20.5 -102.5h-178z" />
<glyph unicode="&#x124;" horiz-adv-x="1517" d="M199 0v1462h184v-618h750v618h184v-1462h-184v682h-750v-682h-184zM418 1606v23q37 39 86 93t94 110.5t72 101.5h184q25 -45 71 -101.5t96 -110.5t89 -93v-23h-127q-53 33 -110.5 81t-112.5 103q-55 -55 -110.5 -103t-108.5 -81h-123z" />
<glyph unicode="&#x125;" horiz-adv-x="1265" d="M-76 1700v23q37 39 86 93t94 110.5t72 101.5h184q25 -45 71 -101.5t96 -110.5t89 -93v-23h-127q-53 33 -110.5 81t-112.5 103q-55 -55 -110.5 -103t-108.5 -81h-123zM174 0v1556h180v-456q0 -82 -10 -154h12q53 84 144.5 127t197.5 43q199 0 300.5 -95t101.5 -306v-715 h-178v702q0 264 -246 265q-184 0 -253 -103.5t-69 -296.5v-567h-180z" />
<glyph unicode="&#x126;" horiz-adv-x="1517" d="M0 1071v148h199v243h184v-243h750v243h184v-243h199v-148h-199v-1071h-184v682h-750v-682h-184v1071h-199zM383 844h750v227h-750v-227z" />
<glyph unicode="&#x127;" horiz-adv-x="1265" d="M18 1237v135h156v184h180v-184h434v-135h-434v-178q0 -39 -3 -79t-7 -73h12q53 84 145.5 127t198.5 43q199 0 299.5 -96t100.5 -307v-674h-178v662q0 264 -246 264q-184 0 -253 -102.5t-69 -295.5v-528h-180v1237h-156z" />
<glyph unicode="&#x128;" horiz-adv-x="694" d="M-29 1606q12 121 70.5 191.5t154.5 70.5q61 0 115.5 -29.5t103.5 -58.5t92 -29q47 0 73 30t40 89h103q-12 -121 -69.5 -191.5t-154.5 -70.5q-57 0 -111.5 28.5t-104.5 58.5t-95 30q-49 0 -73.5 -30t-39.5 -89h-104zM82 0v106l172 39v1170l-172 41v106h528v-106l-172 -41 v-1170l172 -39v-106h-528z" />
<glyph unicode="&#x129;" horiz-adv-x="528" d="M-113 1241q12 121 70.5 191.5t154.5 70.5q61 0 115.5 -29.5t103.5 -58.5t92 -29q47 0 73 30t40 89h103q-12 -121 -69.5 -191.5t-154.5 -70.5q-57 0 -111.5 28.5t-104.5 58.5t-95 30q-49 0 -73.5 -30t-39.5 -89h-104zM174 0v1098h180v-1098h-180z" />
<glyph unicode="&#x12a;" horiz-adv-x="694" d="M43 1606v145h608v-145h-608zM82 0v106l172 39v1170l-172 41v106h528v-106l-172 -41v-1170l172 -39v-106h-528z" />
<glyph unicode="&#x12b;" horiz-adv-x="528" d="M-41 1241v145h608v-145h-608zM174 0v1098h180v-1098h-180z" />
<glyph unicode="&#x12c;" horiz-adv-x="694" d="M39 1881h111q8 -84 60 -107t146 -23q80 0 138.5 25t68.5 105h113q-10 -123 -93 -199t-231 -76q-152 0 -228.5 74t-84.5 201zM82 0v106l172 39v1170l-172 41v106h528v-106l-172 -41v-1170l172 -39v-106h-528z" />
<glyph unicode="&#x12d;" horiz-adv-x="528" d="M-45 1516h111q8 -84 60 -107t146 -23q80 0 138.5 25t68.5 105h113q-10 -123 -93 -199t-231 -76q-152 0 -228.5 74t-84.5 201zM174 0v1098h180v-1098h-180z" />
<glyph unicode="&#x12e;" horiz-adv-x="694" d="M82 0v106l172 39v1170l-172 41v106h528v-106l-172 -41v-1170l172 -39v-106h-528zM270 -258q0 57 29.5 113.5t73.5 101.5t85 74l99 -31q-70 -66 -105 -120.5t-35 -117.5q0 -92 93 -92q35 0 58 5.5t40 7.5v-115q-29 -8 -58.5 -13.5t-68.5 -5.5q-109 0 -160 51.5t-51 141.5z " />
<glyph unicode="&#x12f;" horiz-adv-x="528" d="M55 -258q0 57 29.5 113.5t73.5 101.5t85 74l99 -31q-70 -66 -105 -120.5t-35 -117.5q0 -92 93 -92q35 0 58 5.5t40 7.5v-115q-29 -8 -58.5 -13.5t-68.5 -5.5q-109 0 -160 51.5t-51 141.5zM160 1395q0 59 30.5 86.5t75.5 27.5q41 0 73 -27.5t32 -86.5t-32 -87t-73 -28 q-45 0 -75.5 27.5t-30.5 87.5zM174 0v1098h180v-1098h-180z" />
<glyph unicode="&#x130;" horiz-adv-x="694" d="M82 0v106l172 39v1170l-172 41v106h528v-106l-172 -41v-1170l172 -39v-106h-528zM248 1760q0 59 30.5 86.5t75.5 27.5q41 0 73 -27.5t32 -86.5t-32 -87t-73 -28q-45 0 -75.5 27.5t-30.5 87.5z" />
<glyph unicode="&#x131;" horiz-adv-x="528" d="M174 0v1098h180v-1098h-180z" />
<glyph unicode="&#x132;" horiz-adv-x="1253" d="M82 0v106l172 39v1170l-172 41v106h528v-106l-172 -41v-1170l172 -39v-106h-528zM534 -207q33 -10 70 -15t78 -5q51 0 97 20.5t74.5 70.5t28.5 144v1454h185v-1439q0 -211 -104.5 -311.5t-276.5 -100.5q-49 0 -86 7t-66 20v155z" />
<glyph unicode="&#x133;" horiz-adv-x="1056" d="M160 1395q0 59 30.5 86.5t75.5 27.5q41 0 73 -27.5t32 -86.5t-32 -87t-73 -28q-45 0 -75.5 27.5t-30.5 87.5zM174 0v1098h180v-1098h-180zM415 -322q31 -10 64 -15t72 -5q66 0 108.5 36t42.5 136v1268h180v-1262q0 -154 -73.5 -241t-235.5 -87q-53 0 -92 7.5t-66 17.5 v145zM688 1395q0 59 30.5 86.5t75.5 27.5q41 0 73 -27.5t32 -86.5t-32 -87t-73 -28q-45 0 -75.5 28t-30.5 87z" />
<glyph unicode="&#x134;" horiz-adv-x="559" d="M-160 -207q33 -10 70 -15t78 -5q51 0 97 20.5t74.5 70.5t28.5 144v1454h185v-1439q0 -211 -104.5 -311.5t-276.5 -100.5q-49 0 -86 7t-66 20v155zM-61 1606v23q37 39 86 93t94 110.5t72 101.5h184q25 -45 71 -101.5t96 -110.5t89 -93v-23h-127q-53 33 -110.5 81 t-112.5 103q-55 -55 -110.5 -103t-108.5 -81h-123z" />
<glyph unicode="&#x135;" horiz-adv-x="528" d="M-113 -322q31 -10 64 -15t72 -5q66 0 108.5 36t42.5 136v1268h180v-1262q0 -154 -73.5 -241t-235.5 -87q-53 0 -92 7.5t-66 17.5v145zM-78 1241v23q37 39 86 93t94 110.5t72 101.5h184q25 -45 71 -101.5t96 -110.5t89 -93v-23h-127q-53 33 -110.5 81t-112.5 103 q-55 -55 -110.5 -103t-108.5 -81h-123z" />
<glyph unicode="&#x136;" horiz-adv-x="1267" d="M199 0v1462h184v-721q61 70 124.5 139.5t127.5 139.5l395 442h215l-579 -637l602 -825h-217l-519 698l-149 -131v-567h-184zM545 -428q14 35 32.5 89t32.5 112.5t19 101.5h178v-18q-10 -37 -35 -93.5t-58.5 -115t-70.5 -101.5h-98v25z" />
<glyph unicode="&#x137;" horiz-adv-x="1093" d="M174 0v1556h178v-813q0 -33 -3 -86t-5 -92h8q12 16 37 47t50.5 63t43.5 52l351 371h210l-444 -469l475 -629h-217l-381 512l-125 -109v-403h-178zM416 -428q14 35 32.5 89t32.5 112.5t19 101.5h178v-18q-10 -37 -35 -93.5t-58.5 -115t-70.5 -101.5h-98v25z" />
<glyph unicode="&#x138;" horiz-adv-x="1093" d="M174 0v1098h191v-285q0 -82 -4.5 -160t-8.5 -118h4q18 27 40 54t40 50l389 459h217l-415 -486l448 -612h-215l-360 496l-135 -111v-385h-191z" />
<glyph unicode="&#x139;" horiz-adv-x="1073" d="M164 1606v25q29 37 65.5 91t71.5 110.5t57 101.5h218v-21q-27 -37 -77 -95t-108.5 -116.5t-107.5 -95.5h-119zM199 0v1462h184v-1298h639v-164h-823z" />
<glyph unicode="&#x13a;" horiz-adv-x="528" d="M141 1700v25q29 37 65.5 91t71.5 110.5t57 101.5h218v-21q-27 -37 -77 -95t-108.5 -116.5t-107.5 -95.5h-119zM174 0v1556h180v-1556h-180z" />
<glyph unicode="&#x13b;" horiz-adv-x="1073" d="M199 0v1462h184v-1298h639v-164h-823zM484 -428q14 35 32.5 89t32.5 112.5t19 101.5h178v-18q-10 -37 -35 -93.5t-58.5 -115t-70.5 -101.5h-98v25z" />
<glyph unicode="&#x13c;" horiz-adv-x="528" d="M134 -428q14 35 32.5 89t32.5 112.5t19 101.5h178v-18q-10 -37 -35 -93.5t-58.5 -115t-70.5 -101.5h-98v25zM174 0v1556h180v-1556h-180z" />
<glyph unicode="&#x13d;" horiz-adv-x="1073" d="M199 0v1462h184v-1298h639v-164h-823zM776 1135v24q12 39 26.5 93.5t25 109.5t16.5 100h178v-18q-8 -37 -31.5 -92t-54.5 -113.5t-62 -103.5h-98z" />
<glyph unicode="&#x13e;" horiz-adv-x="528" d="M174 0v1556h180v-1556h-180zM444 1229v24q12 39 26.5 93.5t25 109.5t16.5 100h178v-18q-8 -37 -31.5 -92t-54.5 -113.5t-62 -103.5h-98z" />
<glyph unicode="&#x13f;" horiz-adv-x="1073" d="M199 0v1462h184v-1298h639v-164h-823zM678 731q0 59 30.5 86.5t75.5 27.5q41 0 73 -27.5t32 -86.5t-32 -87t-73 -28q-45 0 -75.5 27.5t-30.5 87.5z" />
<glyph unicode="&#x140;" horiz-adv-x="548" d="M174 0v1556h180v-1556h-180zM432 777q0 59 30.5 86.5t75.5 27.5q41 0 73 -27.5t32 -86.5t-32 -87t-73 -28q-45 0 -75.5 27.5t-30.5 87.5z" />
<glyph unicode="&#x141;" horiz-adv-x="1073" d="M27 571l172 103v788h184v-680l281 166l73 -129l-354 -205v-450h639v-164h-823v506l-101 -57z" />
<glyph unicode="&#x142;" horiz-adv-x="528" d="M-18 639l178 115v802h180v-686l131 91l76 -121l-207 -140v-700h-180v584l-105 -66z" />
<glyph unicode="&#x143;" horiz-adv-x="1556" d="M199 0v1462h213l780 -1210h8q-2 33 -5 98.5t-6 142t-3 144.5v825h172v-1462h-215l-783 1214h-8q4 -72 10.5 -178t6.5 -219v-817h-170zM655 1606v25q29 37 65.5 91t71.5 110.5t57 101.5h218v-21q-27 -37 -77 -95t-108.5 -116.5t-107.5 -95.5h-119z" />
<glyph unicode="&#x144;" horiz-adv-x="1265" d="M174 0v1098h145l27 -150h10q53 86 147.5 128t198.5 42q197 0 297.5 -96t100.5 -307v-715h-178v702q0 264 -246 265q-182 0 -252 -102.5t-70 -295.5v-569h-180zM510 1241v25q29 37 65.5 91t71.5 110.5t57 101.5h218v-21q-27 -37 -77 -95t-108.5 -116.5t-107.5 -95.5h-119z " />
<glyph unicode="&#x145;" horiz-adv-x="1556" d="M199 0v1462h213l780 -1210h8q-2 33 -5 98.5t-6 142t-3 144.5v825h172v-1462h-215l-783 1214h-8q4 -72 10.5 -178t6.5 -219v-817h-170zM648 -428q14 35 32.5 89t32.5 112.5t19 101.5h178v-18q-10 -37 -35 -93.5t-58.5 -115t-70.5 -101.5h-98v25z" />
<glyph unicode="&#x146;" horiz-adv-x="1265" d="M174 0v1098h145l27 -150h10q53 86 147.5 128t198.5 42q197 0 297.5 -96t100.5 -307v-715h-178v702q0 264 -246 265q-182 0 -252 -102.5t-70 -295.5v-569h-180zM502 -428q14 35 32.5 89t32.5 112.5t19 101.5h178v-18q-10 -37 -35 -93.5t-58.5 -115t-70.5 -101.5h-98v25z " />
<glyph unicode="&#x147;" horiz-adv-x="1556" d="M199 0v1462h213l780 -1210h8q-2 33 -5 98.5t-6 142t-3 144.5v825h172v-1462h-215l-783 1214h-8q4 -72 10.5 -178t6.5 -219v-817h-170zM432 1907v27h123q53 -35 110.5 -84t108.5 -105q55 55 112.5 104.5t110.5 84.5h127v-27q-39 -39 -89 -92t-96 -108.5t-71 -100.5h-184 q-27 45 -72 100.5t-94 108.5t-86 92z" />
<glyph unicode="&#x148;" horiz-adv-x="1265" d="M174 0v1098h145l27 -150h10q53 86 147.5 128t198.5 42q197 0 297.5 -96t100.5 -307v-715h-178v702q0 264 -246 265q-182 0 -252 -102.5t-70 -295.5v-569h-180zM287 1542v27h123q53 -35 110.5 -84t108.5 -105q55 55 112.5 104.5t110.5 84.5h127v-27q-39 -39 -89 -92 t-96 -108.5t-71 -100.5h-184q-27 45 -72 100.5t-94 108.5t-86 92z" />
<glyph unicode="&#x149;" horiz-adv-x="1409" d="M2 961q20 76 39.5 166t36 177t26.5 158h192l15 -22q-27 -109 -77 -240t-99 -239h-133zM317 0v1098h145l27 -150h10q53 86 147.5 128t198.5 42q197 0 297.5 -96t100.5 -307v-715h-178v702q0 264 -246 265q-182 0 -252 -102.5t-70 -295.5v-569h-180z" />
<glyph unicode="&#x14a;" horiz-adv-x="1556" d="M199 0v1462h213l780 -1171h8q-6 66 -10 180.5t-4 228.5v762h172v-1450q0 -205 -104.5 -303t-280.5 -98q-51 0 -90 7t-66 20v155q33 -10 72 -15t84 -5q51 0 100 19.5t80 68.5t33 139l-826 1214h-8q4 -39 7 -110.5t6.5 -153.5t3.5 -157v-793h-170z" />
<glyph unicode="&#x14b;" horiz-adv-x="1265" d="M174 0v1098h145l29 -150h10q53 86 144.5 128t197.5 42q201 0 301.5 -95t100.5 -306v-881q0 -154 -71.5 -241t-223.5 -87q-49 0 -84 7.5t-61 17.5v145q27 -10 56.5 -15t65.5 -5q59 0 98.5 36t39.5 136v875q0 262 -244 262q-182 0 -253 -101.5t-71 -294.5v-571h-180z" />
<glyph unicode="&#x14c;" horiz-adv-x="1599" d="M125 735q0 223 73.5 392t224 263.5t380.5 94.5q219 0 368.5 -93.5t226.5 -262.5t77 -396t-77 -396t-227.5 -263t-369.5 -94q-227 0 -378 94t-224.5 264t-73.5 397zM319 733q0 -276 117 -435t365 -159t363.5 159t115.5 435t-114.5 433t-362.5 157q-250 0 -367 -157 t-117 -433zM496 1606v145h608v-145h-608z" />
<glyph unicode="&#x14d;" horiz-adv-x="1239" d="M113 551q0 272 136 419.5t374 147.5q147 0 261.5 -66.5t179 -192.5t64.5 -308q0 -272 -138 -421.5t-374 -149.5q-145 0 -258.5 66.5t-179 194.5t-65.5 310zM299 551q0 -195 77 -308.5t245 -113.5q166 0 243.5 113.5t77.5 308.5t-78 305.5t-246 110.5t-243.5 -110.5 t-75.5 -305.5zM315 1241v145h608v-145h-608z" />
<glyph unicode="&#x14e;" horiz-adv-x="1599" d="M125 735q0 223 73.5 392t224 263.5t380.5 94.5q219 0 368.5 -93.5t226.5 -262.5t77 -396t-77 -396t-227.5 -263t-369.5 -94q-227 0 -378 94t-224.5 264t-73.5 397zM319 733q0 -276 117 -435t365 -159t363.5 159t115.5 435t-114.5 433t-362.5 157q-250 0 -367 -157 t-117 -433zM492 1881h111q8 -84 60 -107t146 -23q80 0 138.5 25t68.5 105h113q-10 -123 -93 -199t-231 -76q-152 0 -228.5 74t-84.5 201z" />
<glyph unicode="&#x14f;" horiz-adv-x="1239" d="M113 551q0 272 136 419.5t374 147.5q147 0 261.5 -66.5t179 -192.5t64.5 -308q0 -272 -138 -421.5t-374 -149.5q-145 0 -258.5 66.5t-179 194.5t-65.5 310zM299 551q0 -195 77 -308.5t245 -113.5q166 0 243.5 113.5t77.5 308.5t-78 305.5t-246 110.5t-243.5 -110.5 t-75.5 -305.5zM311 1516h111q8 -84 60 -107t146 -23q80 0 138.5 25t68.5 105h113q-10 -123 -93 -199t-231 -76q-152 0 -228.5 74t-84.5 201z" />
<glyph unicode="&#x150;" horiz-adv-x="1599" d="M125 735q0 223 73.5 392t224 263.5t380.5 94.5q219 0 368.5 -93.5t226.5 -262.5t77 -396t-77 -396t-227.5 -263t-369.5 -94q-227 0 -378 94t-224.5 264t-73.5 397zM319 733q0 -276 117 -435t365 -159t363.5 159t115.5 435t-114.5 433t-362.5 157q-250 0 -367 -157 t-117 -433zM547 1606v25q43 57 93 145t85 158h197v-21q-23 -37 -70 -95t-102.5 -116.5t-100.5 -95.5h-102zM907 1606v25q29 39 62 92t63.5 109.5t53.5 101.5h196v-21q-23 -37 -70 -95t-102 -116.5t-100 -95.5h-103z" />
<glyph unicode="&#x151;" horiz-adv-x="1239" d="M113 551q0 272 136 419.5t374 147.5q147 0 261.5 -66.5t179 -192.5t64.5 -308q0 -272 -138 -421.5t-374 -149.5q-145 0 -258.5 66.5t-179 194.5t-65.5 310zM299 551q0 -195 77 -308.5t245 -113.5q166 0 243.5 113.5t77.5 308.5t-78 305.5t-246 110.5t-243.5 -110.5 t-75.5 -305.5zM367 1241v25q43 57 93 145t85 158h197v-21q-23 -37 -70 -95t-102.5 -116.5t-100.5 -95.5h-102zM727 1241v25q29 39 62 92t63.5 109.5t53.5 101.5h196v-21q-23 -37 -70 -95t-102 -116.5t-100 -95.5h-103z" />
<glyph unicode="&#x152;" horiz-adv-x="1900" d="M125 735q0 227 72.5 395t220.5 261.5t373 93.5q102 0 196 -23h791v-162h-588v-456h549v-160h-549v-522h588v-162h-779q-45 -8 -96 -14t-102 -6q-227 0 -378 94t-224.5 264t-73.5 397zM317 733q0 -276 119 -435t369 -159q117 0 203 35v1116q-84 33 -201 33 q-252 0 -371 -156.5t-119 -433.5z" />
<glyph unicode="&#x153;" horiz-adv-x="1937" d="M111 551q0 270 134 417.5t367 147.5q129 0 231.5 -57.5t164.5 -167.5q59 109 156 167t222 58q207 0 326 -134t119 -359v-109h-729q4 -197 89 -289t243 -92q106 0 186 19.5t162 56.5v-158q-82 -37 -162 -54t-188 -17q-139 0 -247 57t-171 170q-63 -113 -168 -170t-240 -57 q-143 0 -254.5 66.5t-176 194.5t-64.5 310zM299 551q0 -207 73.5 -314.5t235.5 -107.5q160 0 233.5 104.5t73.5 309.5q0 213 -74.5 318.5t-236.5 105.5t-233.5 -104.5t-71.5 -311.5zM1106 657h534q0 141 -61.5 226.5t-194.5 85.5q-123 0 -194.5 -80t-83.5 -232z" />
<glyph unicode="&#x154;" horiz-adv-x="1273" d="M199 0v1462h403q272 0 402.5 -103.5t130.5 -311.5q0 -117 -43 -195t-110 -125t-140 -72l401 -655h-215l-354 604h-291v-604h-184zM383 760h219q178 0 260 70.5t82 207.5q0 143 -86 204t-266 61h-209v-543zM514 1606v25q29 37 65.5 91t71.5 110.5t57 101.5h218v-21 q-27 -37 -77 -95t-108.5 -116.5t-107.5 -95.5h-119z" />
<glyph unicode="&#x155;" horiz-adv-x="845" d="M174 0v1098h148l20 -201h8q51 90 136 155.5t200 65.5q31 0 65.5 -3t63.5 -9l-22 -166q-27 6 -60 10t-59 4q-84 0 -158 -46t-118 -129t-44 -193v-586h-180zM369 1241v25q29 37 65.5 91t71.5 110.5t57 101.5h218v-21q-27 -37 -77 -95t-108.5 -116.5t-107.5 -95.5h-119z" />
<glyph unicode="&#x156;" horiz-adv-x="1273" d="M199 0v1462h403q272 0 402.5 -103.5t130.5 -311.5q0 -117 -43 -195t-110 -125t-140 -72l401 -655h-215l-354 604h-291v-604h-184zM383 760h219q178 0 260 70.5t82 207.5q0 143 -86 204t-266 61h-209v-543zM541 -428q14 35 32.5 89t32.5 112.5t19 101.5h178v-18 q-10 -37 -35 -93.5t-58.5 -115t-70.5 -101.5h-98v25z" />
<glyph unicode="&#x157;" horiz-adv-x="845" d="M127 -428q14 35 32.5 89t32.5 112.5t19 101.5h178v-18q-10 -37 -35 -93.5t-58.5 -115t-70.5 -101.5h-98v25zM174 0v1098h148l20 -201h8q51 90 136 155.5t200 65.5q31 0 65.5 -3t63.5 -9l-22 -166q-27 6 -60 10t-59 4q-84 0 -158 -46t-118 -129t-44 -193v-586h-180z" />
<glyph unicode="&#x158;" horiz-adv-x="1273" d="M199 0v1462h403q272 0 402.5 -103.5t130.5 -311.5q0 -117 -43 -195t-110 -125t-140 -72l401 -655h-215l-354 604h-291v-604h-184zM291 1907v27h123q53 -35 110.5 -84t108.5 -105q55 55 112.5 104.5t110.5 84.5h127v-27q-39 -39 -89 -92t-96 -108.5t-71 -100.5h-184 q-27 45 -72 100.5t-94 108.5t-86 92zM383 760h219q178 0 260 70.5t82 207.5q0 143 -86 204t-266 61h-209v-543z" />
<glyph unicode="&#x159;" horiz-adv-x="845" d="M145 1542v27h123q53 -35 110.5 -84t108.5 -105q55 55 112.5 104.5t110.5 84.5h127v-27q-39 -39 -89 -92t-96 -108.5t-71 -100.5h-184q-27 45 -72 100.5t-94 108.5t-86 92zM174 0v1098h148l20 -201h8q51 90 136 155.5t200 65.5q31 0 65.5 -3t63.5 -9l-22 -166 q-27 6 -60 10t-59 4q-84 0 -158 -46t-118 -129t-44 -193v-586h-180z" />
<glyph unicode="&#x15a;" horiz-adv-x="1124" d="M104 49v176q74 -33 183.5 -59.5t226.5 -26.5q162 0 246 63.5t84 172.5q0 72 -31 121t-106.5 90t-206.5 90q-188 68 -282.5 166t-94.5 268q0 115 59.5 199t164 129t243.5 45q119 0 219 -22.5t184 -59.5l-57 -158q-76 33 -166 55.5t-184 22.5q-137 0 -207 -58.5t-70 -154.5 q0 -74 31 -123t100.5 -89t188.5 -83q129 -47 218 -101.5t135 -130t46 -190.5q0 -195 -141.5 -303t-380.5 -108q-123 0 -227.5 18t-174.5 51zM461 1606v25q29 37 65.5 91t71.5 110.5t57 101.5h218v-21q-27 -37 -77 -95t-108.5 -116.5t-107.5 -95.5h-119z" />
<glyph unicode="&#x15b;" horiz-adv-x="980" d="M104 827q0 139 114 215t298 76q100 0 187.5 -20.5t162.5 -53.5l-61 -143q-70 29 -145.5 49.5t-155.5 20.5q-111 0 -169.5 -36t-58.5 -97q0 -47 27 -78t89.5 -61.5t166.5 -69.5t178 -80t113 -99.5t39 -146.5q0 -160 -119 -241.5t-319 -81.5q-115 0 -198 18t-147 51v164 q66 -33 159 -60.5t190 -27.5q137 0 198.5 44t61.5 118q0 41 -22.5 73.5t-81 65.5t-167.5 74q-106 41 -182 82t-117 98t-41 147zM369 1241v25q29 37 65.5 91t71.5 110.5t57 101.5h218v-21q-27 -37 -77 -95t-108.5 -116.5t-107.5 -95.5h-119z" />
<glyph unicode="&#x15c;" horiz-adv-x="1124" d="M104 49v176q74 -33 183.5 -59.5t226.5 -26.5q162 0 246 63.5t84 172.5q0 72 -31 121t-106.5 90t-206.5 90q-188 68 -282.5 166t-94.5 268q0 115 59.5 199t164 129t243.5 45q119 0 219 -22.5t184 -59.5l-57 -158q-76 33 -166 55.5t-184 22.5q-137 0 -207 -58.5t-70 -154.5 q0 -74 31 -123t100.5 -89t188.5 -83q129 -47 218 -101.5t135 -130t46 -190.5q0 -195 -141.5 -303t-380.5 -108q-123 0 -227.5 18t-174.5 51zM242 1606v23q37 39 86 93t94 110.5t72 101.5h184q25 -45 71 -101.5t96 -110.5t89 -93v-23h-127q-53 33 -110.5 81t-112.5 103 q-55 -55 -110.5 -103t-108.5 -81h-123z" />
<glyph unicode="&#x15d;" horiz-adv-x="980" d="M104 827q0 139 114 215t298 76q100 0 187.5 -20.5t162.5 -53.5l-61 -143q-70 29 -145.5 49.5t-155.5 20.5q-111 0 -169.5 -36t-58.5 -97q0 -47 27 -78t89.5 -61.5t166.5 -69.5t178 -80t113 -99.5t39 -146.5q0 -160 -119 -241.5t-319 -81.5q-115 0 -198 18t-147 51v164 q66 -33 159 -60.5t190 -27.5q137 0 198.5 44t61.5 118q0 41 -22.5 73.5t-81 65.5t-167.5 74q-106 41 -182 82t-117 98t-41 147zM150 1241v23q37 39 86 93t94 110.5t72 101.5h184q25 -45 71 -101.5t96 -110.5t89 -93v-23h-127q-53 33 -110.5 81t-112.5 103 q-55 -55 -110.5 -103t-108.5 -81h-123z" />
<glyph unicode="&#x15e;" horiz-adv-x="1124" d="M104 49v176q74 -33 183.5 -59.5t226.5 -26.5q162 0 246 63.5t84 172.5q0 72 -31 121t-106.5 90t-206.5 90q-188 68 -282.5 166t-94.5 268q0 115 59.5 199t164 129t243.5 45q119 0 219 -22.5t184 -59.5l-57 -158q-76 33 -166 55.5t-184 22.5q-137 0 -207 -58.5t-70 -154.5 q0 -74 31 -123t100.5 -89t188.5 -83q129 -47 218 -101.5t135 -130t46 -190.5q0 -195 -141.5 -303t-380.5 -108q-123 0 -227.5 18t-174.5 51zM328 -369q18 -4 49 -7t59 -3q74 0 113 19.5t39 70.5q0 53 -54.5 78t-132.5 35l88 176h119l-53 -109q74 -16 126 -57t52 -119 q0 -98 -75.5 -152.5t-227.5 -54.5q-66 0 -102 11v112z" />
<glyph unicode="&#x15f;" horiz-adv-x="980" d="M104 827q0 139 114 215t298 76q100 0 187.5 -20.5t162.5 -53.5l-61 -143q-70 29 -145.5 49.5t-155.5 20.5q-111 0 -169.5 -36t-58.5 -97q0 -47 27 -78t89.5 -61.5t166.5 -69.5t178 -80t113 -99.5t39 -146.5q0 -160 -119 -241.5t-319 -81.5q-115 0 -198 18t-147 51v164 q66 -33 159 -60.5t190 -27.5q137 0 198.5 44t61.5 118q0 41 -22.5 73.5t-81 65.5t-167.5 74q-106 41 -182 82t-117 98t-41 147zM293 -369q18 -4 49 -7t59 -3q74 0 113 19.5t39 70.5q0 53 -54.5 78t-132.5 35l88 176h119l-53 -109q74 -16 126 -57t52 -119q0 -98 -75.5 -152.5 t-227.5 -54.5q-66 0 -102 11v112z" />
<glyph unicode="&#x160;" horiz-adv-x="1124" d="M104 49v176q74 -33 183.5 -59.5t226.5 -26.5q162 0 246 63.5t84 172.5q0 72 -31 121t-106.5 90t-206.5 90q-188 68 -282.5 166t-94.5 268q0 115 59.5 199t164 129t243.5 45q119 0 219 -22.5t184 -59.5l-57 -158q-76 33 -166 55.5t-184 22.5q-137 0 -207 -58.5t-70 -154.5 q0 -74 31 -123t100.5 -89t188.5 -83q129 -47 218 -101.5t135 -130t46 -190.5q0 -195 -141.5 -303t-380.5 -108q-123 0 -227.5 18t-174.5 51zM238 1907v27h123q53 -35 110.5 -84t108.5 -105q55 55 112.5 104.5t110.5 84.5h127v-27q-39 -39 -89 -92t-96 -108.5t-71 -100.5 h-184q-27 45 -72 100.5t-94 108.5t-86 92z" />
<glyph unicode="&#x161;" horiz-adv-x="980" d="M104 827q0 139 114 215t298 76q100 0 187.5 -20.5t162.5 -53.5l-61 -143q-70 29 -145.5 49.5t-155.5 20.5q-111 0 -169.5 -36t-58.5 -97q0 -47 27 -78t89.5 -61.5t166.5 -69.5t178 -80t113 -99.5t39 -146.5q0 -160 -119 -241.5t-319 -81.5q-115 0 -198 18t-147 51v164 q66 -33 159 -60.5t190 -27.5q137 0 198.5 44t61.5 118q0 41 -22.5 73.5t-81 65.5t-167.5 74q-106 41 -182 82t-117 98t-41 147zM145 1542v27h123q53 -35 110.5 -84t108.5 -105q55 55 112.5 104.5t110.5 84.5h127v-27q-39 -39 -89 -92t-96 -108.5t-71 -100.5h-184 q-27 45 -72 100.5t-94 108.5t-86 92z" />
<glyph unicode="&#x162;" horiz-adv-x="1138" d="M20 1300v162h1096v-162h-454v-1300h-185v1300h-457zM371 -369q18 -4 49 -7t59 -3q74 0 113 19.5t39 70.5q0 53 -54.5 78t-132.5 35l88 176h119l-53 -109q74 -16 126 -57t52 -119q0 -98 -75.5 -152.5t-227.5 -54.5q-66 0 -102 11v112z" />
<glyph unicode="&#x163;" horiz-adv-x="739" d="M33 958v86l157 72l72 234h107v-252h317v-140h-317v-634q0 -100 48 -148.5t124 -48.5q41 0 84 6t69 17v-138q-29 -14 -82 -23t-102 -9q-86 0 -158.5 29.5t-118 103t-45.5 206.5v639h-155zM240 -369q18 -4 49 -7t59 -3q74 0 113 19.5t39 70.5q0 53 -54.5 78t-132.5 35 l88 176h119l-53 -109q74 -16 126 -57t52 -119q0 -98 -75.5 -152.5t-227.5 -54.5q-66 0 -102 11v112z" />
<glyph unicode="&#x164;" horiz-adv-x="1138" d="M20 1300v162h1096v-162h-454v-1300h-185v1300h-457zM223 1907v27h123q53 -35 110.5 -84t108.5 -105q55 55 112.5 104.5t110.5 84.5h127v-27q-39 -39 -89 -92t-96 -108.5t-71 -100.5h-184q-27 45 -72 100.5t-94 108.5t-86 92z" />
<glyph unicode="&#x165;" horiz-adv-x="739" d="M33 958v86l157 72l72 234h107v-252h317v-140h-317v-634q0 -100 48 -148.5t124 -48.5q41 0 84 6t69 17v-138q-29 -14 -82 -23t-102 -9q-86 0 -158.5 29.5t-118 103t-45.5 206.5v639h-155zM717 1229v24q12 39 26.5 93.5t25 109.5t16.5 100h178v-18q-8 -37 -31.5 -92 t-54.5 -113.5t-62 -103.5h-98z" />
<glyph unicode="&#x166;" horiz-adv-x="1138" d="M20 1298v164h1096v-164h-457v-481h304v-151h-304v-666h-184v666h-305v151h305v481h-455z" />
<glyph unicode="&#x167;" horiz-adv-x="739" d="M33 958v86l157 72l72 234h107v-252h317v-140h-317v-249h299v-136h-299v-249q0 -100 48 -148.5t124 -48.5q41 0 84 6t69 17v-138q-29 -14 -82 -23t-102 -9q-86 0 -158.5 29.5t-118 103t-45.5 206.5v254h-139v136h139v249h-155z" />
<glyph unicode="&#x168;" horiz-adv-x="1497" d="M184 520v942h185v-948q0 -178 95 -276.5t288 -98.5q199 0 287.5 105.5t88.5 271.5v946h183v-946q0 -152 -61.5 -273.5t-188.5 -192t-320 -70.5q-274 0 -415.5 148t-141.5 392zM373 1606q12 121 70.5 191.5t154.5 70.5q61 0 115.5 -29.5t103.5 -58.5t92 -29q47 0 73 30 t40 89h103q-12 -121 -69.5 -191.5t-154.5 -70.5q-57 0 -111.5 28.5t-104.5 58.5t-95 30q-49 0 -73.5 -30t-39.5 -89h-104z" />
<glyph unicode="&#x169;" horiz-adv-x="1265" d="M162 379v719h182v-707q0 -262 244 -262q182 0 252.5 102.5t70.5 294.5v572h181v-1098h-148l-26 145h-9q-53 -86 -147 -125.5t-201 -39.5q-199 0 -299 95t-100 304zM256 1241q12 121 70.5 191.5t154.5 70.5q61 0 115.5 -29.5t103.5 -58.5t92 -29q47 0 73 30t40 89h103 q-12 -121 -69.5 -191.5t-154.5 -70.5q-57 0 -111.5 28.5t-104.5 58.5t-95 30q-49 0 -73.5 -30t-39.5 -89h-104z" />
<glyph unicode="&#x16a;" horiz-adv-x="1497" d="M184 520v942h185v-948q0 -178 95 -276.5t288 -98.5q199 0 287.5 105.5t88.5 271.5v946h183v-946q0 -152 -61.5 -273.5t-188.5 -192t-320 -70.5q-274 0 -415.5 148t-141.5 392zM444 1606v145h608v-145h-608z" />
<glyph unicode="&#x16b;" horiz-adv-x="1265" d="M162 379v719h182v-707q0 -262 244 -262q182 0 252.5 102.5t70.5 294.5v572h181v-1098h-148l-26 145h-9q-53 -86 -147 -125.5t-201 -39.5q-199 0 -299 95t-100 304zM328 1241v145h608v-145h-608z" />
<glyph unicode="&#x16c;" horiz-adv-x="1497" d="M184 520v942h185v-948q0 -178 95 -276.5t288 -98.5q199 0 287.5 105.5t88.5 271.5v946h183v-946q0 -152 -61.5 -273.5t-188.5 -192t-320 -70.5q-274 0 -415.5 148t-141.5 392zM440 1881h111q8 -84 60 -107t146 -23q80 0 138.5 25t68.5 105h113q-10 -123 -93 -199 t-231 -76q-152 0 -228.5 74t-84.5 201z" />
<glyph unicode="&#x16d;" horiz-adv-x="1265" d="M162 379v719h182v-707q0 -262 244 -262q182 0 252.5 102.5t70.5 294.5v572h181v-1098h-148l-26 145h-9q-53 -86 -147 -125.5t-201 -39.5q-199 0 -299 95t-100 304zM324 1516h111q8 -84 60 -107t146 -23q80 0 138.5 25t68.5 105h113q-10 -123 -93 -199t-231 -76 q-152 0 -228.5 74t-84.5 201z" />
<glyph unicode="&#x16e;" horiz-adv-x="1497" d="M184 520v942h185v-948q0 -178 95 -276.5t288 -98.5q199 0 287.5 105.5t88.5 271.5v946h183v-946q0 -152 -61.5 -273.5t-188.5 -192t-320 -70.5q-274 0 -415.5 148t-141.5 392zM528 1823q0 102 61.5 158.5t161.5 56.5q96 0 161.5 -56t65.5 -157q0 -104 -64.5 -161.5 t-162.5 -57.5q-100 0 -161.5 57.5t-61.5 159.5zM636 1823q0 -53 30 -84t85 -31q51 0 83 31t32 84t-33 84t-82 31t-82 -31t-33 -84z" />
<glyph unicode="&#x16f;" horiz-adv-x="1265" d="M162 379v719h182v-707q0 -262 244 -262q182 0 252.5 102.5t70.5 294.5v572h181v-1098h-148l-26 145h-9q-53 -86 -147 -125.5t-201 -39.5q-199 0 -299 95t-100 304zM412 1458q0 102 61.5 158.5t161.5 56.5q96 0 161.5 -56t65.5 -157q0 -104 -64.5 -161.5t-162.5 -57.5 q-100 0 -161.5 57.5t-61.5 159.5zM520 1458q0 -53 30 -84t85 -31q51 0 83 31t32 84t-33 84t-82 31t-82 -31t-33 -84z" />
<glyph unicode="&#x170;" horiz-adv-x="1497" d="M184 520v942h185v-948q0 -178 95 -276.5t288 -98.5q199 0 287.5 105.5t88.5 271.5v946h183v-946q0 -152 -61.5 -273.5t-188.5 -192t-320 -70.5q-274 0 -415.5 148t-141.5 392zM496 1606v25q43 57 93 145t85 158h197v-21q-23 -37 -70 -95t-102.5 -116.5t-100.5 -95.5h-102 zM856 1606v25q29 39 62 92t63.5 109.5t53.5 101.5h196v-21q-23 -37 -70 -95t-102 -116.5t-100 -95.5h-103z" />
<glyph unicode="&#x171;" horiz-adv-x="1265" d="M162 379v719h182v-707q0 -262 244 -262q182 0 252.5 102.5t70.5 294.5v572h181v-1098h-148l-26 145h-9q-53 -86 -147 -125.5t-201 -39.5q-199 0 -299 95t-100 304zM379 1241v25q43 57 93 145t85 158h197v-21q-23 -37 -70 -95t-102.5 -116.5t-100.5 -95.5h-102zM739 1241 v25q29 39 62 92t63.5 109.5t53.5 101.5h196v-21q-23 -37 -70 -95t-102 -116.5t-100 -95.5h-103z" />
<glyph unicode="&#x172;" horiz-adv-x="1497" d="M184 520v942h185v-948q0 -178 95 -276.5t288 -98.5q199 0 287.5 105.5t88.5 271.5v946h183v-946q0 -129 -45 -237.5t-136 -182.5q-90 -102 -133 -172.5t-43 -142.5q0 -59 25 -85t68 -26q35 0 58 5.5t40 7.5v-115q-29 -8 -58.5 -13.5t-68.5 -5.5q-109 0 -160 53.5 t-51 157.5q0 63 32.5 126t75.5 112q-80 -18 -174 -18q-274 0 -415.5 148t-141.5 392z" />
<glyph unicode="&#x173;" horiz-adv-x="1265" d="M162 379v719h182v-707q0 -262 244 -262q182 0 252.5 102.5t70.5 294.5v572h181v-1098h-148l-26 145h-9q-53 -86 -147 -125.5t-201 -39.5q-199 0 -299 95t-100 304zM770 -258q0 57 29.5 113.5t73.5 101.5t85 74l99 -31q-70 -66 -105 -120.5t-35 -117.5q0 -92 93 -92 q35 0 58 5.5t40 7.5v-115q-29 -8 -58.5 -13.5t-68.5 -5.5q-109 0 -160 51.5t-51 141.5z" />
<glyph unicode="&#x174;" horiz-adv-x="1904" d="M25 1462h192l227 -893q25 -94 42.5 -182t27.5 -166q10 80 30.5 174t47.5 185l258 882h190l269 -889q29 -94 49 -188t31 -164q8 76 27.5 165t43.5 185l226 891h192l-389 -1462h-186l-285 958q-18 57 -33.5 118t-27 107t-13.5 64q-2 -27 -22.5 -113.5t-47.5 -181.5 l-276 -952h-186zM610 1606v23q37 39 86 93t94 110.5t72 101.5h184q25 -45 71 -101.5t96 -110.5t89 -93v-23h-127q-53 33 -110.5 81t-112.5 103q-55 -55 -110.5 -103t-108.5 -81h-123z" />
<glyph unicode="&#x175;" horiz-adv-x="1609" d="M23 1100h186l151 -586q23 -88 43.5 -178t28.5 -150h8q6 35 18.5 86.5t27 107.5t28.5 101l195 619h196l189 -619q20 -72 42.5 -153.5t30.5 -139.5h9q6 51 27.5 141.5t45.5 184.5l154 586h184l-305 -1098h-211l-188 619q-27 84 -47.5 163.5t-28.5 126.5h-8 q-8 -47 -26.5 -126.5t-47.5 -166.5l-197 -616h-204zM463 1241v23q37 39 86 93t94 110.5t72 101.5h184q25 -45 71 -101.5t96 -110.5t89 -93v-23h-127q-53 33 -110.5 81t-112.5 103q-55 -55 -110.5 -103t-108.5 -81h-123z" />
<glyph unicode="&#x176;" horiz-adv-x="1159" d="M0 1462h201l379 -719l381 719h198l-487 -895v-567h-185v559zM238 1606v23q37 39 86 93t94 110.5t72 101.5h184q25 -45 71 -101.5t96 -110.5t89 -93v-23h-127q-53 33 -110.5 81t-112.5 103q-55 -55 -110.5 -103t-108.5 -81h-123z" />
<glyph unicode="&#x177;" horiz-adv-x="1044" d="M2 1098h193l237 -625q31 -84 55.5 -157.5t36.5 -141.5h8q12 51 39 134t56 167l223 623h194l-473 -1250q-59 -156 -149 -248t-250 -92q-49 0 -86 5.5t-63 11.5v143q23 -4 54.5 -8t65.5 -4q94 0 151.5 53t92.5 141l57 146zM180 1241v23q37 39 86 93t94 110.5t72 101.5h184 q25 -45 71 -101.5t96 -110.5t89 -93v-23h-127q-53 33 -110.5 81t-112.5 103q-55 -55 -110.5 -103t-108.5 -81h-123z" />
<glyph unicode="&#x178;" horiz-adv-x="1159" d="M0 1462h201l379 -719l381 719h198l-487 -895v-567h-185v559zM291 1760q0 53 27.5 76.5t68.5 23.5q39 0 68 -23.5t29 -76.5q0 -51 -29 -77t-68 -26q-41 0 -68.5 26t-27.5 77zM676 1760q0 53 27.5 76.5t66.5 23.5t68 -23.5t29 -76.5q0 -51 -29 -77t-68 -26t-66.5 26 t-27.5 77z" />
<glyph unicode="&#x179;" horiz-adv-x="1171" d="M78 0v139l770 1159h-746v164h969v-139l-770 -1159h791v-164h-1014zM471 1606v25q29 37 65.5 91t71.5 110.5t57 101.5h218v-21q-27 -37 -77 -95t-108.5 -116.5t-107.5 -95.5h-119z" />
<glyph unicode="&#x17a;" horiz-adv-x="962" d="M80 0v119l590 839h-555v140h753v-135l-581 -824h596v-139h-803zM358 1241v25q29 37 65.5 91t71.5 110.5t57 101.5h218v-21q-27 -37 -77 -95t-108.5 -116.5t-107.5 -95.5h-119z" />
<glyph unicode="&#x17b;" horiz-adv-x="1171" d="M78 0v139l770 1159h-746v164h969v-139l-770 -1159h791v-164h-1014zM494 1760q0 59 30.5 86.5t75.5 27.5q41 0 73 -27.5t32 -86.5t-32 -87t-73 -28q-45 0 -75.5 27.5t-30.5 87.5z" />
<glyph unicode="&#x17c;" horiz-adv-x="962" d="M80 0v119l590 839h-555v140h753v-135l-581 -824h596v-139h-803zM381 1395q0 59 30.5 86.5t75.5 27.5q41 0 73 -27.5t32 -86.5t-32 -87t-73 -28q-45 0 -75.5 27.5t-30.5 87.5z" />
<glyph unicode="&#x17d;" horiz-adv-x="1171" d="M78 0v139l770 1159h-746v164h969v-139l-770 -1159h791v-164h-1014zM248 1907v27h123q53 -35 110.5 -84t108.5 -105q55 55 112.5 104.5t110.5 84.5h127v-27q-39 -39 -89 -92t-96 -108.5t-71 -100.5h-184q-27 45 -72 100.5t-94 108.5t-86 92z" />
<glyph unicode="&#x17e;" horiz-adv-x="962" d="M80 0v119l590 839h-555v140h753v-135l-581 -824h596v-139h-803zM135 1542v27h123q53 -35 110.5 -84t108.5 -105q55 55 112.5 104.5t110.5 84.5h127v-27q-39 -39 -89 -92t-96 -108.5t-71 -100.5h-184q-27 45 -72 100.5t-94 108.5t-86 92z" />
<glyph unicode="&#x17f;" horiz-adv-x="667" d="M174 0v1182q0 211 99.5 298t263.5 87q63 0 113 -11.5t91 -27.5l-47 -142q-33 10 -75.5 20.5t-83.5 10.5q-84 0 -132.5 -53t-48.5 -182v-1182h-180z" />
<glyph unicode="&#x180;" horiz-adv-x="1259" d="M18 1239v135h156v182h180v-182h437v-135h-437v-61q0 -70 -3 -130.5t-7 -95.5h10q47 70 129 117t211 47q205 0 329 -142.5t124 -424.5q0 -283 -125 -426t-328 -143q-129 0 -211 47t-129 112h-14l-37 -139h-129v1239h-156zM354 547q0 -203 67 -310.5t247 -107.5 q147 0 220 108.5t73 313.5q0 416 -297 416q-176 0 -243 -100.5t-67 -311.5v-8z" />
<glyph unicode="&#x181;" horiz-adv-x="1495" d="M20 1204q0 131 71 194.5t218 63.5h471q272 0 413.5 -82t141.5 -280q0 -129 -71.5 -214t-206.5 -110v-10q92 -16 166.5 -55t117.5 -111t43 -184q0 -199 -136 -307.5t-371 -108.5h-515v1305h-53q-63 0 -94 -28t-31 -75q0 -35 7.5 -65.5t13.5 -44.5h-162q-10 23 -16.5 55.5 t-6.5 56.5zM547 156h295q195 0 270.5 75.5t75.5 198.5q0 115 -79 185.5t-282 70.5h-280v-530zM547 840h270q186 0 257 60.5t71 178.5q0 121 -85 173.5t-272 52.5h-241v-465z" />
<glyph unicode="&#x182;" horiz-adv-x="1259" d="M199 0v1462h868v-162h-684v-456h217q219 0 340 -54.5t168 -147.5t47 -214q0 -201 -121 -314.5t-407 -113.5h-428zM383 158h225q197 0 277 66.5t80 203.5q0 141 -88.5 198.5t-298.5 57.5h-195v-526z" />
<glyph unicode="&#x183;" horiz-adv-x="1259" d="M174 0v1556h862v-151h-682v-227q0 -70 -3 -130.5t-7 -95.5h10q47 70 129 117t211 47q205 0 329 -142.5t124 -424.5q0 -283 -125 -426t-328 -143q-129 0 -211 47t-129 112h-14l-37 -139h-129zM354 547q0 -203 67 -310.5t247 -107.5q147 0 220 108.5t73 313.5 q0 416 -297 416q-176 0 -243 -100.5t-67 -311.5v-8z" />
<glyph unicode="&#x184;" horiz-adv-x="1300" d="M184 430v1032h185v-618h274q205 0 326 -57.5t174 -153.5t53 -213q0 -195 -123 -317.5t-375 -122.5q-190 0 -302.5 57t-162 158.5t-49.5 234.5zM369 430q0 -160 76.5 -226.5t250.5 -66.5q164 0 237 73t73 210q0 141 -98.5 202.5t-286.5 61.5h-252v-254z" />
<glyph unicode="&#x185;" horiz-adv-x="1253" d="M168 547v1009h180v-378q0 -70 -4 -130.5t-6 -95.5h10q45 70 128 117t212 47q205 0 329 -142.5t124 -424.5q0 -283 -129.5 -426t-352.5 -143q-225 0 -358 142t-133 425zM348 543q0 -197 83.5 -305.5t230.5 -108.5t219.5 108.5t72.5 313.5q0 416 -297 416 q-174 0 -241.5 -100.5t-67.5 -311.5v-12z" />
<glyph unicode="&#x186;" horiz-adv-x="1294" d="M63 1397q84 41 193 63.5t242 22.5q223 0 372.5 -92.5t224 -262.5t74.5 -399q0 -221 -79.5 -390t-230 -264t-361.5 -95q-121 0 -208 14t-169 45v160q84 -25 168 -41.5t180 -16.5q236 0 371 158t135 432q0 272 -127 431t-379 159q-98 0 -181 -24.5t-151 -55.5z" />
<glyph unicode="&#x187;" horiz-adv-x="1294" d="M125 733q0 221 81 390t238.5 264.5t382.5 95.5q121 0 240 -29v29q0 131 54.5 202.5t181.5 71.5q39 0 70.5 -8t51.5 -18v-148q-14 6 -43.5 13.5t-62.5 7.5q-96 0 -96 -99v-104l-74 -160q-68 31 -146.5 55.5t-177.5 24.5q-236 0 -371 -157.5t-135 -432.5q0 -272 126 -431 t378 -159q94 0 180.5 16.5t170.5 41.5v-160q-82 -31 -169 -45t-208 -14q-223 0 -373 92t-224.5 262t-74.5 399z" />
<glyph unicode="&#x188;" horiz-adv-x="1030" d="M113 543q0 203 66.5 329.5t183 186t264.5 59.5q33 0 66.5 -4t66.5 -8v186q0 133 54 204t181 71q39 0 71 -9.5t52 -17.5v-149q-14 6 -44 13t-62 7q-96 0 -97 -98v-254l-55 -150q-49 18 -114.5 35t-122.5 17q-324 0 -324 -416q0 -199 79 -304.5t234 -105.5q88 0 158 18.5 t127 45.5v-160q-55 -29 -122 -44t-161 -15q-147 0 -259.5 59t-177 184t-64.5 320z" />
<glyph unicode="&#x189;" horiz-adv-x="1495" d="M61 643v160h152v659h436q219 0 381 -82t251 -241.5t89 -393.5q0 -371 -201.5 -558t-564.5 -187h-391v643h-152zM397 158h185q594 0 594 581q0 293 -145.5 429.5t-407.5 136.5h-226v-502h365v-160h-365v-485z" />
<glyph unicode="&#x18a;" horiz-adv-x="1658" d="M20 1204q0 131 71 194.5t218 63.5h504q219 0 382 -82t251 -241.5t88 -393.5q0 -371 -202 -558t-562 -187h-408v1305h-53q-63 0 -94 -28t-31 -75q0 -35 7.5 -65.5t13.5 -44.5h-162q-10 23 -16.5 55.5t-6.5 56.5zM547 158h198q594 0 594 581q0 293 -144 429.5t-409 136.5 h-239v-1147z" />
<glyph unicode="&#x18b;" horiz-adv-x="1259" d="M104 406q0 115 54.5 215t182.5 161.5t347 61.5h189v456h-684v162h868v-1462h-408q-287 0 -418 106.5t-131 299.5zM295 414q0 -129 90 -192.5t285 -63.5h207v528h-168q-209 0 -311.5 -62.5t-102.5 -209.5z" />
<glyph unicode="&#x18c;" horiz-adv-x="1259" d="M113 547q0 283 123.5 427t328.5 144q127 0 208 -47t132 -115h13q-4 27 -8.5 79t-4.5 83v287h-682v151h862v-1556h-145l-27 147h-8q-49 -70 -131 -118.5t-211 -48.5q-205 0 -327.5 142t-122.5 425zM299 543q0 -197 73 -305.5t220 -108.5q174 0 244.5 95t70.5 288v33 q0 205 -67.5 314.5t-249.5 109.5q-145 0 -218 -116t-73 -310z" />
<glyph unicode="&#x18d;" horiz-adv-x="1236" d="M111 615q0 246 140 374.5t372 128.5q147 0 260.5 -53t178 -155.5t64.5 -249.5q0 -131 -56 -229.5t-153.5 -164t-218.5 -102.5q115 -66 184.5 -143.5t69.5 -192.5q0 -141 -105 -213.5t-263 -72.5q-141 0 -241.5 34.5t-180.5 75.5l78 141q76 -43 161.5 -73.5t190.5 -30.5 q92 0 135 42t43 99q0 49 -26.5 89t-86 81t-161.5 97q-186 100 -285.5 219.5t-99.5 298.5zM297 617q0 -137 68.5 -224.5t189.5 -150.5q63 16 130 45t124 77t93 120.5t36 177.5q0 135 -83 221t-232 86q-156 0 -241 -91t-85 -261z" />
<glyph unicode="&#x18e;" horiz-adv-x="1138" d="M123 0v162h633v522h-596v160h596v456h-633v162h817v-1462h-817z" />
<glyph unicode="&#x18f;" horiz-adv-x="1513" d="M121 731v70h1071q-16 248 -140 385t-372 137q-139 0 -254 -24.5t-213 -59.5v168q90 33 199.5 55.5t271.5 22.5q229 0 386 -94.5t236.5 -263.5t79.5 -398q0 -227 -75.5 -395t-222 -261t-361.5 -93q-219 0 -352 93t-193.5 262t-60.5 396zM317 639q0 -154 39 -265.5 t129 -172t242 -60.5q201 0 325 128t140 370h-875z" />
<glyph unicode="&#x190;" horiz-adv-x="1204" d="M111 399q0 156 96 248t280 117v8q-141 25 -225 112t-84 236q0 158 119 260.5t346 102.5q152 0 272.5 -44t204.5 -108l-88 -125q-82 55 -168 90t-217 35q-123 0 -200.5 -59.5t-77.5 -169.5q0 -123 98 -195.5t297 -72.5h199v-154h-209q-213 0 -332 -63.5t-119 -202.5 q0 -135 99.5 -209t285.5 -74q113 0 228.5 31t209.5 76v-168q-92 -45 -202.5 -67.5t-245.5 -22.5q-207 0 -331 54t-180 149.5t-56 215.5z" />
<glyph unicode="&#x191;" horiz-adv-x="1062" d="M-23 -309q20 -10 43 -15.5t50 -5.5q63 0 96 36t33 132v1624h817v-162h-633v-518h594v-161h-594v-791q0 -170 -77 -246t-214 -76q-37 0 -64.5 7.5t-50.5 19.5v156z" />
<glyph unicode="&#x192;" horiz-adv-x="1171" d="M190 -324q31 -8 64 -13t65 -5q86 0 127 45t41 166v962h-215v84l215 62v133q0 213 90.5 293t256.5 80q63 0 117.5 -14.5t92.5 -28.5l-45 -140q-33 10 -74.5 21.5t-84.5 11.5q-90 0 -131 -48t-41 -173v-141h276v-140h-272v-962q0 -201 -89 -281t-253 -80q-39 0 -76 5.5 t-64 13.5v149z" />
<glyph unicode="&#x193;" horiz-adv-x="1490" d="M125 731q0 227 89 396t259 262.5t410 93.5q147 0 280 -35v35q0 131 55.5 202.5t180.5 71.5q39 0 69.5 -8t53.5 -18v-148q-14 6 -43 13.5t-64 7.5q-96 0 -96 -99v-108l-70 -160q-78 33 -175 58.5t-202 25.5q-262 0 -408.5 -158.5t-146.5 -431.5q0 -174 56.5 -308 t177.5 -209t317 -75q96 0 164 10.5t123 24.5v434h-321v164h505v-717q-119 -39 -239.5 -57t-274.5 -18q-227 0 -382.5 91t-236.5 260t-81 400z" />
<glyph unicode="&#x194;" horiz-adv-x="1167" d="M0 1462h193l288 -764q35 -90 61.5 -168.5t41.5 -150.5q14 72 40.5 152.5t61.5 170.5l287 760h194l-483 -1241q68 -133 102.5 -248.5t34.5 -191.5q0 -115 -63 -194t-174 -79t-174.5 78t-63.5 195q0 90 41 209t96 229zM514 -211q0 -63 19.5 -92t50.5 -29q70 0 69 117 q0 47 -16 121t-53 145q-39 -76 -54.5 -146.5t-15.5 -115.5z" />
<glyph unicode="&#x195;" horiz-adv-x="1912" d="M174 0v1556h180v-456q0 -82 -10 -154h12q49 84 135.5 127t184.5 43q186 0 280.5 -95t94.5 -306v-322q0 -264 258 -264q133 0 195.5 70.5t62.5 234.5v664h180v-670q0 -246 -109.5 -347t-328.5 -101q-217 0 -328 95t-111 306v321q0 133 -54 199t-169 66 q-168 0 -230.5 -103.5t-62.5 -296.5v-567h-180z" />
<glyph unicode="&#x196;" horiz-adv-x="712" d="M184 322v1140h183v-1124q0 -98 37.5 -147.5t119.5 -49.5q45 0 93.5 7.5t74.5 15.5v-152q-29 -14 -85 -23t-109 -9q-90 0 -161 29.5t-112 104t-41 208.5z" />
<glyph unicode="&#x197;" horiz-adv-x="694" d="M70 670v159h184v486l-172 41v106h528v-106l-172 -41v-486h185v-159h-185v-525l172 -39v-106h-528v106l172 39v525h-184z" />
<glyph unicode="&#x198;" horiz-adv-x="1267" d="M199 0v1462h184v-737q57 72 123.5 147.5t124.5 149.5l254 311q49 63 89 93t77 39.5t82 9.5q35 0 59.5 -4.5t42.5 -12.5v-143q-14 4 -43 5t-47 1q-27 0 -57.5 -15.5t-81.5 -78.5l-336 -398l598 -829h-217l-506 700l-162 -157v-543h-184z" />
<glyph unicode="&#x199;" horiz-adv-x="1093" d="M174 0v1280q0 287 248 287q39 0 74.5 -9.5t58.5 -17.5v-149q-14 6 -43 13t-63 7q-47 0 -72 -27.5t-25 -91.5v-549q0 -33 -2 -86t-6 -92h8q12 16 37 47t50.5 63t43.5 52l351 371h210l-444 -469l475 -629h-217l-381 512l-125 -109v-403h-178z" />
<glyph unicode="&#x19a;" horiz-adv-x="528" d="M31 725v135h143v696h180v-696h144v-135h-144v-725h-180v725h-143z" />
<glyph unicode="&#x19b;" horiz-adv-x="1110" d="M-12 0l473 1077l-47 131l-217 -65l-39 129l202 61q-29 49 -63.5 67.5t-89.5 18.5q-37 0 -64.5 -4t-50.5 -8v145q27 6 62.5 11.5t72.5 5.5q117 0 183.5 -45t115.5 -140l224 68l38 -129l-208 -66l366 -1019q39 -111 103 -111q16 0 33.5 4t27.5 6v-133q-23 -10 -52.5 -17 t-64.5 -7q-76 0 -120 37.5t-76 127.5l-150 420q-16 49 -37.5 109.5t-39 119t-25.5 97.5h-8q-18 -72 -48 -154t-65 -162l-250 -575h-186z" />
<glyph unicode="&#x19c;" horiz-adv-x="2109" d="M184 426v1036h185v-1036q0 -143 59 -215t188 -72q182 0 260 102.5t78 295.5v925h185v-1036q0 -143 59 -215t193 -72q188 0 260.5 113t72.5 326v884h185v-1462h-146l-30 168h-11q-57 -94 -159.5 -141t-210.5 -47q-270 0 -359 204h-10q-61 -104 -168.5 -154t-226.5 -50 q-207 0 -305.5 105t-98.5 341z" />
<glyph unicode="&#x19d;" horiz-adv-x="1556" d="M-23 -309q20 -10 43 -15.5t50 -5.5q63 0 96 36t33 132v1624h213l780 -1210h8q-2 33 -5 98.5t-6 142t-3 144.5v825h172v-1462h-215l-783 1214h-8q4 -72 10.5 -178t6.5 -219v-987q0 -170 -70 -246t-207 -76q-37 0 -64.5 7.5t-50.5 19.5v156z" />
<glyph unicode="&#x19e;" horiz-adv-x="1265" d="M174 0v1098h145l27 -150h10q53 86 147.5 128t198.5 42q197 0 297.5 -96t100.5 -307v-1207h-178v1194q0 131 -59.5 198t-186.5 67q-180 0 -251 -102.5t-71 -295.5v-569h-180z" />
<glyph unicode="&#x19f;" horiz-adv-x="1601" d="M125 735q0 223 73.5 392t224 263.5t380.5 94.5q219 0 368.5 -93.5t226.5 -262.5t77 -396t-77 -396t-227.5 -263t-369.5 -94q-227 0 -378 94t-224.5 264t-73.5 397zM322 666q12 -248 127.5 -387.5t351.5 -139.5q233 0 349 139.5t128 387.5h-956zM322 825h954 q-18 233 -132 365.5t-341 132.5q-229 0 -346 -132t-135 -366z" />
<glyph unicode="&#x1a0;" horiz-adv-x="1605" d="M125 735q0 223 73.5 392t224 263.5t380.5 94.5q168 0 295 -56.5t211 -156.5q86 23 108.5 100.5t22.5 183.5h194l15 -22q-23 -121 -81.5 -223.5t-187.5 -149.5q93 -174 93 -428q0 -227 -76 -396t-226.5 -263t-369.5 -94q-229 0 -379 94t-223.5 264t-73.5 397zM319 733 q0 -276 116 -435t366 -159t363.5 159t113.5 435q0 274 -112.5 432t-362.5 158q-252 0 -368 -158t-116 -432z" />
<glyph unicode="&#x1a1;" horiz-adv-x="1261" d="M113 551q0 272 136 419.5t374 147.5q106 0 198 -37t158 -104q92 27 114.5 106.5t22.5 182.5h193l14 -23q-29 -141 -87 -236.5t-177 -138.5q33 -66 51 -144.5t18 -172.5q0 -272 -138 -421.5t-374 -149.5q-145 0 -258.5 66.5t-179 194.5t-65.5 310zM299 551 q0 -207 76 -314.5t246 -107.5t245.5 107.5t75.5 314.5t-78 311.5t-246 104.5t-243.5 -104.5t-75.5 -311.5z" />
<glyph unicode="&#x1a2;" horiz-adv-x="2201" d="M125 735q0 223 70.5 392t214 263.5t360.5 94.5q150 0 264.5 -48t194.5 -139q63 94 166.5 140.5t218.5 46.5q205 0 304 -105.5t99 -341.5v-1038h-184v1038q0 143 -59.5 215t-188.5 72q-209 0 -285 -125q109 -188 109 -467q0 -227 -72.5 -396t-215 -263t-353.5 -94 q-217 0 -359.5 94t-213 264t-70.5 397zM319 733q0 -276 109 -435t340 -159t338.5 159t107.5 435t-107.5 433t-336.5 157q-231 0 -341 -157t-110 -433z" />
<glyph unicode="&#x1a3;" horiz-adv-x="1730" d="M113 551q0 272 130 419.5t353 147.5q217 0 346 -147q53 76 131 111.5t164 35.5q164 0 246 -96t82 -307v-1207h-179v1199q0 260 -188 260q-131 0 -192 -90q71 -131 71 -326q0 -272 -131 -421.5t-354 -149.5q-137 0 -245.5 66.5t-171 194.5t-62.5 310zM299 551 q0 -195 70.5 -308.5t224.5 -113.5t225.5 113.5t71.5 308.5t-71.5 305.5t-225.5 110.5q-156 0 -225.5 -110.5t-69.5 -305.5z" />
<glyph unicode="&#x1a4;" horiz-adv-x="1402" d="M20 1204q0 131 71 194.5t218 63.5h441q287 0 417.5 -112.5t130.5 -317.5q0 -121 -54 -226.5t-182 -171t-347 -65.5h-168v-569h-185v1305h-53q-63 0 -94 -28t-31 -75q0 -35 7.5 -65.5t13.5 -44.5h-162q-10 23 -16.5 55.5t-6.5 56.5zM547 727h147q209 0 311.5 67.5 t102.5 229.5q0 141 -91 211t-284 70h-186v-578z" />
<glyph unicode="&#x1a5;" horiz-adv-x="1259" d="M174 -492v1772q0 287 250 287q39 0 76 -9.5t57 -17.5v-149q-14 6 -44 13t-62 7q-45 0 -71 -27.5t-26 -91.5v-164q0 -39 -5 -92t-7 -88h12q49 72 129 121t213 49q203 0 327 -141t124 -426q0 -281 -124 -426t-329 -145q-127 0 -210 47t-130 112h-12q2 -35 7 -88t5 -92v-451 h-180zM354 551q0 -203 66.5 -312.5t247.5 -109.5q98 0 163.5 54.5t97.5 150.5t32 219q0 188 -72.5 301t-224.5 113q-168 0 -238 -94.5t-72 -286.5v-35z" />
<glyph unicode="&#x1a6;" horiz-adv-x="1273" d="M199 0v1462h184v-205h219q272 0 402.5 -103t130.5 -312q0 -117 -43 -195t-110 -125t-140 -71l401 -656h-215l-354 604h-291v-399h-184zM383 555h219q178 0 260 70.5t82 208.5q0 143 -86 203.5t-266 60.5h-209v-543z" />
<glyph unicode="&#x1a7;" horiz-adv-x="1124" d="M96 391q0 115 51.5 190.5t145.5 130t223 101.5q119 43 188.5 83t100.5 89t31 123q0 96 -70 154.5t-207 58.5q-86 0 -166 -22.5t-149 -55.5l-58 158q78 37 169 59.5t200 22.5q137 0 242.5 -45t165 -129t59.5 -199q0 -170 -95.5 -268.5t-281.5 -165.5q-133 -49 -213 -90 t-115.5 -90.5t-35.5 -120.5q0 -109 82.5 -172.5t246.5 -63.5q117 0 226.5 32t183.5 65v-177q-70 -35 -174.5 -57t-227.5 -22q-240 0 -381 108.5t-141 302.5z" />
<glyph unicode="&#x1a8;" horiz-adv-x="980" d="M92 303q0 88 39 146.5t112.5 99.5t178.5 80q106 39 167.5 69.5t88.5 61.5t27 78q0 61 -58.5 97t-169.5 36q-63 0 -132 -20.5t-138 -49.5l-62 143q76 33 156 53.5t164 20.5q199 0 305.5 -75.5t106.5 -215.5q0 -90 -41 -147t-117 -98t-182 -82t-166 -74t-82.5 -65.5 t-22.5 -73.5q0 -74 61.5 -118t198.5 -44q96 0 190.5 27.5t157.5 60.5v-164q-63 -33 -146 -51t-198 -18q-438 0 -438 323z" />
<glyph unicode="&#x1a9;" horiz-adv-x="1167" d="M74 0v152l479 612l-467 545v153h973v-164h-522h-78h-94.5t-67.5 2l461 -534l-482 -606q76 0 154 1t160 1h528v-162h-1044z" />
<glyph unicode="&#x1aa;" horiz-adv-x="731" d="M-16 1339q0 57 23.5 109.5t80 85.5t152.5 33q125 0 195.5 -72t70.5 -217v-1425q0 -98 38 -147.5t120 -49.5q45 0 93 7t74 15v-137q-29 -14 -84 -23.5t-108 -9.5q-90 0 -160.5 30t-110.5 104.5t-40 207.5v1260h-92q-133 0 -192.5 64.5t-59.5 164.5zM147 1339 q0 -45 29 -63.5t72 -18.5h80v27q0 59 -21 97t-80 38q-45 0 -62.5 -24.5t-17.5 -55.5z" />
<glyph unicode="&#x1ab;" horiz-adv-x="739" d="M33 958v86l157 72l72 234h107v-252h317v-140h-317v-634q0 -197 172 -197q41 0 84 6t69 17v-369q0 -133 -58 -203t-181 -70q-39 0 -71 8.5t-52 16.5v150q16 -6 42.5 -12.5t59.5 -6.5q98 0 98 107v209h-43q-76 0 -144.5 29.5t-112.5 103t-44 206.5v639h-155z" />
<glyph unicode="&#x1ac;" horiz-adv-x="1179" d="M20 1204q0 131 71 194.5t218 63.5h848v-162h-455v-1300h-184v1300h-209q-125 0 -125 -98q0 -35 7.5 -65.5t13.5 -44.5h-162q-10 23 -16.5 55.5t-6.5 56.5z" />
<glyph unicode="&#x1ad;" horiz-adv-x="739" d="M33 958v86l157 72v135q0 152 75 234t227 82q45 0 88 -9.5t69 -17.5v-149q-18 6 -65 13t-92 7q-123 0 -123 -139v-174h317v-140h-317v-634q0 -100 48 -148.5t124 -48.5q41 0 84 6t69 17v-138q-29 -14 -82 -23t-102 -9q-86 0 -158.5 29.5t-118 103t-45.5 206.5v639h-155z " />
<glyph unicode="&#x1ae;" horiz-adv-x="1138" d="M20 1300v162h1096v-162h-454v-1462q0 -96 32.5 -132t96.5 -36q27 0 49 5.5t43 15.5v-156q-23 -12 -57.5 -19.5t-71.5 -7.5q-139 0 -208 76t-69 246v1470h-457z" />
<glyph unicode="&#x1af;" horiz-adv-x="1597" d="M184 520v942h185v-950q0 -176 97 -274.5t294 -98.5q133 0 214 48.5t117.5 133.5t36.5 193v948h183v-198q100 14 129.5 93t29.5 199h191l14 -22q-16 -96 -54 -179t-111.5 -139.5t-198.5 -78.5v-621q0 -152 -57.5 -273.5t-180.5 -192t-317 -70.5q-281 0 -426.5 148 t-145.5 392z" />
<glyph unicode="&#x1b0;" horiz-adv-x="1380" d="M162 379v717h182v-705q0 -262 244 -262q182 0 252.5 102.5t70.5 294.5v570h181v-121q98 16 125.5 95t27.5 198h191l14 -23q-16 -96 -53 -182t-110 -144.5t-195 -70.5v-848h-148l-26 145h-9q-53 -86 -146 -125.5t-198 -39.5q-201 0 -302 95t-101 304z" />
<glyph unicode="&#x1b1;" horiz-adv-x="1601" d="M76 1300v162h590v-147q-190 -135 -267 -303t-77 -371q0 -233 115.5 -367.5t363.5 -134.5q246 0 360.5 134.5t114.5 367.5q0 205 -76 371t-266 303v147h590v-162h-365q131 -100 221 -268t90 -397q0 -201 -77.5 -348.5t-227 -228.5t-364.5 -81q-217 0 -366.5 80 t-227.5 227.5t-78 348.5q0 231 89 399t220 268h-362z" />
<glyph unicode="&#x1b2;" horiz-adv-x="1497" d="M184 520v942h185v-948q0 -178 95 -276.5t288 -98.5q199 0 287.5 105.5t88.5 271.5v660q0 80 -32.5 112.5t-96.5 32.5q-41 0 -79.5 -11.5t-71.5 -29.5v156q31 23 82 35t104 12q276 0 277 -295v-672q0 -152 -61.5 -273.5t-188.5 -192t-320 -70.5q-274 0 -415.5 148 t-141.5 392z" />
<glyph unicode="&#x1b3;" horiz-adv-x="1159" d="M0 1313v149q20 8 51 15.5t72 7.5q66 0 115 -31t90 -123l262 -588l371 719h198l-477 -895v-567h-184v559l-332 698q-35 72 -86 72q-43 0 -80 -16z" />
<glyph unicode="&#x1b4;" horiz-adv-x="1110" d="M2 1098h193l237 -625q31 -84 55.5 -157.5t36.5 -141.5h8q12 51 41 134t58 167l155 445q41 115 86 156.5t121 41.5q35 0 64.5 -7t52.5 -17v-133q-10 2 -27.5 6t-33.5 4q-35 0 -58.5 -26.5t-44.5 -84.5l-375 -1012q-57 -156 -148 -248t-251 -92q-49 0 -86 5.5t-63 11.5v143 q23 -4 54.5 -8t65.5 -4q94 0 153.5 53t94.5 141l53 146z" />
<glyph unicode="&#x1b5;" horiz-adv-x="1171" d="M78 0v139l364 549h-280v146h377l309 464h-746v164h969v-139l-326 -489h250v-146h-346l-348 -524h791v-164h-1014z" />
<glyph unicode="&#x1b6;" horiz-adv-x="962" d="M80 0v119l266 379h-229v143h329l224 317h-555v140h753v-135l-227 -322h207v-143h-309l-252 -359h596v-139h-803z" />
<glyph unicode="&#x1b7;" horiz-adv-x="1196" d="M72 59v168q96 -47 208.5 -71.5t215.5 -24.5q199 0 297 76t98 213t-116 200.5t-331 63.5h-137v150l481 464h-675v164h909v-145l-502 -483q262 -10 412.5 -111.5t150.5 -304.5q0 -193 -145 -315.5t-444 -122.5q-119 0 -224.5 17t-197.5 62z" />
<glyph unicode="&#x1b8;" horiz-adv-x="1196" d="M113 432q0 154 68.5 257.5t179 155.5t239.5 56l-426 416v145h909v-164h-675l419 -413v-133h-159q-102 0 -184.5 -33t-130.5 -101.5t-48 -181.5q0 -141 98.5 -223t296.5 -82q102 0 215 24.5t209 71.5v-168q-92 -45 -200.5 -62t-245.5 -17q-199 0 -324 62t-183 165.5 t-58 224.5z" />
<glyph unicode="&#x1b9;" horiz-adv-x="1019" d="M70 -23q0 162 67.5 266.5t182 160t253.5 63.5l-448 500v131h838v-152h-627l448 -497v-125h-120q-186 0 -300 -79t-114 -263q0 -145 98 -234.5t256 -89.5q121 0 220.5 26.5t166.5 59.5v-164q-66 -35 -164 -53.5t-237 -18.5q-162 0 -278.5 61.5t-179 168t-62.5 239.5z" />
<glyph unicode="&#x1ba;" horiz-adv-x="1019" d="M57 -248q0 68 32 124t113 90t232 34q170 0 237.5 59.5t67.5 190.5t-98 184t-285 53h-120v125l374 334h-553v152h807v-131l-383 -336q211 -8 325 -104.5t114 -274.5q0 -117 -48.5 -207t-154 -142.5t-279.5 -52.5q-131 0 -171 -26.5t-40 -71.5q0 -43 54.5 -68.5 t160.5 -25.5q104 0 187.5 23.5t140.5 50.5v-164q-57 -27 -140.5 -43.5t-189.5 -16.5q-166 0 -274.5 58.5t-108.5 185.5z" />
<glyph unicode="&#x1bb;" horiz-adv-x="1167" d="M98 0v150l455 565h-393v143h493q59 94 82 171t23 163q0 106 -63.5 161.5t-166.5 55.5q-96 0 -168.5 -35t-148.5 -100l-96 121q80 72 183 122t234 50q190 0 301 -98.5t111 -272.5q0 -86 -21.5 -167t-72.5 -171h205v-143h-295l-461 -563v-9h766v-143h-967z" />
<glyph unicode="&#x1bc;" horiz-adv-x="1196" d="M72 59v168q96 -47 208.5 -71.5t215.5 -24.5q199 0 297 84t98 240q0 102 -48 167.5t-130 97.5t-185 32h-254v546h-192v164h940v-164h-563v-395h86q154 0 275.5 -52t192 -152.5t70.5 -245.5q0 -137 -64.5 -245t-195 -168t-329.5 -60q-119 0 -224.5 17t-197.5 62z" />
<glyph unicode="&#x1bd;" horiz-adv-x="1003" d="M68 51v162q70 -33 165 -59.5t207 -26.5q123 0 208 51t85 172q0 109 -77.5 159t-235.5 50h-184v387h-148v152h756v-152h-447v-239h62q172 0 270 -44.5t140 -122t42 -178.5q0 -100 -50 -187t-154.5 -141t-264.5 -54q-119 0 -215 18t-159 53z" />
<glyph unicode="&#x1be;" horiz-adv-x="948" d="M74 49v164q66 -33 159 -60.5t189 -27.5q137 0 198.5 44t61.5 118q0 57 -48 99t-185 99q-88 37 -129 99.5t-41 189.5v184h-187v86l189 72l71 234h107v-252h317v-140h-317v-188q0 -70 21.5 -101.5t74.5 -50.5q141 -53 221 -121.5t80 -193.5q0 -160 -118.5 -241.5 t-319.5 -81.5q-115 0 -198 18t-146 51z" />
<glyph unicode="&#x1bf;" horiz-adv-x="1202" d="M174 -492v1590h148l24 -150h8q47 72 123 121t201 49q123 0 219 -51t151.5 -153.5t55.5 -251.5q0 -195 -96.5 -343.5t-265.5 -236.5t-388 -102v-472h-180zM354 127q264 33 414 172t150 358q0 139 -73 224.5t-204 85.5q-156 0 -221.5 -94.5t-65.5 -286.5v-459z" />
<glyph unicode="&#x1c0;" horiz-adv-x="688" d="M264 0v1556h160v-1556h-160z" />
<glyph unicode="&#x1c1;" horiz-adv-x="1136" d="M264 0v1556h160v-1556h-160zM713 0v1556h160v-1556h-160z" />
<glyph unicode="&#x1c2;" horiz-adv-x="1056" d="M133 547v147h316v197h-316v147h316v518h159v-518h316v-147h-316v-197h316v-147h-316v-547h-159v547h-316z" />
<glyph unicode="&#x1c3;" horiz-adv-x="550" d="M147 111q0 76 37 106.5t90 30.5q51 0 89 -31t38 -106q0 -74 -37.5 -107t-89.5 -33q-53 0 -90 33t-37 107zM166 1462h219l-51 -1050h-117z" />
<glyph unicode="&#x1c4;" horiz-adv-x="2646" d="M199 0v1462h450q219 0 382 -82t251 -242t88 -393q0 -371 -201.5 -558t-562.5 -187h-407zM383 158h199q594 -1 594 581q0 293 -144.5 429.5t-408.5 136.5h-240v-1147zM1553 0v139l770 1159h-746v164h969v-139l-770 -1159h791v-164h-1014zM1722 1907v27h123 q53 -35 110.5 -84t108.5 -105q55 55 112.5 104.5t110.5 84.5h127v-27q-39 -39 -89 -92t-96 -108.5t-71 -100.5h-184q-27 45 -72 100.5t-94 108.5t-86 92z" />
<glyph unicode="&#x1c5;" horiz-adv-x="2457" d="M199 0v1462h450q219 0 382 -82t251 -242t88 -393q0 -371 -201.5 -558t-562.5 -187h-407zM383 158h199q594 -1 594 581q0 293 -144.5 429.5t-408.5 136.5h-240v-1147zM1575 0v119l590 839h-555v140h753v-135l-581 -824h596v-139h-803zM1630 1542v27h123q53 -35 110.5 -84 t108.5 -105q55 55 112.5 104.5t110.5 84.5h127v-27q-39 -39 -89 -92t-96 -108.5t-71 -100.5h-184q-27 45 -72 100.5t-94 108.5t-86 92z" />
<glyph unicode="&#x1c6;" horiz-adv-x="2222" d="M113 547q0 283 123.5 427t328.5 144q127 0 208 -47t132 -115h13q-4 27 -8.5 79t-4.5 83v438h180v-1556h-145l-27 147h-8q-49 -70 -131 -118.5t-211 -48.5q-205 0 -327.5 142t-122.5 425zM299 543q0 -197 73 -305.5t220 -108.5q174 0 244.5 95t70.5 288v33 q0 205 -67.5 314.5t-249.5 109.5q-145 0 -218 -116t-73 -310zM1340 0v119l590 839h-555v140h753v-135l-581 -824h596v-139h-803zM1395 1542v27h123q53 -35 110.5 -84t108.5 -105q55 55 112.5 104.5t110.5 84.5h127v-27q-39 -39 -89 -92t-96 -108.5t-71 -100.5h-184 q-27 45 -72 100.5t-94 108.5t-86 92z" />
<glyph unicode="&#x1c7;" horiz-adv-x="1632" d="M199 0v1462h184v-1298h639v-164h-823zM913 -207q33 -10 70 -15t78 -5q51 0 97 20.5t74.5 70.5t28.5 144v1454h185v-1439q0 -211 -104.5 -311.5t-276.5 -100.5q-49 0 -86 7t-66 20v155z" />
<glyph unicode="&#x1c8;" horiz-adv-x="1601" d="M199 0v1462h184v-1298h639v-164h-823zM960 -322q31 -10 64 -15t72 -5q66 0 108.5 36t42.5 136v1268h180v-1262q0 -154 -73.5 -241t-235.5 -87q-53 0 -92 7.5t-66 17.5v145zM1233 1395q0 59 30.5 86.5t75.5 27.5q41 0 73 -27.5t32 -86.5t-32 -87t-73 -28q-45 0 -75.5 28 t-30.5 87z" />
<glyph unicode="&#x1c9;" horiz-adv-x="1056" d="M174 0v1556h180v-1556h-180zM415 -322q31 -10 64 -15t72 -5q66 0 108.5 36t42.5 136v1268h180v-1262q0 -154 -73.5 -241t-235.5 -87q-53 0 -92 7.5t-66 17.5v145zM688 1395q0 59 30.5 86.5t75.5 27.5q41 0 73 -27.5t32 -86.5t-32 -87t-73 -28q-45 0 -75.5 28t-30.5 87z " />
<glyph unicode="&#x1ca;" horiz-adv-x="2115" d="M199 0v1462h213l780 -1210h8q-2 33 -5 98.5t-6 142t-3 144.5v825h172v-1462h-215l-783 1214h-8q4 -72 10.5 -178t6.5 -219v-817h-170zM1396 -207q33 -10 70 -15t78 -5q51 0 97 20.5t74.5 70.5t28.5 144v1454h185v-1439q0 -211 -104.5 -311.5t-276.5 -100.5q-49 0 -86 7 t-66 20v155z" />
<glyph unicode="&#x1cb;" horiz-adv-x="2084" d="M199 0v1462h213l780 -1210h8q-2 33 -5 98.5t-6 142t-3 144.5v825h172v-1462h-215l-783 1214h-8q4 -72 10.5 -178t6.5 -219v-817h-170zM1443 -322q31 -10 64 -15t72 -5q66 0 108.5 36t42.5 136v1268h180v-1262q0 -154 -73.5 -241t-235.5 -87q-53 0 -92 7.5t-66 17.5v145z M1716 1395q0 59 30.5 86.5t75.5 27.5q41 0 73 -27.5t32 -86.5t-32 -87t-73 -28q-45 0 -75.5 28t-30.5 87z" />
<glyph unicode="&#x1cc;" horiz-adv-x="1794" d="M174 0v1098h145l27 -150h10q53 86 147.5 128t198.5 42q197 0 297.5 -96t100.5 -307v-715h-178v702q0 264 -246 265q-182 0 -252 -102.5t-70 -295.5v-569h-180zM1153 -322q31 -10 64 -15t72 -5q66 0 108.5 36t42.5 136v1268h180v-1262q0 -154 -73.5 -241t-235.5 -87 q-53 0 -92 7.5t-66 17.5v145zM1426 1395q0 59 30.5 86.5t75.5 27.5q41 0 73 -27.5t32 -86.5t-32 -87t-73 -28q-45 0 -75.5 28t-30.5 87z" />
<glyph unicode="&#x1cd;" horiz-adv-x="1308" d="M0 0l571 1468h166l570 -1468h-191l-176 453h-580l-174 -453h-186zM305 1907v27h123q53 -35 110.5 -84t108.5 -105q55 55 112.5 104.5t110.5 84.5h127v-27q-39 -39 -89 -92t-96 -108.5t-71 -100.5h-184q-27 45 -72 100.5t-94 108.5t-86 92zM422 616h463l-164 443 q-6 16 -20.5 59t-28 89t-21.5 71q-16 -63 -33.5 -123.5t-29.5 -95.5z" />
<glyph unicode="&#x1ce;" horiz-adv-x="1148" d="M94 305q0 164 129 253t398 97l186 7v65q0 137 -59.5 190.5t-167.5 53.5q-86 0 -164 -25.5t-146 -58.5l-55 135q72 39 170.5 66.5t204.5 27.5q201 0 297 -88t96 -280v-748h-131l-35 156h-8q-72 -90 -151.5 -133t-217.5 -43q-150 0 -248 78.5t-98 246.5zM229 1542v27h123 q53 -35 110.5 -84t108.5 -105q55 55 112.5 104.5t110.5 84.5h127v-27q-39 -39 -89 -92t-96 -108.5t-71 -100.5h-184q-27 45 -72 100.5t-94 108.5t-86 92zM281 303q0 -92 56 -135t144 -43q137 0 230.5 77t93.5 236v99l-162 -7q-205 -8 -283.5 -65t-78.5 -162z" />
<glyph unicode="&#x1cf;" horiz-adv-x="694" d="M2 1907v27h123q53 -35 110.5 -84t108.5 -105q55 55 112.5 104.5t110.5 84.5h127v-27q-39 -39 -89 -92t-96 -108.5t-71 -100.5h-184q-27 45 -72 100.5t-94 108.5t-86 92zM82 0v106l172 39v1170l-172 41v106h528v-106l-172 -41v-1170l172 -39v-106h-528z" />
<glyph unicode="&#x1d0;" horiz-adv-x="528" d="M-82 1542v27h123q53 -35 110.5 -84t108.5 -105q55 55 112.5 104.5t110.5 84.5h127v-27q-39 -39 -89 -92t-96 -108.5t-71 -100.5h-184q-27 45 -72 100.5t-94 108.5t-86 92zM174 0v1098h180v-1098h-180z" />
<glyph unicode="&#x1d1;" horiz-adv-x="1599" d="M125 735q0 223 73.5 392t224 263.5t380.5 94.5q219 0 368.5 -93.5t226.5 -262.5t77 -396t-77 -396t-227.5 -263t-369.5 -94q-227 0 -378 94t-224.5 264t-73.5 397zM319 733q0 -276 117 -435t365 -159t363.5 159t115.5 435t-114.5 433t-362.5 157q-250 0 -367 -157 t-117 -433zM455 1907v27h123q53 -35 110.5 -84t108.5 -105q55 55 112.5 104.5t110.5 84.5h127v-27q-39 -39 -89 -92t-96 -108.5t-71 -100.5h-184q-27 45 -72 100.5t-94 108.5t-86 92z" />
<glyph unicode="&#x1d2;" horiz-adv-x="1239" d="M113 551q0 272 136 419.5t374 147.5q147 0 261.5 -66.5t179 -192.5t64.5 -308q0 -272 -138 -421.5t-374 -149.5q-145 0 -258.5 66.5t-179 194.5t-65.5 310zM275 1542v27h123q53 -35 110.5 -84t108.5 -105q55 55 112.5 104.5t110.5 84.5h127v-27q-39 -39 -89 -92 t-96 -108.5t-71 -100.5h-184q-27 45 -72 100.5t-94 108.5t-86 92zM299 551q0 -195 77 -308.5t245 -113.5q166 0 243.5 113.5t77.5 308.5t-78 305.5t-246 110.5t-243.5 -110.5t-75.5 -305.5z" />
<glyph unicode="&#x1d3;" horiz-adv-x="1497" d="M184 520v942h185v-948q0 -178 95 -276.5t288 -98.5q199 0 287.5 105.5t88.5 271.5v946h183v-946q0 -152 -61.5 -273.5t-188.5 -192t-320 -70.5q-274 0 -415.5 148t-141.5 392zM404 1907v27h123q53 -35 110.5 -84t108.5 -105q55 55 112.5 104.5t110.5 84.5h127v-27 q-39 -39 -89 -92t-96 -108.5t-71 -100.5h-184q-27 45 -72 100.5t-94 108.5t-86 92z" />
<glyph unicode="&#x1d4;" horiz-adv-x="1265" d="M162 379v719h182v-707q0 -262 244 -262q182 0 252.5 102.5t70.5 294.5v572h181v-1098h-148l-26 145h-9q-53 -86 -147 -125.5t-201 -39.5q-199 0 -299 95t-100 304zM287 1542v27h123q53 -35 110.5 -84t108.5 -105q55 55 112.5 104.5t110.5 84.5h127v-27q-39 -39 -89 -92 t-96 -108.5t-71 -100.5h-184q-27 45 -72 100.5t-94 108.5t-86 92z" />
<glyph unicode="&#x1d5;" horiz-adv-x="1497" d="M184 520v942h185v-948q0 -178 95 -276.5t288 -98.5q199 0 287.5 105.5t88.5 271.5v946h183v-946q0 -152 -61.5 -273.5t-188.5 -192t-320 -70.5q-274 0 -415.5 148t-141.5 392zM445 1932v145h608v-145h-608zM461 1696q0 53 28.5 78t67.5 25t67 -25t28 -78t-28 -76.5 t-67 -23.5t-67.5 23.5t-28.5 76.5zM844 1696q0 53 28.5 78t67.5 25t68 -25t29 -78t-29 -76.5t-68 -23.5t-67.5 23.5t-28.5 76.5z" />
<glyph unicode="&#x1d6;" horiz-adv-x="1265" d="M162 379v719h182v-707q0 -262 244 -262q182 0 252.5 102.5t70.5 294.5v572h181v-1098h-148l-26 145h-9q-53 -86 -147 -125.5t-201 -39.5q-199 0 -299 95t-100 304zM328 1567v145h608v-145h-608zM344 1331q0 53 28.5 78t67.5 25t67 -25t28 -78t-28 -76.5t-67 -23.5 t-67.5 23.5t-28.5 76.5zM727 1331q0 53 28.5 78t67.5 25t68 -25t29 -78t-29 -76.5t-68 -23.5t-67.5 23.5t-28.5 76.5z" />
<glyph unicode="&#x1d7;" horiz-adv-x="1497" d="M184 520v942h185v-948q0 -178 95 -276.5t288 -98.5q199 0 287.5 105.5t88.5 271.5v946h183v-946q0 -152 -61.5 -273.5t-188.5 -192t-320 -70.5q-274 0 -415.5 148t-141.5 392zM461 1696q0 53 29 78t67 25q39 0 67 -25t28 -78t-28 -76.5t-67 -23.5t-67.5 23.5t-28.5 76.5z M639 1852v24q47 57 105.5 130t91.5 143h215v-21q-23 -39 -74 -89t-110.5 -100t-106.5 -87h-121zM844 1696q0 53 29 78t67 25q39 0 68 -25t29 -78t-29 -76.5t-68 -23.5t-67.5 23.5t-28.5 76.5z" />
<glyph unicode="&#x1d8;" horiz-adv-x="1265" d="M162 379v719h182v-707q0 -262 244 -262q182 0 252.5 102.5t70.5 294.5v572h181v-1098h-148l-26 145h-9q-53 -86 -147 -125.5t-201 -39.5q-199 0 -299 95t-100 304zM344 1331q0 53 29 78t67 25q39 0 67 -25t28 -78t-28 -76.5t-67 -23.5t-67.5 23.5t-28.5 76.5zM522 1487 v24q47 57 105.5 130t91.5 143h215v-21q-23 -39 -74 -89t-110.5 -100t-106.5 -87h-121zM727 1331q0 53 29 78t67 25q39 0 68 -25t29 -78t-29 -76.5t-68 -23.5t-67.5 23.5t-28.5 76.5z" />
<glyph unicode="&#x1d9;" horiz-adv-x="1497" d="M184 520v942h185v-948q0 -178 95 -276.5t288 -98.5q199 0 287.5 105.5t88.5 271.5v946h183v-946q0 -152 -61.5 -273.5t-188.5 -192t-320 -70.5q-274 0 -415.5 148t-141.5 392zM404 2143v26h123q53 -35 110.5 -73.5t108.5 -94.5q55 55 112.5 94t110.5 74h127v-26 q-39 -39 -89 -87.5t-96 -97.5t-71 -96h-184q-27 47 -72 96t-94 97.5t-86 87.5zM461 1696q0 53 29 78t67 25q39 0 67 -25t28 -78t-28 -76.5t-67 -23.5t-67.5 23.5t-28.5 76.5zM844 1696q0 53 29 78t67 25q39 0 68 -25t29 -78t-29 -76.5t-68 -23.5t-67.5 23.5t-28.5 76.5z" />
<glyph unicode="&#x1da;" horiz-adv-x="1265" d="M162 379v719h182v-707q0 -262 244 -262q182 0 252.5 102.5t70.5 294.5v572h181v-1098h-148l-26 145h-9q-53 -86 -147 -125.5t-201 -39.5q-199 0 -299 95t-100 304zM287 1778v26h123q53 -35 110.5 -73.5t108.5 -94.5q55 55 112.5 94t110.5 74h127v-26q-39 -39 -89 -87.5 t-96 -97.5t-71 -96h-184q-27 47 -72 96t-94 97.5t-86 87.5zM344 1331q0 53 29 78t67 25q39 0 67 -25t28 -78t-28 -76.5t-67 -23.5t-67.5 23.5t-28.5 76.5zM727 1331q0 53 29 78t67 25q39 0 68 -25t29 -78t-29 -76.5t-68 -23.5t-67.5 23.5t-28.5 76.5z" />
<glyph unicode="&#x1db;" horiz-adv-x="1497" d="M184 520v942h185v-948q0 -178 95 -276.5t288 -98.5q199 0 287.5 105.5t88.5 271.5v946h183v-946q0 -152 -61.5 -273.5t-188.5 -192t-320 -70.5q-274 0 -415.5 148t-141.5 392zM449 2128v21h215q33 -70 91 -142.5t106 -130.5v-24h-121q-47 37 -106.5 87t-111 100t-73.5 89 zM461 1696q0 53 28.5 78t67.5 25t67 -25t28 -78t-28 -76.5t-67 -23.5t-67.5 23.5t-28.5 76.5zM844 1696q0 53 28.5 78t67.5 25t68 -25t29 -78t-29 -76.5t-68 -23.5t-67.5 23.5t-28.5 76.5z" />
<glyph unicode="&#x1dc;" horiz-adv-x="1265" d="M162 379v719h182v-707q0 -262 244 -262q182 0 252.5 102.5t70.5 294.5v572h181v-1098h-148l-26 145h-9q-53 -86 -147 -125.5t-201 -39.5q-199 0 -299 95t-100 304zM332 1763v21h215q33 -70 91 -142.5t106 -130.5v-24h-121q-47 37 -106.5 87t-111 100t-73.5 89zM344 1331 q0 53 28.5 78t67.5 25t67 -25t28 -78t-28 -76.5t-67 -23.5t-67.5 23.5t-28.5 76.5zM727 1331q0 53 28.5 78t67.5 25t68 -25t29 -78t-29 -76.5t-68 -23.5t-67.5 23.5t-28.5 76.5z" />
<glyph unicode="&#x1dd;" horiz-adv-x="1155" d="M104 475v109h752q-4 186 -95 283.5t-255 97.5q-104 0 -185 -19.5t-167 -56.5v158q84 37 165.5 54t194.5 17q158 0 276.5 -63.5t185 -188.5t66.5 -309q0 -180 -60 -309t-170 -198.5t-255 -69.5q-139 0 -241.5 61t-157 173t-54.5 261zM293 440q2 -139 65.5 -226t200.5 -87 q129 0 204 83t89 230h-559z" />
<glyph unicode="&#x1de;" horiz-adv-x="1308" d="M0 0l571 1468h166l570 -1468h-191l-176 453h-580l-174 -453h-186zM346 1932v145h608v-145h-608zM362 1696q0 53 28.5 78t67.5 25t67 -25t28 -78t-28 -76.5t-67 -23.5t-67.5 23.5t-28.5 76.5zM422 616h463l-164 443q-6 16 -20.5 59t-28 89t-21.5 71q-16 -63 -33.5 -123.5 t-29.5 -95.5zM745 1696q0 53 28.5 78t67.5 25t68 -25t29 -78t-29 -76.5t-68 -23.5t-67.5 23.5t-28.5 76.5z" />
<glyph unicode="&#x1df;" horiz-adv-x="1148" d="M94 305q0 164 129 253t398 97l186 7v65q0 137 -59.5 190.5t-167.5 53.5q-86 0 -164 -25.5t-146 -58.5l-55 135q72 39 170.5 66.5t204.5 27.5q201 0 297 -88t96 -280v-748h-131l-35 156h-8q-72 -90 -151.5 -133t-217.5 -43q-150 0 -248 78.5t-98 246.5zM270 1567v145h608 v-145h-608zM281 303q0 -92 56 -135t144 -43q137 0 230.5 77t93.5 236v99l-162 -7q-205 -8 -283.5 -65t-78.5 -162zM286 1331q0 53 28.5 78t67.5 25t67 -25t28 -78t-28 -76.5t-67 -23.5t-67.5 23.5t-28.5 76.5zM669 1331q0 53 28.5 78t67.5 25t68 -25t29 -78t-29 -76.5 t-68 -23.5t-67.5 23.5t-28.5 76.5z" />
<glyph unicode="&#x1e0;" horiz-adv-x="1308" d="M0 0l571 1468h166l570 -1468h-191l-176 453h-580l-174 -453h-186zM346 1905v145h608v-145h-608zM422 616h463l-164 443q-6 16 -20.5 59t-28 89t-21.5 71q-16 -63 -33.5 -123.5t-29.5 -95.5zM547 1692q0 59 30.5 86.5t75.5 27.5q41 0 72.5 -27.5t31.5 -86.5 q0 -57 -31.5 -86t-72.5 -29q-45 0 -75.5 28.5t-30.5 86.5z" />
<glyph unicode="&#x1e1;" horiz-adv-x="1148" d="M94 305q0 164 129 253t398 97l186 7v65q0 137 -59.5 190.5t-167.5 53.5q-86 0 -164 -25.5t-146 -58.5l-55 135q72 39 170.5 66.5t204.5 27.5q201 0 297 -88t96 -280v-748h-131l-35 156h-8q-72 -90 -151.5 -133t-217.5 -43q-150 0 -248 78.5t-98 246.5zM270 1569v145h608 v-145h-608zM281 303q0 -92 56 -135t144 -43q137 0 230.5 77t93.5 236v99l-162 -7q-205 -8 -283.5 -65t-78.5 -162zM466 1356q0 59 31 86.5t76 27.5q41 0 72.5 -27.5t31.5 -86.5q0 -57 -31.5 -86t-72.5 -29q-45 0 -76 28.5t-31 86.5z" />
<glyph unicode="&#x1e2;" horiz-adv-x="1804" d="M-2 0l694 1462h989v-162h-577v-456h538v-160h-538v-522h577v-162h-761v453h-512l-220 -453h-190zM479 616h441v682h-119zM705 1606v145h608v-145h-608z" />
<glyph unicode="&#x1e3;" horiz-adv-x="1769" d="M94 305q0 164 123 253t377 97l184 7v69q0 133 -62.5 186.5t-166.5 53.5q-82 0 -161 -24.5t-146 -59.5l-56 135q72 39 174.5 66.5t202.5 27.5q127 0 210 -42t126 -134q53 84 139 131t197 47q133 0 229.5 -61.5t148.5 -172t52 -257.5v-111h-702q4 -197 84.5 -290t232.5 -93 q100 0 179 19.5t157 56.5v-158q-82 -37 -161 -54t-181 -17q-289 0 -416 231q-72 -106 -165 -168.5t-251 -62.5q-150 0 -249 78.5t-99 246.5zM281 303q0 -92 52 -135t138 -43q129 0 216 77t87 236v99l-153 -7q-193 -8 -266.5 -65t-73.5 -162zM594 1241v145h608v-145h-608z M967 657h508q0 141 -58.5 227.5t-183.5 86.5q-119 0 -187.5 -81t-78.5 -233z" />
<glyph unicode="&#x1e4;" horiz-adv-x="1490" d="M125 725q0 229 89 399t259 264.5t410 94.5q123 0 232.5 -22.5t203.5 -63.5l-70 -160q-78 33 -178 58.5t-205 25.5q-262 0 -405.5 -152.5t-143.5 -437.5q0 -182 56.5 -315t177.5 -205t317 -72q96 0 164 10.5t123 24.5v150h-301v145h301v160h-321v164h505v-324h131v-145 h-131v-263q-106 -35 -218.5 -58t-274.5 -23q-248 0 -407.5 92t-236.5 259t-77 394z" />
<glyph unicode="&#x1e5;" horiz-adv-x="1259" d="M113 578q0 248 119.5 394t330.5 146q109 0 196 -41t148 -125h11l24 146h143v-1164h113v-145h-129q-29 -125 -145.5 -203t-329.5 -78q-242 0 -395 70v166q162 -86 405 -86q115 0 183.5 34t93.5 97h-342v145h368v134q0 35 1 73.5t5 61.5h-8q-111 -166 -340 -166 q-213 0 -332.5 142.5t-119.5 398.5zM299 575q0 -190 73.5 -290.5t219.5 -100.5q166 0 241.5 82t75.5 269v32q0 209 -77.5 304.5t-243.5 95.5q-137 0 -213 -102.5t-76 -289.5z" />
<glyph unicode="&#x1e6;" horiz-adv-x="1490" d="M125 731q0 227 89 396t259 262.5t410 93.5q123 0 232.5 -22.5t203.5 -63.5l-70 -160q-78 33 -175 58.5t-202 25.5q-262 0 -408.5 -158.5t-146.5 -431.5q0 -174 56.5 -308t177.5 -209t317 -75q96 0 164 10.5t123 24.5v434h-321v164h505v-717q-119 -39 -239.5 -57 t-274.5 -18q-227 0 -382.5 91t-236.5 260t-81 400zM483 1907v27h123q53 -35 110.5 -84t108.5 -105q55 55 112.5 104.5t110.5 84.5h127v-27q-39 -39 -89 -92t-96 -108.5t-71 -100.5h-184q-27 45 -72 100.5t-94 108.5t-86 92z" />
<glyph unicode="&#x1e7;" horiz-adv-x="1259" d="M113 547q0 262 119.5 416.5t330.5 154.5q109 0 196 -41t148 -125h11l24 146h143v-1116q0 -236 -119.5 -355t-371.5 -119q-242 0 -395 70v166q162 -86 405 -86q141 0 222 83t81 226v43q0 25 2 71t4 64h-8q-111 -166 -340 -165q-213 0 -332.5 149.5t-119.5 417.5zM262 1542 v27h123q53 -35 110.5 -84t108.5 -105q55 55 112.5 104.5t110.5 84.5h127v-27q-39 -39 -89 -92t-96 -108.5t-71 -100.5h-184q-27 45 -72 100.5t-94 108.5t-86 92zM299 545q0 -203 73.5 -310.5t219.5 -107.5q166 0 241.5 89t75.5 288v43q0 223 -77.5 321.5t-243.5 98.5 q-137 0 -213 -109.5t-76 -312.5z" />
<glyph unicode="&#x1e8;" horiz-adv-x="1267" d="M199 0v1462h184v-721q61 70 124.5 139.5t127.5 139.5l395 442h215l-579 -637l602 -825h-217l-519 698l-149 -131v-567h-184zM350 1907v27h123q53 -35 110.5 -84t108.5 -105q55 55 112.5 104.5t110.5 84.5h127v-27q-39 -39 -89 -92t-96 -108.5t-71 -100.5h-184 q-27 45 -72 100.5t-94 108.5t-86 92z" />
<glyph unicode="&#x1e9;" horiz-adv-x="1093" d="M-82 2001v27h123q53 -35 110.5 -84t108.5 -105q55 55 112.5 104.5t110.5 84.5h127v-27q-39 -39 -89 -92t-96 -108.5t-71 -100.5h-184q-27 45 -72 100.5t-94 108.5t-86 92zM174 0v1556h178v-813q0 -33 -3 -86t-5 -92h8q12 16 37 47t50.5 63t43.5 52l351 371h210l-444 -469 l475 -629h-217l-381 512l-125 -109v-403h-178z" />
<glyph unicode="&#x1ea;" horiz-adv-x="1599" d="M125 735q0 223 73.5 392t224 263.5t380.5 94.5q219 0 368.5 -93.5t226.5 -262.5t77 -396t-77 -396t-227.5 -263t-369.5 -94q-227 0 -378 94t-224.5 264t-73.5 397zM319 733q0 -276 117 -435t365 -159t363.5 159t115.5 435t-114.5 433t-362.5 157q-250 0 -367 -157 t-117 -433zM647 -258q0 57 29.5 113.5t73.5 101.5t85 74l99 -31q-70 -66 -105 -120.5t-35 -117.5q0 -92 93 -92q35 0 58 5.5t40 7.5v-115q-29 -8 -58.5 -13.5t-68.5 -5.5q-109 0 -160 51.5t-51 141.5z" />
<glyph unicode="&#x1eb;" horiz-adv-x="1239" d="M113 551q0 272 136 419.5t374 147.5q147 0 261.5 -66.5t179 -192.5t64.5 -308q0 -272 -138 -421.5t-374 -149.5q-145 0 -258.5 66.5t-179 194.5t-65.5 310zM299 551q0 -195 77 -308.5t245 -113.5q166 0 243.5 113.5t77.5 308.5t-78 305.5t-246 110.5t-243.5 -110.5 t-75.5 -305.5zM471 -258q0 57 29.5 113.5t73.5 101.5t85 74l99 -31q-70 -66 -105 -120.5t-35 -117.5q0 -92 93 -92q35 0 58 5.5t40 7.5v-115q-29 -8 -58.5 -13.5t-68.5 -5.5q-109 0 -160 51.5t-51 141.5z" />
<glyph unicode="&#x1ec;" horiz-adv-x="1599" d="M125 735q0 223 73.5 392t224 263.5t380.5 94.5q219 0 368.5 -93.5t226.5 -262.5t77 -396t-77 -396t-227.5 -263t-369.5 -94q-227 0 -378 94t-224.5 264t-73.5 397zM319 733q0 -276 117 -435t365 -159t363.5 159t115.5 435t-114.5 433t-362.5 157q-250 0 -367 -157 t-117 -433zM496 1606v145h608v-145h-608zM672 -258q0 57 29.5 113.5t73.5 101.5t85 74l99 -31q-70 -66 -105 -120.5t-35 -117.5q0 -92 93 -92q35 0 58 5.5t40 7.5v-115q-29 -8 -58.5 -13.5t-68.5 -5.5q-109 0 -160 51.5t-51 141.5z" />
<glyph unicode="&#x1ed;" horiz-adv-x="1239" d="M113 551q0 272 136 419.5t374 147.5q147 0 261.5 -66.5t179 -192.5t64.5 -308q0 -272 -138 -421.5t-374 -149.5q-145 0 -258.5 66.5t-179 194.5t-65.5 310zM299 551q0 -195 77 -308.5t245 -113.5q166 0 243.5 113.5t77.5 308.5t-78 305.5t-246 110.5t-243.5 -110.5 t-75.5 -305.5zM315 1241v145h608v-145h-608zM471 -258q0 57 29.5 113.5t73.5 101.5t85 74l99 -31q-70 -66 -105 -120.5t-35 -117.5q0 -92 93 -92q35 0 58 5.5t40 7.5v-115q-29 -8 -58.5 -13.5t-68.5 -5.5q-109 0 -160 51.5t-51 141.5z" />
<glyph unicode="&#x1ee;" horiz-adv-x="1196" d="M72 59v168q96 -47 208.5 -71.5t215.5 -24.5q199 0 297 76t98 213t-116 200.5t-331 63.5h-137v150l481 464h-675v164h909v-145l-502 -483q262 -10 412.5 -111.5t150.5 -304.5q0 -193 -145 -315.5t-444 -122.5q-119 0 -224.5 17t-197.5 62zM217 1907v27h123 q53 -35 110.5 -84t108.5 -105q55 55 112.5 104.5t110.5 84.5h127v-27q-39 -39 -89 -92t-96 -108.5t-71 -100.5h-184q-27 45 -72 100.5t-94 108.5t-86 92z" />
<glyph unicode="&#x1ef;" horiz-adv-x="1019" d="M29 -256q68 -33 167 -59.5t220 -26.5q158 0 256 91t98 249q0 172 -113.5 249t-300.5 77h-120v125l448 497h-627v152h838v-131l-449 -500q139 -8 254 -62.5t182.5 -153.5t67.5 -249q0 -145 -66.5 -257t-188.5 -174.5t-287 -62.5q-121 0 -217.5 18.5t-161.5 53.5v164z M135 1542v27h123q53 -35 110.5 -84t108.5 -105q55 55 112.5 104.5t110.5 84.5h127v-27q-39 -39 -89 -92t-96 -108.5t-71 -100.5h-184q-27 45 -72 100.5t-94 108.5t-86 92z" />
<glyph unicode="&#x1f0;" horiz-adv-x="528" d="M-113 -322q31 -10 64 -15t72 -5q66 0 108.5 36t42.5 136v1268h180v-1262q0 -154 -73.5 -241t-235.5 -87q-53 0 -92 7.5t-66 17.5v145zM-82 1542v27h123q53 -35 110.5 -84t108.5 -105q55 55 112.5 104.5t110.5 84.5h127v-27q-39 -39 -89 -92t-96 -108.5t-71 -100.5h-184 q-27 45 -72 100.5t-94 108.5t-86 92z" />
<glyph unicode="&#x1f1;" horiz-adv-x="2646" d="M199 0v1462h450q219 0 382 -82t251 -242t88 -393q0 -371 -201.5 -558t-562.5 -187h-407zM383 158h199q594 -1 594 581q0 293 -144.5 429.5t-408.5 136.5h-240v-1147zM1553 0v139l770 1159h-746v164h969v-139l-770 -1159h791v-164h-1014z" />
<glyph unicode="&#x1f2;" horiz-adv-x="2457" d="M199 0v1462h450q219 0 382 -82t251 -242t88 -393q0 -371 -201.5 -558t-562.5 -187h-407zM383 158h199q594 -1 594 581q0 293 -144.5 429.5t-408.5 136.5h-240v-1147zM1575 0v119l590 839h-555v140h753v-135l-581 -824h596v-139h-803z" />
<glyph unicode="&#x1f3;" horiz-adv-x="2222" d="M113 547q0 283 123.5 427t328.5 144q127 0 208 -47t132 -115h13q-4 27 -8.5 79t-4.5 83v438h180v-1556h-145l-27 147h-8q-49 -70 -131 -118.5t-211 -48.5q-205 0 -327.5 142t-122.5 425zM299 543q0 -197 73 -305.5t220 -108.5q174 0 244.5 95t70.5 288v33 q0 205 -67.5 314.5t-249.5 109.5q-145 0 -218 -116t-73 -310zM1340 0v119l590 839h-555v140h753v-135l-581 -824h596v-139h-803z" />
<glyph unicode="&#x1f4;" horiz-adv-x="1490" d="M125 731q0 227 89 396t259 262.5t410 93.5q123 0 232.5 -22.5t203.5 -63.5l-70 -160q-78 33 -175 58.5t-202 25.5q-262 0 -408.5 -158.5t-146.5 -431.5q0 -174 56.5 -308t177.5 -209t317 -75q96 0 164 10.5t123 24.5v434h-321v164h505v-717q-119 -39 -239.5 -57 t-274.5 -18q-227 0 -382.5 91t-236.5 260t-81 400zM707 1606v25q29 37 65.5 91t71.5 110.5t57 101.5h218v-21q-27 -37 -77 -95t-108.5 -116.5t-107.5 -95.5h-119z" />
<glyph unicode="&#x1f5;" horiz-adv-x="1259" d="M113 547q0 262 119.5 416.5t330.5 154.5q109 0 196 -41t148 -125h11l24 146h143v-1116q0 -236 -119.5 -355t-371.5 -119q-242 0 -395 70v166q162 -86 405 -86q141 0 222 83t81 226v43q0 25 2 71t4 64h-8q-111 -166 -340 -165q-213 0 -332.5 149.5t-119.5 417.5zM299 545 q0 -203 73.5 -310.5t219.5 -107.5q166 0 241.5 89t75.5 288v43q0 223 -77.5 321.5t-243.5 98.5q-137 0 -213 -109.5t-76 -312.5zM485 1241v25q29 37 65.5 91t71.5 110.5t57 101.5h218v-21q-27 -37 -77 -95t-108.5 -116.5t-107.5 -95.5h-119z" />
<glyph unicode="&#x1f6;" horiz-adv-x="1921" d="M199 0v1462h184v-618h606v618h185v-1126q0 -92 48 -143.5t142 -51.5q98 0 143 55.5t45 141.5v760h185v-760q0 -152 -92.5 -254t-286.5 -102q-182 0 -275.5 97t-93.5 261v342h-606v-682h-184z" />
<glyph unicode="&#x1f7;" horiz-adv-x="1353" d="M199 -492v1956h145l31 -198h10q61 92 158.5 155.5t253.5 63.5q129 0 229 -53.5t157.5 -164t57.5 -280.5q0 -137 -43 -273t-140 -267.5t-263 -249t-412 -217.5v-472h-184zM383 152q344 143 509 359t165 474q0 170 -78 255t-215 85q-143 0 -226 -58.5t-119 -164t-36 -246.5 v-704z" />
<glyph unicode="&#x1f8;" horiz-adv-x="1556" d="M199 0v1462h213l780 -1210h8q-2 33 -5 98.5t-6 142t-3 144.5v825h172v-1462h-215l-783 1214h-8q4 -72 10.5 -178t6.5 -219v-817h-170zM510 1913v21h215q23 -45 56.5 -101.5t71.5 -110.5t69 -91v-25h-121q-47 37 -106.5 95.5t-110 116.5t-74.5 95z" />
<glyph unicode="&#x1f9;" horiz-adv-x="1265" d="M174 0v1098h145l27 -150h10q53 86 147.5 128t198.5 42q197 0 297.5 -96t100.5 -307v-715h-178v702q0 264 -246 265q-182 0 -252 -102.5t-70 -295.5v-569h-180zM365 1548v21h215q23 -45 56.5 -101.5t71.5 -110.5t69 -91v-25h-121q-47 37 -106.5 95.5t-110 116.5t-74.5 95z " />
<glyph unicode="&#x1fa;" horiz-adv-x="1310" d="M0 0l528 1245q-100 55 -100 185q0 102 62.5 159.5t160.5 57.5q96 0 163 -57.5t67 -157.5q0 -63 -27 -110.5t-72 -74.5l529 -1247h-191l-168 393h-604l-160 -393h-188zM412 557h487l-172 424q-14 37 -35.5 94.5t-38.5 112.5q-16 -55 -36.5 -115.5t-34.5 -95.5zM537 1430 q0 -53 29.5 -84t84.5 -31q51 0 83 29.5t32 85.5q0 55 -32 84.5t-83 29.5q-49 0 -81.5 -29.5t-32.5 -84.5zM555 1698v18q43 49 92 119t82 127h217v-16q-20 -29 -67.5 -76t-102.5 -94t-100 -78h-121z" />
<glyph unicode="&#x1fb;" horiz-adv-x="1148" d="M94 305q0 164 129 253t398 97l186 7v65q0 137 -59.5 190.5t-167.5 53.5q-86 0 -164 -25.5t-146 -58.5l-55 135q72 39 170.5 66.5t204.5 27.5q201 0 297 -88t96 -280v-748h-131l-35 156h-8q-72 -90 -151.5 -133t-217.5 -43q-150 0 -248 78.5t-98 246.5zM281 303 q0 -92 56 -135t144 -43q137 0 230.5 77t93.5 236v99l-162 -7q-205 -8 -283.5 -65t-78.5 -162zM360 1458q0 102 62 158.5t162 56.5q96 0 161.5 -56t65.5 -157q0 -104 -64.5 -161.5t-162.5 -57.5q-100 0 -162 57.5t-62 159.5zM469 1458q0 -53 29.5 -84t85.5 -31q51 0 82.5 31 t31.5 84t-32.5 84t-81.5 31t-82 -31t-33 -84zM471 1753v16q43 39 92 93.5t82 99.5h268v-12q-20 -25 -77.5 -62t-123 -73.5t-112.5 -61.5h-129z" />
<glyph unicode="&#x1fc;" horiz-adv-x="1804" d="M-2 0l694 1462h989v-162h-577v-456h538v-160h-538v-522h577v-162h-761v453h-512l-220 -453h-190zM479 616h441v682h-119zM887 1606v25q29 37 65.5 91t71.5 110.5t57 101.5h218v-21q-27 -37 -77 -95t-108.5 -116.5t-107.5 -95.5h-119z" />
<glyph unicode="&#x1fd;" horiz-adv-x="1769" d="M94 305q0 164 123 253t377 97l184 7v69q0 133 -62.5 186.5t-166.5 53.5q-82 0 -161 -24.5t-146 -59.5l-56 135q72 39 174.5 66.5t202.5 27.5q127 0 210 -42t126 -134q53 84 139 131t197 47q133 0 229.5 -61.5t148.5 -172t52 -257.5v-111h-702q4 -197 84.5 -290t232.5 -93 q100 0 179 19.5t157 56.5v-158q-82 -37 -161 -54t-181 -17q-289 0 -416 231q-72 -106 -165 -168.5t-251 -62.5q-150 0 -249 78.5t-99 246.5zM281 303q0 -92 52 -135t138 -43q129 0 216 77t87 236v99l-153 -7q-193 -8 -266.5 -65t-73.5 -162zM776 1241v25q29 37 65.5 91 t71.5 110.5t57 101.5h218v-21q-27 -37 -77 -95t-108.5 -116.5t-107.5 -95.5h-119zM967 657h508q0 141 -58.5 227.5t-183.5 86.5q-119 0 -187.5 -81t-78.5 -233z" />
<glyph unicode="&#x1fe;" horiz-adv-x="1599" d="M125 735q0 223 73.5 392t224 263.5t380.5 94.5q106 0 197.5 -24.5t166.5 -67.5l95 135l124 -84l-104 -146q193 -203 193 -565q0 -227 -77 -396t-227.5 -263t-369.5 -94q-229 0 -379 96l-98 -139l-125 81l106 152q-90 100 -135 243.5t-45 321.5zM319 733q0 -127 24 -228.5 t73 -176.5l653 923q-106 72 -266 72q-250 0 -367 -157t-117 -433zM520 217q53 -37 124 -57.5t157 -20.5q248 0 363.5 159t115.5 435q0 262 -104 414zM680 1606v25q29 37 65.5 91t71.5 110.5t57 101.5h218v-21q-27 -37 -77 -95t-108.5 -116.5t-107.5 -95.5h-119z" />
<glyph unicode="&#x1ff;" horiz-adv-x="1239" d="M113 551q0 272 136 419.5t374 147.5q150 0 268 -74l80 115l121 -78l-93 -129q59 -72 94 -173t35 -228q0 -272 -138 -421.5t-374 -149.5q-150 0 -264 67l-82 -115l-118 80l92 127q-63 74 -97 176.5t-34 235.5zM299 551q0 -78 11.5 -144.5t37.5 -117.5l451 626 q-74 51 -181 52q-168 0 -243.5 -110.5t-75.5 -305.5zM444 176q70 -47 177 -47q166 0 243.5 113.5t77.5 308.5q0 152 -47 252zM498 1241v25q29 37 65.5 91t71.5 110.5t57 101.5h218v-21q-27 -37 -77 -95t-108.5 -116.5t-107.5 -95.5h-119z" />
<glyph unicode="&#x200;" horiz-adv-x="1308" d="M0 0l571 1468h166l570 -1468h-191l-176 453h-580l-174 -453h-186zM192 1913v21h199q33 -70 83 -158t93 -145v-25h-102q-47 37 -102.5 95.5t-102.5 116.5t-68 95zM422 616h463l-164 443q-6 16 -20.5 59t-28 89t-21.5 71q-16 -63 -33.5 -123.5t-29.5 -95.5zM553 1913v21 h198q33 -70 83 -158t93 -145v-25h-102q-47 37 -102.5 95.5t-102.5 116.5t-67 95z" />
<glyph unicode="&#x201;" horiz-adv-x="1148" d="M94 305q0 164 129 253t398 97l186 7v65q0 137 -59.5 190.5t-167.5 53.5q-86 0 -164 -25.5t-146 -58.5l-55 135q72 39 170.5 66.5t204.5 27.5q201 0 297 -88t96 -280v-748h-131l-35 156h-8q-72 -90 -151.5 -133t-217.5 -43q-150 0 -248 78.5t-98 246.5zM117 1548v21h199 q33 -70 83 -158t93 -145v-25h-102q-47 37 -102.5 95.5t-102.5 116.5t-68 95zM281 303q0 -92 56 -135t144 -43q137 0 230.5 77t93.5 236v99l-162 -7q-205 -8 -283.5 -65t-78.5 -162zM478 1548v21h198q33 -70 83 -158t93 -145v-25h-102q-47 37 -102.5 95.5t-102.5 116.5 t-67 95z" />
<glyph unicode="&#x202;" horiz-adv-x="1308" d="M0 0l571 1468h166l570 -1468h-191l-176 453h-580l-174 -453h-186zM332 1606q10 123 93 199t230 76q152 0 228.5 -74t84.5 -201h-110q-10 84 -61.5 106.5t-145.5 22.5q-80 0 -138.5 -24.5t-68.5 -104.5h-112zM422 616h463l-164 443q-6 16 -20.5 59t-28 89t-21.5 71 q-16 -63 -33.5 -123.5t-29.5 -95.5z" />
<glyph unicode="&#x203;" horiz-adv-x="1148" d="M94 305q0 164 129 253t398 97l186 7v65q0 137 -59.5 190.5t-167.5 53.5q-86 0 -164 -25.5t-146 -58.5l-55 135q72 39 170.5 66.5t204.5 27.5q201 0 297 -88t96 -280v-748h-131l-35 156h-8q-72 -90 -151.5 -133t-217.5 -43q-150 0 -248 78.5t-98 246.5zM256 1241 q10 123 93 199t230 76q152 0 228.5 -74t84.5 -201h-110q-10 84 -61.5 106.5t-145.5 22.5q-80 0 -138.5 -24.5t-68.5 -104.5h-112zM281 303q0 -92 56 -135t144 -43q137 0 230.5 77t93.5 236v99l-162 -7q-205 -8 -283.5 -65t-78.5 -162z" />
<glyph unicode="&#x204;" horiz-adv-x="1138" d="M166 1913v21h199q33 -70 83 -158t93 -145v-25h-102q-47 37 -102.5 95.5t-102.5 116.5t-68 95zM199 0v1462h817v-162h-633v-456h596v-160h-596v-522h633v-162h-817zM527 1913v21h198q33 -70 83 -158t93 -145v-25h-102q-47 37 -102.5 95.5t-102.5 116.5t-67 95z" />
<glyph unicode="&#x205;" horiz-adv-x="1155" d="M113 541q0 180 60 309t170 198.5t255 69.5q139 0 241.5 -61.5t157 -173t54.5 -260.5v-109h-752q4 -186 95 -283.5t255 -97.5q104 0 185 19.5t167 56.5v-158q-84 -37 -165.5 -54t-194.5 -17q-158 0 -276.5 63t-185 188t-66.5 310zM125 1548v21h199q33 -70 83 -158t93 -145 v-25h-102q-47 37 -102.5 95.5t-102.5 116.5t-68 95zM303 657h559q-2 139 -65.5 226.5t-200.5 87.5q-129 0 -204 -83t-89 -231zM486 1548v21h198q33 -70 83 -158t93 -145v-25h-102q-47 37 -102.5 95.5t-102.5 116.5t-67 95z" />
<glyph unicode="&#x206;" horiz-adv-x="1138" d="M199 0v1462h817v-162h-633v-456h596v-160h-596v-522h633v-162h-817zM306 1606q10 123 93 199t230 76q152 0 228.5 -74t84.5 -201h-110q-10 84 -61.5 106.5t-145.5 22.5q-80 0 -138.5 -24.5t-68.5 -104.5h-112z" />
<glyph unicode="&#x207;" horiz-adv-x="1155" d="M113 541q0 180 60 309t170 198.5t255 69.5q139 0 241.5 -61.5t157 -173t54.5 -260.5v-109h-752q4 -186 95 -283.5t255 -97.5q104 0 185 19.5t167 56.5v-158q-84 -37 -165.5 -54t-194.5 -17q-158 0 -276.5 63t-185 188t-66.5 310zM265 1241q10 123 93 199t230 76 q152 0 228.5 -74t84.5 -201h-110q-10 84 -61.5 106.5t-145.5 22.5q-80 0 -138.5 -24.5t-68.5 -104.5h-112zM303 657h559q-2 139 -65.5 226.5t-200.5 87.5q-129 0 -204 -83t-89 -231z" />
<glyph unicode="&#x208;" horiz-adv-x="694" d="M-111 1913v21h199q33 -70 83 -158t93 -145v-25h-102q-47 37 -102.5 95.5t-102.5 116.5t-68 95zM82 0v106l172 39v1170l-172 41v106h528v-106l-172 -41v-1170l172 -39v-106h-528zM250 1913v21h198q33 -70 83 -158t93 -145v-25h-102q-47 37 -102.5 95.5t-102.5 116.5 t-67 95z" />
<glyph unicode="&#x209;" horiz-adv-x="528" d="M-195 1548v21h199q33 -70 83 -158t93 -145v-25h-102q-47 37 -102.5 95.5t-102.5 116.5t-68 95zM166 1548v21h198q33 -70 83 -158t93 -145v-25h-102q-47 37 -102.5 95.5t-102.5 116.5t-67 95zM174 0v1098h180v-1098h-180z" />
<glyph unicode="&#x20a;" horiz-adv-x="694" d="M29 1606q10 123 93 199t230 76q152 0 228.5 -74t84.5 -201h-110q-10 84 -61.5 106.5t-145.5 22.5q-80 0 -138.5 -24.5t-68.5 -104.5h-112zM82 0v106l172 39v1170l-172 41v106h528v-106l-172 -41v-1170l172 -39v-106h-528z" />
<glyph unicode="&#x20b;" horiz-adv-x="528" d="M-55 1241q10 123 93 199t230 76q152 0 228.5 -74t84.5 -201h-110q-10 84 -61.5 106.5t-145.5 22.5q-80 0 -138.5 -24.5t-68.5 -104.5h-112zM174 0v1098h180v-1098h-180z" />
<glyph unicode="&#x20c;" horiz-adv-x="1599" d="M125 735q0 223 73.5 392t224 263.5t380.5 94.5q219 0 368.5 -93.5t226.5 -262.5t77 -396t-77 -396t-227.5 -263t-369.5 -94q-227 0 -378 94t-224.5 264t-73.5 397zM319 733q0 -276 117 -435t365 -159t363.5 159t115.5 435t-114.5 433t-362.5 157q-250 0 -367 -157 t-117 -433zM342 1913v21h199q33 -70 83 -158t93 -145v-25h-102q-47 37 -102.5 95.5t-102.5 116.5t-68 95zM703 1913v21h198q33 -70 83 -158t93 -145v-25h-102q-47 37 -102.5 95.5t-102.5 116.5t-67 95z" />
<glyph unicode="&#x20d;" horiz-adv-x="1239" d="M113 551q0 272 136 419.5t374 147.5q147 0 261.5 -66.5t179 -192.5t64.5 -308q0 -272 -138 -421.5t-374 -149.5q-145 0 -258.5 66.5t-179 194.5t-65.5 310zM162 1548v21h199q33 -70 83 -158t93 -145v-25h-102q-47 37 -102.5 95.5t-102.5 116.5t-68 95zM299 551 q0 -195 77 -308.5t245 -113.5q166 0 243.5 113.5t77.5 308.5t-78 305.5t-246 110.5t-243.5 -110.5t-75.5 -305.5zM523 1548v21h198q33 -70 83 -158t93 -145v-25h-102q-47 37 -102.5 95.5t-102.5 116.5t-67 95z" />
<glyph unicode="&#x20e;" horiz-adv-x="1599" d="M125 735q0 223 73.5 392t224 263.5t380.5 94.5q219 0 368.5 -93.5t226.5 -262.5t77 -396t-77 -396t-227.5 -263t-369.5 -94q-227 0 -378 94t-224.5 264t-73.5 397zM319 733q0 -276 117 -435t365 -159t363.5 159t115.5 435t-114.5 433t-362.5 157q-250 0 -367 -157 t-117 -433zM482 1606q10 123 93 199t230 76q152 0 228.5 -74t84.5 -201h-110q-10 84 -61.5 106.5t-145.5 22.5q-80 0 -138.5 -24.5t-68.5 -104.5h-112z" />
<glyph unicode="&#x20f;" horiz-adv-x="1239" d="M113 551q0 272 136 419.5t374 147.5q147 0 261.5 -66.5t179 -192.5t64.5 -308q0 -272 -138 -421.5t-374 -149.5q-145 0 -258.5 66.5t-179 194.5t-65.5 310zM299 551q0 -195 77 -308.5t245 -113.5q166 0 243.5 113.5t77.5 308.5t-78 305.5t-246 110.5t-243.5 -110.5 t-75.5 -305.5zM302 1241q10 123 93 199t230 76q152 0 228.5 -74t84.5 -201h-110q-10 84 -61.5 106.5t-145.5 22.5q-80 0 -138.5 -24.5t-68.5 -104.5h-112z" />
<glyph unicode="&#x210;" horiz-adv-x="1273" d="M178 1913v21h199q33 -70 83 -158t93 -145v-25h-102q-47 37 -102.5 95.5t-102.5 116.5t-68 95zM199 0v1462h403q272 0 402.5 -103.5t130.5 -311.5q0 -117 -43 -195t-110 -125t-140 -72l401 -655h-215l-354 604h-291v-604h-184zM383 760h219q178 0 260 70.5t82 207.5 q0 143 -86 204t-266 61h-209v-543zM539 1913v21h198q33 -70 83 -158t93 -145v-25h-102q-47 37 -102.5 95.5t-102.5 116.5t-67 95z" />
<glyph unicode="&#x211;" horiz-adv-x="845" d="M33 1548v21h199q33 -70 83 -158t93 -145v-25h-102q-47 37 -102.5 95.5t-102.5 116.5t-68 95zM174 0v1098h148l20 -201h8q51 90 136 155.5t200 65.5q31 0 65.5 -3t63.5 -9l-22 -166q-27 6 -60 10t-59 4q-84 0 -158 -46t-118 -129t-44 -193v-586h-180zM394 1548v21h198 q33 -70 83 -158t93 -145v-25h-102q-47 37 -102.5 95.5t-102.5 116.5t-67 95z" />
<glyph unicode="&#x212;" horiz-adv-x="1273" d="M199 0v1462h403q272 0 402.5 -103.5t130.5 -311.5q0 -117 -43 -195t-110 -125t-140 -72l401 -655h-215l-354 604h-291v-604h-184zM318 1606q10 123 93 199t230 76q152 0 228.5 -74t84.5 -201h-110q-10 84 -61.5 106.5t-145.5 22.5q-80 0 -138.5 -24.5t-68.5 -104.5h-112z M383 760h219q178 0 260 70.5t82 207.5q0 143 -86 204t-266 61h-209v-543z" />
<glyph unicode="&#x213;" horiz-adv-x="845" d="M173 1241q10 123 93 199t230 76q152 0 228.5 -74t84.5 -201h-110q-10 84 -61.5 106.5t-145.5 22.5q-80 0 -138.5 -24.5t-68.5 -104.5h-112zM174 0v1098h148l20 -201h8q51 90 136 155.5t200 65.5q31 0 65.5 -3t63.5 -9l-22 -166q-27 6 -60 10t-59 4q-84 0 -158 -46 t-118 -129t-44 -193v-586h-180z" />
<glyph unicode="&#x214;" horiz-adv-x="1497" d="M184 520v942h185v-948q0 -178 95 -276.5t288 -98.5q199 0 287.5 105.5t88.5 271.5v946h183v-946q0 -152 -61.5 -273.5t-188.5 -192t-320 -70.5q-274 0 -415.5 148t-141.5 392zM291 1913v21h199q33 -70 83 -158t93 -145v-25h-102q-47 37 -102.5 95.5t-102.5 116.5t-68 95z M652 1913v21h198q33 -70 83 -158t93 -145v-25h-102q-47 37 -102.5 95.5t-102.5 116.5t-67 95z" />
<glyph unicode="&#x215;" horiz-adv-x="1265" d="M162 379v719h182v-707q0 -262 244 -262q182 0 252.5 102.5t70.5 294.5v572h181v-1098h-148l-26 145h-9q-53 -86 -147 -125.5t-201 -39.5q-199 0 -299 95t-100 304zM174 1548v21h199q33 -70 83 -158t93 -145v-25h-102q-47 37 -102.5 95.5t-102.5 116.5t-68 95zM535 1548 v21h198q33 -70 83 -158t93 -145v-25h-102q-47 37 -102.5 95.5t-102.5 116.5t-67 95z" />
<glyph unicode="&#x216;" horiz-adv-x="1497" d="M184 520v942h185v-948q0 -178 95 -276.5t288 -98.5q199 0 287.5 105.5t88.5 271.5v946h183v-946q0 -152 -61.5 -273.5t-188.5 -192t-320 -70.5q-274 0 -415.5 148t-141.5 392zM431 1606q10 123 93 199t230 76q152 0 228.5 -74t84.5 -201h-110q-10 84 -61.5 106.5 t-145.5 22.5q-80 0 -138.5 -24.5t-68.5 -104.5h-112z" />
<glyph unicode="&#x217;" horiz-adv-x="1265" d="M162 379v719h182v-707q0 -262 244 -262q182 0 252.5 102.5t70.5 294.5v572h181v-1098h-148l-26 145h-9q-53 -86 -147 -125.5t-201 -39.5q-199 0 -299 95t-100 304zM314 1241q10 123 93 199t230 76q152 0 228.5 -74t84.5 -201h-110q-10 84 -61.5 106.5t-145.5 22.5 q-80 0 -138.5 -24.5t-68.5 -104.5h-112z" />
<glyph unicode="&#x218;" horiz-adv-x="1124" d="M104 49v176q74 -33 183.5 -59.5t226.5 -26.5q162 0 246 63.5t84 172.5q0 72 -31 121t-106.5 90t-206.5 90q-188 68 -282.5 166t-94.5 268q0 115 59.5 199t164 129t243.5 45q119 0 219 -22.5t184 -59.5l-57 -158q-76 33 -166 55.5t-184 22.5q-137 0 -207 -58.5t-70 -154.5 q0 -74 31 -123t100.5 -89t188.5 -83q129 -47 218 -101.5t135 -130t46 -190.5q0 -195 -141.5 -303t-380.5 -108q-123 0 -227.5 18t-174.5 51zM396 -428q14 35 32.5 89t32.5 112.5t19 101.5h178v-18q-10 -37 -35 -93.5t-58.5 -115t-70.5 -101.5h-98v25z" />
<glyph unicode="&#x219;" horiz-adv-x="980" d="M104 827q0 139 114 215t298 76q100 0 187.5 -20.5t162.5 -53.5l-61 -143q-70 29 -145.5 49.5t-155.5 20.5q-111 0 -169.5 -36t-58.5 -97q0 -47 27 -78t89.5 -61.5t166.5 -69.5t178 -80t113 -99.5t39 -146.5q0 -160 -119 -241.5t-319 -81.5q-115 0 -198 18t-147 51v164 q66 -33 159 -60.5t190 -27.5q137 0 198.5 44t61.5 118q0 41 -22.5 73.5t-81 65.5t-167.5 74q-106 41 -182 82t-117 98t-41 147zM361 -428q14 35 32.5 89t32.5 112.5t19 101.5h178v-18q-10 -37 -35 -93.5t-58.5 -115t-70.5 -101.5h-98v25z" />
<glyph unicode="&#x21a;" horiz-adv-x="1138" d="M20 1300v162h1096v-162h-454v-1300h-185v1300h-457zM439 -428q14 35 32.5 89t32.5 112.5t19 101.5h178v-18q-10 -37 -35 -93.5t-58.5 -115t-70.5 -101.5h-98v25z" />
<glyph unicode="&#x21b;" horiz-adv-x="739" d="M33 958v86l157 72l72 234h107v-252h317v-140h-317v-634q0 -100 48 -148.5t124 -48.5q41 0 84 6t69 17v-138q-29 -14 -82 -23t-102 -9q-86 0 -158.5 29.5t-118 103t-45.5 206.5v639h-155zM308 -428q14 35 32.5 89t32.5 112.5t19 101.5h178v-18q-10 -37 -35 -93.5 t-58.5 -115t-70.5 -101.5h-98v25z" />
<glyph unicode="&#x21c;" horiz-adv-x="1177" d="M78 1331q117 82 240.5 117t259.5 35q115 0 220 -36t171.5 -117t66.5 -216q0 -119 -64.5 -204t-170.5 -144q70 -33 130 -84t98 -127t38 -182q0 -190 -101.5 -324.5t-319.5 -233t-566 -184.5v176q231 59 384.5 121t243 129.5t128 145.5t38.5 170q0 123 -62 194.5 t-171 124.5q-72 -27 -149.5 -48t-159.5 -42l-35 143q195 51 315.5 98.5t177 110t56.5 154.5q0 104 -72 163.5t-199 59.5q-121 0 -219 -31.5t-190 -93.5z" />
<glyph unicode="&#x21d;" horiz-adv-x="1015" d="M61 -330q328 70 498 181.5t170 285.5q0 104 -46 164.5t-128 101.5q-59 -25 -128 -45t-144 -39l-35 136q180 47 277.5 95t134 103.5t36.5 124.5q0 94 -58 144.5t-161 50.5q-90 0 -169 -21.5t-154 -60.5l-62 131q94 51 190.5 73.5t196.5 22.5q111 0 202 -33.5t145.5 -108.5 t54.5 -198q0 -96 -48.5 -171t-136.5 -130q90 -43 154.5 -122t64.5 -218q0 -178 -106.5 -299t-298 -199t-449.5 -131v162z" />
<glyph unicode="&#x21e;" horiz-adv-x="1517" d="M199 0v1462h184v-618h750v618h184v-1462h-184v682h-750v-682h-184zM414 1907v27h123q53 -35 110.5 -84t108.5 -105q55 55 112.5 104.5t110.5 84.5h127v-27q-39 -39 -89 -92t-96 -108.5t-71 -100.5h-184q-27 45 -72 100.5t-94 108.5t-86 92z" />
<glyph unicode="&#x21f;" horiz-adv-x="1265" d="M-80 2001v27h123q53 -35 110.5 -84t108.5 -105q55 55 112.5 104.5t110.5 84.5h127v-27q-39 -39 -89 -92t-96 -108.5t-71 -100.5h-184q-27 45 -72 100.5t-94 108.5t-86 92zM174 0v1556h180v-456q0 -82 -10 -154h12q53 84 144.5 127t197.5 43q199 0 300.5 -95t101.5 -306 v-715h-178v702q0 264 -246 265q-184 0 -253 -103.5t-69 -296.5v-567h-180z" />
<glyph unicode="&#x220;" horiz-adv-x="1517" d="M199 0v1464h145l31 -188h10q45 63 116.5 110.5t155.5 73t168 25.5q236 0 371 -128t135 -413v-1436h-184v1436q0 190 -80 285.5t-264 95.5q-225 0 -322.5 -124t-97.5 -335v-866h-184z" />
<glyph unicode="&#x221;" horiz-adv-x="1767" d="M113 547q0 283 123.5 427t328.5 144q127 0 208 -47t132 -115h13q-4 27 -8.5 79t-4.5 83v438h180v-1134q0 -109 29 -168q74 127 173 174t202 45q125 -2 191.5 -62.5t66.5 -152.5q0 -106 -92 -182t-305 -76q-49 0 -89 4t-75 12q-12 -51 -20.5 -109.5t-12.5 -121.5l-166 10 q18 168 55 289q-35 27 -52 55.5t-25 50.5h-11q-55 -106 -140 -158t-249 -52q-205 0 -328.5 142t-123.5 425zM299 543q0 -197 73 -305.5t220 -108.5q174 0 244.5 95t70.5 288v33q0 205 -67.5 314.5t-249.5 109.5q-145 0 -218 -116t-73 -310zM1233 158q29 -8 61.5 -12.5 t71.5 -4.5q115 0 162 30t47 79q0 29 -27.5 53.5t-83.5 24.5q-80 0 -137 -45t-94 -125z" />
<glyph unicode="&#x222;" horiz-adv-x="1374" d="M119 475q0 168 80 269.5t225 144.5q-119 49 -175 150.5t-56 242.5v180h184v-180q0 -139 74.5 -229t234.5 -90q162 0 236.5 90t74.5 229v180h185v-180q0 -143 -57.5 -243.5t-178.5 -151.5q139 -43 224 -144.5t85 -267.5q0 -158 -71.5 -268.5t-199.5 -168.5t-302 -58 q-160 0 -288 58t-201.5 168.5t-73.5 268.5zM313 475q0 -158 89 -247t284 -89t285 89t90 247t-91 244t-286 86q-193 0 -282 -86t-89 -244z" />
<glyph unicode="&#x223;" horiz-adv-x="1220" d="M102 489q0 172 70 277.5t197 151.5q-98 35 -147.5 122.5t-49.5 251.5v264h180v-258q0 -164 62.5 -234.5t195.5 -70.5t195.5 71t62.5 234v258h181v-264q0 -166 -50.5 -254t-148.5 -123q123 -47 195.5 -151.5t72.5 -274.5q0 -244 -138 -376.5t-374 -132.5q-145 0 -259 59 t-179.5 174t-65.5 276zM289 489q0 -168 76.5 -264t244.5 -96q166 0 244 96.5t78 263.5q0 166 -78 260.5t-246 94.5t-243.5 -94.5t-75.5 -260.5z" />
<glyph unicode="&#x224;" horiz-adv-x="1171" d="M78 0v139l770 1159h-746v164h969v-139l-770 -1159h791v-164h-1014zM730 -231q16 -6 42.5 -12.5t59.5 -6.5q98 0 98 107v143h-20v164h182v-297q0 -133 -58.5 -203t-181.5 -70q-39 0 -70.5 8.5t-51.5 16.5v150z" />
<glyph unicode="&#x225;" horiz-adv-x="962" d="M80 0v119l590 839h-555v140h753v-135l-581 -824h596v-272q0 -133 -58.5 -203t-181.5 -70q-39 0 -70.5 8.5t-52.5 16.5v150q16 -6 43 -12.5t60 -6.5q98 0 98 107v143h-641z" />
<glyph unicode="&#x226;" horiz-adv-x="1308" d="M0 0l571 1468h166l570 -1468h-191l-176 453h-580l-174 -453h-186zM422 616h463l-164 443q-6 16 -20.5 59t-28 89t-21.5 71q-16 -63 -33.5 -123.5t-29.5 -95.5zM551 1760q0 59 30.5 86.5t75.5 27.5q41 0 73 -27.5t32 -86.5t-32 -87t-73 -28q-45 0 -75.5 27.5t-30.5 87.5z " />
<glyph unicode="&#x227;" horiz-adv-x="1148" d="M94 305q0 164 129 253t398 97l186 7v65q0 137 -59.5 190.5t-167.5 53.5q-86 0 -164 -25.5t-146 -58.5l-55 135q72 39 170.5 66.5t204.5 27.5q201 0 297 -88t96 -280v-748h-131l-35 156h-8q-72 -90 -151.5 -133t-217.5 -43q-150 0 -248 78.5t-98 246.5zM281 303 q0 -92 56 -135t144 -43q137 0 230.5 77t93.5 236v99l-162 -7q-205 -8 -283.5 -65t-78.5 -162zM475 1395q0 59 30.5 86.5t75.5 27.5q41 0 73 -27.5t32 -86.5t-32 -87t-73 -28q-45 0 -75.5 27.5t-30.5 87.5z" />
<glyph unicode="&#x228;" horiz-adv-x="1138" d="M199 0v1462h817v-162h-633v-456h596v-160h-596v-522h633v-162h-817zM416 -369q18 -4 49 -7t59 -3q74 0 113 19.5t39 70.5q0 53 -54.5 78t-132.5 35l88 176h119l-53 -109q74 -16 126 -57t52 -119q0 -98 -75.5 -152.5t-227.5 -54.5q-66 0 -102 11v112z" />
<glyph unicode="&#x229;" horiz-adv-x="1155" d="M113 541q0 180 60 309t170 198.5t255 69.5q139 0 241.5 -61.5t157 -173t54.5 -260.5v-109h-752q4 -186 95 -283.5t255 -97.5q104 0 185 19.5t167 56.5v-158q-84 -37 -165.5 -54t-194.5 -17q-158 0 -276.5 63t-185 188t-66.5 310zM303 657h559q-2 139 -65.5 226.5 t-200.5 87.5q-129 0 -204 -83t-89 -231zM418 -369q18 -4 49 -7t59 -3q74 0 113 19.5t39 70.5q0 53 -54.5 78t-132.5 35l88 176h119l-53 -109q74 -16 126 -57t52 -119q0 -98 -75.5 -152.5t-227.5 -54.5q-66 0 -102 11v112z" />
<glyph unicode="&#x22a;" horiz-adv-x="1599" d="M125 735q0 223 73.5 392t224 263.5t380.5 94.5q219 0 368.5 -93.5t226.5 -262.5t77 -396t-77 -396t-227.5 -263t-369.5 -94q-227 0 -378 94t-224.5 264t-73.5 397zM319 733q0 -276 117 -435t365 -159t363.5 159t115.5 435t-114.5 433t-362.5 157q-250 0 -367 -157 t-117 -433zM496 1932v145h608v-145h-608zM512 1696q0 53 28.5 78t67.5 25t67 -25t28 -78t-28 -76.5t-67 -23.5t-67.5 23.5t-28.5 76.5zM895 1696q0 53 28.5 78t67.5 25t68 -25t29 -78t-29 -76.5t-68 -23.5t-67.5 23.5t-28.5 76.5z" />
<glyph unicode="&#x22b;" horiz-adv-x="1239" d="M113 551q0 272 136 419.5t374 147.5q147 0 261.5 -66.5t179 -192.5t64.5 -308q0 -272 -138 -421.5t-374 -149.5q-145 0 -258.5 66.5t-179 194.5t-65.5 310zM299 551q0 -195 77 -308.5t245 -113.5q166 0 243.5 113.5t77.5 308.5t-78 305.5t-246 110.5t-243.5 -110.5 t-75.5 -305.5zM316 1567v145h608v-145h-608zM332 1331q0 53 28.5 78t67.5 25t67 -25t28 -78t-28 -76.5t-67 -23.5t-67.5 23.5t-28.5 76.5zM715 1331q0 53 28.5 78t67.5 25t68 -25t29 -78t-29 -76.5t-68 -23.5t-67.5 23.5t-28.5 76.5z" />
<glyph unicode="&#x22c;" horiz-adv-x="1599" d="M125 735q0 223 73.5 392t224 263.5t380.5 94.5q219 0 368.5 -93.5t226.5 -262.5t77 -396t-77 -396t-227.5 -263t-369.5 -94q-227 0 -378 94t-224.5 264t-73.5 397zM319 733q0 -276 117 -435t365 -159t363.5 159t115.5 435t-114.5 433t-362.5 157q-250 0 -367 -157 t-117 -433zM457 1604q10 109 60.5 171.5t138.5 62.5q55 0 107 -25t98 -49.5t87 -24.5q43 0 61.5 28t33.5 73h102q-10 -106 -59 -170t-140 -64q-51 0 -102 24.5t-98 49t-90 24.5q-45 0 -63.5 -26.5t-31.5 -73.5h-104zM496 1932v145h608v-145h-608z" />
<glyph unicode="&#x22d;" horiz-adv-x="1239" d="M113 551q0 272 136 419.5t374 147.5q147 0 261.5 -66.5t179 -192.5t64.5 -308q0 -272 -138 -421.5t-374 -149.5q-145 0 -258.5 66.5t-179 194.5t-65.5 310zM277 1239q10 109 60.5 171.5t138.5 62.5q55 0 107 -25t98 -49.5t87 -24.5q43 0 61.5 28t33.5 73h102 q-10 -106 -59 -170t-140 -64q-51 0 -102 24.5t-98 49t-90 24.5q-45 0 -63.5 -26.5t-31.5 -73.5h-104zM299 551q0 -195 77 -308.5t245 -113.5q166 0 243.5 113.5t77.5 308.5t-78 305.5t-246 110.5t-243.5 -110.5t-75.5 -305.5zM316 1567v145h608v-145h-608z" />
<glyph unicode="&#x22e;" horiz-adv-x="1599" d="M125 735q0 223 73.5 392t224 263.5t380.5 94.5q219 0 368.5 -93.5t226.5 -262.5t77 -396t-77 -396t-227.5 -263t-369.5 -94q-227 0 -378 94t-224.5 264t-73.5 397zM319 733q0 -276 117 -435t365 -159t363.5 159t115.5 435t-114.5 433t-362.5 157q-250 0 -367 -157 t-117 -433zM700 1760q0 59 30.5 86.5t75.5 27.5q41 0 73 -27.5t32 -86.5t-32 -87t-73 -28q-45 0 -75.5 27.5t-30.5 87.5z" />
<glyph unicode="&#x22f;" horiz-adv-x="1239" d="M113 551q0 272 136 419.5t374 147.5q147 0 261.5 -66.5t179 -192.5t64.5 -308q0 -272 -138 -421.5t-374 -149.5q-145 0 -258.5 66.5t-179 194.5t-65.5 310zM299 551q0 -195 77 -308.5t245 -113.5q166 0 243.5 113.5t77.5 308.5t-78 305.5t-246 110.5t-243.5 -110.5 t-75.5 -305.5zM520 1395q0 59 30.5 86.5t75.5 27.5q41 0 73 -27.5t32 -86.5t-32 -87t-73 -28q-45 0 -75.5 27.5t-30.5 87.5z" />
<glyph unicode="&#x230;" horiz-adv-x="1599" d="M125 735q0 223 73.5 392t224 263.5t380.5 94.5q219 0 368.5 -93.5t226.5 -262.5t77 -396t-77 -396t-227.5 -263t-369.5 -94q-227 0 -378 94t-224.5 264t-73.5 397zM319 733q0 -276 117 -435t365 -159t363.5 159t115.5 435t-114.5 433t-362.5 157q-250 0 -367 -157 t-117 -433zM496 1905v145h608v-145h-608zM697 1692q0 59 30.5 86.5t75.5 27.5q41 0 72.5 -27.5t31.5 -86.5q0 -57 -31.5 -86t-72.5 -29q-45 0 -75.5 28.5t-30.5 86.5z" />
<glyph unicode="&#x231;" horiz-adv-x="1239" d="M113 551q0 272 136 419.5t374 147.5q147 0 261.5 -66.5t179 -192.5t64.5 -308q0 -272 -138 -421.5t-374 -149.5q-145 0 -258.5 66.5t-179 194.5t-65.5 310zM299 551q0 -195 77 -308.5t245 -113.5q166 0 243.5 113.5t77.5 308.5t-78 305.5t-246 110.5t-243.5 -110.5 t-75.5 -305.5zM316 1569v145h608v-145h-608zM512 1356q0 59 31 86.5t76 27.5q41 0 72.5 -27.5t31.5 -86.5q0 -57 -31.5 -86t-72.5 -29q-45 0 -76 28.5t-31 86.5z" />
<glyph unicode="&#x232;" horiz-adv-x="1159" d="M0 1462h201l379 -719l381 719h198l-487 -895v-567h-185v559zM275 1606v145h608v-145h-608z" />
<glyph unicode="&#x233;" horiz-adv-x="1044" d="M2 1098h193l237 -625q31 -84 55.5 -157.5t36.5 -141.5h8q12 51 39 134t56 167l223 623h194l-473 -1250q-59 -156 -149 -248t-250 -92q-49 0 -86 5.5t-63 11.5v143q23 -4 54.5 -8t65.5 -4q94 0 151.5 53t92.5 141l57 146zM217 1241v145h608v-145h-608z" />
<glyph unicode="&#x234;" horiz-adv-x="780" d="M14 0q74 199 160 309v1247h180v-1110q63 25 140 25q133 0 199.5 -66.5t66.5 -171.5q0 -106 -71 -179.5t-202 -73.5q-96 0 -162.5 36.5t-101.5 96.5q-18 -35 -36.5 -80t-34.5 -94zM354 283q2 -74 31.5 -119t99.5 -45q55 0 83 30.5t28 75.5q0 53 -32 80t-85 27 q-63 0 -125 -49z" />
<glyph unicode="&#x235;" horiz-adv-x="1525" d="M174 0v1098h145l27 -150h10q53 86 147.5 128t198.5 42q197 0 297.5 -96t100.5 -307v-269q63 25 139 25q133 0 199.5 -71.5t66.5 -174.5q0 -115 -70.5 -180t-201.5 -65q-94 0 -159.5 35.5t-104.5 95.5q-18 -35 -36 -79t-34 -93l-137 61q74 199 160 309v393q0 264 -246 265 q-182 0 -252 -102.5t-70 -295.5v-569h-180zM1100 283q2 -74 31.5 -119t99.5 -45q59 0 84.5 30.5t25.5 75.5q0 53 -31.5 80t-84.5 27q-63 0 -125 -49z" />
<glyph unicode="&#x236;" horiz-adv-x="794" d="M29 0q74 199 159 309v649h-155v86l157 72l72 234h107v-252h317v-140h-317v-512q66 25 139 25q131 0 198.5 -71.5t67.5 -174.5q0 -115 -69.5 -180t-202.5 -65q-94 0 -161 35.5t-105 95.5q-18 -35 -36 -79t-34 -93zM369 283q4 -74 32.5 -119t98.5 -45q59 0 84.5 30.5 t25.5 75.5q0 53 -31.5 80t-84.5 27q-63 0 -125 -49z" />
<glyph unicode="&#x237;" horiz-adv-x="528" d="M-113 -322q31 -10 64 -15t72 -5q66 0 108.5 36t42.5 136v1268h180v-1262q0 -154 -73.5 -241t-235.5 -87q-53 0 -92 7.5t-66 17.5v145z" />
<glyph unicode="&#x238;" horiz-adv-x="1990" d="M113 547q0 283 123.5 427t328.5 144q127 0 208 -47t132 -115h13q-4 27 -8.5 86.5t-4.5 128.5v385h180v-378q0 -70 -4 -130.5t-6 -95.5h10q45 70 128 117t212 47q205 0 329 -142.5t124 -424.5q0 -283 -130 -426t-359 -143q-281 0 -396 256q-59 -133 -161.5 -194.5 t-233.5 -61.5q-229 0 -357 142t-128 425zM299 543q0 -197 73.5 -305.5t231.5 -108.5q150 0 226.5 115.5t76.5 310.5q0 205 -67.5 309.5t-249.5 104.5q-145 0 -218 -116t-73 -310zM1085 555q0 -207 74 -316.5t232 -109.5q156 0 228.5 108.5t72.5 313.5q0 416 -297 416 q-174 0 -242 -100.5t-68 -311.5z" />
<glyph unicode="&#x239;" horiz-adv-x="1990" d="M113 549q0 283 130 426t359 143q281 0 395 -256q59 133 162 194.5t234 61.5q229 0 357 -142t128 -425t-124 -427t-329 -144q-127 0 -207.5 47t-132.5 114h-12q4 -27 8 -86t4 -129v-418h-180v412q0 70 4 130.5t6 94.5h-10q-45 -70 -128 -116.5t-212 -46.5 q-205 0 -328.5 142t-123.5 425zM299 547q0 -416 297 -416q174 0 241.5 100.5t67.5 311.5q0 207 -73.5 316.5t-231.5 109.5q-156 0 -228.5 -108.5t-72.5 -313.5zM1083 543q0 -205 68 -309.5t250 -104.5q145 0 218 115.5t73 310.5q0 197 -74 305.5t-232 108.5 q-150 0 -226.5 -116t-76.5 -310z" />
<glyph unicode="&#x23a;" horiz-adv-x="1308" d="M0 0l571 1468h166l62 -159l86 247h137l-152 -434l437 -1122h-191l-176 453h-301l-211 -607h-137l211 607h-142l-174 -453h-186zM422 616h137l158 455q-8 25 -21.5 65t-26 79.5t-18.5 62.5q-16 -63 -33.5 -123.5t-29.5 -95.5zM696 616h189l-99 265z" />
<glyph unicode="&#x23b;" horiz-adv-x="1294" d="M125 733q0 221 81 390t238.5 264.5t382.5 95.5q76 0 152 -10l29 83h137l-39 -112q68 -18 125 -47l-74 -156q-25 10 -51.5 21.5t-54.5 21.5l-389 -1122q74 -20 161 -21q94 0 180.5 16.5t170.5 41.5v-160q-82 -31 -169 -45t-208 -14q-102 0 -193 20l-53 -154h-137l67 195 q-178 82 -267 261t-89 431zM319 731q0 -180 55.5 -313t166.5 -203l383 1098q-50 8 -99 8q-236 0 -371 -157.5t-135 -432.5z" />
<glyph unicode="&#x23c;" horiz-adv-x="983" d="M113 543q0 203 66.5 329.5t183 186t264.5 59.5q29 0 59 -2l158 440h137l-164 -462q57 -14 98 -35l-55 -150q-20 8 -46 16.5t-52 14.5l-279 -780q55 -25 129 -25q88 0 158 18.5t127 45.5v-160q-55 -29 -122 -44t-161 -15q-102 0 -186 26l-154 -432h-137l174 492 q-92 66 -145 183.5t-53 293.5zM299 545q0 -197 78 -301l254 717h-8q-324 0 -324 -416z" />
<glyph unicode="&#x23d;" horiz-adv-x="1073" d="M20 680v145h179v637h184v-637h348v-145h-348v-516h639v-164h-823v680h-179z" />
<glyph unicode="&#x23e;" horiz-adv-x="1138" d="M20 1300v162h859l43 94h143l-43 -94h94v-162h-170l-284 -612v-688h-185v291l-207 -445h-143l350 754v700h-457zM662 997l141 303h-141v-303z" />
<glyph unicode="&#x23f;" horiz-adv-x="980" d="M104 827q0 139 114 215t298 76q100 0 187.5 -20.5t162.5 -53.5l-61 -143q-70 29 -145.5 49.5t-155.5 20.5q-111 0 -169.5 -36t-58.5 -97q0 -47 27 -78t89.5 -61.5t166.5 -69.5t178 -80t113 -99.5t39 -146.5q0 -154 -109.5 -236.5t-304.5 -84.5q20 -33 36.5 -71t29.5 -81 q27 -90 79 -131t136 -41q35 0 78 8t69 19v-148q-23 -10 -71 -19.5t-95 -9.5q-168 0 -248.5 78t-121.5 244q-37 143 -156 176q-35 10 -57.5 19.5t-47.5 23.5v164q66 -33 159 -60.5t190 -27.5q137 0 198.5 44t61.5 118q0 41 -22.5 73.5t-81 65.5t-167.5 74q-106 41 -182 82 t-117 98t-41 147z" />
<glyph unicode="&#x240;" horiz-adv-x="962" d="M80 0v119l590 839h-555v140h753v-135l-581 -824q119 -20 182 -98t98 -211q23 -90 80.5 -131t157.5 -41q41 0 72.5 6t62.5 17v-148q-27 -10 -61.5 -17.5t-85.5 -7.5q-123 0 -201 36t-124 108t-75 178q-25 88 -75 129t-166 41h-72z" />
<glyph unicode="&#x241;" horiz-adv-x="917" d="M4 1368q72 53 175 84t212 31q211 0 332 -104.5t121 -286.5q0 -154 -96.5 -295.5t-309.5 -241.5v-555h-184v659q180 57 287.5 170t107.5 256q0 106 -64.5 171t-201.5 65q-72 0 -161 -27.5t-150 -72.5z" />
<glyph unicode="&#x242;" horiz-adv-x="892" d="M25 1004q72 53 164.5 83.5t201.5 30.5q211 0 319.5 -104.5t108.5 -286.5q0 -92 -37 -188.5t-120.5 -184.5t-227.5 -153v-201h-180v295q180 57 280.5 170t100.5 256q0 248 -252 248q-72 0 -150.5 -28t-140.5 -73z" />
<glyph unicode="&#x243;" horiz-adv-x="1331" d="M31 350v160h168v952h417q272 0 413.5 -82t141.5 -280q0 -129 -71.5 -214t-206.5 -110v-10q92 -16 167 -55t118 -111t43 -184q0 -199 -136.5 -307.5t-371.5 -108.5h-514v350h-168zM383 156h295q195 0 270.5 75.5t75.5 198.5q0 115 -79 185.5t-281 70.5h-281v-176h303v-160 h-303v-194zM383 840h270q186 0 257 60.5t71 178.5q0 121 -85 173.5t-271 52.5h-242v-465z" />
<glyph unicode="&#x244;" horiz-adv-x="1497" d="M20 725v160h164v577h185v-577h759v577h183v-577h166v-160h-166v-209q0 -152 -61.5 -273.5t-188.5 -192t-320 -70.5q-274 0 -415.5 148t-141.5 392v205h-164zM369 514q0 -178 95 -276.5t288 -98.5q199 0 287.5 105.5t88.5 271.5v209h-759v-211z" />
<glyph unicode="&#x245;" horiz-adv-x="1245" d="M0 0l524 1462h193l526 -1462h-194l-324 922q-33 94 -60.5 180t-46.5 160q-16 -74 -42.5 -160t-59.5 -178l-321 -924h-195z" />
<glyph unicode="&#x246;" horiz-adv-x="1138" d="M199 0v1462h583l25 94h133l-25 -94h101v-162h-142l-114 -456h219v-160h-260l-133 -522h430v-162h-471l-39 -154h-133l39 154h-213zM383 162h70l133 522h-203v-522zM383 844h244l114 456h-358v-456z" />
<glyph unicode="&#x247;" horiz-adv-x="1155" d="M113 541q0 180 60 309t170 198.5t255 69.5q47 0 92 -8l154 446h137l-168 -485q113 -57 175.5 -173t62.5 -275v-109h-430l-123 -354q66 -27 151 -27q104 0 185 19.5t167 56.5v-158q-84 -37 -165.5 -54t-194.5 -17q-106 0 -197 28l-149 -434h-137l170 492 q-100 68 -157.5 187.5t-57.5 287.5zM299 514q4 -178 88 -276l96 276h-184zM303 657h229l109 312q-22 2 -45 2q-129 0 -204 -83t-89 -231zM670 657h192q0 86 -25.5 155t-76.5 108z" />
<glyph unicode="&#x248;" horiz-adv-x="559" d="M-160 -207q33 -10 70 -15t78 -5q51 0 97 20.5t74.5 70.5t28.5 144v635h-168v160h168v659h185v-659h166v-160h-166v-620q0 -211 -104.5 -311.5t-276.5 -100.5q-49 0 -86 7t-66 20v155z" />
<glyph unicode="&#x249;" horiz-adv-x="528" d="M-113 -322q31 -10 64 -15t72 -5q66 0 108.5 36t42.5 136v678h-154v145h154v445h180v-445h154v-145h-154v-672q0 -154 -73.5 -241t-235.5 -87q-53 0 -92 7.5t-66 17.5v145zM160 1395q0 59 30.5 86.5t75.5 27.5q41 0 73 -27.5t32 -86.5t-32 -87t-73 -28q-45 0 -75.5 28 t-30.5 87z" />
<glyph unicode="&#x24a;" horiz-adv-x="1570" d="M125 733q0 225 70.5 394t208.5 262.5t339 93.5q150 0 266.5 -57.5t174.5 -151.5h10l31 188h145v-1624q0 -96 33 -132t96 -36q27 0 49.5 5.5t42.5 15.5v-156q-23 -12 -50.5 -19.5t-63.5 -7.5q-137 0 -214 76t-77 246v211q0 39 3 76t5 71h-10q-57 -94 -172 -151t-279 -57 q-195 0 -331 94t-206.5 263t-70.5 396zM317 731q0 -276 111 -434t313 -158q180 0 275.5 55.5t132.5 152.5t37 226v316q0 129 -37 226t-133.5 152.5t-276.5 55.5q-201 0 -311.5 -157.5t-110.5 -434.5z" />
<glyph unicode="&#x24b;" horiz-adv-x="1259" d="M113 547q0 283 125.5 427t326.5 144q129 0 211 -49t131 -121h8l27 150h143v-1245q0 -121 25 -159t76 -38q35 0 61.5 7t40.5 15v-137q-18 -14 -55 -23.5t-88 -9.5q-63 0 -118.5 30t-88.5 104.5t-33 207.5v127q0 37 2 86.5t8 83.5h-12q-47 -70 -130 -118.5t-214 -48.5 q-199 0 -322.5 142t-123.5 425zM299 543q0 -195 71.5 -304.5t223.5 -109.5q168 0 239.5 93t73.5 286v37q0 209 -69.5 316.5t-247.5 107.5q-147 0 -219 -116t-72 -310z" />
<glyph unicode="&#x24c;" horiz-adv-x="1273" d="M20 604v156h179v702h403q272 0 402.5 -103.5t130.5 -311.5q0 -117 -43 -195t-110 -125t-140 -72l401 -655h-215l-354 604h-291v-604h-184v604h-179zM383 760h219q178 0 260 70.5t82 207.5q0 143 -86 204t-266 61h-209v-543z" />
<glyph unicode="&#x24d;" horiz-adv-x="845" d="M20 508v145h154v445h148l20 -201h8q51 90 136 155.5t200 65.5q31 0 65.5 -3t63.5 -9l-22 -166q-27 6 -60 10t-59 4q-115 0 -205 -81.5t-111 -219.5h254v-145h-258v-508h-180v508h-154z" />
<glyph unicode="&#x24e;" horiz-adv-x="1159" d="M0 1462h201l137 -262h483l140 262h198l-143 -262h123v-160h-209l-258 -473v-567h-185v559l-260 481h-207v160h121zM424 1040l156 -297l157 297h-313z" />
<glyph unicode="&#x24f;" horiz-adv-x="1044" d="M2 1098h193l137 -363h389l129 363h194l-137 -363h117v-145h-172l-281 -742q-59 -156 -149 -248t-250 -92q-49 0 -86 5.5t-63 11.5v143q23 -4 54.5 -8t65.5 -4q94 0 151.5 53t92.5 141l57 146l-237 594h-187v145h127zM387 590l45 -117q31 -84 55.5 -157.5t36.5 -141.5h8 q12 51 39 134t56 167l41 115h-281z" />
<glyph unicode="&#x250;" horiz-adv-x="1148" d="M166 350v748h131l35 -156h8q72 90 151.5 133t217.5 43q150 0 248 -78.5t98 -246.5q0 -164 -129 -253t-398 -97l-186 -7v-65q0 -137 59.5 -190.5t167.5 -53.5q86 0 164 25.5t146 58.5l55 -135q-72 -39 -170.5 -66.5t-204.5 -27.5q-201 0 -297 88t-96 280zM344 561l162 7 q205 8 283.5 65t78.5 162q0 92 -56 135t-144 43q-137 0 -230.5 -77t-93.5 -236v-99z" />
<glyph unicode="&#x251;" horiz-adv-x="1259" d="M113 547q0 283 123.5 427t328.5 144q127 0 208 -47t132 -115h8l29 142h143v-1098h-145l-27 147h-8q-49 -70 -131 -118.5t-211 -48.5q-205 0 -327.5 142t-122.5 425zM299 543q0 -197 73 -305.5t220 -108.5q174 0 244.5 95t70.5 288v33q0 205 -67.5 314.5t-249.5 109.5 q-145 0 -218 -116t-73 -310z" />
<glyph unicode="&#x252;" horiz-adv-x="1259" d="M175 0v1098h145l27 -147h8q49 70 131 118.5t211 48.5q205 0 327.5 -142t122.5 -425t-123.5 -427t-328.5 -144q-127 0 -208 47t-132 115h-8l-29 -142h-143zM353 553q0 -205 67.5 -314.5t249.5 -109.5q145 0 218 116t73 310q0 197 -73 305.5t-220 108.5q-174 0 -244.5 -95 t-70.5 -288v-33z" />
<glyph unicode="&#x253;" horiz-adv-x="1259" d="M174 0v1280q0 287 248 287q39 0 77 -9.5t58 -17.5v-149q-14 6 -44 13t-62 7q-45 0 -71 -27.5t-26 -91.5v-114q0 -70 -3 -130.5t-7 -95.5h10q47 70 129 117t211 47q205 0 329 -142.5t124 -424.5q0 -283 -125 -426t-328 -143q-129 0 -211 47t-129 112h-14l-37 -139h-129z M354 555q0 -209 66.5 -317.5t247.5 -108.5q147 0 220 108.5t73 313.5q0 416 -297 416q-176 0 -243 -100.5t-67 -311.5z" />
<glyph unicode="&#x254;" horiz-adv-x="983" d="M68 1059q49 25 136 42t181 17q143 0 253 -56t171 -177t61 -316q0 -203 -68.5 -334t-185 -193t-260.5 -62q-90 0 -155.5 15t-120.5 44v160q57 -27 124.5 -45.5t153.5 -18.5q164 0 245 110.5t81 315.5t-78 303.5t-239 98.5q-57 0 -126 -14.5t-118 -39.5z" />
<glyph unicode="&#x255;" horiz-adv-x="1087" d="M98 -37q20 66 48 125t59 111q-78 131 -78 344q0 203 66.5 329.5t183.5 186t264 59.5q84 0 162 -17.5t127 -41.5l-56 -150q-49 18 -114.5 35t-122.5 17q-324 0 -324 -416q0 -106 21 -183q76 76 167 117t187 41q147 0 230 -69.5t83 -180.5q0 -102 -54 -166.5t-137 -94 t-169 -29.5q-98 0 -181 23.5t-149 74.5q-20 -39 -39.5 -83t-35.5 -95zM406 223q82 -94 233 -94q82 0 137 37t55 100q0 39 -34.5 72t-120.5 33q-68 0 -136.5 -34t-133.5 -114z" />
<glyph unicode="&#x256;" horiz-adv-x="1259" d="M113 547q0 283 123.5 427t328.5 144q127 0 208 -47t132 -115h13q-4 27 -8.5 79t-4.5 83v438h180v-1703q0 -121 29 -159t88 -38q39 0 70 7t47 15v-137q-20 -14 -60.5 -23.5t-95.5 -9.5q-70 0 -128 30t-94 104.5t-36 207.5v130q0 31 4 83t9 78h-13q-51 -68 -132 -114.5 t-208 -46.5q-205 0 -328.5 142t-123.5 425zM299 543q0 -197 73 -305.5t220 -108.5q174 0 244.5 95t70.5 288v33q0 205 -67.5 314.5t-249.5 109.5q-145 0 -218 -116t-73 -310z" />
<glyph unicode="&#x257;" horiz-adv-x="1259" d="M113 547q0 283 123.5 427t328.5 144q127 0 208 -47t132 -115h13q-4 27 -8.5 79t-4.5 83v162q0 287 248 287q39 0 76 -9.5t59 -17.5v-149q-14 6 -42.5 13t-63.5 7q-47 0 -72 -27.5t-25 -91.5v-1292h-145l-27 147h-8q-49 -70 -131 -118.5t-211 -48.5q-205 0 -327.5 142 t-122.5 425zM299 543q0 -197 73 -305.5t220 -108.5q174 0 244.5 95t70.5 288v33q0 205 -67.5 314.5t-249.5 109.5q-145 0 -218 -116t-73 -310z" />
<glyph unicode="&#x258;" horiz-adv-x="1155" d="M104 514h752q-4 -186 -95 -283.5t-255 -97.5q-104 0 -185 19.5t-167 56.5v-158q84 -37 165.5 -54t194.5 -17q158 0 276.5 63t185 188t66.5 310q0 180 -60 309t-170 198.5t-255 69.5q-139 0 -241.5 -61.5t-157 -173t-54.5 -260.5v-109zM293 657q2 139 65.5 226.5 t200.5 87.5q129 0 204 -83t89 -231h-559z" />
<glyph unicode="&#x259;" horiz-adv-x="1155" d="M104 475v109h752q-4 186 -95 283.5t-255 97.5q-104 0 -185 -19.5t-167 -56.5v158q84 37 165.5 54t194.5 17q158 0 276.5 -63.5t185 -188.5t66.5 -309q0 -180 -60 -309t-170 -198.5t-255 -69.5q-139 0 -241.5 61t-157 173t-54.5 261zM293 440q2 -139 65.5 -226t200.5 -87 q129 0 204 83t89 230h-559z" />
<glyph unicode="&#x25a;" horiz-adv-x="1605" d="M104 492l740 200q-29 131 -115 202t-223 71q-104 0 -185 -19.5t-167 -56.5v158q84 37 165.5 54t194.5 17q193 0 327 -96t179 -281l217 58l35 -123q27 -90 57.5 -125t73.5 -35q41 0 84 15.5t82 39.5l37 -135q-49 -35 -110.5 -56.5t-127.5 -21.5q-82 0 -148.5 56.5 t-109.5 201.5l-70 -16q0 -285 -116.5 -452.5t-366.5 -167.5q-213 0 -333 136t-120 376zM295 397q10 -121 74.5 -195.5t189.5 -74.5q96 0 155.5 39t90.5 101.5t41 137t10 144.5z" />
<glyph unicode="&#x25b;" horiz-adv-x="989" d="M88 299q0 82 34 134t89 84t121 50v11q-92 29 -148.5 89t-56.5 160q0 139 117.5 215t304.5 76q119 0 204 -20.5t167 -57.5l-68 -143q-68 31 -138.5 51.5t-166.5 20.5q-248 0 -248 -156q0 -90 85 -129t228 -39h115v-147h-149q-309 0 -310 -189q0 -100 84 -141t207 -41 q113 0 201 26.5t155 59.5v-158q-63 -35 -151 -55t-215 -20q-236 0 -348.5 91t-112.5 228z" />
<glyph unicode="&#x25c;" horiz-adv-x="1003" d="M68 51v162q70 -33 165 -59.5t207 -26.5q123 0 208 42t85 144q0 184 -313 185h-148v147h119q141 0 226 38t85 130q0 78 -64.5 117t-184.5 39q-90 0 -159 -17.5t-151 -52.5l-63 143q172 76 383 76q188 0 299.5 -75.5t111.5 -213.5q0 -100 -56 -158.5t-150 -84.5v-8 q66 -18 121 -51t88.5 -87.5t33.5 -136.5q0 -137 -113.5 -230t-355.5 -93q-119 0 -215 18t-159 53z" />
<glyph unicode="&#x25d;" horiz-adv-x="1439" d="M68 51v162q70 -33 165 -59.5t207 -26.5q123 0 208 42t85 144q0 184 -313 185h-148v147h119q141 0 226 38t85 130q0 78 -64.5 117t-184.5 39q-90 0 -159 -17.5t-151 -52.5l-63 143q172 76 383 76q156 0 260 -51t137 -149l211 55l35 -123q27 -90 57.5 -125t73.5 -35 q41 0 84 15.5t82 39.5l37 -135q-49 -33 -111.5 -55.5t-126.5 -22.5q-84 0 -149.5 57.5t-108.5 201.5l-76 -19q-14 -74 -67 -119t-133 -67v-8q66 -18 121 -51t88.5 -87.5t33.5 -136.5q0 -137 -113.5 -230t-355.5 -93q-119 0 -215 18t-159 53z" />
<glyph unicode="&#x25e;" horiz-adv-x="1228" d="M113 547q0 268 145 419.5t424 151.5q205 0 311.5 -83t106.5 -216q0 -106 -56.5 -160.5t-150.5 -80.5v-9q59 -8 115.5 -36.5t92.5 -82t36 -137.5q0 -92 -51.5 -167.5t-158 -120.5t-270.5 -45q-272 0 -408 153.5t-136 413.5zM299 547q0 -213 95 -315.5t284 -102.5 q127 0 203.5 48t76.5 147q0 90 -77.5 127.5t-235.5 37.5h-86v148h57q141 0 226.5 34t85.5 132q0 70 -56.5 117t-193.5 47q-195 0 -287 -106.5t-92 -313.5z" />
<glyph unicode="&#x25f;" horiz-adv-x="528" d="M-113 -322q31 -10 64 -15t72 -5q66 0 108.5 36t42.5 136v678h-154v145h154v445h180v-445h154v-145h-154v-672q0 -154 -73.5 -241t-235.5 -87q-53 0 -92 7.5t-66 17.5v145z" />
<glyph unicode="&#x260;" horiz-adv-x="1259" d="M111 547q0 262 118.5 416.5t331.5 154.5q106 0 194.5 -41t149.5 -125h13q-4 35 -8.5 88.5t-4.5 92.5v147q0 287 250 287q39 0 75 -9.5t58 -17.5v-149q-14 6 -42.5 13t-63.5 7q-47 0 -73 -27.5t-26 -91.5v-1310q0 -236 -119.5 -355t-371.5 -119q-242 0 -395 70v166 q162 -86 405 -86q141 0 222 83t81 226v43q0 16 2 48t3 58.5t1 28.5h-8q-111 -166 -340 -165q-213 0 -332.5 149.5t-119.5 417.5zM297 545q0 -203 74.5 -310.5t218.5 -107.5q166 0 241.5 89t75.5 288v43q0 223 -77.5 321.5t-243.5 98.5q-139 0 -214 -109.5t-75 -312.5z" />
<glyph unicode="&#x261;" horiz-adv-x="1259" d="M113 547q0 262 119.5 416.5t330.5 154.5q109 0 196 -41t148 -125h11l24 146h143v-1116q0 -236 -119.5 -355t-371.5 -119q-242 0 -395 70v166q162 -86 405 -86q141 0 222 83t81 226v43q0 25 2 71t4 64h-8q-111 -166 -340 -165q-213 0 -332.5 149.5t-119.5 417.5zM299 545 q0 -203 73.5 -310.5t219.5 -107.5q166 0 241.5 89t75.5 288v43q0 223 -77.5 321.5t-243.5 98.5q-137 0 -213 -109.5t-76 -312.5z" />
<glyph unicode="&#x262;" horiz-adv-x="1175" d="M113 543q0 203 73.5 329.5t197.5 186t278 59.5q223 0 350 -74l-66 -155q-66 33 -137.5 52.5t-136.5 19.5q-373 0 -373 -416q0 -199 79 -304.5t234 -105.5q74 0 126.5 6t109.5 23v301h-236v145h416v-553q-100 -37 -197.5 -57t-216.5 -20q-147 0 -259.5 59t-177 184 t-64.5 320z" />
<glyph unicode="&#x263;" horiz-adv-x="1040" d="M0 1098h193l208 -494q29 -66 64 -152.5t49 -152.5h8q12 41 32.5 96.5t43.5 110.5t41 98l209 494h192l-419 -936q63 -121 98 -215t35 -180q0 -106 -65 -180t-171 -74t-170.5 72.5t-64.5 181.5q0 102 38.5 196t94.5 199zM442 -227q0 -59 22.5 -85t53.5 -26t53.5 25.5 t22.5 83.5q0 41 -18.5 108.5t-57.5 130.5q-39 -63 -57.5 -129.5t-18.5 -107.5z" />
<glyph unicode="&#x264;" horiz-adv-x="1040" d="M-6 961v137q18 8 39.5 14t50.5 6q61 0 104 -30.5t101 -108.5l125 -172q29 -39 55.5 -81t44.5 -79h8q20 33 49 78t56 82l125 176q47 66 91.5 100.5t114.5 34.5q27 0 47.5 -4t38.5 -12v-141q-10 2 -27.5 6t-33.5 4q-25 0 -50.5 -17.5t-70.5 -79.5l-248 -339 q74 -100 107 -168t33 -156q0 -104 -64.5 -166.5t-171.5 -62.5q-106 0 -170.5 62t-64.5 169q0 88 34.5 157.5t104.5 164.5l-260 352q-33 47 -58.5 64.5t-54.5 19.5q-18 2 -31.5 -3t-23.5 -7zM442 227q0 -49 22.5 -72.5t53.5 -23.5t53.5 24.5t22.5 73.5q0 53 -24.5 99.5 t-51.5 83.5q-35 -47 -55.5 -91.5t-20.5 -93.5z" />
<glyph unicode="&#x265;" horiz-adv-x="1265" d="M166 383v715h178v-702q0 -264 246 -265q184 0 253 103.5t69 296.5v567h180v-1556h-180v456q0 82 10 154h-12q-53 -84 -144.5 -127t-197.5 -43q-199 0 -300.5 95t-101.5 306z" />
<glyph unicode="&#x266;" horiz-adv-x="1265" d="M174 0v1280q0 287 250 287q39 0 76 -9.5t57 -17.5v-149q-14 6 -44 13t-62 7q-45 0 -71 -27.5t-26 -91.5v-192q0 -82 -10 -154h12q53 84 144.5 127t197.5 43q199 0 300.5 -95t101.5 -306v-715h-178v702q0 264 -246 265q-184 0 -253 -103.5t-69 -296.5v-567h-180z" />
<glyph unicode="&#x267;" horiz-adv-x="1265" d="M174 0v1280q0 287 250 287q39 0 76 -9.5t57 -17.5v-149q-14 6 -44 13t-62 7q-45 0 -71 -27.5t-26 -91.5v-192q0 -82 -10 -154h12q53 84 144.5 127t197.5 43q199 0 300.5 -95t101.5 -306v-920q0 -287 -248 -287q-39 0 -75 8.5t-58 18.5v150q14 -6 43 -13.5t63 -7.5 q47 0 72 26.5t25 92.5v919q0 264 -246 265q-184 0 -253 -103.5t-69 -296.5v-567h-180z" />
<glyph unicode="&#x268;" horiz-adv-x="528" d="M20 508v145h154v445h180v-445h154v-145h-154v-508h-180v508h-154zM160 1395q0 59 30.5 86.5t75.5 27.5q41 0 73 -27.5t32 -86.5t-32 -87t-73 -28q-45 0 -75.5 27.5t-30.5 87.5z" />
<glyph unicode="&#x269;" horiz-adv-x="708" d="M168 322v776h178v-774q0 -98 38 -147.5t120 -49.5q45 0 93 7t75 16v-138q-29 -14 -84.5 -23t-108.5 -9q-90 0 -160.5 29.5t-110.5 104t-40 208.5z" />
<glyph unicode="&#x26a;" horiz-adv-x="655" d="M74 0v106l164 35v813l-164 37v107h508v-107l-164 -37v-813l164 -35v-106h-508z" />
<glyph unicode="&#x26b;" horiz-adv-x="774" d="M10 657q12 121 70.5 192t155.5 71q27 0 61 -11v647h180v-735q18 -8 36.5 -13t35.5 -5q47 0 72.5 29.5t40.5 89.5h102q-12 -119 -69.5 -191t-153.5 -72q-29 0 -64 11v-670h-180v758q-18 8 -35.5 13t-34.5 5q-49 0 -73.5 -29.5t-38.5 -89.5h-105z" />
<glyph unicode="&#x26c;" horiz-adv-x="716" d="M-20 823q0 53 21.5 102.5t69.5 80t128 30.5q27 0 55.5 -9t48.5 -28v557h180v-800h213v-148h-213v-608h-180v608h-86q-127 0 -182 60.5t-55 154.5zM143 823q0 -37 25.5 -52t62.5 -15h72v22q0 47 -18.5 79t-69.5 32q-39 0 -55.5 -20.5t-16.5 -45.5z" />
<glyph unicode="&#x26d;" horiz-adv-x="526" d="M174 -150v1706h178v-1703q0 -98 37 -147.5t121 -49.5q35 0 74 6t65 16v-137q-29 -14 -70 -23.5t-94 -9.5q-90 0 -160.5 30t-110.5 104.5t-40 207.5z" />
<glyph unicode="&#x26e;" horiz-adv-x="1345" d="M174 0v1556h180v-458h867v-131l-449 -500q231 -14 367.5 -128t136.5 -337q0 -145 -66.5 -257t-189.5 -174.5t-287 -62.5q-121 0 -217 18.5t-162 53.5v164q68 -33 168.5 -59.5t218.5 -26.5q158 0 256.5 91t98.5 249q0 172 -114 249t-300 77h-121v125l449 497h-656v-946 h-180z" />
<glyph unicode="&#x26f;" horiz-adv-x="1914" d="M166 383v715h178v-707q0 -260 223 -260q160 0 228.5 92.5t68.5 268.5v606h179v-707q0 -260 225 -260q166 0 229.5 102.5t63.5 295.5v569h180v-1098h-145l-27 150h-10q-51 -86 -138.5 -128t-185.5 -42q-258 0 -336 184h-10q-55 -94 -149 -139t-203 -45q-186 0 -278.5 96 t-92.5 307z" />
<glyph unicode="&#x270;" horiz-adv-x="1914" d="M166 383v715h178v-707q0 -260 223 -260q160 0 228.5 92t68.5 269v606h178v-707q0 -260 226 -260q166 0 229.5 102.5t63.5 294.5v570h180v-1590h-180v480q0 31 4 83t8 79h-14q-51 -86 -138.5 -128t-185.5 -42q-258 0 -336 184h-10q-55 -94 -150.5 -139t-201.5 -45 q-186 0 -278.5 96t-92.5 307z" />
<glyph unicode="&#x271;" horiz-adv-x="1914" d="M174 0v1098h145l27 -150h10q51 86 138.5 128t185.5 42q258 0 336 -184h10q55 94 149 139t203 45q186 0 278.5 -96t92.5 -307v-920q0 -287 -248 -287q-39 0 -75.5 8.5t-57.5 18.5v150q14 -6 44 -13.5t63 -7.5q45 0 70.5 26.5t25.5 92.5v924q0 260 -223 260 q-160 0 -228.5 -92.5t-68.5 -268.5v-606h-179v707q0 260 -225 260q-166 0 -229.5 -102.5t-63.5 -295.5v-569h-180z" />
<glyph unicode="&#x272;" horiz-adv-x="1265" d="M-59 -322q16 -8 47.5 -15t58.5 -7q63 0 95 38t32 159v1245h145l27 -150h10q53 86 147.5 128t198.5 42q197 0 297.5 -96t100.5 -307v-715h-178v702q0 264 -246 265q-182 0 -252 -102.5t-70 -295.5v-719q0 -133 -36.5 -207.5t-99 -104.5t-134.5 -30q-45 0 -83 9.5t-60 23.5 v137z" />
<glyph unicode="&#x273;" horiz-adv-x="1265" d="M174 0v1098h145l27 -150h10q53 86 147.5 128t198.5 42q197 0 297.5 -96t100.5 -307v-862q0 -121 31.5 -159t93.5 -38q29 0 60.5 7t47.5 15v-137q-23 -14 -61.5 -23.5t-81.5 -9.5q-72 0 -133.5 30t-98 104.5t-36.5 207.5v852q0 264 -246 265q-182 0 -252 -102.5 t-70 -295.5v-569h-180z" />
<glyph unicode="&#x274;" horiz-adv-x="1294" d="M174 0v1098h221l568 -885q-2 29 -5.5 78t-5.5 98t-2 74v635h170v-1098h-223l-561 883q2 -27 4 -79t3 -106.5t1 -85.5v-612h-170z" />
<glyph unicode="&#x275;" horiz-adv-x="1239" d="M113 551q0 272 136 419.5t374 147.5q147 0 261.5 -66.5t179 -192.5t64.5 -308q0 -272 -138 -421.5t-374 -149.5q-145 0 -258.5 66.5t-179 194.5t-65.5 310zM299 489q8 -176 87 -268t235 -92q158 0 233.5 92t85.5 268h-641zM301 639h639q-14 162 -93 245t-229 83 q-152 0 -227.5 -83t-89.5 -245z" />
<glyph unicode="&#x276;" horiz-adv-x="1769" d="M113 551q0 272 136 419.5t374 147.5q193 0 319 -133v113h721v-150h-551v-301h518v-149h-518v-348h551v-150h-721v111q-61 -63 -143 -97t-183 -34q-145 0 -258.5 66.5t-179 194.5t-65.5 310zM299 551q0 -195 77 -308.5t245 -113.5q166 0 243.5 113.5t77.5 308.5t-78 305.5 t-246 110.5q-141 0 -230 -111t-89 -305z" />
<glyph unicode="&#x277;" horiz-adv-x="1601" d="M115 465q0 199 76.5 345t230.5 227t383 81q219 0 371.5 -80t231.5 -226t79 -347q0 -219 -100.5 -352t-290.5 -133q-221 0 -291 184h-10q-66 -184 -289 -184q-190 0 -290.5 133t-100.5 352zM295 469q0 -168 61.5 -254t161.5 -86t148.5 76t48.5 190v269h172v-269 q0 -127 51 -196.5t143 -69.5q102 0 164 86t62 254q0 233 -127 366.5t-375 133.5t-379 -133.5t-131 -366.5z" />
<glyph unicode="&#x278;" horiz-adv-x="1484" d="M111 549q0 250 144 397.5t404 167.5v442h170v-442q162 -16 285 -87t190.5 -191.5t67.5 -286.5q0 -250 -144.5 -397.5t-398.5 -167.5v-476h-176v476q-162 14 -284.5 84.5t-190 191.5t-67.5 289zM299 549q0 -186 86 -292.5t274 -125.5v834q-188 -18 -274 -124t-86 -292z M829 131q184 20 270.5 127t86.5 291t-87.5 289t-269.5 125v-832z" />
<glyph unicode="&#x279;" horiz-adv-x="845" d="M31 -8l22 166q27 -6 60 -10t59 -4q84 0 158 46t118 129t44 193v586h180v-1098h-148l-20 201h-8q-51 -90 -136 -155.5t-200 -65.5q-31 0 -65.5 3t-63.5 9z" />
<glyph unicode="&#x27a;" horiz-adv-x="845" d="M31 -8l22 166q27 -6 58.5 -10.5t60.5 -4.5q86 0 158.5 46.5t117 129t44.5 193.5v1044h180v-1556h-148l-20 201h-8q-53 -90 -137 -155.5t-199 -65.5q-31 0 -67 3t-62 9z" />
<glyph unicode="&#x27b;" horiz-adv-x="845" d="M31 -8l22 166q27 -6 58.5 -10.5t60.5 -4.5q86 0 158.5 46.5t117 129t44.5 193.5v586h180v-1245q0 -121 29.5 -159t86.5 -38q39 0 70 7t47 15v-137q-20 -14 -61 -23.5t-96 -9.5q-68 0 -126.5 30t-94 104.5t-35.5 207.5v189q0 31 4 83t8 79h-8q-53 -90 -137.5 -155.5 t-198.5 -65.5q-31 0 -67 3t-62 9z" />
<glyph unicode="&#x27c;" horiz-adv-x="845" d="M174 -492v1590h148l20 -201h8q51 90 136 155.5t200 65.5q31 0 65.5 -3t63.5 -9l-22 -166q-27 6 -60 10t-59 4q-84 0 -158 -46t-118 -129t-44 -193v-1078h-180z" />
<glyph unicode="&#x27d;" horiz-adv-x="845" d="M174 -150v1248h148l20 -201h8q51 90 136 155.5t200 65.5q31 0 65.5 -3t63.5 -9l-22 -166q-27 6 -60 10t-59 4q-84 0 -158 -46t-118 -129t-44 -193v-733q0 -98 36 -147.5t120 -49.5q35 0 66.5 6t58.5 16v-137q-29 -14 -62.5 -23.5t-87.5 -9.5q-90 0 -160.5 30 t-110.5 104.5t-40 207.5z" />
<glyph unicode="&#x27e;" horiz-adv-x="708" d="M168 0v776q0 133 41 208t115 104.5t172 29.5q41 0 90 -10t86 -23l-23 -153q-27 8 -65.5 19.5t-94.5 11.5q-72 0 -107.5 -45.5t-35.5 -143.5v-774h-178z" />
<glyph unicode="&#x27f;" horiz-adv-x="708" d="M37 1085q37 12 86 22.5t90 10.5q98 0 172 -29.5t115 -104.5t41 -208v-1268h-179v1266q0 98 -35.5 143.5t-107.5 45.5q-55 0 -94 -11.5t-66 -19.5z" />
<glyph unicode="&#x280;" horiz-adv-x="1144" d="M174 0v1098h492q176 0 282.5 -84t106.5 -240q0 -98 -37 -161.5t-95.5 -100.5t-123.5 -51l313 -461h-209l-282 436h-267v-436h-180zM354 586h258q127 0 198 45t71 141q0 76 -53.5 126t-180.5 50h-293v-362z" />
<glyph unicode="&#x281;" horiz-adv-x="1144" d="M174 0h492q176 0 282.5 84t106.5 240q0 98 -37 161.5t-95.5 100.5t-123.5 51l313 461h-209l-282 -436h-267v436h-180v-1098zM354 150v362h258q127 0 198 -45t71 -141q0 -76 -53.5 -126t-180.5 -50h-293z" />
<glyph unicode="&#x282;" horiz-adv-x="980" d="M104 827q0 139 114 215t298 76q100 0 187.5 -20.5t162.5 -53.5l-61 -143q-70 29 -145.5 49.5t-155.5 20.5q-111 0 -169.5 -36t-58.5 -97q0 -47 27 -78t89.5 -61.5t166.5 -69.5t178 -80t113 -99.5t39 -146.5q0 -160 -119 -241.5t-319 -81.5q-94 0 -164 12v-139 q0 -98 36.5 -147.5t118.5 -49.5q35 0 67 6t58 16v-137q-29 -14 -62.5 -23.5t-86.5 -9.5q-90 0 -161 30t-111 104.5t-40 207.5v363q66 -33 159 -60.5t190 -27.5q137 0 198.5 44t61.5 118q0 41 -22.5 73.5t-81 65.5t-167.5 74q-106 41 -182 82t-117 98t-41 147z" />
<glyph unicode="&#x283;" horiz-adv-x="528" d="M-59 -322q16 -8 47.5 -15t58.5 -7q63 0 95 38t32 159v1372q0 135 37 208.5t99 103.5t134 30q45 0 83 -9.5t61 -23.5v-137q-16 8 -48 15t-59 7q-63 0 -95 -38t-32 -158v-1373q0 -133 -36.5 -207.5t-99 -104.5t-134.5 -30q-45 0 -83 9.5t-60 23.5v137z" />
<glyph unicode="&#x284;" horiz-adv-x="528" d="M-59 -322q16 -8 47.5 -15t58.5 -7q63 0 95 38t32 159v655h-154v145h154v572q0 135 37 208.5t99.5 103.5t133.5 30q45 0 83 -9.5t61 -23.5v-137q-16 8 -48 15t-59 7q-63 0 -95 -38t-32 -158v-570h154v-145h-154v-658q0 -133 -36.5 -207.5t-99 -104.5t-134.5 -30 q-45 0 -83 9.5t-60 23.5v137z" />
<glyph unicode="&#x285;" horiz-adv-x="528" d="M-29 948v137q20 14 56 23.5t77 9.5q68 0 125.5 -28.5t91 -98t33.5 -194.5v-944q0 -121 32 -159t95 -38q27 0 58.5 7t48.5 15v-137q-23 -14 -61 -23.5t-83 -9.5q-72 0 -134 30t-99 104.5t-37 207.5v938q0 100 -27.5 141.5t-83.5 41.5q-23 0 -49 -7.5t-43 -15.5z" />
<glyph unicode="&#x286;" horiz-adv-x="528" d="M-225 -250q0 113 69.5 181.5t227.5 68.5h102v1225q0 135 37 208.5t99.5 103.5t133.5 30q45 0 83 -9.5t61 -23.5v-137q-16 8 -48 15t-59 7q-63 0 -95 -38t-32 -158v-1223h154v-147h-154q-2 -135 -42 -210t-103 -105t-141 -30q-131 0 -212 68t-81 174zM-55 -246 q0 -41 22.5 -69.5t85.5 -28.5q55 0 88 38t33 128v31h-90q-57 0 -98 -20.5t-41 -78.5z" />
<glyph unicode="&#x287;" horiz-adv-x="739" d="M45 948v138q29 14 82 23t102 9q86 0 158.5 -29.5t118 -103t45.5 -206.5v-639h155v-86l-157 -72l-72 -234h-107v252h-317v140h317v634q0 100 -48 148.5t-124 48.5q-41 0 -84 -6t-69 -17z" />
<glyph unicode="&#x288;" horiz-adv-x="739" d="M33 958v86l157 72l72 234h107v-252h317v-140h-317v-1105q0 -100 48 -148.5t124 -48.5q41 0 84 6t69 16v-137q-29 -14 -82 -23.5t-102 -9.5q-86 0 -158.5 30t-118 103.5t-45.5 206.5v1110h-155z" />
<glyph unicode="&#x289;" horiz-adv-x="1265" d="M20 518v146h142v434h182v-434h567v434h181v-434h153v-146h-153v-518h-148l-26 145h-9q-53 -86 -147 -125.5t-201 -39.5q-199 0 -299 95t-100 304v139h-142zM344 391q0 -262 244 -262q182 0 252.5 101.5t70.5 287.5h-567v-127z" />
<glyph unicode="&#x28a;" horiz-adv-x="1239" d="M61 948v150h484v-142q-98 -45 -172 -164.5t-74 -295.5q0 -164 77 -265.5t245 -101.5q166 0 243.5 102.5t77.5 266.5q0 104 -35 198.5t-92 164t-121 95.5v142h484v-150h-267q217 -174 217 -450q0 -244 -138 -381t-374 -137q-145 0 -258.5 62t-179 178t-65.5 276 q0 152 55 262t160 190h-267z" />
<glyph unicode="&#x28b;" horiz-adv-x="1255" d="M166 475v623h180v-617q0 -199 68.5 -275.5t216.5 -76.5q147 0 215.5 79t68.5 273v293q0 113 -31.5 151t-109.5 38q-61 0 -117 -19v154q27 8 65.5 14t63.5 6q94 0 164 -28.5t108 -102.5t38 -207v-305q0 -248 -114 -371.5t-351 -123.5q-242 0 -353.5 119.5t-111.5 375.5z " />
<glyph unicode="&#x28c;" horiz-adv-x="1040" d="M0 0l417 1098h207l416 -1098h-193l-233 647q-16 45 -34.5 100.5t-33 106.5t-20.5 84h-8q-6 -33 -22.5 -85t-35 -106.5t-34.5 -99.5l-234 -647h-192z" />
<glyph unicode="&#x28d;" horiz-adv-x="1609" d="M23 -2l305 1098h211l188 -619q27 -84 47.5 -163.5t28.5 -126.5h8q8 47 26.5 126.5t47.5 166.5l197 616h204l301 -1098h-186l-151 586q-23 88 -43.5 178t-28.5 150h-8q-6 -35 -18.5 -86.5t-27 -107.5t-28.5 -101l-195 -619h-196l-189 619q-20 72 -42.5 153.5t-30.5 139.5 h-9q-6 -51 -27.5 -141.5t-45.5 -184.5l-154 -586h-184z" />
<glyph unicode="&#x28e;" horiz-adv-x="1044" d="M0 0l473 1250q59 156 149 248t250 92q49 0 86 -5.5t63 -11.5v-143q-23 4 -54.5 8t-65.5 4q-94 0 -151.5 -53t-92.5 -141l-57 -146l442 -1102h-193l-237 625q-31 84 -55.5 157.5t-36.5 141.5h-8q-12 -51 -39 -134t-56 -167l-223 -623h-194z" />
<glyph unicode="&#x28f;" horiz-adv-x="970" d="M0 1098h205l282 -496l281 496h203l-393 -645v-453h-181v453z" />
<glyph unicode="&#x290;" horiz-adv-x="962" d="M80 0v119l590 839h-555v140h753v-135l-581 -824h596v-286q0 -121 31.5 -159t93.5 -38q29 0 60.5 7t47.5 15v-137q-23 -14 -61.5 -23.5t-81.5 -9.5q-72 0 -131.5 30t-94 104.5t-34.5 207.5v150h-633z" />
<glyph unicode="&#x291;" horiz-adv-x="1110" d="M80 0v119l590 839h-555v140h753v-135l-581 -824h170q84 166 174 246t217 80q106 0 174 -63.5t68 -149.5q0 -113 -76 -182.5t-262 -69.5h-199q-37 -78 -74 -178l-137 57q12 33 24.5 62.5t24.5 58.5h-311zM621 139h141q92 0 125 32t33 77q0 29 -21.5 53.5t-67.5 24.5 q-55 0 -106 -45.5t-104 -141.5z" />
<glyph unicode="&#x292;" horiz-adv-x="1019" d="M29 -256q68 -33 167 -59.5t220 -26.5q158 0 256 91t98 249q0 172 -113.5 249t-300.5 77h-120v125l448 497h-627v152h838v-131l-449 -500q139 -8 254 -62.5t182.5 -153.5t67.5 -249q0 -145 -66.5 -257t-188.5 -174.5t-287 -62.5q-121 0 -217.5 18.5t-161.5 53.5v164z" />
<glyph unicode="&#x293;" horiz-adv-x="1019" d="M-41 -201q0 111 90 180.5t250 69.5q121 0 234.5 -38t222.5 -111q6 23 10 47t4 51q0 172 -113.5 249t-300.5 77h-120v125l448 497h-627v152h838v-131l-449 -500q139 -8 254 -62.5t182.5 -153.5t67.5 -249q0 -59 -13 -113.5t-38 -103.5q39 -37 78 -79t78 -87l-117 -111 q-74 82 -141 148q-78 -70 -191 -109t-252 -39q-94 0 -185 30t-150.5 94.5t-59.5 166.5zM129 -205q0 -63 63.5 -100t161.5 -37q199 0 316 106q-96 72 -185.5 104t-181.5 32q-96 0 -135 -33t-39 -72z" />
<glyph unicode="&#x294;" horiz-adv-x="872" d="M25 1452q72 51 164.5 83t201.5 32q211 0 319.5 -104.5t108.5 -286.5q0 -92 -37 -188.5t-120.5 -183.5t-227.5 -155v-649h-180v743q180 57 280.5 169t100.5 257q0 248 -252 248q-72 0 -150.5 -26.5t-140.5 -73.5z" />
<glyph unicode="&#x295;" horiz-adv-x="872" d="M53 1176q0 -92 37 -188.5t120.5 -183.5t227.5 -155v-649h180v743q-180 57 -280.5 169t-100.5 257q0 248 252 248q72 0 150.5 -26.5t140.5 -73.5l67 135q-72 51 -164.5 83t-201.5 32q-211 0 -319.5 -104.5t-108.5 -286.5z" />
<glyph unicode="&#x296;" horiz-adv-x="872" d="M25 94l67 135q61 -45 140 -72.5t151 -27.5q252 0 252 248q0 143 -100.5 255.5t-280.5 170.5v753h180v-659q143 -66 227 -154t121 -184t37 -188q0 -182 -108.5 -286.5t-319.5 -104.5q-109 0 -202 30.5t-164 83.5z" />
<glyph unicode="&#x297;" horiz-adv-x="960" d="M113 305q0 233 40 390t110.5 250t163.5 133t200 40q82 0 160.5 -17.5t127.5 -41.5l-55 -150q-49 18 -114.5 35t-122.5 17q-102 0 -175 -65t-111 -208t-38 -379q0 -240 36 -381t106.5 -201.5t170.5 -60.5q88 0 158 18.5t127 45.5v-160q-55 -29 -122 -44t-161 -15 q-254 0 -377.5 193.5t-123.5 600.5z" />
<glyph unicode="&#x298;" horiz-adv-x="1599" d="M125 735q0 223 73.5 392t224 263.5t380.5 94.5q219 0 368.5 -93.5t226.5 -262.5t77 -396t-77 -396t-227.5 -263t-369.5 -94q-227 0 -378 94t-224.5 264t-73.5 397zM319 733q0 -276 117 -435t365 -159t363.5 159t115.5 435t-114.5 433t-362.5 157q-250 0 -367 -157 t-117 -433zM673 723q0 76 37 106.5t88 30.5t90 -31t39 -106q0 -74 -38.5 -107t-90.5 -33q-51 0 -88 33t-37 107z" />
<glyph unicode="&#x299;" horiz-adv-x="1179" d="M174 0v1098h471q117 0 210 -25.5t147.5 -86.5t54.5 -165q0 -102 -61.5 -159.5t-157.5 -77.5v-9q100 -14 177 -72.5t77 -180.5q0 -139 -103.5 -230.5t-341.5 -91.5h-473zM354 145h273q135 0 206.5 40.5t71.5 136.5q0 94 -71.5 135t-210.5 41h-269v-353zM354 647h248 q272 0 272 152q0 78 -56 113.5t-183 35.5h-281v-301z" />
<glyph unicode="&#x29a;" horiz-adv-x="1228" d="M92 303q0 82 34 136.5t89 87t121 51.5v8q-94 27 -150.5 85t-56.5 158q0 137 117.5 213t318.5 76q266 0 408.5 -149.5t142.5 -417.5q0 -260 -136 -415.5t-409 -155.5q-246 0 -362.5 93t-116.5 230zM270 313q0 -102 85 -143t212 -41q188 0 275.5 104.5t87.5 317.5 q-1 416 -361 416q-268 0 -268 -154q0 -92 85 -130t226 -38h58v-147h-86q-313 0 -314 -185z" />
<glyph unicode="&#x29b;" horiz-adv-x="1175" d="M113 543q0 203 73.5 329.5t197.5 186t278 59.5q109 0 194 -18v192q0 133 55.5 204t180.5 71q39 0 69.5 -9.5t52.5 -17.5v-149q-14 6 -42.5 13t-63.5 7q-96 0 -96 -98v-269l-66 -155q-66 33 -137.5 52.5t-136.5 19.5q-373 0 -373 -416q0 -199 79 -304.5t234 -105.5 q74 0 126.5 6t109.5 23v301h-236v145h416v-553q-100 -37 -197.5 -57t-216.5 -20q-147 0 -259.5 59t-177 184t-64.5 320z" />
<glyph unicode="&#x29c;" horiz-adv-x="1304" d="M174 0v1098h180v-457h596v457h180v-1098h-180v489h-596v-489h-180z" />
<glyph unicode="&#x29d;" horiz-adv-x="528" d="M-195 -250q0 113 66 181.5t215 68.5h88v1098h180v-1098h154v-147h-154q-2 -135 -40 -210t-98 -105t-134 -30q-123 0 -200 68t-77 174zM-25 -246q0 -41 20 -69.5t75 -28.5q47 0 75.5 37t28.5 125v35h-78q-49 0 -85 -20.5t-36 -78.5zM160 1395q0 59 30.5 86.5t75.5 27.5 q41 0 73 -27.5t32 -86.5t-32 -87t-73 -28q-45 0 -75.5 27.5t-30.5 87.5z" />
<glyph unicode="&#x29e;" horiz-adv-x="1093" d="M19 1098h217l381 -512l125 109v403h178v-1556h-178v813q0 33 3 86t5 92h-8q-12 -16 -37 -47t-50.5 -63t-43.5 -52l-351 -371h-210l444 469z" />
<glyph unicode="&#x29f;" horiz-adv-x="890" d="M174 0v1098h180v-948h500v-150h-680z" />
<glyph unicode="&#x2a0;" horiz-adv-x="1259" d="M113 547q0 283 123.5 427t328.5 144q127 0 208 -47t132 -115h13q-4 27 -8.5 79t-4.5 83v107q0 135 36 208.5t94.5 103.5t127.5 30q55 0 95 -9.5t61 -23.5v-137q-16 8 -47 15t-70 7q-59 0 -88 -38t-29 -158v-1715h-180v472q0 31 4 83t9 78h-13q-51 -68 -132 -114.5 t-208 -46.5q-205 0 -328.5 142t-123.5 425zM299 543q0 -197 73 -305.5t220 -108.5q174 0 244.5 95t70.5 288v33q0 205 -67.5 314.5t-249.5 109.5q-145 0 -218 -116t-73 -310z" />
<glyph unicode="&#x2a1;" horiz-adv-x="872" d="M25 1452q72 51 164.5 83t201.5 32q211 0 319.5 -104.5t108.5 -286.5q0 -92 -35.5 -188.5t-116.5 -183.5t-212 -155v-164h221v-149h-221v-336h-181v336h-186v149h186v258q166 57 263.5 169t97.5 257q0 248 -252 248q-72 0 -150.5 -26.5t-140.5 -73.5z" />
</font>
</defs>
</svg>
