<?xml version="1.0" standalone="no"?>
<!DOCTYPE svg PUBLIC "-//W3C//DTD SVG 1.1//EN" "http://www.w3.org/Graphics/SVG/1.1/DTD/svg11.dtd" >
<svg xmlns="http://www.w3.org/2000/svg" xmlns:xlink="http://www.w3.org/1999/xlink" version="1.1">
<metadata></metadata>
<defs>
<font id="uid_icecream_bold" horiz-adv-x="0" >
<font-face units-per-em="2048" ascent="1638" descent="-410" />
<missing-glyph horiz-adv-x="456" />
<glyph unicode="&#x3b;&#x3b;For&#x20;Education&#x20;Used&#x20;Only&#x3b;&#x3b;" horiz-adv-x="1394" d="M172 590q0 96 34 176t97.5 138.5t153.5 91t200 32.5q106 0 197.5 -29.5t157 -85t103.5 -134.5t38 -177q0 -74 -23 -147q-45 -147 -148 -221t-277 -74q-109 0 -206.5 27.5t-170 81t-114.5 134.5t-42 187zM352 549q0 -59 27 -106.5t72 -81t105 -51t128 -17.5t121 21.5 t90 60.5t57.5 90t20.5 113q0 100 -54.5 184t-158.5 119q-4 4 -14.5 6t-20.5 6q-6 0 -11 1t-9 1q-2 2 -7 2q-72 0 -135 -29.5t-110 -79t-74 -111.5t-27 -128zM401 563q0 57 28 109.5t75 92.5t107.5 63.5t123.5 23.5q35 0 68 -16.5t33 -57.5q0 -14 -5.5 -28.5t-13.5 -24.5 l-8 -10l-12 -6q-14 -6 -31 -7q-6 0 -12 1.5t-15 3.5q-4 0 -16 2t-16 6q-27 0 -49.5 -13.5t-40 -34t-26.5 -46t-9 -50.5q0 -104 84 -104q8 0 18 2t16 4q25 8 60 8q23 0 44 -12t21 -41q0 -20 -11 -34.5t-23 -22.5q-29 -18 -70 -28.5t-76 -10.5q-57 0 -102 19.5t-77 52 t-48.5 74.5t-16.5 85z" />
<glyph unicode="&#x3b;&#x3b;Registered&#x3b;&#x3b;" horiz-adv-x="1144" d="M43 465q0 117 38 216t110.5 172t180.5 114t249 41q111 0 201.5 -30t156 -86t102.5 -136t37 -181q0 -106 -42 -204.5t-118.5 -175t-184 -122.5t-236.5 -46q-102 0 -192.5 34.5t-157 94t-105.5 139.5t-39 170zM238 465q-1 -78 38 -146v11q0 16 3.5 30.5t7.5 28.5 q16 72 41.5 148.5t52.5 144.5q10 25 19.5 48.5t19.5 47.5q0 2 4 10l10 39l31 -6q20 10 47 11.5t49 1.5q33 0 83 -11.5t96 -33t80 -53t34 -72.5q0 -53 -28.5 -89t-65.5 -63q-16 -8 -29.5 -16.5t-30.5 -16.5q10 -4 21.5 -10t21.5 -14q29 -18 60 -45t39 -66q35 53 54 115.5 t19 126.5q0 131 -75.5 208.5t-221.5 77.5q-94 0 -165.5 -31.5t-119.5 -87t-71.5 -130t-23.5 -158.5zM317 266q41 -43 94.5 -70.5t118.5 -27.5q76 0 139.5 27.5t110.5 72.5h-14q-18 0 -33.5 5.5t-27.5 11.5t-23.5 14t-22.5 14q-41 35 -81.5 61.5t-94.5 37.5q-4 -12 -4 -24.5 t-4 -27.5q-6 -29 -14 -52t-27 -50l-16 -22l-31 4q-12 4 -28.5 8t-32.5 12q-5 4 -9 6zM522 567q51 12 86 33t62 64q-27 10 -53.5 14t-55.5 8q-4 -23 -11 -42t-13 -38q-4 -10 -7.5 -19t-7.5 -20z" />
<glyph unicode="&#x3b;&#x3b;Multiply&#x3b;&#x3b;" horiz-adv-x="1183" d="M152 287q0 23 13 48t33.5 50t42 45.5t38.5 34.5q35 31 69.5 59.5t61.5 50.5q-14 25 -28.5 56t-27 63.5t-20.5 65.5t-8 59v15q0 70 69 69q33 0 60.5 -23.5t49 -57.5t38 -70.5t26.5 -61.5q37 25 75 50.5t79 47.5q57 33 122.5 56.5t137.5 23.5q20 0 36.5 -11t20.5 -15 l29 -31l-31 -29q-4 -4 -5 -6t-5 -6q-18 -18 -37.5 -34.5t-42.5 -30.5q-76 -45 -148.5 -92.5t-144.5 -92.5q23 -41 47.5 -79t47.5 -74q41 -66 75 -134l21 -40l-49 -17q-10 -4 -19.5 -4h-13.5q-6 0 -16.5 4t-22.5 9t-21.5 11.5t-13.5 12.5q-49 37 -95 92t-85 109 q-41 -35 -81 -66t-81 -65q-23 -18 -53.5 -33t-69.5 -15q-14 0 -23 1t-16 1q-10 4 -22 15.5t-12 38.5z" />
<glyph unicode="&#x3b;&#x3b;Divide&#x3b;&#x3b;" horiz-adv-x="892" d="M20 543q0 25 13.5 43t34 28.5t43 15.5t43.5 5q25 4 53.5 5t56.5 3q23 2 44.5 2t41.5 2q-53 23 -86 70t-33 102q0 37 14.5 72t41 62.5t65.5 45t86 17.5t86 -18.5t66.5 -47t43 -64.5t15.5 -71q0 -53 -31.5 -99t-82.5 -69q72 0 144.5 -2t141.5 -16q14 -4 39 -17.5t25 -48.5 q0 -37 -35 -61.5t-70 -24.5q-49 -6 -109.5 -8t-119.5 -2q45 -29 71.5 -76t26.5 -94q0 -76 -58.5 -131t-148.5 -55q-47 0 -86 15t-66.5 42t-43 61.5t-15.5 73.5q0 47 25 92t72 74q-29 0 -55.5 1t-55.5 1h-59q-16 2 -32.5 3t-33.5 3q-27 0 -49.5 18.5t-22.5 47.5zM406 299 q0 -23 10 -31t20 -8q20 0 32.5 11.5t12.5 25.5q0 20 -13 31.5t-28 11.5q-14 0 -24 -8t-10 -33zM406 817q0 -23 10 -31t20 -8q20 0 32.5 10.5t12.5 26.5q0 20 -13 31.5t-28 11.5q-14 0 -24 -9t-10 -32z" />
<glyph unicode="&#x2018;&#x2018;" horiz-adv-x="735" d="M96 905q0 92 49.5 157.5t147.5 98.5q10 4 18 4h15q12 0 37.5 -10t25.5 -43q0 -31 -25.5 -49.5t-50.5 -30.5q-6 -4 -11 -7t-9 -7q37 -14 59 -51q14 68 60.5 117t130.5 77q10 4 18 4h14q29 0 46.5 -14t17.5 -41q0 -23 -10.5 -34t-26.5 -21q-8 -4 -18.5 -10.5t-20.5 -12.5 q-6 -4 -11 -7t-9 -7q37 -16 57.5 -47t20.5 -66q0 -47 -37 -87t-101 -40q-45 0 -77.5 21.5t-47.5 54.5q-16 -31 -47.5 -53.5t-77.5 -22.5q-61 0 -99 40t-38 87z" />
<glyph unicode="&#x2019;&#x2019;" horiz-adv-x="735" d="M96 834q0 31 25.5 49t50.5 30q6 4 11 5.5t10 5.5q-35 14 -55.5 42.5t-20.5 73.5q0 47 38 86t99 39q45 0 76.5 -21.5t46.5 -53.5q16 33 48 54t79 21q61 0 98 -40t37 -85q0 -92 -46 -161.5t-153 -96.5q-16 -4 -26 -4q-29 0 -48.5 13.5t-19.5 42.5q0 27 14.5 40t24.5 17 q14 8 28.5 15t28.5 18q-39 18 -59 49q-14 -66 -60.5 -117t-132.5 -74q-16 -4 -26 -4q-29 0 -48.5 13.5t-19.5 42.5z" />
<glyph unicode="&#x3b;&#x3b;Trademark&#x3b;&#x3b;" horiz-adv-x="831" d="M29 1053q0 25 10 38t25.5 21t31 10t23.5 2h57t90 -4q25 0 47.5 -1t40.5 -3q10 0 18.5 -1t14.5 -1q4 -2 10 -2q4 4 9.5 7t9.5 7q18 12 45 13q41 0 69 -29q8 -8 11.5 -14t7.5 -11q4 -20 10 -41.5t14 -42.5q4 -8 5.5 -17t5.5 -17q6 10 10 24q10 18 18.5 35.5t18.5 30.5 q4 6 9 13t11 13q14 14 26.5 19.5t22.5 5.5q6 0 14.5 -2t18.5 -6q39 -12 49.5 -49t12.5 -72q2 -29 2 -55.5v-34.5q0 -25 -1 -71t-6.5 -95t-13.5 -93t-22 -67q-4 -8 -18.5 -21.5t-41.5 -13.5q-45 0 -58 25t-20 59v19q0 27 1 51.5t4 50.5q-10 -20 -24.5 -33.5t-39.5 -13.5 q-14 0 -29.5 9.5t-25.5 25.5q-2 2 -6 10q-8 -43 -20.5 -82t-29.5 -65q-6 -6 -23 -18.5t-30 -12.5q-29 0 -48 24.5t-19 51.5q0 10 2 33.5t5 57.5t7 72.5t10 77.5q4 35 7 69t8 60h-35q-4 -2 -11 -2q0 -4 -1 -8t-1 -10q-2 -18 -6 -57q-4 -33 -5 -71t-5 -75q-2 -18 -6 -46 t-12.5 -57.5t-18.5 -55t-24 -39.5q-12 -12 -28.5 -21.5t-43.5 -9.5q-23 0 -36 8t-20.5 18.5t-9.5 21.5t-2 17q0 78 13.5 155t23.5 151q2 18 4 36.5t4 34.5h-12q-14 0 -32.5 2t-35 9.5t-26.5 20t-10 32.5z" />
<glyph unicode="&#xe24;&#xe32;" horiz-adv-x="1210" d="M25 764q0 70 51 134.5t125.5 114.5t156.5 79.5t144 29.5q59 0 113.5 -18.5t97.5 -59.5q49 35 106.5 55.5t118.5 20.5q76 0 134 -36.5t85 -108.5q6 -14 9 -52t5.5 -89.5t3.5 -108.5t1 -110.5v-96.5v-63v-89.5v-153.5t-2.5 -183.5t-6.5 -179t-11 -143t-17 -75.5 q-35 -45 -90 -45q-37 0 -57.5 21.5t-31 52.5t-12.5 65.5t-2 61.5q0 229 7.5 458.5t7.5 459.5q0 63 -3.5 126.5t-19.5 124.5q-35 0 -64.5 -16t-56.5 -35q66 -133 79 -279.5t13 -293.5v-82v-129t-1 -151t-4 -146.5t-8 -115.5t-11 -60q-16 -25 -33.5 -39.5t-48.5 -14.5 q-55 0 -81 36t-26 87q0 162 4.5 323t4.5 322q0 35 -2.5 91.5t-9.5 121t-20.5 130t-37 119t-59 86t-84.5 32.5q-35 0 -73 -15.5t-72 -39t-61.5 -53t-45.5 -58.5q10 -2 18 -3t16 -1q12 0 23.5 1t24.5 1q59 0 80.5 -34.5t21.5 -88.5q0 -68 -10.5 -133t-14.5 -133 q92 0 155.5 -51t63.5 -150q0 -45 -17 -80.5t-47 -60.5t-67.5 -38t-80.5 -13q-57 0 -96.5 19.5t-64 53t-34.5 77.5t-10 96q0 92 10 184t22 184q-33 4 -69.5 14.5t-67 29t-51 47t-20.5 67.5zM381 184q0 -16 12.5 -32.5t28.5 -16.5q12 0 15 17.5t3 27.5q0 12 -6 34t-22 22 t-23.5 -19.5t-7.5 -32.5z" />
<glyph unicode="&#xe26;&#xe32;" horiz-adv-x="1232" d="M18 195q0 47 18.5 82.5t48.5 59t69 35t79 11.5h18.5t18.5 -2q4 39 6.5 76t2.5 75q0 41 -8.5 84t-28.5 80q-43 0 -79 19.5t-63.5 50.5t-43 71t-15.5 81q0 74 41 130t102.5 94t134 56.5t136.5 18.5q78 0 148.5 -28t123.5 -85q47 33 102.5 50t114.5 17q74 0 128 -28.5 t83 -100.5q6 -16 10 -57t6.5 -95t4.5 -114.5t2 -117v-101.5v-70q0 -18 1 -81.5t0 -147.5t-2 -179t-5.5 -178t-11.5 -143.5t-19 -74.5q-35 -45 -90 -45q-37 0 -58.5 21.5t-31 52t-11.5 65.5t-2 61q0 229 7.5 458.5t7.5 459.5q0 63 -3.5 126.5t-19.5 125.5q-35 0 -66.5 -16.5 t-58.5 -39.5q37 -98 48 -198.5t11 -204.5q0 -35 -4 -107.5t-12 -163t-19.5 -186.5t-24.5 -182t-27.5 -149.5t-30.5 -88.5q-33 -49 -88 -49q-49 0 -67.5 37t-18.5 78q0 78 13 155.5t26 155.5q23 135 38 271.5t15 275.5q0 57 -5 134t-26.5 145.5t-67 116.5t-122.5 48 q-37 0 -74 -10t-65.5 -30.5t-47 -51t-18.5 -71.5q25 -6 49.5 -9.5t46.5 -13.5q47 -20 73.5 -66.5t41 -101.5t18.5 -111.5t4 -101.5q0 -59 -5 -143t-28.5 -162t-69.5 -133t-130 -55q-43 0 -84 17t-73 46t-52.5 69t-20.5 83zM180 186q0 -14 6.5 -30.5t24.5 -16.5q23 0 32 20.5 t9 39.5q0 16 -7 28.5t-26 12.5q-23 0 -31 -18t-8 -36z" />
<glyph unicode="&#xd;" horiz-adv-x="579" />
<glyph unicode=" "  horiz-adv-x="456" />
<glyph unicode="&#x09;" horiz-adv-x="456" />
<glyph unicode="&#xa0;" horiz-adv-x="456" />
<glyph unicode="!" horiz-adv-x="364" d="M33 4q0 33 7 74t30 63l6 6h12q8 2 25 3h15t19 -3q-29 20 -48 60.5t-19 75.5q0 88 10 173t21 171q12 98 23 193t28 194q2 4 3 12t5 18q14 39 49 39q29 0 53.5 -16t43 -41t29.5 -51.5t11 -44.5q0 -47 -6 -91t-14 -89q-8 -47 -17.5 -92.5t-15.5 -92.5q-4 -25 -11 -83 t-18 -122q-8 -53 -18 -103t-31 -99l-4 -11l-10 -4q-12 -4 -23 -4q16 -8 30.5 -21.5t14.5 -33.5q0 -18 -9 -52t-24.5 -66t-38 -56.5t-46.5 -24.5q-20 0 -36 12.5t-26 30t-15 38t-5 38.5z" />
<glyph unicode="&#x22;" horiz-adv-x="475" d="M68 1157q0 18 3 50t7 65t11 64.5t13 49.5l2 13l13 6q6 4 11 4h9q4 2 6 1t7 -1q29 0 57.5 -20.5t44.5 -47.5q4 29 10 45l4 13l13 6q6 4 11 4h9q4 2 6 1t6 -1q23 0 43.5 -12.5t37 -30.5t25.5 -38.5t9 -37.5q0 -16 -8 -54t-21.5 -78t-33 -70.5t-44.5 -30.5q-41 0 -61 29.5 t-27 56.5q-12 -27 -24 -49q-2 -2 -5 -5.5t-7 -9.5q-10 -23 -37 -22q-20 0 -38 11t-29 26.5t-17 33t-6 29.5z" />
<glyph unicode="#" horiz-adv-x="811" d="M6 616v15l12 8q12 8 44 23.5t71 32t78 30.5t65 23q2 31 10.5 69.5t18.5 77.5t20.5 75t16.5 60q12 41 59 41q14 0 39 -11t25 -42q0 -10 -4 -19q0 -12 -6 -18q-2 -10 -5.5 -18.5t-3.5 -12.5q-6 -23 -13 -48t-13 -52q-2 -14 -4 -29.5t-4 -29.5l139 26q4 20 10 51l12 62 q6 29 12.5 55.5t16.5 52.5q4 12 8 18.5t4 8.5q4 4 16.5 11t28.5 7q10 0 19.5 -4t13.5 -8q6 -4 15 -12l6 -4l4 -8v-25q0 -29 -4 -56.5t-11 -52.5q-4 -12 -7 -26.5t-7 -26.5q8 4 15.5 5t13.5 5q20 4 43.5 8.5t46.5 4.5t41 -24.5t18 -45.5q0 -8 -4 -16.5t-18 -16.5 q-6 -4 -12.5 -5t-14.5 -5q-23 -10 -63.5 -20.5t-65.5 -14.5q-10 -2 -16 -4t-13 -4l-26 -125l16 4t15 4q35 10 72.5 17.5t76.5 7.5q25 0 41 -16.5t16 -36.5q0 -8 -4 -18.5t-18 -18.5q-29 -16 -57.5 -24.5t-59.5 -14.5q-35 -10 -67.5 -16.5t-59.5 -10.5l-76 -383l-22 -2 q-4 0 -8 -1t-9 -1q-8 0 -22 4t-27.5 13.5t-21.5 23.5t-4 33l55 272l-121 -24q-6 -43 -10 -87t-14 -85q-2 -6 -2 -18.5t-3 -28.5v-29q-4 -20 -4 -21q-4 -16 -18 -25t-31 -9q-16 0 -42.5 14t-26.5 43q0 33 4 64.5t8 60.5q4 20 7 37.5t7 34.5q-12 -4 -23.5 -8.5t-23.5 -8.5 q-14 -4 -27.5 -10t-27.5 -10q-10 -2 -24.5 -4t-26.5 -2q-18 0 -39 13t-21 38q0 16 8.5 22t14.5 11q4 2 7 3t5 3q10 4 21.5 9t21.5 9q12 4 23.5 11.5t23.5 11.5q14 8 28.5 14t31.5 12q10 4 20 10.5t21 10.5l18 118q-45 -16 -89 -29.5t-85 -35.5l-8 -4l-11 2q-25 4 -40 23 t-15 42zM373 539l121 34l28 117l-131 -33z" />
<glyph unicode="$" horiz-adv-x="739" d="M39 172v21q8 29 19.5 45t45.5 16q59 0 79 -41t28 -88q4 -12 6 -19l2 -2q0 -2 1 -2t1 -2q66 27 111 87.5t45 129.5q0 70 -26.5 124.5t-65.5 107.5t-72 114.5t-33 129.5q0 37 13.5 82t39 83.5t65.5 65.5t95 27q0 4 1 8t1 8q2 16 2 31.5t4 31.5q4 39 23.5 72t64.5 33 q53 0 75 -30.5t22 -69.5q0 -18 -3 -36t-8 -36q-4 -10 -6 -21.5t-6 -23.5q18 -14 40 -34.5t40.5 -44.5t30.5 -49.5t12 -49.5q0 -25 -20.5 -52.5t-61.5 -27.5q-23 0 -39 13t-22 26q-8 14 -14.5 30.5t-14.5 32.5q-10 20 -26.5 45t-43.5 25q-16 0 -28.5 -15.5t-21.5 -36t-14 -43 t-5 -34.5q0 -53 28 -107q14 -29 32 -54.5t34 -51.5q37 -55 69.5 -119.5t32.5 -148.5q0 -66 -16 -114t-45 -85t-68 -65.5t-86 -55.5h2v-18q0 -20 -5 -53t-16 -65t-29.5 -55.5t-47.5 -23.5q-10 0 -27.5 3t-34 10t-27.5 17.5t-11 24.5q0 10 1 21.5t3 23.5q8 23 13 45.5t9 44.5 q-16 6 -32.5 13.5t-32.5 17.5q-45 31 -63.5 74t-18.5 90z" />
<glyph unicode="%" horiz-adv-x="669" d="M39 94q0 16 10 46t27.5 68t40 80t45.5 85q25 43 48 86t44.5 81t39 67.5t25.5 45.5q31 49 59 98.5t56 100.5q39 74 90 152l8 12h33l10 -6q23 -14 37.5 -41t14.5 -56q0 -16 -31 -86.5t-79 -166t-104.5 -204t-108.5 -200.5t-93 -154.5t-55 -70.5q-6 -10 -20.5 -18.5 t-35.5 -8.5q-35 0 -48 31t-13 59zM66 698q0 25 16 66t43 79t61.5 66.5t71.5 28.5q33 0 55.5 -13.5t37 -34t20.5 -44t6 -43.5q0 -27 -15.5 -67t-42 -76.5t-62.5 -62.5t-77 -26q-33 0 -55.5 12.5t-35.5 31t-18 41t-5 42.5zM180 680q29 18 49.5 51t34.5 68q-31 -23 -54.5 -53.5 t-29.5 -65.5zM299 195v7t2 11q4 14 13.5 34.5t20.5 41t22.5 40t19.5 29.5q23 25 52.5 46.5t68.5 21.5q23 0 43 -9t37.5 -24.5t27.5 -36.5t10 -41q0 -29 -14 -72.5t-40.5 -84.5t-63.5 -71t-84 -30q-31 0 -50.5 11.5t-32 27t-18.5 33.5t-10 33v4q-2 2 -2 10v12q-2 4 -2 7z M420 170q27 16 46.5 50t29.5 63q-59 -45 -76 -113z" />
<glyph unicode="&#x26;" horiz-adv-x="704" d="M23 154q0 61 30.5 133.5t65.5 132.5q18 31 35.5 56.5t27.5 45.5q6 10 11.5 18.5t9.5 14.5q4 4 4 6q-2 59 -14.5 119.5t-12.5 122.5q0 53 11.5 98t39 78t72.5 52.5t111 19.5q31 0 64.5 -8.5t61 -27t46 -47t18.5 -67.5q0 -51 -21.5 -103.5t-54 -101.5t-70.5 -92t-73 -76 q16 -53 37.5 -104t44.5 -102q16 16 40.5 28t49.5 12q49 0 86 -22l27 -12l-15 -27q-14 -27 -53 -60.5t-65 -54.5q23 -37 44 -85t29 -89l4 -22l-24 -10q-12 -4 -31 -5q-39 0 -65.5 15.5t-42.5 38.5l-31 43q-2 2 -6 10q-41 -29 -93.5 -53.5t-111.5 -24.5q-37 0 -70 7 t-59.5 24.5t-41.5 46.5t-15 72zM201 154q0 -6 2 -18.5t12 -12.5t27.5 10t36 24.5t36 29t25.5 20.5q-16 25 -29.5 49.5t-23.5 50.5q-6 16 -11.5 29.5t-11.5 28.5q-12 -25 -23.5 -54.5t-20.5 -58.5t-14 -54.5t-5 -43.5zM348 725q29 33 57.5 85t28.5 95q0 4 -5 21.5t-9 17.5 q-20 0 -34.5 -28.5t-23 -66.5t-11.5 -74t-3 -50z" />
<glyph unicode="'" horiz-adv-x="294" d="M51 981q0 33 4 66.5t8 68.5q2 10 5.5 24.5t5.5 26.5q2 14 4 25.5t2 21.5v7l6 18l8 6q10 8 23 8h16q20 0 42 -10t39 -27.5t28.5 -38t11.5 -38.5t-8 -58.5t-22.5 -79t-36 -68.5t-48.5 -30t-57.5 25.5t-30.5 52.5z" />
<glyph unicode="(" horiz-adv-x="403" d="M33 334q0 66 11 159t35.5 195.5t61.5 203.5t89.5 182t120 131t151.5 50h19t20 -4l-4 -57q4 4 6 0h2q-4 -4 -9.5 -9t-9.5 -9q-10 -10 -18 -16.5t-8 -8.5q-66 -63 -118 -163.5t-89 -213t-57.5 -226.5t-20.5 -202q0 -37 4 -80t12.5 -85t23.5 -80t36 -66q16 -18 33.5 -35.5 t37.5 -22.5q10 -2 19.5 -3t17.5 -9l17 -14l-10 -21q-16 -29 -54.5 -38t-66.5 -9q-78 25 -127 76t-77 114.5t-38 131t-10 129.5z" />
<glyph unicode=")" horiz-adv-x="368" d="M-174 -47l10 10q10 10 29 14h12q49 12 88 51.5t67.5 93.5t49 118.5t33 127t18.5 121t6 99.5q0 70 -3 146.5t-15 152.5t-38 144.5t-71 119.5q-2 6 -20 25q-6 6 -15.5 16t-13.5 20l-10 27l31 12q12 4 23 4h20q68 0 115.5 -31.5t80.5 -82.5t53.5 -117t30.5 -133.5t13.5 -132 t3.5 -113.5q0 -84 -9.5 -179t-36 -188.5t-74.5 -178.5t-124 -146q-8 -6 -28.5 -18.5t-43 -24.5t-46 -20.5t-38.5 -8.5q-8 0 -23.5 3t-30.5 10.5t-27.5 17.5t-14.5 27z" />
<glyph unicode="*" horiz-adv-x="659" d="M8 831v11l6 8q10 14 25.5 19t32.5 8q16 2 35.5 4t37.5 4q16 0 34 1t32 1q-10 14 -19.5 28.5t-21.5 30.5t-23.5 30.5t-21.5 29.5q-4 10 -12 22q-6 10 -7.5 16.5t-1.5 10.5q0 31 23 42t39 11q14 0 31.5 -12.5t34 -28.5t29.5 -32.5t20 -26.5q14 -20 27.5 -38t23.5 -34 q43 72 92 135q10 12 28.5 24.5t34.5 12.5q29 0 41.5 -20.5t12.5 -32.5q0 -31 -13.5 -59.5t-29.5 -53.5q-10 -23 -27 -43h98q27 0 45.5 -18.5t18.5 -44.5q0 -14 -6 -23.5t-15 -13.5q-29 -16 -68.5 -19.5t-72.5 -3.5q-10 0 -20.5 1t-18.5 1q10 -16 24.5 -34.5t26.5 -41.5 q10 -18 22.5 -35.5t20.5 -33.5q4 -10 7.5 -15.5t7.5 -11.5l6 -12q0 -4 1 -7t1 -7q0 -18 -8.5 -28.5t-19.5 -17t-22.5 -8.5t-17.5 -2q-18 0 -41.5 18.5t-44 44t-37 51.5t-22.5 40q-8 -14 -24.5 -43t-38 -56.5t-45 -49t-42.5 -21.5q-25 0 -46 16.5t-21 44.5q0 14 7 29.5 t13 26.5q10 16 22.5 34.5t22.5 38.5t23.5 39t23.5 35q-16 -2 -32.5 -2h-32.5h-31.5t-44.5 4q-25 4 -51.5 15.5t-30.5 41.5z" />
<glyph unicode="+" horiz-adv-x="565" d="M47 502q0 4 1 7t1 7q2 4 2 6t2 6q20 39 36.5 54.5t64.5 19.5q6 2 14 2h18q8 16 23.5 44t34 54.5t40 47t42.5 20.5q45 0 75.5 -31.5t30.5 -70.5q0 -16 -5 -30.5t-11 -29.5q4 0 7 -1t7 -1h74l8 -16q10 -16 10 -37q0 -29 -12 -46.5t-31.5 -27.5t-44 -14t-47.5 -4 q-8 -2 -17.5 -2h-19.5q-4 -12 -8 -21q-6 -14 -13 -30.5t-16 -36.5q-16 -39 -28.5 -74t-18.5 -47q-10 -18 -18 -26.5t-31 -8.5q-25 0 -42 14.5t-29.5 33t-18.5 37.5t-6 30q0 25 5 46t11 38q2 10 4 17t6 18h-34q-23 0 -44.5 13t-21.5 40z" />
<glyph unicode="," horiz-adv-x="313" d="M37 -125q0 4 2 9t4 12q2 4 4 9t6 11q4 10 11.5 22.5t13.5 24.5q27 53 33 84q-12 -6 -29 -6q-18 0 -29.5 11t-11.5 28q0 25 12.5 40t29.5 22.5t34.5 10.5t27.5 3q20 0 43 -6.5t42.5 -18.5t31.5 -31.5t12 -48.5q0 -31 -8 -69.5t-26.5 -74.5t-46 -59.5t-64.5 -23.5 q-12 0 -27.5 2t-30 8t-24.5 15.5t-10 25.5z" />
<glyph unicode="-" horiz-adv-x="581" d="M57 547q0 27 15.5 48.5t46.5 25.5q57 12 115.5 17t117.5 9q37 4 75 3t75 5l22 4l13 -16q4 -12 8 -24.5t4 -26.5q0 -12 -5 -42t-26 -42l-10 -6h-12q-45 0 -90.5 -3t-90.5 -3h-174q-23 0 -53.5 10t-30.5 41z" />
<glyph unicode="." horiz-adv-x="303" d="M47 115l6 12q2 4 5 9t8 14q12 29 33.5 52t56.5 23q6 0 21.5 -6t29.5 -15t25.5 -21.5t11.5 -26.5t-6.5 -39t-17.5 -48.5t-27.5 -41t-36.5 -17.5q-41 0 -65.5 30t-39.5 64z" />
<glyph unicode="/" horiz-adv-x="731" d="M39 18q0 23 8.5 55.5t18.5 65.5q8 31 18 61.5t16 53.5q72 246 158 482.5t178 473.5q8 20 21.5 61.5t29.5 84.5q8 23 16.5 44t18.5 38q6 16 15.5 31.5t19.5 25.5l10 10l13 -2q25 0 43 -15t29.5 -36.5t16.5 -47.5t5 -46q0 -10 -2 -23.5t-6 -27.5q-4 -16 -12.5 -43 t-18.5 -54.5t-20.5 -53.5t-16.5 -42q-47 -115 -83 -229.5t-77 -231.5q-45 -123 -90 -244.5t-86 -244.5q-4 -14 -15 -54t-28 -81q-20 -51 -35 -80q-8 -16 -23.5 -32.5t-35.5 -16.5q-23 0 -41 16t-25 37q-20 35 -20 65z" />
<glyph unicode="0" horiz-adv-x="727" d="M35 252q0 43 12 123t35.5 174t57.5 192.5t76 177t91.5 130t102.5 51.5q88 0 141 -34t83 -89t40 -125t10 -141q0 -63 -10 -143.5t-33 -161t-57.5 -157.5t-83.5 -136.5t-113.5 -95t-146.5 -35.5q-63 0 -103.5 22.5t-63 59t-30.5 86t-8 102.5zM256 219q0 -23 2 -43.5 t6 -40.5q53 55 92 126t63.5 149.5t36 160.5t11.5 156q0 47 -5 89t-16 87v2q-33 -72 -66.5 -159t-61 -178t-45 -181t-17.5 -168z" />
<glyph unicode="1" horiz-adv-x="448" d="M-12 739q0 23 30.5 68t70.5 93t81 89t59 51q37 20 76 21q23 0 41.5 -7t40.5 -14l21 -28v-13q0 -39 -6.5 -114.5t-16.5 -168.5t-24.5 -196.5t-29 -197t-29.5 -170t-30 -117.5q-10 -33 -34.5 -46.5t-57.5 -13.5q-41 0 -71.5 18.5t-30.5 65.5q0 18 2 29q14 68 32.5 159 t38 186t37 187.5t27.5 159.5l-117 -162q-6 -10 -18 -10q-14 0 -29.5 13.5t-30 33t-23.5 43t-9 41.5z" />
<glyph unicode="2" horiz-adv-x="567" d="M-4 70q0 66 25.5 132t64.5 131.5t85 133.5t85 136.5t64.5 139t25.5 144.5q-6 12 -16 12q-16 0 -36 -28.5t-39 -62.5t-40.5 -62.5t-40.5 -28.5q-33 0 -56.5 17.5t-43.5 39.5q16 55 40.5 104.5t60.5 86t83 59.5t111 23q78 0 127 -50.5t49 -128.5q0 -104 -39 -196 t-92.5 -179t-106.5 -174.5t-82 -183.5h80q53 0 96 -9t97 -20q29 -14 22.5 -38.5t-28.5 -53.5q-23 -2 -61 -7t-83 -9t-92 -7t-88 -3q-72 0 -107 12q-23 0 -44 22.5t-21 47.5z" />
<glyph unicode="3" horiz-adv-x="602" d="M25 229q0 33 16 64t55 31q41 0 58.5 -31t28 -67t19.5 -65.5t34 -27.5q16 2 33.5 28.5t32.5 67.5t28.5 90.5t24 95.5t15.5 83t5 51q-8 -4 -18.5 -16.5t-20.5 -24.5t-20.5 -21.5t-20.5 -9.5q-51 0 -82 19.5t-66 52.5q39 29 80 64.5t74 77.5t53.5 90t20.5 100q0 10 -4 30 q-20 -10 -36 -37.5t-31 -55t-36.5 -49t-56.5 -21.5t-66.5 16t-48.5 47q10 45 34 87t58.5 75t78.5 52t91 19q41 0 80 -11t69 -32.5t48 -55.5t18 -81q0 -68 -27.5 -132t-66.5 -118q53 -29 69.5 -73.5t16.5 -100.5q0 -66 -24.5 -143.5t-68.5 -145t-106.5 -112.5t-138.5 -45 q-53 0 -91 18.5t-62.5 51t-36.5 74.5t-12 91z" />
<glyph unicode="4" horiz-adv-x="653" d="M27 481q0 16 8 60.5t21.5 101.5t28.5 121.5t30.5 120t29 94.5t21.5 47q37 37 88 37q35 0 61.5 -10.5t49.5 -38.5q-6 -63 -20.5 -127t-33 -125.5t-38 -122.5t-31.5 -125q4 0 7 -1t7 -1q27 0 57 10q12 14 21.5 51t16.5 86.5t13.5 104.5t13.5 105.5t17.5 89t24.5 53.5 q18 20 41.5 27.5t50.5 7.5q33 0 60.5 -14.5t27.5 -55.5q0 -12 -10 -86t-25.5 -178.5t-35 -223t-37 -221t-30.5 -172t-20 -78.5q-16 -23 -38.5 -30.5t-51.5 -7.5q-55 0 -82.5 24.5t-27.5 81.5q0 72 15 142.5t26 142.5q-27 2 -70 5t-84 14t-71.5 32.5t-30.5 58.5z" />
<glyph unicode="5" horiz-adv-x="759" d="M31 102q0 47 28.5 66.5t71.5 19.5q37 0 53.5 -5t23.5 -16t13 -26.5t25 -36.5q31 16 68.5 75t70.5 128.5t55.5 137t22.5 104.5q0 10 -2 19.5t-10 15.5q-20 -6 -38 -26.5t-39.5 -44.5t-53 -42t-84.5 -18q-29 0 -59 12t-30 47q0 14 4.5 56t9.5 96.5t13 115t15.5 112.5 t13.5 90t10 46q16 37 44 50.5t69 13.5q94 0 186 -12.5t182 -39.5l-16 2q16 -10 32.5 -25.5t22.5 -33.5q-31 -61 -102 -61q-49 0 -98.5 5t-98.5 7q-23 -53 -28 -108.5t-11 -108.5q8 2 19.5 9t23 16.5t22.5 16.5t19 7q37 0 75 -16.5t67.5 -46t48 -68.5t18.5 -82 q0 -61 -33.5 -150.5t-87 -176.5t-116 -156.5t-121.5 -92.5q-23 -10 -48.5 -12t-50.5 -2q-31 0 -66.5 7t-65 23.5t-49 43t-19.5 65.5z" />
<glyph unicode="6" horiz-adv-x="610" d="M39 121q0 33 9 102.5t24.5 159.5t35 188.5t39 185.5t38 153.5t30.5 93.5q16 31 41 52t61 21q53 0 74 -39t21 -84q0 -74 -18.5 -144.5t-37.5 -139.5q10 4 22.5 4h22.5q74 0 128.5 -39t54.5 -119q0 -74 -21.5 -166t-64.5 -174t-108.5 -137t-156.5 -55q-31 0 -64.5 7 t-63 24.5t-48 43t-18.5 62.5zM250 189.5q2 -23.5 14 -19.5q41 76 68 170t37 180q-2 0 -3 1t-4 1q-14 0 -30.5 -27.5t-31.5 -67.5t-27.5 -87t-18.5 -87t-4 -63.5z" />
<glyph unicode="7" horiz-adv-x="567" d="M39 954q0 2 7 22.5t9 24.5q29 16 83.5 27.5t115.5 18t119.5 8.5t93.5 2q25 0 45 -14.5t37 -30.5q-18 -70 -41 -137.5t-45 -135.5q-12 -37 -27.5 -98t-33 -134t-37 -149.5t-38 -145.5t-36 -121t-33.5 -77q-23 -37 -53.5 -50t-71.5 -13q-59 0 -88 51q18 117 50 230.5 t68 226t72.5 225.5t67.5 225q-45 -4 -89 -8t-89 -4q-23 0 -54.5 15.5t-31.5 41.5z" />
<glyph unicode="8" horiz-adv-x="620" d="M4 221q0 59 16.5 113.5t43 106t59.5 99.5t65 95q-18 31 -41.5 47t-44 33.5t-35 41t-14.5 68.5q0 53 33 99.5t82 81t105.5 55t103.5 20.5q55 0 106.5 -29.5t77.5 -78.5q47 -12 84 -51q-53 -72 -106.5 -141.5t-102.5 -143.5q20 -37 39 -68.5t33 -64.5t22.5 -69t8.5 -79 q0 -68 -25 -136t-69 -122.5t-105 -89.5t-133 -35q-49 0 -87 22.5t-63.5 57.5t-39 80t-13.5 88zM225 219q0 -39 8 -65q41 41 63.5 92t22.5 108q0 23 -5 46.5t-13 45.5q-33 -51 -54.5 -108.5t-21.5 -118.5zM279 805l10 -25q51 74 108 131l-12 11q-18 0 -36.5 -11.5t-34 -29 t-25.5 -38t-10 -38.5z" />
<glyph unicode="9" horiz-adv-x="692" d="M16 573q0 63 33 148.5t86 161t120.5 128t139.5 52.5q25 0 49.5 -7t40.5 -28q43 47 109 47q12 0 28.5 -6t30 -16.5t22.5 -23.5t7 -28q-12 -59 -20.5 -100t-15.5 -74.5t-14 -64.5t-18 -72q-20 -74 -39.5 -163t-38 -176t-33 -167t-24.5 -137q-6 -39 -37.5 -50t-68.5 -11 q-16 0 -36 3t-37 11t-28.5 22.5t-11.5 34.5q0 90 17.5 177.5t39.5 173.5q-25 -10 -50 -16.5t-52 -6.5q-86 0 -142.5 49t-56.5 139zM242 557q31 29 61.5 75t58 99t49 106.5t31.5 92.5q-92 -59 -146 -160.5t-54 -212.5z" />
<glyph unicode=":" horiz-adv-x="387" d="M33 305q0 10 6 29.5t15 40t18.5 38t17.5 25.5q14 33 49 33q10 0 25.5 -6t31 -16.5t25.5 -23.5t10 -30q0 -27 -6 -50t-14 -44q-8 -20 -15.5 -38.5t-13.5 -41.5l-6 -20h-24q-4 -2 -11 -2q-16 0 -35.5 11t-36 28.5t-26.5 36t-10 30.5zM139 649q0 12 7.5 31.5t16.5 40 t20.5 38t17.5 25.5q10 12 20 21.5t27 9.5q35 0 60.5 -25.5t25.5 -56.5q0 -45 -16.5 -102.5t-26.5 -98.5l-4 -14l-51 -18l-17 10q-35 23 -57.5 56.5t-22.5 82.5z" />
<glyph unicode=";" horiz-adv-x="456" d="M35 201l31 14q59 27 79 72q4 10 9.5 23.5t11.5 27.5l33 80h22q39 0 67.5 -23.5t28.5 -64.5q0 -25 -9 -63t-28.5 -72.5t-51 -59t-78.5 -24.5q-37 0 -59.5 19.5t-39.5 43.5zM203 645l2 8q6 23 16 51.5t25.5 54t36 44t47.5 18.5q25 0 52.5 -25.5t27.5 -47.5q0 -10 -7.5 -41 t-18.5 -67t-22.5 -66.5t-19.5 -38.5l-10 -11h-15q-35 0 -61.5 25.5t-36.5 56.5q-4 10 -6 16.5t-6 14.5z" />
<glyph unicode="&#x3c;" horiz-adv-x="591" d="M60 434q1 8 1 19q0 16 6.5 27.5t14.5 21.5q10 8 19.5 19t21.5 22q27 23 57.5 44t65.5 44t68.5 44t64.5 42q29 18 51.5 32.5t34.5 22.5l18 16l23 -16q16 -12 28.5 -32.5t12.5 -47.5q0 -23 -13.5 -42t-29.5 -36q-18 -18 -40 -34.5l-46 -34.5q-29 -23 -60.5 -41.5 t-54.5 -34.5q20 -8 44 -20.5t43.5 -27.5t32.5 -35.5t13 -47.5q0 -25 -10 -46.5t-23 -37.5l-20 -29l-27 27q-33 33 -63.5 50t-61.5 32q-35 16 -70.5 29.5t-78.5 31.5l-14 6l-5 15q-4 10 -3 18z" />
<glyph unicode="=" horiz-adv-x="665" d="M84 461q0 25 15 44t40 27q29 8 59.5 13.5t65.5 9.5h-8q-16 0 -31.5 -1t-29.5 -1q-57 0 -73 29.5t-16 64.5q0 10 2.5 23.5t10.5 25.5l6 19l20 -2h17.5t17.5 -2l240 -17q23 0 53.5 -2t58 -11t46 -27.5t18.5 -49.5q0 -20 -18.5 -30.5t-34.5 -16.5q16 -8 23 -21.5t7 -29.5 q0 -23 -6 -47.5t-22 -40.5l-10 -6h-13q-45 0 -90 -3t-92 -3h-174q-27 0 -54.5 11t-27.5 44z" />
<glyph unicode="&#x3e;" horiz-adv-x="563" d="M29 334v14q0 43 32.5 73t78.5 50.5t96.5 32.5t82.5 18q-16 14 -32.5 27.5t-32.5 30.5q-12 10 -26.5 25.5t-29 31.5t-23.5 34.5t-9 35.5q0 29 17.5 50t37.5 34l33 14l14 -31q12 -29 43 -61.5t72 -67.5q23 -18 43 -35.5t39 -34.5q20 -18 37.5 -34.5t32.5 -32.5l8 -6v-13 q0 -35 -23.5 -53t-50.5 -28t-61.5 -19.5t-69.5 -17.5t-72 -16.5t-69 -20.5q-66 -16 -97 -47l-20 -23l-21 17q-10 8 -20 23.5t-10 29.5z" />
<glyph unicode="?" horiz-adv-x="864" d="M74 709v16q0 47 38 107.5t93 113.5t117.5 91t113.5 38q35 0 62.5 -23.5t46 -58.5t29 -73.5t10.5 -67.5q0 -66 -23.5 -137.5t-52.5 -143.5q-31 -74 -62.5 -141.5t-54.5 -126.5t-32 -120.5t-25 -121.5q0 -16 -13.5 -30.5t-25.5 -20.5l-4 -2q4 0 6 -2t6 -2q16 -4 39 -17.5 t23 -43.5q0 -18 -9.5 -51t-26 -65t-38 -55.5t-45.5 -23.5q-20 0 -35.5 12.5t-27 31t-16.5 38.5t-5 39q0 29 3 67.5t32 67.5l10 10h53q-33 23 -46 71t-13 85q0 98 22.5 193.5t57.5 185.5q10 25 37.5 85t56.5 126q14 33 27.5 61.5t23.5 55.5q8 25 16 41q0 4 1 6t1 4 q-66 -23 -109.5 -62t-78.5 -94q-10 -16 -21.5 -33.5t-23.5 -33.5q-4 -6 -10 -15.5t-17 -19.5q-12 -12 -24.5 -20.5t-32.5 -8.5q-27 0 -40 22.5t-13 45.5z" />
<glyph unicode="@" horiz-adv-x="1036" d="M63 281q0 76 21.5 161.5t62.5 170.5t98.5 163t129 138.5t156.5 96.5t180 36q78 0 131 -27t87 -70t49 -99t15 -116q0 -51 -21.5 -116.5t-61.5 -123t-97 -97.5t-129 -40q-35 0 -53.5 15.5t-28.5 34.5l-12 24q-4 -4 -7 -9t-8 -11q-16 -16 -30.5 -36t-30.5 -40 q-16 -18 -31.5 -36.5t-33.5 -35.5q-16 -14 -37 -25.5t-43 -11.5q-25 0 -46.5 12.5t-36 31t-22.5 40t-8 37.5q0 47 20.5 118t55.5 136.5t83 113.5t103 48q43 0 75 -9.5t60 -31.5l19 18q12 12 28.5 23.5t40.5 11.5q33 0 39 -18.5t6 -28.5q0 -51 -13 -102.5t-36 -98.5 q51 43 83 101.5t32 122.5q0 78 -37 110.5t-121 32.5q-90 0 -173 -62.5t-146.5 -153.5t-101 -194.5t-37.5 -185.5q0 -33 8 -66.5t23.5 -60.5t38 -43t52.5 -16q25 0 59 17t68.5 41t66.5 49.5t52 41.5q43 37 80 62l10 4h11q18 -2 30.5 -13.5t20.5 -25t11 -26.5t3 -19 q0 -23 -24.5 -56.5t-58.5 -67.5t-68.5 -61.5t-53.5 -40.5q-39 -23 -79 -35t-87 -12q-74 0 -135 21.5t-106 62.5t-70 98.5t-25 127.5zM459 500q4 4 7 8t7 8q20 31 47 57.5t49 51.5q-12 6 -24 10q0 2 -4 2q-29 -29 -47.5 -64.5t-34.5 -72.5z" />
<glyph unicode="A" horiz-adv-x="626" d="M61 33q0 33 11.5 115.5t30 190t43 226.5t48 221.5t46 174t39.5 86.5q14 12 32.5 16t34.5 4q27 0 46.5 -5t37.5 -28q23 -25 41 -100.5t33.5 -177t28 -218t20.5 -224t12 -194.5t4 -128q0 -27 -25.5 -38t-47.5 -11q-49 0 -71 20.5t-28 50.5q-4 20 -4 44q0 12 1 24q3 37 3 70 q0 70 -12 137q-31 -6 -62.5 -12.5t-60.5 -18.5q-2 -16 -5 -54t-7 -78t-9 -74t-16 -44q-16 -16 -37.5 -22t-44.5 -6t-52.5 12t-29.5 41zM281 368q23 4 47 7.5t47 7.5q-10 66 -19.5 133.5t-19.5 132.5q-31 -136 -55 -281z" />
<glyph unicode="B" horiz-adv-x="610" d="M27 88q0 227 13 453.5t54 449.5q53 37 103.5 51.5t115.5 14.5q43 0 90.5 -9.5t85 -31t62 -56t24.5 -88.5q0 -35 -19 -75.5t-47 -80.5t-59.5 -75t-54.5 -59q27 0 59.5 -4.5t61.5 -15.5t48.5 -32.5t19.5 -56.5q0 -23 -19.5 -65.5t-51.5 -96t-71 -109t-77.5 -103.5 t-72.5 -79.5t-54 -37.5q-31 -8 -68 -9q-37 0 -64.5 2t-45 12.5t-25.5 34t-8 66.5zM211 147q18 23 53 63t68 86t58.5 89t25.5 70h-10q-47 0 -90.5 -15.5t-86.5 -25.5q-2 -66 -7 -133.5t-11 -133.5zM242 629q18 18 44.5 51t51 68.5t43 71.5t18.5 63q0 39 -18.5 50t-52.5 11 q-16 0 -29.5 -1t-30.5 -1q-2 -78 -10 -156.5t-16 -156.5z" />
<glyph unicode="C" horiz-adv-x="679" d="M39 279q0 61 9 142t30.5 168t55.5 172t81 151.5t109.5 107.5t140.5 41q66 0 105.5 -27.5t62 -71.5t30 -97.5t7.5 -106.5q0 -39 -23.5 -53.5t-58.5 -14.5q-29 0 -45.5 7.5t-36.5 27.5v12q0 16 3 30.5t3 31.5q0 14 -3 39.5t-11.5 51t-20.5 45t-31 19.5q-33 0 -61.5 -42 t-53 -106.5t-43 -143t-31.5 -152.5t-20.5 -133.5t-7.5 -85.5q0 -16 2 -49t9.5 -65t20.5 -56.5t34 -24.5q37 0 61.5 45t48 99.5t53 99.5t74.5 45q35 0 53.5 -19.5t18.5 -54.5q0 -49 -29.5 -109.5t-75.5 -113.5t-101.5 -89t-106.5 -36q-74 0 -122 25.5t-78 68.5t-41 100.5 t-11 121.5z" />
<glyph unicode="D" horiz-adv-x="595" d="M18 8v12q0 25 6.5 105t17.5 185.5t23.5 222t25.5 216t23.5 168t16.5 78.5q23 35 49.5 53.5t69.5 18.5q80 0 143.5 -31.5t108.5 -85t69.5 -122t24.5 -144.5q0 -53 -17.5 -127t-48 -152.5t-73.5 -157.5t-94.5 -140.5t-109.5 -100.5t-122 -39q-35 0 -61.5 6.5t-51.5 34.5z M199 158q16 23 40 44t42 44q70 90 112.5 195.5t42.5 220.5q0 35 -7 80.5t-24.5 87.5t-45 74t-68.5 40q-35 -197 -54.5 -392.5t-37.5 -393.5z" />
<glyph unicode="E" horiz-adv-x="643" d="M43 43q0 33 5 111.5t13.5 180t19.5 213t24.5 208t29 164t29.5 81.5q16 16 57 26.5t88 15.5t91 6.5t69 1.5q49 1 90 -9q36 -8 36 -43q0 -5 -1 -10q2 -18 -26.5 -26.5t-70.5 -11.5t-92.5 -7t-91.5 -14q0 -10 -6 -65.5t-13 -123t-14.5 -130t-9.5 -85.5q72 18 144 19 q25 0 48 5t42 4q18 0 28.5 -8.5t8.5 -35.5v-14q0 -33 -36 -51.5t-83 -27.5t-95 -12.5t-71 -3.5q-12 -78 -21.5 -156.5t-13.5 -158.5q53 10 104.5 15t104.5 5q43 0 65.5 -16t51.5 -45q-39 -18 -90 -32.5t-105.5 -23.5t-109 -14.5t-97.5 -5.5q-10 0 -27.5 7.5t-33.5 17.5 t-28.5 23.5t-12.5 25.5z" />
<glyph unicode="F" horiz-adv-x="606" d="M16 6q0 29 5.5 54.5t9.5 54.5q6 39 14 114.5t19.5 170t24.5 194.5t28.5 188t32 152.5t34.5 83.5q23 23 66 36t94 19t99.5 8t78.5 2q35 0 57.5 -11t45.5 -36q-27 -41 -58.5 -51t-70.5 -10h-56q-27 0 -54.5 -3t-47.5 -22q-27 -96 -40 -200.5t-22 -202.5q31 6 64 6 q16 0 31.5 -1t31.5 -1q37 0 82 -4t74 -29v-14q0 -27 -40 -43.5t-92 -26.5t-102.5 -15t-68.5 -5q-4 -37 -11 -101.5t-17.5 -133t-25 -129t-30.5 -87.5q-8 -12 -22.5 -21.5t-28.5 -9.5q-12 0 -30.5 6.5t-35 16.5t-28 23.5t-11.5 27.5z" />
<glyph unicode="G" horiz-adv-x="729" d="M14 356q0 59 12.5 134t36 152t60.5 151.5t85 132t108.5 92.5t134.5 35q63 0 109 -30t75 -76t43 -102.5t14 -111.5q0 -31 -27.5 -40t-52.5 -9q-41 0 -62.5 19.5t-30.5 48t-12 62.5t-8 62.5t-16.5 48t-38.5 19.5q-16 0 -28.5 -10t-22.5 -21q-53 -45 -91 -116.5 t-62.5 -152.5t-37 -165t-12.5 -151q0 -25 5.5 -69t18.5 -87t35.5 -73.5t55.5 -30.5q45 0 83 46t65.5 109.5t43 128t15.5 101.5q0 23 -6 33t-31 10q-33 0 -62.5 -13.5t-64.5 -13.5t-59.5 19.5t-46.5 41.5q59 33 108 43.5t115 10.5q41 0 79 -3t66.5 -17.5t46 -43t17.5 -80.5 q0 -70 -25.5 -154.5t-72 -156.5t-112 -121t-147.5 -49q-84 0 -142 35t-94 91t-51.5 126.5t-15.5 144.5z" />
<glyph unicode="H" horiz-adv-x="688" d="M41 88q0 27 5 101.5t14.5 172t20.5 205t22.5 199.5t21.5 156.5t16 76.5q16 23 32.5 30t43.5 7q12 0 28.5 -3t32 -9t25.5 -16.5t10 -26.5q0 -39 -6 -93t-14 -110.5t-16.5 -110t-12.5 -89.5q47 6 92 7t93 1q0 8 2 46t6 88t7 107.5t7 106.5t8 83t6 38q16 23 34 29t44 6 q12 0 28.5 -3.5t31 -9.5t24.5 -16t10 -27q0 -41 -4 -82l-8 -82l-31 -356q-2 -39 -9 -115.5t-16 -158.5t-18.5 -152t-17.5 -96q-10 -29 -29.5 -35t-48.5 -6q-27 0 -57.5 12t-30.5 45q0 63 10.5 125t14.5 123q4 57 8 113.5t14 111.5q-45 -2 -90 -5t-90 -5q0 -14 -3 -52t-7 -86 t-9.5 -102.5t-10.5 -100.5t-11 -80t-10 -40q-14 -20 -27.5 -26.5t-36.5 -6.5q-59 0 -78.5 29t-19.5 82z" />
<glyph unicode="I" horiz-adv-x="313" d="M63 68q0 27 1.5 105.5t4.5 182t7 216t8 210t9 163t11 73.5q20 29 40 35t49 6q25 0 51 -7.5t26 -39.5q0 -35 -2 -118t-5 -189.5t-7 -222t-11 -216t-15.5 -172t-18.5 -88.5q-12 -20 -25.5 -28.5t-38.5 -8.5q-49 0 -66.5 28t-17.5 71z" />
<glyph unicode="J" horiz-adv-x="620" d="M39 209q0 23 3 46.5t12 45t26.5 34.5t46.5 13q35 0 51.5 -11t22.5 -28.5t6 -40v-47.5q0 -10 1 -32.5t6 -46t13.5 -41t22.5 -17.5q43 0 69.5 60.5t44 153.5t27.5 204.5t17.5 217t14.5 188.5t21 118q10 25 27.5 31t46.5 6q47 0 64.5 -21.5t17.5 -64.5t-3 -111.5t-10 -148.5 t-16.5 -166t-21.5 -164t-25.5 -141.5t-29.5 -98.5q-31 -70 -93.5 -116.5t-140.5 -46.5q-109 0 -165 59t-56 166z" />
<glyph unicode="K" horiz-adv-x="694" d="M39 29v6q0 29 5 109.5t14.5 187t21.5 224.5t24.5 219.5t23.5 171t19 79.5q23 29 44.5 34t56.5 5q23 0 44 -10.5t21 -38.5q0 -84 -13 -171t-21 -171q27 39 63.5 97t80.5 113.5t93 94.5t100 39q29 0 41.5 -10.5t28.5 -32.5q-76 -117 -160 -230.5t-166 -228.5 q76 -104 142.5 -217t130.5 -225q-16 -29 -26.5 -36t-43.5 -7q-35 0 -63 12q-20 10 -57 55t-75 100.5t-72 107.5t-48 77q-2 -27 -6 -79t-11.5 -109.5t-17.5 -105.5t-25 -66q-16 -20 -31.5 -27.5t-39.5 -7.5q-23 0 -46.5 9t-31.5 32z" />
<glyph unicode="L" horiz-adv-x="448" d="M-12 37q0 23 10 101.5t26.5 184t36 223.5t38 218t33.5 170t22 78q16 23 38.5 31t51.5 8q10 0 25.5 -2t29.5 -7.5t24.5 -13.5t10.5 -22q0 -23 -7.5 -76t-19.5 -123t-26.5 -148.5t-27.5 -150.5t-23.5 -130.5t-16.5 -86.5q-10 -55 -19.5 -109.5t-13.5 -109.5q33 4 63.5 7 t63.5 3q35 0 60.5 -14.5t31.5 -49.5q-27 -18 -64.5 -29.5t-78.5 -17.5t-81 -8t-73 -2q-18 0 -37.5 3t-37 11.5t-28.5 23.5t-11 38z" />
<glyph unicode="M" horiz-adv-x="798" d="M4 31q0 29 5 57.5t9 56.5q4 39 12.5 112t20.5 163t28.5 187.5t36 181t43 144t48.5 81.5q25 18 59 18q43 0 74 -37q16 -20 26.5 -74.5t14.5 -118t6 -121.5t4 -89q12 45 39 123t64.5 153.5t86 132t105.5 56.5q86 0 86 -84q0 -29 -3 -104.5t-10 -174t-15.5 -208t-18.5 -205 t-21.5 -165t-23.5 -87.5q-23 -35 -48.5 -44.5t-64.5 -9.5q-18 0 -37.5 11.5t-19.5 33.5q0 55 11 108.5t22 107.5q23 125 39 249.5t24 251.5q-8 -20 -23.5 -65t-34 -102.5t-37.5 -120t-36.5 -114.5t-31 -89t-17.5 -43q-10 -16 -29.5 -22.5t-38.5 -6.5q-33 0 -50 8t-34 37 q-6 12 -10 62.5t-7 111t-5 114.5t-6 77q-2 -14 -8.5 -61.5t-15.5 -109t-19 -130t-20.5 -127l-17.5 -97.5t-9 -43q-27 -39 -74 -39q-25 0 -51.5 11.5t-26.5 42.5z" />
<glyph unicode="N" horiz-adv-x="761" d="M20 37q0 23 8.5 101.5t19.5 183t25.5 221t29 217t25.5 170t15 78.5q16 29 33 38t49 9q53 0 73.5 -29t31.5 -76q27 -145 69.5 -281.5t83.5 -277.5q4 29 9.5 86.5t10.5 127t11 144t11 137t11.5 106.5t10.5 52q16 29 35.5 37.5t50.5 8.5q27 0 57.5 -11.5t30.5 -46.5 q0 -115 -11.5 -227.5t-28.5 -224t-35.5 -224t-33.5 -225.5q-4 -35 -9 -82t-21 -78q-14 -29 -33 -37t-47 -8q-29 0 -43.5 6.5t-30.5 30.5q-8 12 -22.5 56t-32 104.5t-36 130.5t-34.5 135.5t-28.5 117.5t-18.5 77q-14 -98 -27.5 -196.5t-17.5 -197.5q-2 -29 -3 -58.5t-7 -57.5 q-8 -39 -33 -68t-66 -29q-29 0 -55.5 12.5t-26.5 47.5z" />
<glyph unicode="O" horiz-adv-x="690" d="M37 268q0 61 7 143.5t25.5 170.5t48 173t75 152.5t107.5 108.5t144 41q78 0 123 -41t67.5 -100.5t29 -129t6.5 -129.5q0 -59 -7.5 -132.5t-26 -149.5t-47 -147.5t-71.5 -128t-102.5 -91.5t-134.5 -35q-61 0 -107.5 26t-76 66.5t-45 94t-15.5 108.5zM219 177.5 q0 -21.5 5 -40t18.5 -31t38.5 -12.5q45 0 76.5 35t52 89t34 122t19.5 132.5t8 120.5t2 87q0 23 -1 58.5t-5 72.5t-11 69.5t-22 51.5q-14 0 -25.5 -13.5t-19.5 -23.5q-41 -49 -72.5 -137t-53 -187.5t-33 -194.5t-11.5 -159v-39.5z" />
<glyph unicode="P" horiz-adv-x="577" d="M29 8v10q0 217 25 429t52 427q4 37 13.5 69t28 56.5t46 39t70.5 14.5q78 0 131.5 -36t86 -92.5t47 -125t14.5 -133.5q0 -74 -19.5 -147t-59.5 -133t-100.5 -100t-140.5 -46q0 -27 -2 -53.5t-4 -53.5q-2 -33 -2 -63.5t-8 -53t-29.5 -36t-66.5 -13.5q-25 0 -46.5 9.5 t-35.5 31.5zM236 383q35 20 61.5 56t43.5 78t25.5 87t8.5 84q0 129 -88 217q-25 -129 -30 -261t-21 -261z" />
<glyph unicode="Q" horiz-adv-x="724" d="M25 233q0 61 8 145.5t28.5 175.5t51 180t78 160t108.5 115t141 44q74 0 119 -38t69.5 -95.5t33 -124t8.5 -121.5q0 -39 -4 -108.5t-14.5 -143.5t-27 -139.5t-38.5 -96.5q16 -16 40.5 -36.5t48 -43t41 -47t17.5 -49.5q0 -29 -21.5 -37t-43.5 -8q-49 0 -92.5 31t-73.5 65 q-49 -51 -106.5 -82.5t-131.5 -31.5q-66 0 -110.5 22.5t-73.5 62.5t-42 92t-13 109zM209 165q0 -22 5 -42.5t14.5 -34.5t27.5 -14t38.5 12t39 28.5t33 37t20.5 34.5q-31 31 -60.5 64t-50.5 74q14 35 36 48t61 13q23 0 41 -11.5t32 -27.5q27 70 32 147.5t5 149.5 q0 16 -2 61.5t-8 93.5t-18.5 86t-30.5 40q-29 -10 -56.5 -60.5t-52 -122t-44 -155.5t-34 -162t-21.5 -138.5t-7 -86.5v-34z" />
<glyph unicode="R" horiz-adv-x="577" d="M45 29q0 27 3 108.5t8 188t11.5 225.5t13.5 219t13 169t12 77q16 25 38 32t51 7q20 0 38.5 -5.5t36.5 -13.5q53 -23 101.5 -52.5t84.5 -69.5t56 -91t20 -112q0 -96 -51 -175t-129 -130q12 -18 42 -68.5t61.5 -108t55.5 -107.5t24 -67q0 -18 -10.5 -29.5t-26 -17.5 t-32.5 -7t-32 -1q-43 0 -71.5 27.5t-50 67.5t-38 84t-30.5 77q-3 -30 -3 -66v-19v-11q-1 -42 -7 -79q-8 -42 -31 -70.5t-78 -28.5q-23 0 -51.5 8t-28.5 39zM254 500q47 35 74.5 88t27.5 112q0 53 -21.5 102.5t-60.5 86.5q0 -98 -4 -194.5t-16 -194.5z" />
<glyph unicode="S" horiz-adv-x="546" d="M2 160q0 41 16.5 58.5t59.5 17.5q29 0 47 -12.5t31.5 -33t20.5 -44t13 -46.5q6 -6 11 -8q29 6 53.5 29.5t40.5 53.5t25.5 63.5t9.5 60.5q0 76 -39 135.5t-85 115.5t-85 115.5t-39 133.5q0 53 23.5 98t62.5 77t87 49t99 17q25 0 56.5 -6t59.5 -19.5t49.5 -33.5t25.5 -49 l-19 -23q-35 -14 -77 -14q-18 0 -29.5 4t-22 10t-20.5 12.5t-25 12.5q-18 0 -31.5 -10.5t-22.5 -25.5t-14 -33.5t-5 -33.5q0 -74 37.5 -131t82.5 -114.5t83 -122t38 -152.5q0 -63 -27.5 -122.5t-73.5 -104.5t-106.5 -71.5t-124.5 -26.5q-84 0 -135 44t-51 130z" />
<glyph unicode="T" horiz-adv-x="536" d="M29 981q-25 29 6 43t84 22.5t114.5 9.5t100.5 1h14h51q43 0 84 -4t84 -21l15 -26q-27 -47 -84.5 -62.5t-108.5 -15.5q-2 -33 -5 -106.5t-8 -168t-12.5 -196t-15.5 -188.5t-18.5 -150.5t-20.5 -77.5q-25 -35 -53.5 -45t-69.5 -10q-14 0 -30 6l-15 26v9q0 113 9.5 224 t21.5 222t23.5 222.5t15.5 222.5h-47q-41 0 -77 10t-58 53z" />
<glyph unicode="U" horiz-adv-x="661" d="M29 502q0 35 4 109.5t12 156.5t20.5 151.5t28.5 94.5q16 23 30.5 32t43.5 9t59.5 -10.5t30.5 -51.5q0 -164 -18.5 -325.5t-18.5 -327.5q0 -16 2 -57t8.5 -83t19.5 -75t38 -33q6 0 13 7t9 12q18 37 37 106.5t36 156.5t33.5 184t28 188.5t18.5 168t7 121.5q0 35 25.5 45.5 t52.5 10.5q53 0 69.5 -20.5t16.5 -70.5q0 -53 -4 -134t-12.5 -173t-21.5 -190t-33.5 -185.5t-47.5 -159t-61 -110.5q-39 -45 -85 -59.5t-104 -14.5q-55 0 -94 29t-65.5 74t-42 102.5t-23.5 115.5t-10 112.5t-2 93.5z" />
<glyph unicode="V" horiz-adv-x="704" d="M88 989q0 16 8 26.5t21.5 15.5t28 6t26.5 1q35 0 54.5 -7t41.5 -34q4 -4 11.5 -48t14.5 -107.5t14 -138t13.5 -143t10.5 -120t6 -69.5q10 31 24.5 88t32 127.5t37 145.5t38.5 139.5t37.5 111.5t33.5 59q16 14 43 15q35 0 61.5 -17.5t26.5 -56.5q0 -35 -14.5 -113.5 t-38 -178t-53 -209t-60.5 -205t-59.5 -165t-49.5 -89.5q-45 -45 -114 -46q-31 0 -47.5 8.5t-34.5 32.5q-14 18 -25.5 77t-22 137.5t-18.5 170t-14 175.5t-11.5 152.5t-7.5 103.5q-4 39 -9 77.5t-5 77.5z" />
<glyph unicode="W" horiz-adv-x="886" d="M61 250q0 16 3.5 77.5t7.5 142.5t9 172t11 170t12.5 132t10.5 60q16 23 32.5 29.5t45.5 6.5q14 0 30.5 -3t30.5 -9t23.5 -17.5t7.5 -29.5q-16 -174 -26.5 -356.5t-14.5 -362.5q6 25 15 75t19.5 113.5t21.5 131t21.5 126t19.5 101.5t15 53q14 25 30.5 32t43.5 7 q53 0 86 -41q8 -10 18.5 -53t20.5 -102.5t20.5 -128t19.5 -132t16 -114.5t12 -76q23 168 29.5 335t6.5 337q0 23 3.5 45t13.5 40.5t27.5 30t46.5 11.5q12 0 28.5 -3t30.5 -9.5t24.5 -17.5t10.5 -28q0 -41 -2 -119.5t-8.5 -175t-14.5 -200t-19.5 -195.5t-26.5 -161.5 t-34 -96.5q-33 -47 -92 -47q-61 0 -100 48t-63.5 115.5t-36 138.5t-17.5 116q-2 -14 -4 -27.5t-6 -28.5q-10 -43 -20.5 -109.5t-32 -128t-59.5 -105.5t-99 -44q-53 0 -83 29t-44 71t-17.5 89t-3.5 86z" />
<glyph unicode="X" horiz-adv-x="616" d="M4 6q4 33 18.5 66.5t32 68.5t37 68.5t31.5 64.5l100 244q-4 16 -18.5 51t-31.5 81t-36.5 95.5t-38 93.5t-32 74.5t-19.5 40.5q18 35 45 44.5t62 9.5t62.5 -27t49 -64.5t37.5 -77.5t25 -67q8 25 25.5 69t37 91t41 88t35.5 57q16 18 43 19q18 0 35.5 -7.5t31 -19.5 t19.5 -27.5t0 -29.5q-20 -55 -50 -125t-57.5 -138.5t-48 -128t-20.5 -90.5q0 -14 8 -31.5t12 -29.5q14 -39 34 -98.5t37 -123t29.5 -122.5t12.5 -100q0 -31 -29.5 -40.5t-52.5 -9.5q-43 0 -70 25q-12 6 -26.5 42t-27.5 79t-24.5 83t-15.5 56q-12 -35 -31.5 -85t-46 -95 t-62.5 -77t-83 -32q-33 0 -44 8.5t-36 26.5z" />
<glyph unicode="Y" horiz-adv-x="555" d="M68 981q0 18 11 30.5t27.5 21.5t35 13.5t32.5 4.5q37 0 57 -31q10 -14 16.5 -57t12.5 -92.5t10 -95.5t6 -68q6 18 18.5 55t30 83t38 95t43 89t44 65.5t42.5 25.5q14 0 31.5 -4t32.5 -13t26.5 -22.5t11.5 -29.5q0 -8 -15.5 -47t-38 -91.5t-50 -113t-53 -113.5t-44 -92 t-24.5 -49q-10 -23 -23.5 -44.5t-19.5 -43.5q-6 -20 -10.5 -67.5t-10.5 -104t-14 -116.5t-21.5 -109.5t-33 -81t-48.5 -31.5q-51 0 -71.5 25.5t-20.5 72.5q0 51 10.5 99.5t22.5 96.5t22.5 97t10.5 98q0 70 -14.5 137.5t-33 135t-32.5 135t-14 137.5z" />
<glyph unicode="Z" horiz-adv-x="614" d="M25 74q8 31 31.5 90t56 133t70.5 159t75 168t68.5 157.5t50.5 131.5q-66 0 -132.5 3.5t-131.5 3.5q-29 0 -49.5 20.5t-20.5 48.5q0 20 21.5 34.5t56.5 24.5t78 13.5t88 3.5q78 0 142.5 -11.5t78.5 -29.5q27 -20 36 -43q5 -14 5 -36q0 -15 -2 -34q-2 -14 -22.5 -67 t-52.5 -128t-69.5 -165t-73.5 -177t-66 -165t-46 -127q74 10 148.5 14t150.5 4q18 0 35.5 -11t28 -26.5t8.5 -33t-23 -29.5q-49 -12 -112.5 -19.5t-130 -12.5t-128 -6t-104.5 -1q-12 0 -25.5 11.5t-23.5 28.5t-15 37t-1 36z" />
<glyph unicode="[" horiz-adv-x="411" d="M47 -199q2 229 4 455t6 455q2 98 7.5 196.5t5.5 196.5q0 16 -3.5 35.5t-7.5 36.5l-6 28l31 6q31 6 59.5 14.5t61.5 14.5q29 8 61.5 13t67.5 5q57 0 84.5 -39.5t27.5 -78.5v-21l-22 -8q-35 -12 -72 -19.5t-71 -19.5q-2 -279 -25 -552t-25 -550q49 16 101 17q16 0 36.5 -2 t40 -9.5t36 -20.5t24.5 -36l10 -27l-22 -12q-27 -14 -73 -35.5t-96 -42t-96.5 -35t-74.5 -14.5q-23 0 -38.5 9.5t-25.5 19.5l-6 10v10z" />
<glyph unicode="\" horiz-adv-x="653" d="M51 1159v12q0 31 23 48.5t39 23.5l24 8l13 -22q51 -94 88.5 -208t72.5 -214q68 -193 130.5 -382t121.5 -384q6 -16 17.5 -52t21.5 -76t18.5 -76t8.5 -50q0 -12 -7.5 -33.5t-20.5 -43t-33.5 -37t-47.5 -15.5q-23 0 -39 18q-4 12 -6 21q-59 240 -136 474.5t-144 471.5 q-39 129 -76 256t-68 260z" />
<glyph unicode="]" horiz-adv-x="389" d="M-113 1120l25 13q25 12 66.5 31.5t88 38t91.5 31.5t75 13q16 0 36 -6t30 -24l6 -7v-10q18 -586 19 -1175v-62q0 -43 -10.5 -73.5t-32.5 -69.5l-7 -10l-14 -5q-20 -6 -43.5 -13t-48.5 -15t-52.5 -14.5t-49.5 -6.5q-55 0 -87 40t-32 81v21l22 8q35 12 72 21.5t72 19.5 q0 29 -1 59.5t-1 59.5q0 246 10 488.5t12 487.5q-25 -6 -49.5 -10t-48.5 -4q-14 0 -34.5 1t-40 7t-37 19.5t-25.5 38.5z" />
<glyph unicode="^" horiz-adv-x="714" d="M41 563l25 23q66 68 122 159t80 177q6 23 20.5 27.5t33.5 4.5q20 0 33.5 -2t29.5 -12q35 -23 72 -74t75 -106q20 -29 39 -57.5t35 -55.5t32.5 -48t29.5 -38l14 -16l-16 -21q-10 -14 -32 -27.5t-50 -13.5q-25 0 -46.5 13.5t-37.5 29.5q-43 43 -79 96.5t-67 104.5 q-8 -10 -16 -19.5t-14 -19.5q-10 -16 -24.5 -44t-35.5 -52q-20 -27 -47 -53.5t-63 -26.5q-25 0 -47.5 10t-34.5 21z" />
<glyph unicode="_" horiz-adv-x="753" d="M16 37q0 35 29 63.5t64 28.5q12 4 27.5 5t33.5 3q37 4 82 4t92 2q94 4 180 2t119 2l25 3l6 -23q4 -12 4 -16v-11q0 -23 -8 -53.5t-39 -46.5l-8 -4h-11q-31 0 -63.5 -2t-63.5 -2h-407q-6 0 -14.5 1t-16.5 5q-10 4 -20.5 13.5t-10.5 25.5z" />
<glyph unicode="`" horiz-adv-x="430" d="M35 1276q0 29 21.5 52.5t56.5 23.5q14 0 24 -2q14 0 29 -13q23 -16 38 -35.5t32 -37.5q16 -20 31.5 -39t31.5 -35l16 -16q6 -6 19 -15q23 -16 41 -38.5t18 -53.5q0 -35 -24.5 -57.5t-61.5 -22.5q-33 0 -55 25l-197 211q-10 10 -15 26.5t-5 26.5z" />
<glyph unicode="a" horiz-adv-x="626" d="M61 33q0 33 11.5 115.5t30 190t43 226.5t48 221.5t46 174t39.5 86.5q14 12 32.5 16t34.5 4q27 0 46.5 -5t37.5 -28q23 -25 41 -100.5t33.5 -177t28 -218t20.5 -224t12 -194.5t4 -128q0 -27 -25.5 -38t-47.5 -11q-49 0 -71 20.5t-28 50.5q-4 20 -4 44q0 12 1 24q3 37 3 70 q0 70 -12 137q-31 -6 -62.5 -12.5t-60.5 -18.5q-2 -16 -5 -54t-7 -78t-9 -74t-16 -44q-16 -16 -37.5 -22t-44.5 -6t-52.5 12t-29.5 41zM281 368q23 4 47 7.5t47 7.5q-10 66 -19.5 133.5t-19.5 132.5q-31 -136 -55 -281z" />
<glyph unicode="b" horiz-adv-x="610" d="M27 88q0 227 13 453.5t54 449.5q53 37 103.5 51.5t115.5 14.5q43 0 90.5 -9.5t85 -31t62 -56t24.5 -88.5q0 -35 -19 -75.5t-47 -80.5t-59.5 -75t-54.5 -59q27 0 59.5 -4.5t61.5 -15.5t48.5 -32.5t19.5 -56.5q0 -23 -19.5 -65.5t-51.5 -96t-71 -109t-77.5 -103.5 t-72.5 -79.5t-54 -37.5q-31 -8 -68 -9q-37 0 -64.5 2t-45 12.5t-25.5 34t-8 66.5zM211 147q18 23 53 63t68 86t58.5 89t25.5 70h-10q-47 0 -90.5 -15.5t-86.5 -25.5q-2 -66 -7 -133.5t-11 -133.5zM242 629q18 18 44.5 51t51 68.5t43 71.5t18.5 63q0 39 -18.5 50t-52.5 11 q-16 0 -29.5 -1t-30.5 -1q-2 -78 -10 -156.5t-16 -156.5z" />
<glyph unicode="c" horiz-adv-x="679" d="M39 279q0 61 9 142t30.5 168t55.5 172t81 151.5t109.5 107.5t140.5 41q66 0 105.5 -27.5t62 -71.5t30 -97.5t7.5 -106.5q0 -39 -23.5 -53.5t-58.5 -14.5q-29 0 -45.5 7.5t-36.5 27.5v12q0 16 3 30.5t3 31.5q0 14 -3 39.5t-11.5 51t-20.5 45t-31 19.5q-33 0 -61.5 -42 t-53 -106.5t-43 -143t-31.5 -152.5t-20.5 -133.5t-7.5 -85.5q0 -16 2 -49t9.5 -65t20.5 -56.5t34 -24.5q37 0 61.5 45t48 99.5t53 99.5t74.5 45q35 0 53.5 -19.5t18.5 -54.5q0 -49 -29.5 -109.5t-75.5 -113.5t-101.5 -89t-106.5 -36q-74 0 -122 25.5t-78 68.5t-41 100.5 t-11 121.5z" />
<glyph unicode="d" horiz-adv-x="595" d="M18 8v12q0 25 6.5 105t17.5 185.5t23.5 222t25.5 216t23.5 168t16.5 78.5q23 35 49.5 53.5t69.5 18.5q80 0 143.5 -31.5t108.5 -85t69.5 -122t24.5 -144.5q0 -53 -17.5 -127t-48 -152.5t-73.5 -157.5t-94.5 -140.5t-109.5 -100.5t-122 -39q-35 0 -61.5 6.5t-51.5 34.5z M199 158q16 23 40 44t42 44q70 90 112.5 195.5t42.5 220.5q0 35 -7 80.5t-24.5 87.5t-45 74t-68.5 40q-35 -197 -54.5 -392.5t-37.5 -393.5z" />
<glyph unicode="e" horiz-adv-x="643" d="M43 43q0 33 5 111.5t13.5 180t19.5 213t24.5 208t29 164t29.5 81.5q16 16 57 26.5t88 15.5t91 6.5t69 1.5q49 1 90 -9q36 -8 36 -43q0 -5 -1 -10q2 -18 -26.5 -26.5t-70.5 -11.5t-92.5 -7t-91.5 -14q0 -10 -6 -65.5t-13 -123t-14.5 -130t-9.5 -85.5q72 18 144 19 q25 0 48 5t42 4q18 0 28.5 -8.5t8.5 -35.5v-14q0 -33 -36 -51.5t-83 -27.5t-95 -12.5t-71 -3.5q-12 -78 -21.5 -156.5t-13.5 -158.5q53 10 104.5 15t104.5 5q43 0 65.5 -16t51.5 -45q-39 -18 -90 -32.5t-105.5 -23.5t-109 -14.5t-97.5 -5.5q-10 0 -27.5 7.5t-33.5 17.5 t-28.5 23.5t-12.5 25.5z" />
<glyph unicode="f" horiz-adv-x="606" d="M16 6q0 29 5.5 54.5t9.5 54.5q6 39 14 114.5t19.5 170t24.5 194.5t28.5 188t32 152.5t34.5 83.5q23 23 66 36t94 19t99.5 8t78.5 2q35 0 57.5 -11t45.5 -36q-27 -41 -58.5 -51t-70.5 -10h-56q-27 0 -54.5 -3t-47.5 -22q-27 -96 -40 -200.5t-22 -202.5q31 6 64 6 q16 0 31.5 -1t31.5 -1q37 0 82 -4t74 -29v-14q0 -27 -40 -43.5t-92 -26.5t-102.5 -15t-68.5 -5q-4 -37 -11 -101.5t-17.5 -133t-25 -129t-30.5 -87.5q-8 -12 -22.5 -21.5t-28.5 -9.5q-12 0 -30.5 6.5t-35 16.5t-28 23.5t-11.5 27.5z" />
<glyph unicode="g" horiz-adv-x="729" d="M14 356q0 59 12.5 134t36 152t60.5 151.5t85 132t108.5 92.5t134.5 35q63 0 109 -30t75 -76t43 -102.5t14 -111.5q0 -31 -27.5 -40t-52.5 -9q-41 0 -62.5 19.5t-30.5 48t-12 62.5t-8 62.5t-16.5 48t-38.5 19.5q-16 0 -28.5 -10t-22.5 -21q-53 -45 -91 -116.5 t-62.5 -152.5t-37 -165t-12.5 -151q0 -25 5.5 -69t18.5 -87t35.5 -73.5t55.5 -30.5q45 0 83 46t65.5 109.5t43 128t15.5 101.5q0 23 -6 33t-31 10q-33 0 -62.5 -13.5t-64.5 -13.5t-59.5 19.5t-46.5 41.5q59 33 108 43.5t115 10.5q41 0 79 -3t66.5 -17.5t46 -43t17.5 -80.5 q0 -70 -25.5 -154.5t-72 -156.5t-112 -121t-147.5 -49q-84 0 -142 35t-94 91t-51.5 126.5t-15.5 144.5z" />
<glyph unicode="h" horiz-adv-x="688" d="M41 88q0 27 5 101.5t14.5 172t20.5 205t22.5 199.5t21.5 156.5t16 76.5q16 23 32.5 30t43.5 7q12 0 28.5 -3t32 -9t25.5 -16.5t10 -26.5q0 -39 -6 -93t-14 -110.5t-16.5 -110t-12.5 -89.5q47 6 92 7t93 1q0 8 2 46t6 88t7 107.5t7 106.5t8 83t6 38q16 23 34 29t44 6 q12 0 28.5 -3.5t31 -9.5t24.5 -16t10 -27q0 -41 -4 -82l-8 -82l-31 -356q-2 -39 -9 -115.5t-16 -158.5t-18.5 -152t-17.5 -96q-10 -29 -29.5 -35t-48.5 -6q-27 0 -57.5 12t-30.5 45q0 63 10.5 125t14.5 123q4 57 8 113.5t14 111.5q-45 -2 -90 -5t-90 -5q0 -14 -3 -52t-7 -86 t-9.5 -102.5t-10.5 -100.5t-11 -80t-10 -40q-14 -20 -27.5 -26.5t-36.5 -6.5q-59 0 -78.5 29t-19.5 82z" />
<glyph unicode="i" horiz-adv-x="313" d="M63 68q0 27 1.5 105.5t4.5 182t7 216t8 210t9 163t11 73.5q20 29 40 35t49 6q25 0 51 -7.5t26 -39.5q0 -35 -2 -118t-5 -189.5t-7 -222t-11 -216t-15.5 -172t-18.5 -88.5q-12 -20 -25.5 -28.5t-38.5 -8.5q-49 0 -66.5 28t-17.5 71z" />
<glyph unicode="j" horiz-adv-x="620" d="M39 209q0 23 3 46.5t12 45t26.5 34.5t46.5 13q35 0 51.5 -11t22.5 -28.5t6 -40v-47.5q0 -10 1 -32.5t6 -46t13.5 -41t22.5 -17.5q43 0 69.5 60.5t44 153.5t27.5 204.5t17.5 217t14.5 188.5t21 118q10 25 27.5 31t46.5 6q47 0 64.5 -21.5t17.5 -64.5t-3 -111.5t-10 -148.5 t-16.5 -166t-21.5 -164t-25.5 -141.5t-29.5 -98.5q-31 -70 -93.5 -116.5t-140.5 -46.5q-109 0 -165 59t-56 166z" />
<glyph unicode="k" horiz-adv-x="694" d="M39 29v6q0 29 5 109.5t14.5 187t21.5 224.5t24.5 219.5t23.5 171t19 79.5q23 29 44.5 34t56.5 5q23 0 44 -10.5t21 -38.5q0 -84 -13 -171t-21 -171q27 39 63.5 97t80.5 113.5t93 94.5t100 39q29 0 41.5 -10.5t28.5 -32.5q-76 -117 -160 -230.5t-166 -228.5 q76 -104 142.5 -217t130.5 -225q-16 -29 -26.5 -36t-43.5 -7q-35 0 -63 12q-20 10 -57 55t-75 100.5t-72 107.5t-48 77q-2 -27 -6 -79t-11.5 -109.5t-17.5 -105.5t-25 -66q-16 -20 -31.5 -27.5t-39.5 -7.5q-23 0 -46.5 9t-31.5 32z" />
<glyph unicode="l" horiz-adv-x="448" d="M-12 37q0 23 10 101.5t26.5 184t36 223.5t38 218t33.5 170t22 78q16 23 38.5 31t51.5 8q10 0 25.5 -2t29.5 -7.5t24.5 -13.5t10.5 -22q0 -23 -7.5 -76t-19.5 -123t-26.5 -148.5t-27.5 -150.5t-23.5 -130.5t-16.5 -86.5q-10 -55 -19.5 -109.5t-13.5 -109.5q33 4 63.5 7 t63.5 3q35 0 60.5 -14.5t31.5 -49.5q-27 -18 -64.5 -29.5t-78.5 -17.5t-81 -8t-73 -2q-18 0 -37.5 3t-37 11.5t-28.5 23.5t-11 38z" />
<glyph unicode="m" horiz-adv-x="798" d="M4 31q0 29 5 57.5t9 56.5q4 39 12.5 112t20.5 163t28.5 187.5t36 181t43 144t48.5 81.5q25 18 59 18q43 0 74 -37q16 -20 26.5 -74.5t14.5 -118t6 -121.5t4 -89q12 45 39 123t64.5 153.5t86 132t105.5 56.5q86 0 86 -84q0 -29 -3 -104.5t-10 -174t-15.5 -208t-18.5 -205 t-21.5 -165t-23.5 -87.5q-23 -35 -48.5 -44.5t-64.5 -9.5q-18 0 -37.5 11.5t-19.5 33.5q0 55 11 108.5t22 107.5q23 125 39 249.5t24 251.5q-8 -20 -23.5 -65t-34 -102.5t-37.5 -120t-36.5 -114.5t-31 -89t-17.5 -43q-10 -16 -29.5 -22.5t-38.5 -6.5q-33 0 -50 8t-34 37 q-6 12 -10 62.5t-7 111t-5 114.5t-6 77q-2 -14 -8.5 -61.5t-15.5 -109t-19 -130t-20.5 -127l-17.5 -97.5t-9 -43q-27 -39 -74 -39q-25 0 -51.5 11.5t-26.5 42.5z" />
<glyph unicode="n" horiz-adv-x="761" d="M20 37q0 23 8.5 101.5t19.5 183t25.5 221t29 217t25.5 170t15 78.5q16 29 33 38t49 9q53 0 73.5 -29t31.5 -76q27 -145 69.5 -281.5t83.5 -277.5q4 29 9.5 86.5t10.5 127t11 144t11 137t11.5 106.5t10.5 52q16 29 35.5 37.5t50.5 8.5q27 0 57.5 -11.5t30.5 -46.5 q0 -115 -11.5 -227.5t-28.5 -224t-35.5 -224t-33.5 -225.5q-4 -35 -9 -82t-21 -78q-14 -29 -33 -37t-47 -8q-29 0 -43.5 6.5t-30.5 30.5q-8 12 -22.5 56t-32 104.5t-36 130.5t-34.5 135.5t-28.5 117.5t-18.5 77q-14 -98 -27.5 -196.5t-17.5 -197.5q-2 -29 -3 -58.5t-7 -57.5 q-8 -39 -33 -68t-66 -29q-29 0 -55.5 12.5t-26.5 47.5z" />
<glyph unicode="o" horiz-adv-x="690" d="M37 268q0 61 7 143.5t25.5 170.5t48 173t75 152.5t107.5 108.5t144 41q78 0 123 -41t67.5 -100.5t29 -129t6.5 -129.5q0 -59 -7.5 -132.5t-26 -149.5t-47 -147.5t-71.5 -128t-102.5 -91.5t-134.5 -35q-61 0 -107.5 26t-76 66.5t-45 94t-15.5 108.5zM219 177.5 q0 -21.5 5 -40t18.5 -31t38.5 -12.5q45 0 76.5 35t52 89t34 122t19.5 132.5t8 120.5t2 87q0 23 -1 58.5t-5 72.5t-11 69.5t-22 51.5q-14 0 -25.5 -13.5t-19.5 -23.5q-41 -49 -72.5 -137t-53 -187.5t-33 -194.5t-11.5 -159v-39.5z" />
<glyph unicode="p" horiz-adv-x="577" d="M29 8v10q0 217 25 429t52 427q4 37 13.5 69t28 56.5t46 39t70.5 14.5q78 0 131.5 -36t86 -92.5t47 -125t14.5 -133.5q0 -74 -19.5 -147t-59.5 -133t-100.5 -100t-140.5 -46q0 -27 -2 -53.5t-4 -53.5q-2 -33 -2 -63.5t-8 -53t-29.5 -36t-66.5 -13.5q-25 0 -46.5 9.5 t-35.5 31.5zM236 383q35 20 61.5 56t43.5 78t25.5 87t8.5 84q0 129 -88 217q-25 -129 -30 -261t-21 -261z" />
<glyph unicode="q" horiz-adv-x="724" d="M25 233q0 61 8 145.5t28.5 175.5t51 180t78 160t108.5 115t141 44q74 0 119 -38t69.5 -95.5t33 -124t8.5 -121.5q0 -39 -4 -108.5t-14.5 -143.5t-27 -139.5t-38.5 -96.5q16 -16 40.5 -36.5t48 -43t41 -47t17.5 -49.5q0 -29 -21.5 -37t-43.5 -8q-49 0 -92.5 31t-73.5 65 q-49 -51 -106.5 -82.5t-131.5 -31.5q-66 0 -110.5 22.5t-73.5 62.5t-42 92t-13 109zM209 165q0 -22 5 -42.5t14.5 -34.5t27.5 -14t38.5 12t39 28.5t33 37t20.5 34.5q-31 31 -60.5 64t-50.5 74q14 35 36 48t61 13q23 0 41 -11.5t32 -27.5q27 70 32 147.5t5 149.5 q0 16 -2 61.5t-8 93.5t-18.5 86t-30.5 40q-29 -10 -56.5 -60.5t-52 -122t-44 -155.5t-34 -162t-21.5 -138.5t-7 -86.5v-34z" />
<glyph unicode="r" horiz-adv-x="577" d="M45 29q0 27 3 108.5t8 188t11.5 225.5t13.5 219t13 169t12 77q16 25 38 32t51 7q20 0 38.5 -5.5t36.5 -13.5q53 -23 101.5 -52.5t84.5 -69.5t56 -91t20 -112q0 -96 -51 -175t-129 -130q12 -18 42 -68.5t61.5 -108t55.5 -107.5t24 -67q0 -18 -10.5 -29.5t-26 -17.5 t-32.5 -7t-32 -1q-43 0 -71.5 27.5t-50 67.5t-38 84t-30.5 77q-3 -30 -3 -66v-19v-11q-1 -42 -7 -79q-8 -42 -31 -70.5t-78 -28.5q-23 0 -51.5 8t-28.5 39zM254 500q47 35 74.5 88t27.5 112q0 53 -21.5 102.5t-60.5 86.5q0 -98 -4 -194.5t-16 -194.5z" />
<glyph unicode="s" horiz-adv-x="546" d="M2 160q0 41 16.5 58.5t59.5 17.5q29 0 47 -12.5t31.5 -33t20.5 -44t13 -46.5q6 -6 11 -8q29 6 53.5 29.5t40.5 53.5t25.5 63.5t9.5 60.5q0 76 -39 135.5t-85 115.5t-85 115.5t-39 133.5q0 53 23.5 98t62.5 77t87 49t99 17q25 0 56.5 -6t59.5 -19.5t49.5 -33.5t25.5 -49 l-19 -23q-35 -14 -77 -14q-18 0 -29.5 4t-22 10t-20.5 12.5t-25 12.5q-18 0 -31.5 -10.5t-22.5 -25.5t-14 -33.5t-5 -33.5q0 -74 37.5 -131t82.5 -114.5t83 -122t38 -152.5q0 -63 -27.5 -122.5t-73.5 -104.5t-106.5 -71.5t-124.5 -26.5q-84 0 -135 44t-51 130z" />
<glyph unicode="t" horiz-adv-x="536" d="M29 981q-25 29 6 43t84 22.5t114.5 9.5t100.5 1h14h51q43 0 84 -4t84 -21l15 -26q-27 -47 -84.5 -62.5t-108.5 -15.5q-2 -33 -5 -106.5t-8 -168t-12.5 -196t-15.5 -188.5t-18.5 -150.5t-20.5 -77.5q-25 -35 -53.5 -45t-69.5 -10q-14 0 -30 6l-15 26v9q0 113 9.5 224 t21.5 222t23.5 222.5t15.5 222.5h-47q-41 0 -77 10t-58 53z" />
<glyph unicode="u" horiz-adv-x="661" d="M29 502q0 35 4 109.5t12 156.5t20.5 151.5t28.5 94.5q16 23 30.5 32t43.5 9q14 0 33.5 -2t37 -8.5t30 -18.5t12.5 -33q0 -57 -8.5 -113.5t-16.5 -113.5q-14 -106 -24.5 -211.5t-10.5 -214.5q0 -16 2 -57t8.5 -83t19.5 -75t38 -33q6 0 13 7t9 12q18 37 37 106.5t36 156.5 t33.5 184t28 188.5t18.5 168t7 121.5q0 35 25.5 45.5t52.5 10.5q53 0 69.5 -20.5t16.5 -70.5q0 -53 -1 -133t-5 -172t-12.5 -187t-25 -182t-40 -158t-57.5 -110q-39 -45 -104.5 -64.5t-123.5 -19.5q-55 0 -94 29t-65.5 74t-42 102.5t-23.5 115.5t-10 112.5t-2 93.5z" />
<glyph unicode="v" horiz-adv-x="704" d="M88 989q0 16 8 26.5t21.5 15.5t28 6t26.5 1q35 0 54.5 -7t41.5 -34q4 -4 11.5 -48t14.5 -107.5t14 -138t13.5 -143t10.5 -120t6 -69.5q10 31 24.5 88t32 127.5t37 145.5t38.5 139.5t37.5 111.5t33.5 59q16 14 43 15q35 0 61.5 -17.5t26.5 -56.5q0 -35 -14.5 -113.5 t-38 -178t-53 -209t-60.5 -205t-59.5 -165t-49.5 -89.5q-45 -45 -114 -46q-31 0 -47.5 8.5t-34.5 32.5q-14 18 -25.5 77t-22 137.5t-18.5 170t-14 175.5t-11.5 152.5t-7.5 103.5q-4 39 -9 77.5t-5 77.5z" />
<glyph unicode="w" horiz-adv-x="886" d="M61 250q0 16 3.5 77.5t7.5 142.5t9 172t11 170t12.5 132t10.5 60q16 23 32.5 29.5t45.5 6.5q14 0 30.5 -3t30.5 -9t23.5 -17.5t7.5 -29.5q-16 -174 -26.5 -356.5t-14.5 -362.5q6 25 15 75t19.5 113.5t21.5 131t21.5 126t19.5 101.5t15 53q14 25 30.5 32t43.5 7 q53 0 86 -41q8 -10 18.5 -53t20.5 -102.5t20.5 -128t19.5 -132t16 -114.5t12 -76q23 168 29.5 335t6.5 337q0 23 3.5 45t13.5 40.5t27.5 30t46.5 11.5q12 0 28.5 -3t30.5 -9.5t24.5 -17.5t10.5 -28q0 -41 -2 -119.5t-8.5 -175t-14.5 -200t-19.5 -195.5t-26.5 -161.5 t-34 -96.5q-33 -47 -92 -47q-61 0 -100 48t-63.5 115.5t-36 138.5t-17.5 116q-2 -14 -4 -27.5t-6 -28.5q-10 -43 -20.5 -109.5t-32 -128t-59.5 -105.5t-99 -44q-53 0 -83 29t-44 71t-17.5 89t-3.5 86z" />
<glyph unicode="x" horiz-adv-x="616" d="M4 6q4 33 18.5 66.5t32 68.5t37 68.5t31.5 64.5l100 244q-4 16 -18.5 51t-31.5 81t-36.5 95.5t-38 93.5t-32 74.5t-19.5 40.5q18 35 45 44.5t62 9.5t62.5 -27t49 -64.5t37.5 -77.5t25 -67q8 25 25.5 69t37 91t41 88t35.5 57q16 18 43 19q18 0 35.5 -7.5t31 -19.5 t19.5 -27.5t0 -29.5q-20 -55 -50 -125t-57.5 -138.5t-48 -128t-20.5 -90.5q0 -14 8 -31.5t12 -29.5q14 -39 34 -98.5t37 -123t29.5 -122.5t12.5 -100q0 -31 -29.5 -40.5t-52.5 -9.5q-43 0 -70 25q-12 6 -26.5 42t-27.5 79t-24.5 83t-15.5 56q-12 -35 -31.5 -85t-46 -95 t-62.5 -77t-83 -32q-33 0 -44 8.5t-36 26.5z" />
<glyph unicode="y" horiz-adv-x="555" d="M68 981q0 18 11 30.5t27.5 21.5t35 13.5t32.5 4.5q37 0 57 -31q10 -14 16.5 -57t12.5 -92.5t10 -95.5t6 -68q6 18 18.5 55t30 83t38 95t43 89t44 65.5t42.5 25.5q14 0 31.5 -4t32.5 -13t26.5 -22.5t11.5 -29.5q0 -8 -15.5 -47t-38 -91.5t-50 -113t-53 -113.5t-44 -92 t-24.5 -49q-10 -23 -23.5 -44.5t-19.5 -43.5q-6 -20 -10.5 -67.5t-10.5 -104t-14 -116.5t-21.5 -109.5t-33 -81t-48.5 -31.5q-51 0 -71.5 25.5t-20.5 72.5q0 51 10.5 99.5t22.5 96.5t22.5 97t10.5 98q0 70 -14.5 137.5t-33 135t-32.5 135t-14 137.5z" />
<glyph unicode="z" horiz-adv-x="614" d="M25 74q8 31 31.5 90t56 133t70.5 159t75 168t68.5 157.5t50.5 131.5q-66 0 -132.5 3.5t-131.5 3.5q-29 0 -49.5 20.5t-20.5 48.5q0 20 21.5 34.5t56.5 24.5t78 13.5t88 3.5q78 0 142.5 -11.5t78.5 -29.5q27 -20 36 -43q5 -14 5 -36q0 -15 -2 -34q-2 -14 -22.5 -67 t-52.5 -128t-69.5 -165t-73.5 -177t-66 -165t-46 -127q74 10 148.5 14t150.5 4q18 0 35.5 -11t28 -26.5t8.5 -33t-23 -29.5q-49 -12 -112.5 -19.5t-130 -12.5t-128 -6t-104.5 -1q-12 0 -25.5 11.5t-23.5 28.5t-15 37t-1 36z" />
<glyph unicode="{" horiz-adv-x="634" d="M-78 438q0 43 14.5 83t42 71t65.5 51.5t85 22.5q2 35 6 100t13.5 145t27 163t45 150.5t66.5 110.5t92 43q18 0 50 -7t65.5 -19.5t63.5 -29.5t42 -36l12 -18l-18 -19q-14 -14 -41 -23t-57.5 -15.5t-59 -10.5t-47.5 -4q-8 -14 -14 -61.5t-8 -100.5t-3.5 -102t-1.5 -70 q0 -51 1.5 -101t1.5 -104q0 -23 -3.5 -56.5t-12.5 -64t-27.5 -53t-51.5 -22.5q-14 0 -28.5 1t-30.5 1q-25 0 -41 -6q-10 -4 -10 -15q0 -33 33 -45q8 -4 15 -5t15 -5q43 -16 74 -40.5t31 -78.5q0 -68 -6 -139q-6 -66 -8.5 -130.5t-2.5 -129.5q0 -16 1 -46t3 -61q4 -47 13 -71 h41q33 0 80 -4t75 -17q16 -8 31.5 -23.5t15.5 -39.5q0 -27 -9 -49.5t-21 -38.5l-11 -15h-215q-57 0 -96 35t-61.5 85t-33.5 107.5t-18 100.5q-6 57 -9 114.5t-4 111t0 97.5t1 72q-10 8 -20.5 15.5t-20.5 15.5q-43 31 -87 78t-44 102z" />
<glyph unicode="|" horiz-adv-x="385" d="M84 270q0 236 5 467.5t17 466.5q0 35 2.5 71t6.5 71q0 37 21.5 66.5t62.5 29.5q39 0 68.5 -26.5t39.5 -61.5q4 -8 4 -18.5t4 -22.5q4 -23 6.5 -49.5t4.5 -55.5q4 -55 4 -106v-74q0 -242 -1 -479.5t-1 -478.5q0 -106 -2 -209t-11 -207q-2 -23 -3 -43.5t-5 -38.5 q-2 -8 -3 -16.5t-3 -14.5q-10 -35 -46 -47t-69 -12q-18 0 -29.5 10t-19.5 25.5t-12 33t-8 31.5q-8 33 -10.5 61.5t-4.5 34.5q-14 147 -16 296t-2 296z" />
<glyph unicode="}" horiz-adv-x="634" d="M-78 1268l12 18q12 18 42 35.5t64 30t65.5 19.5t50.5 7q51 0 90 -42t65.5 -108.5t45 -148.5t28.5 -161.5t15.5 -146t5.5 -105.5q49 -2 86.5 -22.5t64.5 -52.5t41 -72t14 -81q0 -29 -12 -54.5t-31.5 -48t-43 -42t-44.5 -35.5q-10 -8 -20 -15t-21 -16q0 -31 1 -61.5 t1 -63.5q0 -55 -2 -123.5t-10 -138t-25.5 -135t-46.5 -115.5q-23 -37 -57.5 -61.5t-81.5 -24.5h-215l-10 15q-12 16 -22.5 38.5t-10.5 49.5q0 25 13.5 39t33 23t42 12.5t40.5 5.5q31 4 62.5 4h54.5q6 14 9 37.5t5 49t2 50.5v41q0 66 -3 130t-7 130q-2 35 -4 69.5t-2 69.5 q0 51 37 84q16 16 44.5 27.5t51.5 17.5q35 10 35 45q0 16 -20.5 18.5t-30.5 2.5q-16 0 -30.5 -1t-31.5 -1q-35 0 -55.5 30.5t-24.5 61.5q-8 31 -10 60.5t-2 43.5q0 53 1 103.5t1 101.5q0 18 -1 68.5t-3 105t-7 101.5t-16 59q-18 0 -46.5 4t-59.5 10.5t-57.5 15.5t-40.5 23z " />
<glyph unicode="~" horiz-adv-x="940" d="M-12 489q0 12 4 22.5t8 18.5q47 92 139 144.5t199 52.5q47 0 86 -11t73.5 -30.5t66.5 -45.5t65 -54q31 -18 41 -19q23 0 45 15.5t47 42.5q6 8 17.5 21t23.5 27.5t25.5 25t21.5 12.5l14 4l45 -27v-16q0 -49 -14 -101.5t-45 -93.5t-79 -67.5t-116 -26.5q-23 0 -49 6 t-53 18.5t-48.5 29t-33.5 34.5q-35 29 -69.5 50.5t-88.5 21.5q-25 0 -54.5 -8.5t-58 -20.5t-56 -28.5t-46.5 -32.5q-6 -4 -10 -7.5t-8 -5.5q-10 -6 -17.5 -7t-11.5 -1q-25 0 -44 15.5t-19 41.5z" />
<glyph unicode="&#xa0;" />
<glyph unicode="&#xad;" horiz-adv-x="581" d="M57 547q0 27 15.5 48.5t46.5 25.5q57 12 115.5 17t117.5 9q37 4 75 3t75 5l22 4l13 -16q4 -12 8 -24.5t4 -26.5q0 -12 -5 -42t-26 -42l-10 -6h-12q-45 0 -90.5 -3t-90.5 -3h-174q-23 0 -53.5 10t-30.5 41z" />
<glyph unicode="&#xff;" horiz-adv-x="1941" d="M51 243q-4 24 21 38q8 4 15 7t15 7q4 10 7.5 20.5t7.5 20.5q8 20 14 40.5t16 43.5q-10 0 -19 -1t-19 -1t-21.5 6t-19 16.5t-6.5 21.5t16 19q29 16 58.5 27.5t62.5 19.5q12 14 30 15q8 0 21 -4q8 2 14 3t15 1q37 8 75.5 13t79.5 5q43 0 78 -8q23 -6 33 -31.5t-21 -36.5 q-47 -14 -97 -21t-99 -11q-16 -2 -34 -5.5t-34 -7.5q-8 -27 -17.5 -53.5t-19.5 -52.5q35 8 68 13t65 9h4q29 0 37.5 -25.5t-18.5 -39.5q-43 -23 -94.5 -40.5t-102.5 -29.5q-10 -29 -23.5 -57.5t-29.5 -57.5q-8 -14 -25 -14q-16 0 -29.5 11.5t-11.5 27.5q2 20 6.5 39.5 t8.5 40.5q-23 8 -27 32zM248 961q16 133 83.5 263t145.5 236q23 31 55 31q23 0 43.5 -11.5t34 -27.5t15.5 -37.5t-13 -42.5q-39 -74 -77.5 -146.5t-67.5 -148.5q-8 -23 -18.5 -62.5t-15.5 -79.5t0 -69.5t28 -29.5q25 0 67 43q55 55 91 122.5t64 140t52.5 147.5t52.5 143 q10 23 29 33t41 10q33 0 59.5 -21.5t22.5 -58.5q-4 -55 -22.5 -131t-48 -158t-72.5 -163t-95.5 -144.5t-116 -102.5t-134.5 -39h-21q-55 0 -92 30t-58.5 76t-28.5 99.5t-3 98.5zM440 324q16 47 48 82.5t73 59t88 35t94 11.5q51 0 85 -21.5t49.5 -55.5t10.5 -76t-34 -83 q-20 -31 -51 -58.5t-67 -49t-75.5 -34.5t-80.5 -13q-33 0 -58 8q-63 23 -78.5 67t0.5 97q-10 12 -4 31zM532 276q-8 -35 6.5 -48t39.5 -13q51 0 104 30.5t82 69.5q12 14 19.5 33t7.5 34t-11.5 27.5t-38.5 14.5h-14q-76 0 -143 -45q0 -8 -6 -19q-14 -20 -26.5 -40.5 t-19.5 -43.5zM848 649q6 76 25.5 148.5t47 142.5t60.5 138.5t66 133.5q12 25 29.5 73t42 94t55 81t69.5 35q14 0 33 -6q18 -6 33.5 -24.5t11.5 -41.5q-2 -2 -3 -9t-1 -9q4 4 1 -3t-8 -18.5t-10.5 -21.5t-5.5 -14q-8 -29 -22.5 -54.5t-28.5 -54.5q-23 -47 -45 -95t-45 -97 q-51 -104 -95 -213t-97 -213q-8 -16 -22.5 -24.5t-31.5 -8.5q-25 0 -44 16t-15 45zM926 223q14 74 41.5 145.5t58.5 141.5q6 16 18.5 22.5t24.5 6.5q33 0 51 -29q29 -41 50.5 -82t43.5 -84q4 16 9.5 33.5t9.5 34.5q16 37 33.5 74.5t44.5 68.5q14 16 35 16q23 0 38 -16t7 -43 q-10 -45 -33 -87t-39 -87q-12 -37 -21.5 -75t-35.5 -66q-14 -18 -41 -19q-33 0 -50 29q-25 43 -46 87t-44 85q-18 -45 -37.5 -89t-37.5 -87q-4 -12 -15.5 -17.5t-21.5 -5.5q-18 0 -32.5 11.5t-10.5 31.5zM1153 715q0 8 4 28q-2 14 4 29q16 76 49 148.5t62 144.5 q16 39 31.5 80t34 81t41 75.5t55.5 62.5q16 14 36 14q25 0 50 -24q55 25 122 24q55 0 108.5 -18.5t90.5 -52.5q37 -37 49.5 -79t7 -87t-24 -88t-40.5 -82q-37 -63 -82 -126t-100.5 -112t-123 -78.5t-147.5 -29.5q-70 0 -131 28q-12 -6 -28 -6q-27 0 -49.5 18.5t-18.5 49.5z M1350 793q78 4 139.5 42.5t114.5 110.5q25 35 59.5 80t42.5 86q6 35 -1 56.5t-24.5 32.5t-42 15.5t-51.5 4.5h-55q-16 -63 -46 -124t-54 -118q-20 -47 -40 -93t-42 -93zM1430.5 490.5q-3.5 13.5 2 25.5t19.5 16q27 6 63.5 13.5t75.5 12.5t76 8t66 3q31 0 57 -6 q12 -2 22.5 -12t13.5 -22.5t-1 -22.5t-21 -17q-27 -10 -53.5 -13t-54.5 -7q-2 -20 -16.5 -69.5t-35 -99.5t-45 -88t-51.5 -38q-18 0 -32.5 14.5t-6.5 32.5q-2 -4 -2 6.5v12.5q2 10 5.5 17t7.5 17q6 18 14 38t16 38q10 29 18.5 55.5t18.5 55.5q-29 -2 -59.5 -3t-59.5 -1 q-14 0 -24 10t-13.5 23.5z" />
<glyph unicode="&#xe01;" horiz-adv-x="948" d="M31 838q0 72 47 127t114.5 94t144.5 58.5t136 19.5q125 0 210 -28t136 -86t73.5 -146.5t22.5 -208.5q0 -27 -3 -88.5t-9 -137t-18.5 -155.5t-31.5 -145.5t-46 -108.5t-64 -43q-39 0 -63.5 23.5t-24.5 62.5q0 45 9.5 88t17.5 88q16 102 29.5 206.5t13.5 209.5q0 76 -7 131 t-33 92t-75 54.5t-133 17.5q-68 0 -142.5 -26t-119.5 -79q31 -2 67.5 -5t69.5 -12.5t54.5 -32t21.5 -65.5q0 -27 -2 -85t-7 -129.5t-12.5 -149.5t-15.5 -145.5t-17 -119t-22 -69.5q-14 -23 -29.5 -34t-43.5 -11q-47 0 -69 31.5t-22 74.5q0 150 20.5 296.5t24.5 295.5 q-35 0 -70.5 6.5t-65 21.5t-48 42t-18.5 70z" />
<glyph unicode="&#xe02;" horiz-adv-x="829" d="M33 932q0 47 19.5 88t52 71.5t74.5 49t87 18.5q72 0 116 -21.5t67.5 -59.5t30.5 -90t7 -114q0 -176 -19 -348t-19 -348q0 -4 1 -8t1 -8q14 0 27.5 6t23.5 16q37 193 59.5 384.5t22.5 387.5q0 29 2 58.5t11 54.5t29.5 40t59.5 15q35 0 71 -19.5t36 -60.5 q0 -37 -5.5 -118.5t-14.5 -186t-21.5 -217t-27.5 -211t-33.5 -168t-39.5 -88.5q-35 -31 -90 -45t-100 -14q-33 0 -69 8t-65.5 25.5t-49 44t-19.5 65.5q0 147 10.5 295t18.5 295q-47 0 -92 12.5t-81 37t-58.5 62.5t-22.5 91zM233 922q0 -29 35 -29h27q-2 23 -1 53.5t-11 48.5 q-20 -6 -35 -29.5t-15 -43.5z" />
<glyph unicode="&#xe03;" horiz-adv-x="890" d="M45 868q0 49 13.5 99.5t41 90.5t68.5 65.5t98 25.5q35 0 64.5 -11.5t52.5 -39.5q20 20 46 28.5t54 8.5q82 0 121 -49.5t39 -124.5q0 -80 -27.5 -164t-61.5 -173t-62.5 -180.5t-28.5 -185.5q0 -27 7 -59.5t42 -32.5t56.5 26.5t31.5 57.5q14 41 24.5 112.5t17.5 156.5 t13.5 175t13.5 169t17 138.5t25 79.5q10 14 25.5 21.5t31.5 7.5q100 0 100 -102q0 -41 -4 -112t-11 -155t-17.5 -174t-22.5 -172t-24.5 -149.5t-26.5 -104.5q-29 -78 -87.5 -112.5t-139.5 -34.5q-121 0 -192 58.5t-71 183.5q0 117 32 230.5t69 223.5q-29 -29 -65 -42 t-75 -13q-49 0 -84.5 19.5t-59 52t-34 74.5t-10.5 87zM225 815q0 -27 23 -33q10 10 10 27q0 8 -3 16.5t-13 10.5q-17 -5 -17 -21zM233 952h50q-2 4 -7.5 22.5t-13.5 18.5q-10 0 -17.5 -17.5t-11.5 -23.5zM399 899q8 -14 12.5 -43t8.5 -45q10 29 18 56.5t17 56.5 q-4 -10 -24.5 -15.5t-31.5 -9.5z" />
<glyph unicode="&#xe04;" horiz-adv-x="1001" d="M59 502q0 115 26 227.5t83 200.5t149.5 142t225.5 54q129 0 212 -46t131 -123.5t67.5 -179t19.5 -212.5q0 -29 -3 -96.5t-9.5 -140t-16.5 -135t-24 -80.5q-35 -43 -93 -43q-35 0 -57 19.5t-22 55.5q0 106 13 212t13 212q0 59 -7 128t-30.5 127.5t-68.5 98.5t-123 40 q-92 0 -148.5 -49.5t-88.5 -123t-43 -157.5t-11 -156v-13t2 -13q12 49 34.5 101t55.5 95t78 69.5t104 26.5q37 0 74 -11t67.5 -32.5t50 -52.5t19.5 -72q0 -49 -23.5 -83.5t-60.5 -56t-82 -32t-88 -10.5h-21t-22 2q-6 -33 -16 -96t-30.5 -126.5t-50.5 -111t-75 -47.5 q-68 0 -108.5 58.5t-63 137.5t-31 161t-8.5 131zM504 565q0 -22 20 -22q14 0 21.5 10t7.5 22q0 10 -5 18.5t-16 8.5q-14 0 -21 -12t-7 -25z" />
<glyph unicode="&#xe05;" horiz-adv-x="1050" d="M37 588q0 84 16.5 176t56.5 170t107.5 128t171.5 50q76 0 140.5 -38t97.5 -107q31 31 74.5 57.5t91.5 26.5q47 0 80.5 -33t55 -84t34 -114.5t19.5 -126t8 -117t1 -87.5v-61t-3 -88t-10 -96t-20.5 -90t-34 -67t-51.5 -26q-29 0 -46 12.5t-27.5 32t-14.5 43t-4 46.5 q0 76 3 151.5t3 151.5v83t-3 94t-9 93t-16 80q-8 4 -13 4q-12 0 -22 -17.5t-25.5 -38t-38 -38t-57.5 -17.5q-49 0 -76.5 32t-48 70t-41 69.5t-57.5 31.5q-31 0 -54.5 -21.5t-40 -55t-26.5 -75.5t-16 -83t-8.5 -78t-2.5 -60q0 -109 21 -204q8 55 25.5 119.5t49 117.5t80 89 t117.5 36q41 0 80 -12t68.5 -36t47 -57.5t17.5 -78.5q0 -90 -58 -135t-142 -45q-45 0 -88 12q-6 -33 -12.5 -95.5t-20 -124t-40 -106.5t-73.5 -45q-49 0 -88 33t-68.5 85t-50 117.5t-34 130t-19.5 122t-6 94.5zM509 520q3 -10 19 -14h9q14 0 24 10t13.5 21.5t-5 21.5 t-32.5 10q-6 0 -14.5 -8t-12.5 -19.5t-1 -21.5z" />
<glyph unicode="&#xe06;" horiz-adv-x="1069" d="M-8 256q-4 53 13.5 97t48 77t75.5 50.5t96 17.5q43 0 85 -11.5t83 -29.5q29 106 49.5 223t20.5 229q-18 -23 -33.5 -38t-36.5 -15q-27 0 -65 33q29 -35 43 -57.5t18 -65.5q6 -78 -41 -122t-119 -44q-84 0 -137 56.5t-57 138.5q-2 51 13 104t46 96t75 71t99 28 q29 0 58.5 -11.5t54.5 -27.5q23 29 59.5 51t75.5 22q41 0 67.5 -20.5t44 -52t24.5 -68.5t10 -69q4 -61 -3.5 -136t-20.5 -153t-30.5 -152t-34.5 -133q18 -12 48 -26.5t53 -16.5q18 25 36.5 92.5t34 144t25.5 149.5t14 110q2 23 3 61.5t3.5 80.5t6.5 79t10 51q20 43 67 43 q35 0 56.5 -16.5t34 -41t16.5 -54t6 -56.5q2 -47 -1 -126t-15.5 -169t-34 -181t-56 -165t-82.5 -120t-112 -46q-45 0 -89 14.5t-85 36.5q-39 -78 -103.5 -133t-156.5 -55q-53 0 -99.5 20.5t-81 55.5t-56 81t-23.5 99zM184 242q2 -23 15.5 -53.5t40.5 -30.5q25 0 41 15 t27 37.5t20.5 47.5t17.5 43q-23 14 -49.5 27.5t-50.5 13.5q-16 0 -27.5 -11.5t-20 -26.5t-11.5 -32.5t-3 -29.5zM203 774q0 -10 7 -14t15 -4q27 0 27 26q0 18 -19 29q-10 -4 -21 -15.5t-9 -21.5z" />
<glyph unicode="&#xe07;" horiz-adv-x="716" d="M35 643q0 37 25.5 62.5t62.5 25.5q41 0 72 -35t52 -80t44 -86q41 -72 84 -141.5t90 -134.5q12 117 17 234.5t5 236.5q-8 -2 -24 -2q-45 0 -87 16.5t-74 46t-50.5 69.5t-18.5 87t19.5 86t52.5 67.5t74 45t86 16.5q59 0 102 -23.5t71 -63.5t40 -90t12 -103q0 -33 -1 -102.5 t-5 -157t-9 -181.5t-14.5 -176t-20.5 -142.5t-28 -78.5q-20 -23 -47.5 -34t-56.5 -11q-37 0 -72 20q-25 14 -63.5 58.5t-83.5 105t-90 130t-82 135t-59.5 118.5t-22.5 82zM418 940q0 -20 10 -36.5t33 -16.5t33 17.5t10 35.5q0 43 -41 43q-45 0 -45 -43z" />
<glyph unicode="&#xe08;" horiz-adv-x="808" d="M33 860q0 18 11.5 34t21.5 28q72 86 166 145t210 59q94 0 157 -37.5t100.5 -99t54 -139.5t16.5 -158q0 -49 -5 -134t-16.5 -176t-26.5 -172t-34 -124q-18 -41 -48 -67.5t-77 -26.5q-45 0 -70.5 19.5t-38 50t-16.5 67.5t-10 70q-8 49 -15 99t-20 97q-43 0 -89 8.5t-84 29 t-61.5 55t-23.5 87.5q0 43 17.5 78t47 59.5t67.5 39t77 14.5q59 0 96 -23.5t59.5 -60.5t36 -83t25.5 -93q6 84 6 168q0 37 -3 86t-17.5 95t-43 78t-77.5 32q-55 0 -98 -29t-78 -64.5t-64.5 -64.5t-62.5 -29t-61.5 23.5t-28.5 58.5zM309 578q0 -25 27 -25q29 0 29 25 q0 12 -7.5 22t-21.5 10t-20.5 -10t-6.5 -22z" />
<glyph unicode="&#xe09;" horiz-adv-x="1193" d="M135 649q0 100 64.5 154.5t160.5 54.5q102 0 147.5 -57.5t45.5 -153.5q0 -66 -6 -132t-17 -132q51 47 107.5 85t116.5 71q10 63 18 126.5t8 129.5q0 125 -50 197.5t-185 72.5q-66 0 -113 -19.5t-84 -43t-65.5 -43t-59.5 -19.5q-37 0 -60.5 26.5t-23.5 61.5q0 55 51.5 94 t121 64.5t141 37t114.5 11.5q213 0 315.5 -120t102.5 -327q0 -53 -5 -104t-13 -104q53 -6 90 -29t60.5 -57.5t34.5 -78.5t11 -93q0 -53 -14 -110.5t-44 -105t-76 -77t-107 -29.5q-68 0 -108 31.5t-59.5 79t-24.5 105.5t-5 110q-27 -27 -60.5 -72t-72.5 -88t-80 -74t-82 -31 q-45 0 -74.5 35t-29.5 78q0 72 10 143.5t16 143.5q-10 -2 -19 -3t-20 -1q-82 0 -130 57t-48 135zM307 659q0 -12 3.5 -22t19.5 -10q18 0 30.5 14t12.5 33q0 29 -27 28q-20 0 -29.5 -12t-9.5 -31zM924 252q0 -16 3 -30.5t1 -31.5q23 27 34 71t11 77q0 16 -6 46t-27 34 q-10 -41 -13 -83t-3 -83z" />
<glyph unicode="&#xe0a;" horiz-adv-x="897" d="M27 936q0 78 53 133t151 55q55 0 99.5 -18.5t75 -50t46 -72.5t15.5 -84q0 -14 -1 -27.5t-3 -27.5l4 4q25 27 49.5 61.5t48.5 75.5q33 53 69 103.5t81 95.5q12 10 31.5 18t41.5 8q6 0 21.5 -2t30 -9t26 -20.5t11.5 -35.5q0 -23 -28 -74t-68 -111.5t-87 -121t-86 -103.5 q55 -20 92 -61t58.5 -88t30 -96.5t8.5 -90.5q0 -51 -15.5 -119.5t-52.5 -130t-97.5 -104.5t-152.5 -43q-82 0 -136 38t-88 96.5t-48 130t-14 138.5q0 49 5 97.5t15 99.5q6 35 14.5 70t16.5 69q-41 4 -80 17.5t-70 37t-49 58.5t-18 84zM205 926q0 -23 5 -29t13 -10 q22 -8 51 -10q0 2 1 3t1 3q4 20 5 35q0 29 -13.5 42t-27.5 13q-16 0 -25.5 -9.5t-9.5 -37.5zM406 408q0 -18 2 -58.5t10 -79.5t24.5 -68.5t42.5 -29.5q31 0 52.5 30.5t35 71.5t19.5 83t6 65q0 47 -9 80t-30.5 55.5t-55.5 36.5t-81 27q-8 -53 -12 -106.5t-4 -106.5z" />
<glyph unicode="&#xe0b;" horiz-adv-x="870" d="M41 868q0 47 13.5 93.5t39 82t65.5 58t91 22.5q61 0 112 -41q16 16 37 27.5t43 11.5q55 0 95.5 -43t50.5 -94q16 23 37.5 57.5t47 67.5t54.5 55.5t61 22.5q33 0 62 -19.5t29 -54.5q0 -14 -31 -65.5t-70 -109.5t-75.5 -110.5t-51.5 -70.5q104 -72 141 -170.5t37 -220.5 q0 -72 -18 -137.5t-56 -116t-95.5 -80t-137.5 -29.5q-139 0 -216 80t-77 217q0 90 26 193.5t60 185.5q-43 -18 -92 -18q-94 0 -138 59t-44 147zM205 842q-4 -8 2 -22.5t14 -14.5q6 0 8 4l13 18q4 8 -1 22.5t-16 14.5q-4 0 -8 -6zM365 961l10 -105l45 84q-8 31 -25 31 q-10 0 -30 -10zM430 293q0 -20 2 -44t10.5 -43.5t24.5 -31.5t43 -12q37 0 60.5 24.5t38 60.5t19.5 74.5t5 65.5q0 35 -6 75t-19.5 78t-38 67.5t-61.5 41.5q-33 -86 -55.5 -175t-22.5 -181z" />
<glyph unicode="&#xe0c;" horiz-adv-x="1351" d="M43 844q0 76 49 130t121 90t150.5 53.5t140.5 17.5q104 0 180 -34t130 -90.5t89 -132t54.5 -159.5t26.5 -172t7 -170l39 -31q4 29 10.5 88.5t13.5 133t15 152.5t18.5 147.5t20.5 118.5t20 65q16 23 32 36t44 13q53 0 74.5 -38t21.5 -85q0 -35 -4 -105.5t-12 -159.5 t-18.5 -184.5t-22.5 -179.5t-26.5 -146.5t-28.5 -84.5q-14 -20 -32.5 -34.5t-45.5 -14.5q-45 0 -86 19t-70 54q-33 -66 -78 -104.5t-120 -38.5q-66 0 -118 30.5t-83 88.5q-23 -57 -74 -86t-110 -29q-109 0 -161 61.5t-52 165.5q0 111 25.5 218.5t49.5 216.5q-33 8 -67.5 22 t-61 35.5t-44 52.5t-17.5 70zM250 838q6 -12 18.5 -16.5t26.5 -4.5q10 0 21.5 1t21.5 1q47 0 71.5 -27.5t24.5 -72.5q0 -90 -22.5 -176t-34.5 -174q47 -2 90 -23.5t72 -62.5q23 92 88 130t153 38v8q0 68 -10 155.5t-41 166.5t-86 134.5t-143 55.5q-27 0 -68 -9.5t-80 -25.5 t-67.5 -41.5t-34.5 -56.5zM342 199q0 -12 6.5 -24.5t16.5 -18.5q4 4 12 15t8 17q0 12 -9 24.5t-24 12.5q-10 -14 -10 -26zM729 221q0 -29 16 -51q12 18 18.5 42t6.5 46q0 16 -6 25h-6q-16 0 -22.5 -25t-6.5 -37z" />
<glyph unicode="&#xe0d;" horiz-adv-x="1200" d="M23 745q0 76 50 141.5t122.5 113t155.5 75t149 27.5q84 0 154.5 -23.5t121.5 -69.5t81 -114t30 -154q0 -68 -12.5 -134t-12.5 -134q0 -12 1 -24.5t5 -22.5q27 20 43.5 64.5t27.5 100.5t18.5 118.5t13.5 119t13 98.5t20 58q16 23 31.5 32t43.5 9q47 0 72 -31.5t25 -76.5 q0 -43 -5.5 -111t-18.5 -144.5t-35.5 -153.5t-55.5 -139.5t-77 -101.5t-103 -41l45 -49q14 10 32.5 27.5t39 34t40 29t37.5 12.5q35 0 54.5 -22.5t19.5 -55.5q0 -55 -43 -101.5t-104.5 -80t-128 -52t-113.5 -18.5q-33 0 -68 9t-63.5 28.5t-48 47t-23.5 64.5 q-23 -53 -71 -83.5t-107 -30.5q-55 0 -99 21.5t-74 56t-46.5 83t-16.5 99.5q0 45 9.5 88t22.5 86t27.5 86t22.5 86q-37 2 -72.5 10t-65.5 24.5t-47 45t-17 73.5zM229 768q31 -10 66 -13t64.5 -12.5t49 -30t19.5 -65.5q0 -37 -9 -71.5t-21.5 -69.5t-25 -69t-18.5 -70 q8 2 16.5 2h16.5q78 0 129 -47.5t57 -124.5q27 45 71 65.5t95 20.5q-66 66 -65 161q0 74 16.5 144.5t16.5 144.5q0 39 -8.5 76t-28 64.5t-50 45t-75.5 17.5q-27 0 -79 -15.5t-104.5 -39t-92.5 -53t-40 -60.5zM334 180q0 -16 11.5 -28.5t27.5 -12.5t22 19.5t6 31.5 q0 16 -6 26.5t-22 10.5q-20 0 -29.5 -15t-9.5 -32zM715 121q0 -10 19.5 -14.5t27.5 -4.5q16 0 24 2q-8 12 -17 24.5t-26 12.5q-10 0 -19 -4t-9 -16z" />
<glyph unicode="&#xe0e;" horiz-adv-x="1089" d="M72 152q0 82 52 133t134 51q33 0 74 -10q4 35 7 70.5t3 70.5q0 29 -5 57.5t-13 57.5q-35 8 -70 22t-62.5 37t-44 54.5t-16.5 72.5q0 78 53.5 143.5t131 112.5t163.5 73.5t154 26.5q111 0 183.5 -55t115.5 -140t60.5 -185.5t17.5 -190.5q0 -41 -4.5 -125t-13.5 -187.5 t-20 -217t-26.5 -212t-33 -171t-38.5 -97.5q-35 -41 -88 -41q-29 0 -57.5 13.5t-40.5 42.5q-35 33 -64.5 66.5t-64.5 64.5q-6 -31 -29.5 -56.5t-54.5 -44t-64.5 -30t-62.5 -11.5q-45 0 -92 14.5t-86 42t-64.5 67.5t-25.5 89q0 51 26.5 85t67.5 52.5t88 25.5t88 7 q27 0 53.5 -2t53.5 -6q8 25 18 51.5t25.5 49t38 37t53.5 14.5t50.5 -18.5t19.5 -49.5q0 -37 -12.5 -72.5t-24.5 -70.5q49 -29 86 -64q31 168 55.5 336t24.5 340q0 27 -1.5 73t-6.5 100t-15 108.5t-28.5 99.5t-45 72.5t-65.5 27.5q-27 0 -75 -18t-94 -46t-81 -60.5t-35 -63.5 q0 -14 16.5 -19.5t26.5 -9.5q41 -14 75 -43.5t50 -70.5q16 -47 19.5 -110.5t3.5 -115.5q0 -61 -9.5 -140t-37 -148.5t-78 -116.5t-131.5 -47q-88 0 -147.5 58.5t-59.5 146.5zM250 131q0 -6 3 -13t11 -7q23 0 23 22q0 10 -6.5 23.5t-16.5 13.5t-12 -15.5t-2 -23.5zM279 -260 q0 -20 14 -33.5t35 -13.5q29 0 50 23.5t32 47.5q-14 4 -28.5 4.5t-31.5 0.5h-20.5t-23.5 -3.5t-19 -9.5t-8 -16z" />
<glyph unicode="&#xe0f;" horiz-adv-x="935" d="M-168 -213q0 88 61.5 140.5t143.5 62.5q-23 27 -35 61.5t-12 69.5q0 94 63.5 145t153.5 51q14 0 26.5 -1t24.5 -5q4 47 7 92.5t3 92.5q0 63 -14 114q-8 12 -38 36t-61.5 54.5t-57 66.5t-25.5 73q0 70 32.5 123t85 87.5t116 53t124.5 18.5q100 0 174 -34.5t127 -92 t86 -134.5t52.5 -161t26.5 -171t7 -164q0 -35 -4 -97.5t-10 -138.5t-16.5 -158t-21.5 -155.5t-25.5 -130t-30.5 -82.5q-12 -20 -29.5 -34.5t-42.5 -14.5q-33 0 -65.5 22.5t-60.5 54t-50.5 67.5t-36.5 62q-14 -23 -29.5 -54.5t-35 -61t-44 -50t-55.5 -20.5q-23 0 -42 13.5 t-34.5 33t-28 42t-18.5 40.5q-35 -49 -84 -82t-110 -33q-84 0 -140.5 57.5t-56.5 141.5zM-2 -231q0 -10 4 -17.5t8 -15.5q14 0 29.5 11t28 26.5t20.5 34t8 30.5q-4 0 -8 1t-8 1q-29 0 -55.5 -20t-26.5 -51zM156 113q0 -27 22 -27q16 0 27.5 16.5t11.5 32.5t-14 17 q-18 0 -32.5 -9.5t-14.5 -29.5zM242 -57q51 -40 86 -97q12 25 28.5 54.5t37 57.5t46 46.5t56.5 18.5q29 0 53 -16.5t44.5 -40t38 -50.5t30.5 -47q14 123 23 247t9 249q0 66 -4 162t-27.5 187t-74.5 155.5t-144 64.5q-20 0 -49.5 -6t-58.5 -18.5t-49.5 -31t-20.5 -44.5 q0 -20 31 -37t66.5 -48.5t66.5 -87t31 -153.5q0 -63 -6 -151.5t-29 -172.5t-67 -151.5t-117 -89.5z" />
<glyph unicode="&#xe10;" horiz-adv-x="786" d="M45 492q0 37 15.5 69.5t43 56t64.5 38t78 14.5q47 0 84 -16.5t64.5 -43t50 -61.5t40.5 -72q-2 47 -12 91t-39 73q-18 18 -51 37.5t-70 35t-73.5 26t-65.5 10.5q-43 0 -80 21.5t-37 76.5q0 59 54.5 107.5t129 82t153.5 51t126 17.5q43 0 97.5 -7t93.5 -30 q16 -8 31.5 -24.5t15.5 -43.5q0 -41 -30 -54t-62 -13q-35 0 -77 7t-71 7q-119 0 -205 -67q80 -27 161 -75t124 -101q47 -59 61.5 -136t14.5 -139q0 -31 -6 -92.5t-22.5 -122.5t-46.5 -106.5t-77 -45.5q-23 0 -47 9.5t-37 19.5q-23 27 -34 55.5t-19 57t-14 58.5t-19 61 q0 4 -4 12q-43 -27 -98 -27q-41 0 -79 14.5t-65.5 40t-44 58.5t-16.5 70zM47 -53q0 76 54.5 128t146.5 52q74 0 130 -41t85 -109q16 20 42.5 36t63.5 16q35 0 79 -20.5t82 -52.5t63.5 -70t25.5 -70q0 -39 -28.5 -57.5t-61.5 -18.5q-43 0 -78 32.5t-57 67.5 q-4 -25 -11.5 -54.5t-19.5 -54t-33.5 -42t-52.5 -17.5q-51 0 -79.5 42t-43.5 85q-51 -33 -116 -32q-92 0 -141.5 55t-49.5 125zM209 489q0 -23 10 -25.5t14 -2.5q12 0 21.5 8t9.5 20t-10 21.5t-23 9.5q-10 0 -16 -11t-6 -20zM225 -55q0 -14 13 -19q6 -2 12 -2l2 2q4 0 4 2 q6 8 6 15q0 6 -4 12t-8 6q-25 0 -25 -16z" />
<glyph unicode="&#xe11;" horiz-adv-x="1081" d="M27 840q0 47 15 97t45 91t72 67.5t93 26.5q53 0 98 -35q23 16 50.5 22.5t56.5 6.5q86 0 125 -56t39 -134q0 -25 -1.5 -58.5t-9.5 -56.5q20 37 45 76t55.5 71.5t68.5 54t85 21.5q59 0 95 -34.5t54.5 -86t24.5 -108.5t6 -100q0 -31 -4 -86.5t-13 -124t-20.5 -141 t-26.5 -137t-31.5 -114t-35.5 -69.5q-31 -35 -71 -35q-35 0 -56.5 22.5t-21.5 57.5q0 80 13.5 157.5t30.5 156.5t30.5 157t13.5 158q0 31 -2 62.5t-10 61.5q-23 -25 -49.5 -74.5t-54 -115.5t-55.5 -138.5t-52.5 -142t-47 -129t-38.5 -96.5q-8 -16 -14.5 -34.5t-16.5 -34.5 q-39 -59 -109 -60q-23 0 -48 8.5t-44.5 22.5t-31 34.5t-5.5 45.5q12 55 27.5 123.5t33 140.5t35 145.5t33.5 137.5q-29 -31 -67.5 -47.5t-79.5 -16.5q-49 0 -91 19.5t-73 51t-48 76t-17 93.5zM221 782q0 -10 11.5 -22t21.5 -12q8 4 15 12t7 18q0 16 -20 25q-10 0 -19.5 -6 t-15.5 -15zM238 954q4 2 12 2l-8 7zM377 915q18 -16 33.5 -35t25.5 -42q2 23 5 45t3 45q0 6 -1 13t-1 13q-16 -10 -31.5 -21t-33.5 -18z" />
<glyph unicode="&#xe12;" horiz-adv-x="1355" d="M25 702q0 61 9 133t36.5 131.5t76.5 99.5t129 40q61 0 117 -27.5t96 -70.5q33 47 72 84.5t103 37.5q70 0 116.5 -41.5t78.5 -107.5t50.5 -148.5t25.5 -164.5t7 -155t-2 -120q29 -16 56.5 -32.5t54.5 -36.5q23 106 39 211.5t22 214.5q2 37 4 87t5 101t10.5 99t19.5 79 q12 29 28.5 45.5t51.5 16.5q29 0 47 -12.5t28.5 -31t14.5 -42t4 -45.5q0 -37 -5 -113t-13.5 -170t-20.5 -195.5t-28.5 -190.5t-36 -153.5t-39.5 -87.5q-35 -35 -84 -35q-55 0 -97.5 35t-80.5 70q-10 -86 -62.5 -146.5t-144.5 -60.5q-74 0 -132.5 41t-74.5 115 q-29 -55 -79 -102.5t-118 -47.5q-59 0 -104 40t-76 102.5t-51.5 141.5t-32.5 155.5t-16 145t-4 111.5zM211 709q0 -139 27.5 -267.5t76.5 -257.5q33 43 53.5 92.5t34.5 102.5q-66 16 -112.5 65.5t-46.5 120.5q0 80 51 134.5t133 54.5q43 0 79 -16.5t60.5 -45t39 -66.5 t14.5 -79q0 -35 -6.5 -70t-14.5 -69q55 43 125 43q20 0 31 -2v45q0 45 -3 110.5t-12.5 135t-26 131t-40.5 96.5l-6 2q-18 -20 -36 -53t-36 -64t-42 -53.5t-56 -22.5q-37 0 -64.5 26.5t-52.5 58.5t-48.5 58.5t-51.5 26.5q-23 0 -37.5 -30.5t-21.5 -70.5t-9 -80t-2 -56z M410 553q0 -12 6 -15t16 -3q4 0 6 1t6 1q0 4 1 9t1 9q0 18 -8 29l-8 4q-10 -4 -15 -14.5t-5 -20.5zM686 186q0 -14 6 -26q10 0 19 6q12 31 18 62.5t16 64.5q-12 -2 -23 -14.5t-18.5 -30t-12.5 -34t-5 -28.5z" />
<glyph unicode="&#xe13;" horiz-adv-x="1425" d="M25 786q0 78 48 140.5t119.5 105.5t152.5 66.5t149 23.5q109 0 177 -42t108 -110.5t55.5 -155.5t15.5 -177q0 -76 2 -149.5t2 -149.5q23 23 47.5 41t48.5 37q0 29 4 82t12.5 118.5t19.5 136t26.5 132t32 106.5t36.5 62q23 16 39.5 21t44.5 5q43 0 56.5 -24.5t13.5 -61.5 q0 -41 -11.5 -81t-21.5 -81q-18 -84 -34.5 -168.5t-22.5 -170.5q8 2 24 2q98 0 163 -66t65 -164q0 -47 -16.5 -94t-46 -84t-71.5 -59.5t-94 -22.5q-45 0 -78.5 15.5t-57 41t-39 61.5t-25.5 75q-18 -25 -44 -53.5t-55.5 -53t-63.5 -41t-67 -16.5q-41 0 -66.5 22.5t-35.5 59.5 q-29 -55 -81 -85t-114 -30q-72 0 -115.5 34t-67 85t-32 112.5t-8.5 116.5q0 66 3 130.5t11 129.5q-37 4 -74.5 16.5t-67.5 34t-48 53t-18 74.5zM236 795q0 -16 14 -19.5t24 -5.5q37 -6 69 -8t54.5 -13.5t35.5 -35t13 -72.5q0 -55 -10 -109.5t-18 -107.5q10 4 19 4h20 q59 0 108 -29.5t78 -83.5q4 74 7 148t3 147q0 43 -4 103.5t-20.5 114t-50 91t-95.5 37.5q-29 0 -70.5 -12t-81.5 -34.5t-67.5 -51t-27.5 -63.5zM408 221q0 -23 10 -40t37 -17q23 0 36 21.5t13 41.5q0 23 -17.5 35t-37.5 12q-27 0 -34 -15t-7 -38zM1149 283q0 -8 3 -23.5 t7 -31t9.5 -30t11.5 -20.5q12 20 20 59t8 62q0 16 -4 27.5t-22 11.5q-23 0 -28 -19.5t-5 -35.5z" />
<glyph unicode="&#xe14;" horiz-adv-x="935" d="M45 483q-8 115 8.5 225.5t66.5 199.5t136 148.5t217 67.5q10 2 20.5 2h20.5q96 0 166 -32.5t118 -91t73.5 -138.5t31.5 -172q2 -29 0 -89t-9 -135t-20.5 -155t-33 -146.5t-45 -109.5t-60.5 -47h-6q-35 0 -56.5 28t-23.5 60q-4 72 10.5 143.5t30.5 141.5q-16 -61 -47 -129 t-76 -124t-103 -94t-130 -38q-82 0 -135.5 52t-86 128t-48 159t-19.5 146zM227 510q2 -29 12.5 -81t26 -106.5t36 -100.5t42.5 -62q18 4 38.5 22.5t39 41t35 46t24.5 37.5q-39 0 -77.5 14.5t-69.5 39t-50.5 58.5t-23.5 77q-2 45 13.5 85t45 69.5t68.5 48t82 20.5h18 q84 0 146.5 -50.5t73.5 -138.5q4 47 6 95.5t-2 95.5q-2 53 -13.5 98t-35 78t-62.5 51.5t-98 18.5q-82 0 -137.5 -46.5t-87 -115t-43 -148t-7.5 -147.5zM430 504q2 -20 15.5 -36.5t35.5 -14.5q29 2 40 24.5t9 46.5q-2 23 -13 38.5t-36 12.5q-29 -2 -41 -24t-10 -47z" />
<glyph unicode="&#xe15;" horiz-adv-x="944" d="M35 524q0 45 4 107.5t14 130t29.5 133.5t50.5 118t77 84.5t107 32.5t112.5 -33.5t88.5 -80.5q33 29 72 45t82 16q80 0 127 -40t72.5 -100t32.5 -131t7 -132q0 -27 -4 -88.5t-13 -138t-23.5 -157.5t-35 -147.5t-48 -109.5t-62.5 -43q-41 0 -62.5 28.5t-21.5 67.5 q0 41 12.5 81t20.5 81q20 104 31.5 211.5t11.5 216.5q0 18 -1 53t-6 71t-13.5 67.5t-22.5 43.5q-18 -6 -35.5 -25.5t-38 -40t-45.5 -35.5t-57 -15q-37 0 -59.5 26.5t-41 59t-34 59.5t-35.5 27t-37 -29t-29 -75t-20.5 -100t-14.5 -105.5t-8 -92.5t-2 -57q0 -31 1 -78t7 -95 t18.5 -91t35.5 -66q18 4 38.5 18.5t40 35t36 41t26.5 34.5q-37 8 -70 28.5t-57.5 49.5t-38.5 63.5t-14 73.5q0 92 60 152.5t153 60.5q47 0 88 -15t71.5 -43t48 -68t17.5 -87q0 -66 -35 -153.5t-92 -167.5t-128 -135.5t-144 -55.5q-55 0 -94.5 26.5t-67 71t-44 100.5 t-24.5 113.5t-11 110.5t-3 92zM414 514q0 -27 17.5 -40t41.5 -13q20 0 26.5 18.5t6.5 34.5q0 18 -9.5 38.5t-31.5 20.5q-25 0 -38 -18t-13 -41z" />
<glyph unicode="&#xe16;" horiz-adv-x="933" d="M31 768q0 78 55 143.5t135 112.5t168 74.5t154 27.5q117 0 187.5 -60t108.5 -149.5t50 -194t12 -194.5q0 -20 -2 -65t-7 -101.5t-11.5 -117t-15.5 -112.5t-20 -89t-26 -45q-29 -16 -59 -16q-43 0 -63.5 27.5t-20.5 68.5q0 96 18.5 205.5t18.5 220.5q0 43 -4 119.5 t-21.5 151.5t-53.5 129t-99 54q-27 0 -78 -16t-102.5 -43t-90.5 -58.5t-41 -62.5l8 -6q37 -6 70 -10t59.5 -15.5t42 -36t15.5 -71.5q0 -35 -8.5 -68.5t-20.5 -67.5t-23.5 -67t-17.5 -67q10 2 19.5 3t19.5 1q78 0 131 -50.5t53 -129.5q0 -45 -18 -81t-48 -60.5t-70 -38 t-83 -13.5q-106 0 -157.5 58.5t-51.5 162.5q0 98 26 192.5t48 188.5q-35 4 -68.5 15.5t-59.5 32t-42 49t-16 69.5zM344 184q0 -14 6 -24q2 0 6 -2t6 -2q18 0 22.5 10t4.5 27q0 10 -2 22t-12 18q-20 0 -25.5 -16.5t-5.5 -32.5z" />
<glyph unicode="&#xe17;" horiz-adv-x="888" d="M-23 903q0 96 54.5 159.5t150.5 63.5q61 0 103.5 -14t66 -62.5t27.5 -140.5t-10 -247q20 88 45.5 165.5t58.5 135t76 91t98 33.5q70 0 112 -31.5t63.5 -80.5t27.5 -108.5t6 -112.5v-87.5t-1 -135t-4 -156.5t-8 -152.5t-12.5 -122t-19.5 -65.5q-31 -39 -82 -39 q-33 0 -61.5 20.5t-28.5 55.5q0 184 8 359t8 360q0 74 -6 105.5t-16 31.5q-14 0 -38 -60.5t-50.5 -150.5t-54 -197.5t-50 -202t-39 -162t-20.5 -77.5q-10 -29 -36 -47.5t-58 -18.5q-41 0 -62.5 46t-30 118t-6.5 159t8.5 169t13.5 148.5t9 97.5q-14 -2 -35.5 -11.5 t-36.5 -9.5q-170 0 -170 174zM133 905q0 -14 4 -22.5t21 -8.5q18 0 36.5 7.5t18.5 29.5q0 27 -20 58q-18 0 -39 -23t-21 -41z" />
<glyph unicode="&#xe18;" horiz-adv-x="903" d="M35 307q0 29 7 86.5t18.5 118.5t26.5 113.5t34 72.5q18 23 39.5 31t50.5 8q31 0 50.5 -21.5t19.5 -51.5q0 -84 -12.5 -163t-12.5 -163q0 -74 24.5 -109.5t106.5 -35.5q127 0 186.5 81.5t59.5 204.5q0 86 -42 136.5t-105.5 83t-136.5 55t-136 51.5t-105 74t-42 122 q0 72 38.5 115t99 64.5t132.5 27.5t137 6q31 0 59.5 -1t51.5 -1q29 0 59.5 1t58.5 6q39 6 54.5 22t26 32.5t23.5 30t48 13.5q37 0 63.5 -23.5t26.5 -62.5q0 -74 -53 -116t-128 -62.5t-159 -24.5t-145 -4h-43q-18 0 -38 2t-38 2q-20 0 -38.5 -4t-35.5 -16l4 -11 q45 -45 106.5 -70.5t127 -47t131 -44t117 -62.5t83 -104.5t31.5 -168.5q0 -100 -35.5 -191.5t-99 -159t-150.5 -107.5t-192 -40q-68 0 -131 20.5t-113.5 59.5t-80 95t-29.5 130z" />
<glyph unicode="&#xe19;" horiz-adv-x="993" d="M12 924q0 96 53.5 154.5t149.5 58.5q63 0 104 -20.5t66 -57.5t35 -85t10 -104v-139q0 -109 -3 -216t-7 -216q31 33 61.5 64.5t63.5 64.5q4 31 10 86t16.5 123t22.5 140.5t27.5 137t31 112.5t33.5 67q31 33 74 32q37 0 63.5 -20.5t20.5 -58.5q-23 -133 -51.5 -271.5 t-44.5 -273.5q6 0 12 1t12 1q53 0 92 -24.5t64.5 -64.5t38 -88t12.5 -98q0 -102 -52.5 -169.5t-160.5 -67.5q-94 0 -144.5 56t-70.5 142q-25 -27 -51.5 -59.5t-67.5 -69.5q-12 -18 -39.5 -29.5t-50.5 -11.5q-47 0 -75.5 36t-28.5 79q0 145 1 288.5t5 289.5q-10 -2 -29 -2 q-92 0 -147.5 60.5t-55.5 152.5zM186 911q0 -14 13.5 -28.5t27.5 -14.5q14 10 17.5 27.5t3.5 34.5q0 16 -3 32.5t-26 16.5q-18 0 -25.5 -27t-7.5 -41zM727 268q0 -25 8 -62.5t31 -51.5q10 2 17.5 14t12.5 27.5t8 32t3 24.5q0 10 -2 24.5t-7 28.5t-14.5 23.5t-21.5 9.5 q-23 0 -29 -27t-6 -43z" />
<glyph unicode="&#xe1a;" horiz-adv-x="1087" d="M43 948q0 49 18.5 85t50 60.5t72.5 37t86 12.5q115 0 175.5 -56.5t60.5 -173.5q0 -186 -8.5 -369.5t-10.5 -369.5q66 0 132.5 -1t132.5 -1q6 33 17 109.5t24.5 175t28 205t28.5 197.5t25.5 154.5t19.5 73.5q14 18 30.5 30.5t41.5 12.5q39 0 66.5 -13t27.5 -58 q0 -35 -7 -115t-18.5 -180t-26 -210t-30.5 -206t-31.5 -167.5t-29.5 -96.5q-31 -53 -66 -68.5t-94 -15.5q-76 0 -151 -1t-150 -1q-76 0 -113 40t-37 114q0 147 2 292.5t4 292.5q-27 -6 -55 -6q-96 0 -155.5 60.5t-59.5 156.5zM221 936q0 -23 15.5 -34t35.5 -11q57 0 58 59 q0 18 -19.5 34.5t-38.5 16.5q-29 0 -40 -20t-11 -45z" />
<glyph unicode="&#xe1b;" horiz-adv-x="1024" d="M-20 950q0 100 51 146.5t141 46.5q117 0 182.5 -53.5t65.5 -176.5q0 -186 -7 -369.5t-10 -369.5q61 0 124 -1t124 -1q10 51 27.5 176t38 285t43 334t44 324.5t39 255t27.5 124.5q14 27 31 42.5t49 15.5q35 0 60.5 -24t25.5 -58q0 -31 -7 -111t-19.5 -190.5t-27.5 -242.5 t-32.5 -267.5t-36 -264.5t-36 -232t-32 -172t-24.5 -85q-33 -49 -71.5 -65.5t-96.5 -16.5q-66 0 -128 -1t-128 -1q-37 0 -69.5 9t-58 27.5t-41 48.5t-15.5 69q0 147 5 309t7 309q-41 -8 -82 -8q-80 0 -121.5 44t-41.5 144zM119 936q0 -23 19.5 -34t39.5 -11q63 0 64 59 q0 20 -23.5 35.5t-42.5 15.5q-29 0 -43 -18t-14 -47z" />
<glyph unicode="&#xe1c;" horiz-adv-x="1185" d="M74 666q0 72 5 154.5t31.5 153t80 119t149.5 48.5q94 0 154.5 -55.5t60.5 -151.5q0 -51 -18.5 -92t-49 -69t-71.5 -42t-86 -14q-33 0 -64 6q0 -57 1 -128t4 -143.5t11.5 -141t26.5 -122.5q51 104 88 216t62 227q6 29 11 57.5t17 54.5q29 63 99 64q45 0 74.5 -39t48 -99.5 t29 -135t19.5 -145.5t20 -130t30 -92h2q29 66 43 174.5t20.5 227t7.5 232t1 189.5q0 41 32.5 60.5t67.5 19.5q37 0 57.5 -13.5t30.5 -36t13 -50t3 -56.5l2 -196q0 -47 -1 -119t-9 -152.5t-25.5 -161.5t-48 -145.5t-78.5 -105.5t-118 -41q-76 0 -116 40t-60.5 97t-30.5 117.5 t-29 103.5q-12 -47 -35.5 -110.5t-58.5 -120t-82 -95t-106 -38.5q-53 0 -90 40t-61.5 103.5t-37 141t-18.5 153.5t-7 140.5t-1 101.5zM285 905q0 -14 14 -22.5t27 -8.5q33 0 42 16.5t9 45.5q0 25 -14.5 33t-36.5 8q-8 0 -15.5 -9.5t-13.5 -20.5t-9 -23.5t-3 -18.5z" />
<glyph unicode="&#xe1d;" horiz-adv-x="1136" d="M74 666q0 72 5 154.5t31.5 153t80 119t149.5 48.5q94 0 154.5 -55.5t60.5 -151.5q0 -102 -66.5 -159.5t-164.5 -57.5q-29 0 -58 6q0 -57 1 -128t4 -142.5t12.5 -140t25.5 -124.5q33 66 55.5 138.5t43 143.5t43 138.5t53.5 124.5q16 31 31.5 52.5t50.5 21.5 q43 0 65.5 -19.5t40.5 -54.5q29 -55 38 -123.5t13.5 -141.5t13.5 -144.5t38 -137.5q20 70 35.5 168.5t27.5 212t19.5 236.5t12.5 239.5t7 221t2 180.5q0 41 34 61.5t68 20.5q49 0 71 -28t27 -67.5t2 -83.5t-3 -77q0 -49 -1 -164t-7.5 -258t-22.5 -298t-47 -282t-79 -209 t-118 -82q-63 0 -109 40t-76 98.5t-45 124t-20 116.5q-16 -49 -38.5 -112.5t-56.5 -120.5t-80 -97t-109 -40q-53 0 -90 40t-61.5 103.5t-37 141t-18.5 153.5t-7 140.5t-1 101.5zM285 905q0 -14 14.5 -22.5t26.5 -8.5q33 0 42 16.5t9 45.5q0 25 -14.5 33t-36.5 8 q-8 0 -15.5 -9.5t-13.5 -20.5t-9 -23.5t-3 -18.5z" />
<glyph unicode="&#xe1e;" horiz-adv-x="1331" d="M55 897q0 43 15.5 86t44 77t67.5 55.5t84 21.5q86 0 136.5 -32t78 -84t35.5 -117.5t8 -135.5q0 -111 -7 -218.5t-7 -217.5v-30.5t2 -31.5q6 27 18.5 81.5t25.5 122t28.5 141t30 136t26.5 107.5t21 57q18 29 37.5 41.5t54.5 12.5t59.5 -13.5t38.5 -46.5q25 -57 38 -144 t26.5 -184.5t36 -196.5t65.5 -183q8 33 14 104.5t12.5 160.5t12.5 185.5t13 179t16.5 140t21.5 69.5q16 16 34.5 25.5t43.5 9.5q35 0 52 -12t24.5 -31.5t8.5 -43t1 -48.5q0 -43 -1 -131t-8.5 -193.5t-21.5 -216t-43 -200.5t-72 -148.5t-106 -58.5q-61 0 -107.5 52t-78 124 t-52 147.5t-30.5 122.5q-6 -29 -15.5 -75t-24 -96t-34 -100t-45 -91t-57 -66.5t-70.5 -25.5q-70 0 -110 45t-58.5 109.5t-22.5 135t-4 119.5q0 84 3 166t8 166q-12 -2 -23.5 -2h-24.5q-37 0 -75.5 11t-70.5 34t-52.5 54.5t-20.5 74.5zM242 907q0 -23 12 -28t31 -5 q39 0 39 39q0 23 -10.5 39.5t-34.5 16.5q-16 0 -26.5 -24t-10.5 -38z" />
<glyph unicode="&#xe1f;" horiz-adv-x="1331" d="M55 897q0 43 15.5 86t44 77t67.5 55.5t84 21.5q86 0 136.5 -32t78 -84t35.5 -117.5t8 -135.5q0 -111 -7 -218.5t-7 -217.5v-30.5t2 -31.5q6 25 18.5 80.5t26.5 123t29.5 141t30 137t26.5 108.5t19 55q18 29 37.5 41.5t54.5 12.5t62.5 -13.5t35.5 -46.5q14 -59 25.5 -148 t28 -187.5t41 -194.5t67.5 -170q18 113 27.5 225.5t14.5 226t9 228.5t12 227q2 20 4 71.5t5.5 107t7.5 101.5t10 58q29 63 94 64q33 0 59.5 -20.5t26.5 -55.5q0 -82 -2 -192.5t-7 -235.5t-14.5 -257t-23.5 -253t-34.5 -225.5t-47.5 -176.5q-18 -47 -49 -78.5t-86 -31.5 q-61 0 -107.5 52t-78 124t-52 147.5t-30.5 122.5q-6 -29 -15.5 -75t-24 -96t-34 -100t-45 -91t-57 -66.5t-70.5 -25.5q-72 0 -111 45t-57.5 109.5t-22.5 134t-4 120.5q0 84 3 166t8 166q-12 -2 -23.5 -2h-24.5q-37 0 -75.5 11t-70.5 34t-52.5 54.5t-20.5 74.5zM242 907 q0 -23 12 -28t31 -5q39 0 39 39q0 23 -10.5 39.5t-34.5 16.5q-16 0 -26.5 -24t-10.5 -38z" />
<glyph unicode="&#xe20;" horiz-adv-x="976" d="M16 197q0 86 56.5 135t138.5 49q31 0 61 -6q2 20 5.5 52t4.5 65.5t-2.5 64.5t-15.5 49q-33 12 -65.5 26.5t-59 35t-43 49t-16.5 69.5q0 78 53 141.5t130 110.5t164 73t153 26q121 0 193.5 -61.5t111.5 -153t51 -199t12 -199.5q0 -33 -3 -108.5t-10 -156.5t-20.5 -149.5 t-35.5 -84.5q-14 -10 -27.5 -17.5t-32.5 -7.5q-61 0 -84.5 41t-23.5 94q0 96 8 189.5t8 189.5q0 29 -1 74t-5 96t-14.5 103.5t-29 95.5t-46 69.5t-68.5 26.5q-31 0 -79 -18.5t-93 -47t-77.5 -64.5t-32.5 -71q51 -14 90 -26.5t64.5 -35t37.5 -60.5t12 -105q0 -39 -8 -109.5 t-22.5 -144.5t-35 -138.5t-44.5 -92.5q-57 -68 -150 -68q-43 0 -81 14.5t-66.5 41t-45 63.5t-16.5 80zM193 203q0 -16 4 -31.5t24 -15.5t23.5 11t3.5 28q0 16 -11.5 23t-25.5 7t-16 -6t-2 -16z" />
<glyph unicode="&#xe21;" horiz-adv-x="862" d="M18 150q0 55 13.5 103t42 85t72.5 58.5t104 21.5q14 0 22 -2q0 61 1 123.5t1 124.5q-10 -2 -20 -3.5t-21 -1.5q-43 0 -77.5 18.5t-60 49.5t-40 70t-14.5 77q0 86 53 140.5t139 54.5q76 0 123 -38t74 -99.5t37 -139t12 -156.5t-1 -152.5t-1 -127.5q29 -16 54.5 -38.5 t54.5 -41.5q12 61 18 163t7 212.5t1 214v170.5q0 41 28 64.5t67 23.5q35 0 56 -15t31.5 -37.5t13.5 -51.5t3 -57v-110v-143.5t-3 -159.5t-7 -157t-12.5 -133t-20.5 -92q-16 -41 -46 -69.5t-77 -28.5q-55 0 -100 30.5t-86 61.5q-16 -98 -74.5 -169t-167.5 -71 q-106 0 -152.5 65t-46.5 163zM209 164q0 -20 4 -40t10 -38q29 35 38 78t11 88h-12q-35 0 -43 -31t-8 -57zM209 877q0 -14 8 -36t25 -22q16 0 30 6q0 6 -2 21.5t-6 30t-10 25.5t-16 11q-14 0 -21.5 -12t-7.5 -24z" />
<glyph unicode="&#xe22;" horiz-adv-x="946" d="M51 848q0 53 12.5 100t39 82t68.5 56.5t99 21.5q47 0 90 -15.5t76 -43t53.5 -67.5t20.5 -89q0 -78 -54.5 -131t-127.5 -64q20 -12 61 -27.5t82 -34t71.5 -41t30.5 -50.5q0 -18 -27.5 -54t-61 -87.5t-62.5 -115t-29 -136.5q6 6 17.5 8t21.5 2h25q47 0 95 3t95 3l6 6 q20 49 25.5 135t7.5 184.5t5 201t17.5 184.5t45 134t88.5 52q33 0 53 -20.5t20 -53.5q0 -39 -2 -119.5t-7 -182t-14 -210t-22.5 -203t-31 -163t-41.5 -88.5q-16 -14 -42 -21.5t-54.5 -11.5t-57.5 -5t-53 -1q-31 0 -80 1t-100.5 5t-97.5 14t-70 27q-35 23 -44.5 49.5 t-9.5 67.5q0 94 31 189t80 173q-53 27 -99 58.5t-79 71.5t-51.5 91t-18.5 115zM238 901q0 -18 14.5 -33.5t32.5 -15.5t29.5 17.5t11.5 33.5q0 20 -14.5 30.5t-32.5 10.5q-41 0 -41 -43z" />
<glyph unicode="&#xe23;" horiz-adv-x="704" d="M41 850q0 41 31.5 80t82 71.5t113 60.5t125 47t116.5 29.5t87 10.5q31 0 57.5 -20.5t26.5 -53.5t-22.5 -54.5t-51.5 -29.5q-16 -4 -34.5 -5t-36.5 -5q-68 -10 -129.5 -43t-116.5 -74q98 -37 164.5 -92t106.5 -128t56.5 -161t16.5 -186q0 -57 -8.5 -111.5t-33 -96.5 t-67.5 -67.5t-112 -25.5q-39 0 -79 10t-73 31.5t-52.5 55.5t-19.5 79q0 43 18.5 81t48.5 66.5t68.5 46t79.5 17.5h16.5t16.5 -2q-10 102 -43 163.5t-77 99.5t-92 57.5t-89 38t-67.5 42t-26.5 68.5zM375 180q0 -16 9 -26.5t26 -10.5q16 0 24 19.5t8 34.5q0 10 -4 23t-18 13 q-23 0 -34 -17.5t-11 -35.5z" />
<glyph unicode="&#xe24;" horiz-adv-x="954" d="M25 764q0 70 51 134.5t125.5 114.5t156.5 79.5t144 29.5q106 0 178 -47t117 -124t68.5 -175t32.5 -199.5t10 -198.5t1 -171v-64.5t-1 -106t-2 -123t-4 -119.5t-7 -96t-10 -50q-16 -27 -32.5 -40.5t-49.5 -13.5q-55 0 -81 36t-26 87q0 162 4.5 323t4.5 322q0 35 -2.5 91.5 t-9.5 121t-20.5 130t-37 119t-59 86t-84.5 32.5q-35 0 -73 -15.5t-72 -39t-61.5 -53t-45.5 -58.5q10 -2 18 -3t16 -1q12 0 23.5 1t24.5 1q59 0 80.5 -34.5t21.5 -88.5q0 -68 -10.5 -133t-14.5 -133q92 0 155.5 -51t63.5 -150q0 -45 -17 -80.5t-47 -60.5t-67.5 -38t-80.5 -13 q-57 0 -96.5 19.5t-64 53t-34.5 77.5t-10 96q0 92 10 184t22 184q-33 4 -69.5 14.5t-67 29t-51 47t-20.5 67.5zM381 184q0 -16 12.5 -32.5t28.5 -16.5q12 0 15 17.5t3 27.5q0 12 -6 34t-22 22t-23.5 -19.5t-7.5 -32.5z" />
<glyph unicode="&#xe25;" horiz-adv-x="882" d="M61 963q0 23 12.5 37t26.5 26q72 66 160 87.5t182 21.5q113 0 185.5 -38t116.5 -106.5t65.5 -163t32.5 -209.5q2 -23 4 -68.5t4 -103t3 -119t-1 -115.5t-7 -95t-14 -56q-16 -25 -55 -37t-67 -12q-25 0 -49.5 39t-49 97.5t-50 127t-54.5 128t-59.5 102.5t-65.5 47h-4 q-20 0 -42 -25.5t-40.5 -59.5t-30.5 -67.5t-16 -52.5q37 12 76 12t73.5 -14t60 -39.5t40 -60.5t14.5 -74q0 -43 -16.5 -74.5t-44 -54.5t-63.5 -34t-75 -11q-70 0 -113.5 24.5t-69.5 66.5t-35 98.5t-9 117.5q0 66 20.5 144.5t59.5 147.5t94 115t125 46q35 0 75 -23.5 t77.5 -65.5t73.5 -101.5t63 -131.5q2 82 1 175.5t-22.5 172t-68.5 131t-138 52.5q-47 0 -91 -13.5t-80.5 -31t-66.5 -30.5t-52 -13q-35 0 -65 23.5t-30 60.5zM279 178q0 -16 6 -28.5t22 -12.5q47 0 47 51q0 16 -5 25.5t-23 9.5q-47 0 -47 -45z" />
<glyph unicode="&#xe26;" horiz-adv-x="909" d="M18 190q0 47 17.5 83t46.5 60.5t66.5 37t80.5 12.5h19.5t19.5 -2q4 45 7.5 90t3.5 90q0 29 -1.5 67t-13.5 64q-41 0 -76.5 20.5t-61.5 53.5t-41 73t-15 79q0 74 36.5 130t93 93t126 56.5t133.5 19.5q135 0 217 -65t126 -163t58 -216t14 -222q0 -35 -4 -106.5t-12 -163 t-19.5 -189.5t-24.5 -184t-27.5 -150.5t-30.5 -85.5q-18 -25 -38 -37t-50 -12q-49 0 -67.5 37t-18.5 78q0 78 13 155.5t26 155.5q23 137 38 274.5t15 276.5q0 55 -5 131t-26.5 144.5t-64.5 116.5t-121 48q-33 0 -66 -9t-58.5 -28.5t-41 -47t-15.5 -64.5q0 -12 3 -19 q68 0 107.5 -30.5t61 -79.5t27.5 -106.5t6 -108.5q0 -43 -3 -100.5t-11 -120t-25.5 -122t-46 -107.5t-71.5 -76.5t-103 -28.5q-41 0 -78 15.5t-64.5 43t-44 63t-16.5 76.5zM180 186q0 -14 6.5 -30.5t24.5 -16.5q23 0 32 20.5t9 39.5q0 16 -7 28.5t-26 12.5q-23 0 -31 -18 t-8 -36z" />
<glyph unicode="&#xe27;" horiz-adv-x="679" d="M23 991q0 37 25.5 62.5t61 42t74.5 24.5t68 8q111 0 186.5 -51t120.5 -131t64.5 -176t19.5 -186q0 -53 -6 -118t-21.5 -129.5t-40 -125.5t-63.5 -107.5t-91 -75t-122 -28.5q-96 0 -161.5 55.5t-65.5 155.5q0 59 22.5 108.5t61.5 84t91 54t109 19.5q20 0 39 -1t39 -5 q0 16 1 34.5t1 35.5q0 43 -8 114.5t-29.5 141t-59.5 120t-97 50.5q-20 0 -37 -7.5t-33 -16.5t-33.5 -17t-38.5 -8q-33 0 -55 20t-22 53zM281 219q0 -14 7 -29.5t23 -15.5q18 0 36 11.5t32 28.5t22.5 37.5t8.5 37.5q0 20 -8.5 25t-26.5 5q-41 0 -67.5 -29.5t-26.5 -70.5z" />
<glyph unicode="&#xe28;" horiz-adv-x="972" d="M35 557q0 106 26.5 206.5t82 177.5t141 124t204.5 47q74 0 145 -23.5t130 -66.5q20 10 52 25.5t65.5 31t66.5 25.5t53 10q29 0 54.5 -19.5t25.5 -50.5q0 -25 -23.5 -48t-55 -42.5t-65.5 -36t-52 -24.5q35 -63 45 -134t10 -143q0 -25 -2 -79t-7 -120.5t-15.5 -138 t-27 -130t-40 -96.5t-55.5 -38q-59 0 -79 24.5t-20 82.5q0 61 8.5 120.5t17.5 119t17 119t8 120.5q0 53 -10 114.5t-35.5 115t-69.5 89t-110 35.5q-90 0 -145.5 -41t-86 -104.5t-40.5 -140t-10 -148.5q23 104 81 171t173 67q41 0 80.5 -11.5t71.5 -34t52.5 -56t20.5 -78.5 t-19.5 -81t-51.5 -61.5t-73 -39t-81 -13.5q-45 0 -95 16q-2 -23 -1 -47t1 -47q0 -27 -2 -76t-12 -97t-31.5 -83t-62.5 -35q-47 0 -84 31t-64.5 80t-48 110.5t-33 122t-18.5 113.5t-6 86zM430 530q10 -4 20.5 -4h20.5q25 0 53.5 16.5t28.5 45.5q0 16 -12.5 21t-24.5 5 q-35 0 -55.5 -27.5t-30.5 -56.5z" />
<glyph unicode="&#xe29;" horiz-adv-x="1263" d="M14 928q0 53 21.5 95t58.5 71.5t83 46t95 16.5q78 0 122 -40t65.5 -100.5t27 -129t5.5 -125.5q0 -147 -8.5 -295t-8.5 -295q88 0 176 -1t176 -1q23 72 36.5 143.5t25.5 143.5q-49 -6 -96 -6t-99.5 11t-96.5 35.5t-72.5 63.5t-28.5 96q0 41 17 75t46 56.5t66 35t75 12.5 q86 0 147.5 -55.5t78.5 -137.5q8 35 22.5 114t38 158.5t57 140t78.5 60.5q29 0 45.5 -14.5t23.5 -36t9 -46t2 -44.5q0 -70 -11 -137.5t-28 -132.5q29 -2 55.5 -21.5t26.5 -52.5q0 -18 -12 -34.5t-30.5 -31t-39 -25t-35.5 -14.5q-18 -80 -32.5 -161.5t-34.5 -161.5 q-18 -76 -42 -118t-59.5 -61.5t-85 -23.5t-120.5 -4q-68 0 -136.5 1t-136.5 1q-53 0 -93 4t-66.5 20.5t-40 51.5t-13.5 96q0 133 8.5 264t12.5 264q-10 -2 -21.5 -3t-21.5 -1q-49 0 -91 18.5t-74 49.5t-49.5 74t-17.5 92zM190 918q0 -25 12.5 -50.5t41.5 -25.5q35 0 51 28.5 t16 57.5q0 27 -12 46t-41 19q-33 0 -50.5 -23t-17.5 -52zM666 655q0 -10 10 -20t24.5 -19.5t29 -14.5t22.5 -5q2 6 2 20q0 16 -7.5 44t-29.5 28q-10 0 -30.5 -10t-20.5 -23z" />
<glyph unicode="&#xe2a;" horiz-adv-x="851" d="M33 272q0 72 18.5 138.5t55 120t92 85t129.5 31.5q43 0 87 -20.5t84 -57.5t70.5 -88t44.5 -112q8 39 14.5 90t9.5 106.5t1 107.5t-8 93q-43 -37 -89 -55.5t-106 -18.5q-53 0 -107.5 15.5t-99.5 44t-72.5 70.5t-27.5 96q0 53 23.5 91t62.5 62.5t89 35.5t104 11 q66 0 129 -14t112 -43q37 20 74 58t65 52q16 8 31 9q18 0 31.5 -10.5t23 -26t13.5 -31.5t6 -29q2 -12 -8.5 -29.5t-26.5 -36t-37.5 -37.5t-44.5 -38q25 -43 37 -130t13 -190.5t-9 -213t-31.5 -198.5t-54.5 -146.5t-76 -57.5q-33 0 -61.5 36t-54 89t-49 114.5t-48 115 t-52.5 89t-60 35.5q-27 0 -46.5 -17t-29.5 -41t-13 -47.5t-1 -35.5q84 0 141 -50t57 -136q0 -78 -50 -126t-128 -48q-57 0 -100 25.5t-72 67.5t-42 93t-13 102zM223 182q0 -12 9.5 -29.5t23.5 -17.5q4 0 9 13.5t5 17.5q0 27 -28 27zM326 907q0 -18 11 -31.5t28.5 -21.5 t37 -11t33.5 -3q35 0 77 17t71 54q4 6 -3.5 17.5t-24.5 24t-43 20.5t-56 8q-18 0 -41 -4t-42.5 -12.5t-33.5 -23t-14 -34.5z" />
<glyph unicode="&#xe2b;" horiz-adv-x="952" d="M20 944q0 84 59.5 133t139.5 49q68 0 111 -28.5t67.5 -74.5t32.5 -103.5t8 -112.5q0 -76 -8 -150.5t-20 -150.5q25 35 67.5 77t67.5 76q-18 47 -25.5 95.5t-7.5 97.5q0 55 12.5 104.5t40 85t70.5 57t104 21.5q94 0 142.5 -55t48.5 -147q0 -90 -45 -183.5t-119 -146.5 q12 -59 29.5 -122t33 -125t26.5 -125.5t11 -125.5q0 -41 -28.5 -61.5t-67.5 -20.5q-29 0 -48.5 9.5t-37.5 31.5q-10 14 -23.5 60.5t-24.5 99.5t-20.5 103t-13.5 73q-8 -14 -41 -61.5t-69.5 -98.5t-68.5 -94t-38 -49q-10 -18 -29.5 -27.5t-40.5 -9.5q-76 0 -100.5 33 t-24.5 104q0 152 19.5 300.5t28.5 299.5q-10 -2 -20.5 -3t-20.5 -1q-72 0 -124.5 46t-52.5 120zM170 961.5q-2 -15.5 7 -28.5t32 -15h4q23 0 31 13t6 28.5t-10.5 28.5t-18.5 13q-23 0 -36 -12t-15 -27.5zM692 844q0 -10 2 -20.5t7.5 -17.5t13.5 -5q12 2 21 13t15.5 26.5 t9.5 33t3 29.5q0 6 -1 18.5t-4 23.5t-7 18.5t-13 5.5q-8 -2 -17 -14.5t-15.5 -29t-10.5 -35t-4 -32.5v-14z" />
<glyph unicode="&#xe2c;" horiz-adv-x="1226" d="M35 842q0 45 19.5 85t51 70.5t72.5 48t84 17.5q80 0 126 -29.5t68.5 -79t27.5 -111t5 -124.5q0 -106 2.5 -213t6.5 -213q20 43 33.5 88t27.5 90t29.5 90t38.5 84q12 23 26.5 33t40.5 10q29 0 48.5 -14.5t35.5 -36.5q16 -27 33.5 -82t34 -119.5t32 -126t29.5 -98.5 q31 43 53.5 111.5t38 144.5t22.5 148.5t7 125.5q0 6 -1 12.5t-1 12.5q-57 -25 -128 -42t-134 -17q-49 0 -101.5 15t-94.5 45t-68.5 74t-26.5 99q0 59 25.5 106.5t67.5 81t94.5 51t107.5 17.5q90 0 184.5 -27.5t159.5 -93.5q16 23 34.5 58.5t40 71.5t46 61.5t51.5 25.5 q33 0 65.5 -20.5t32.5 -57.5q0 -49 -17 -94t-44 -85t-60.5 -75.5t-66.5 -66.5q16 -43 20.5 -89t4.5 -93q0 -43 -7.5 -114t-21.5 -150.5t-39 -160.5t-59.5 -146.5t-80.5 -106.5t-106 -41q-53 0 -91 30.5t-62.5 75.5t-41 97.5t-26.5 93.5q-14 -39 -34.5 -88t-50.5 -93.5 t-68.5 -75t-88.5 -30.5q-80 0 -108 72q-14 35 -19.5 112.5t-7.5 165.5t-1 170t1 127q-10 -2 -21.5 -3t-21.5 -1q-39 0 -80 14.5t-74.5 40t-54 62.5t-20.5 80zM207 844q0 -27 17.5 -41.5t41.5 -14.5q27 0 37 23t10 45q0 20 -10 39.5t-33 19.5q-35 0 -49 -20t-14 -51zM668 930 q0 -39 27.5 -52.5t60.5 -13.5q53 0 116.5 25.5t108.5 54.5q-35 51 -85 73.5t-110 22.5q-47 0 -82.5 -31.5t-35.5 -78.5z" />
<glyph unicode="&#xe2d;" horiz-adv-x="1011" d="M35 508q0 66 13 134.5t45 123.5t84 91t132 36q43 0 87 -13.5t81 -40t60.5 -64.5t23.5 -85q0 -63 -27.5 -115.5t-71.5 -90.5t-100.5 -61.5t-115.5 -31.5q10 -43 24.5 -80t39 -64.5t59 -43t82.5 -15.5q80 0 139 31t98 81t58.5 117.5t19.5 141.5q0 127 -19.5 215 t-70.5 143.5t-139 81t-224 25.5q-20 0 -41.5 3t-38 11.5t-27.5 24.5t-11 43q0 29 23.5 44t55 23.5t64.5 10.5t51 2q160 0 272.5 -43t183 -124t103.5 -199t33 -265q0 -117 -37 -216t-105.5 -170t-164.5 -111t-215 -40q-111 0 -191 38t-132 104.5t-76.5 156t-24.5 191.5z M227 545q25 8 51.5 21.5t48 34t36 44.5t14.5 53q0 18 -13.5 27.5t-29.5 9.5q-29 0 -48.5 -21.5t-31.5 -51t-18.5 -62.5t-8.5 -55z" />
<glyph unicode="&#xe2e;" horiz-adv-x="1026" d="M33 377q0 70 21.5 137.5t61.5 121.5t99 88t135 34q-53 33 -92 83t-39 115q0 57 26.5 96.5t68.5 63t92.5 33.5t97.5 10q94 0 166.5 -43t130.5 -115q14 16 32.5 46t40 58t45 48.5t46.5 20.5q35 0 61.5 -23t26.5 -57q0 -39 -13.5 -75t-35 -68.5t-48 -61.5t-53.5 -53 q53 -164 53 -332q0 -240 -125.5 -380t-371.5 -140q-90 0 -168 26.5t-135.5 76.5t-90 123t-32.5 167zM229 356q0 -51 19.5 -87t51.5 -59.5t74 -34.5t87 -11q82 0 138 23.5t91 66.5t50.5 104.5t15.5 137.5q0 59 -7.5 117.5t-19.5 117.5q-35 -10 -80 -20.5t-86 -10.5h-18t-17 2 q35 -27 55.5 -64.5t20.5 -82.5q0 -37 -13 -73t-38 -63.5t-58.5 -44t-72.5 -16.5q-100 0 -186 52q-6 -27 -7 -54zM295 567q12 -10 43 -28.5t47 -18.5q23 0 31 14.5t8 32.5q0 25 -21.5 30t-40.5 5q-20 0 -37.5 -10t-29.5 -25zM399 952q0 -18 17.5 -32.5t41 -25.5t48.5 -16.5 t39 -5.5q29 0 54.5 6.5t49.5 16.5q-39 43 -91 67.5t-109 24.5q-18 0 -34 -6t-16 -29z" />
<glyph unicode="&#xe2f;" horiz-adv-x="731" d="M29 913q0 45 18.5 84t49 69t71.5 46t84 16q82 0 128 -55t62 -127q10 16 31 45t44.5 55.5t49 46t47.5 19.5q18 0 39 -5t39.5 -15.5t29.5 -25.5t11 -38q0 -43 -9 -140t-26.5 -216t-42 -246t-54.5 -230.5t-63.5 -171t-70.5 -67.5q-8 0 -21.5 4t-25.5 11.5t-21.5 15.5 t-9.5 18q-20 23 -16 57q6 68 28.5 156t47 186.5t43 200t18.5 193.5q-57 -41 -121.5 -71t-136.5 -30q-94 0 -158.5 59.5t-64.5 155.5zM201 897q16 0 42.5 15.5t26.5 33.5q0 12 -11 22.5t-23 10.5q-23 0 -29 -24.5t-6 -41.5v-16z" />
<glyph unicode="&#xe30;" horiz-adv-x="718" d="M29 784q0 41 18.5 73t48 54.5t65 34.5t72.5 12q47 0 87 -16t72 -45t51.5 -67.5t25.5 -84.5q25 6 42 22.5t32.5 33t33 30t39.5 13.5q29 0 55.5 -20.5t26.5 -53.5q0 -12 -8 -29q-25 -49 -68.5 -81.5t-97 -52t-110 -27t-107.5 -7.5q-47 0 -96 12.5t-90 39t-66.5 65.5 t-25.5 94zM57 362q-4 72 39 109t109 41h18q74 0 127 -42t68 -116q37 20 53 42t43 50l31 17q29 0 55.5 -14.5t30.5 -47.5q0 -10 -4 -26q-14 -55 -46 -95t-75 -66t-94.5 -37t-104.5 -11q-45 0 -88 11t-78 35t-57.5 61.5t-26.5 88.5zM186 356q0 -12 10.5 -19t22.5 -10t26.5 -4 t22.5 -1q-2 8 -4 21t-7 25.5t-11 20.5t-19 6q-12 -2 -27.5 -13.5t-13.5 -25.5zM205 770q0 -14 10 -23.5t24.5 -14.5t30 -7t25.5 -2q-2 10 -3 24.5t-5 27.5t-11.5 23.5t-19.5 10.5q-14 0 -32.5 -11.5t-18.5 -27.5z" />
<glyph unicode="&#xe31;" d="M-670 1372q0 41 17.5 73t47.5 54.5t65.5 34.5t72.5 12q96 0 159.5 -64.5t74.5 -156.5q27 4 60.5 20.5t64 35t56 32.5t36.5 14q31 0 56.5 -21.5t25.5 -53.5q0 -16 -9 -31q-29 -47 -77 -80t-104 -53.5t-115.5 -29.5t-110.5 -9q-49 0 -105.5 12.5t-104.5 39t-79 69.5 t-31 102zM-498 1356q0 -23 32 -34t50 -11q0 23 -9 50.5t-38 27.5q-12 0 -23.5 -10.5t-11.5 -22.5z" />
<glyph unicode="&#xe32;" horiz-adv-x="528" d="M23 924q0 41 31.5 77.5t75.5 64.5t93 44t84 16q68 0 106 -27.5t56 -71.5t22.5 -97t4.5 -107q0 -29 -2 -93t-6.5 -144t-11.5 -166t-15 -162t-18.5 -132t-22.5 -73q-16 -23 -37 -38t-49 -15q-35 0 -61.5 26.5t-26.5 61.5q0 94 8 188.5t17.5 187.5t17.5 188.5t8 189.5 q0 29 -2 61.5t-14 59.5q-20 -6 -45 -25.5t-47.5 -40t-43 -37t-36.5 -16.5q-33 0 -59.5 22.5t-26.5 57.5z" />
<glyph unicode="&#xe33;" horiz-adv-x="530" d="M-545 1317q0 45 18.5 84t49.5 66.5t71.5 44t83.5 16.5q45 0 86 -17.5t72 -47t49.5 -69.5t18.5 -85q0 -43 -19.5 -80t-50.5 -63.5t-70.5 -41t-80.5 -14.5q-45 0 -86 14.5t-73 42t-50.5 65.5t-18.5 85zM-367 1311q0 -18 13.5 -27.5t29.5 -9.5t32 9t16 28q0 16 -12.5 31.5 t-30.5 15.5t-33 -14.5t-15 -32.5zM10 924q0 41 32 77.5t76 64.5t93 44t84 16q68 0 105.5 -27.5t56 -71.5t22.5 -97t4 -107q0 -29 -2 -93t-6 -144t-11 -166t-15.5 -162t-18.5 -132t-22 -73q-16 -23 -37 -38t-49 -15q-35 0 -62 26.5t-27 61.5q0 94 8.5 188.5t17.5 188.5 t17.5 188.5t8.5 188.5q0 31 -2 61.5t-15 59.5q-20 -6 -43.5 -25.5t-47 -40t-44 -37t-37.5 -16.5q-33 0 -59.5 22.5t-26.5 57.5z" />
<glyph unicode="&#xe34;" horiz-adv-x="2" d="M-891 1382q0 55 38 94.5t93 64t115.5 34.5t103.5 10q76 0 150 -15.5t137.5 -50t112.5 -89t75 -132.5q6 -18 11.5 -36.5t5.5 -36.5q0 -53 -25.5 -77t-60.5 -24t-64 21q-86 47 -195.5 72.5t-205.5 35.5q-29 4 -78 9.5t-96 18.5t-82 36.5t-35 64.5zM-629 1415 q88 -10 175 -25.5t171 -46.5q-53 53 -111.5 77t-133.5 24q-27 0 -51.5 -10.5t-49.5 -18.5z" />
<glyph unicode="&#xe35;" d="M-899 1413q0 51 36 83t86 49.5t105 23.5t92 6q102 0 181.5 -26.5t154.5 -94.5q8 20 14.5 43t14.5 41t23.5 30.5t46.5 12.5q33 0 50 -16.5t26.5 -40t11.5 -51t2 -52.5v-77t-9.5 -88t-31 -71.5t-64.5 -29.5q-8 0 -15 1t-18 3q-45 6 -98 16.5t-108.5 22.5t-108.5 24.5 t-96 20.5q-39 8 -90 17.5t-96.5 27t-77 47t-31.5 78.5zM-668 1403q78 -35 164 -48.5t168 -39.5q-53 53 -124.5 72.5t-143.5 19.5h-32t-32 -4z" />
<glyph unicode="&#xe36;" horiz-adv-x="59" d="M-877 1401q0 57 29 100t74 73t98.5 45t102.5 15q96 0 192 -27.5t162 -103.5q29 29 66.5 43.5t76.5 14.5t74 -15.5t61.5 -42t42 -61.5t15.5 -76t-17.5 -75t-46 -57.5t-65.5 -36.5t-76 -13q-20 0 -39.5 4t-40.5 8q-33 6 -97.5 10t-143 12.5t-161.5 20.5t-150.5 33.5 t-112 52.5t-44.5 76zM-694 1438q84 -37 181 -48.5t187 -21.5q-35 61 -96 90t-131 29q-37 0 -78 -9.5t-63 -39.5zM-131 1374q0 -23 18.5 -33t36.5 -10t24.5 11.5t6.5 27.5t-6 32.5t-25 16.5q-18 0 -36.5 -12.5t-18.5 -32.5z" />
<glyph unicode="&#xe37;" horiz-adv-x="63" d="M-797 1456q0 45 21.5 76t55.5 50.5t74 27.5t77 8q104 0 203.5 -42t168.5 -120q20 39 43 73t72 34h8q12 0 25.5 -3.5t22 -17.5t7.5 -43t-16 -82q6 10 19.5 33t28 46.5t30.5 40.5t29 17q37 0 52 -28.5t15 -61.5q0 -29 -13 -77t-35.5 -95t-52.5 -81.5t-65 -34.5 q-12 0 -27.5 3t-24.5 15t-10 36.5t15 67.5q-6 -10 -16 -28.5t-24.5 -37t-32 -32.5t-37.5 -14q-12 0 -24.5 1t-24.5 3q-37 6 -92.5 14t-118 21.5t-126 33t-113.5 47t-82 64.5t-32 86zM-618 1448q10 -18 51 -33.5t90 -29t95 -22.5t69 -13q-49 51 -112.5 80.5t-135.5 29.5 q-16 0 -30.5 -2t-26.5 -10z" />
<glyph unicode="&#xe38;" d="M-563 -205q0 76 55 116t125 40q90 0 147.5 -46t57.5 -141q0 -31 -10.5 -93t-31 -126.5t-49 -112.5t-67.5 -48q-35 0 -63.5 16t-28.5 57t14.5 82t24.5 80q-33 2 -64.5 17.5t-56.5 39t-39 54t-14 65.5zM-397 -219q0 -14 9 -19.5t21 -5.5t17.5 10.5t5.5 20.5q0 12 -7 23.5 t-22 11.5q-24 -14 -24 -41z" />
<glyph unicode="&#xe39;" d="M-741 -236q0 39 16 70t42 51.5t59.5 31.5t70.5 11q53 0 83 -23.5t43 -59t15 -77.5t1 -78t1 -59.5t15 -23.5q25 27 38 78t27.5 101t35 88t58.5 38q43 0 57.5 -31t14.5 -67q0 -53 -14.5 -129t-46 -144.5t-79.5 -118t-116 -49.5q-70 0 -98.5 42t-28.5 106q0 43 6 86 q-6 -2 -20 -2q-35 0 -66.5 11t-57.5 32.5t-41 50.5t-15 65zM-580 -236q0 -28 27 -28q10 0 15.5 12t5.5 21q0 23 -27 22q-20 0 -21 -27z" />
<glyph unicode="&#xe3a;" horiz-adv-x="94" d="M-180 -100q0 35 27.5 64.5t74.5 29.5t75 -31t28 -63q0 -33 -28 -64t-75 -31t-74.5 30t-27.5 65z" />
<glyph unicode="&#xe3b;" />
<glyph unicode="&#xe3c;" />
<glyph unicode="&#xe3d;" />
<glyph unicode="&#xe3e;" />
<glyph unicode="&#xe3f;" horiz-adv-x="788" d="M35 287q0 45 2 111.5t7 143t14.5 156.5t25.5 152t40.5 129t57.5 88q35 33 81 45t93 21q8 27 18.5 67.5t28 78.5t42 65.5t61.5 27.5q47 0 74.5 -30.5t27.5 -77.5q0 -37 -17.5 -82t-35.5 -78q86 -39 139.5 -117t53.5 -172q0 -106 -55.5 -186t-139.5 -140q53 -41 89 -101 t36 -130q0 -117 -60.5 -212t-158.5 -155q-4 -33 -11.5 -86t-22.5 -103t-43 -87t-73 -37q-53 0 -72.5 43t-19.5 88q0 31 4 61.5t10 61.5q-12 -4 -24 -6t-25 -2q-37 0 -61.5 27.5t-41 70.5t-25.5 96.5t-13 104.5t-5 95t-1 69zM248 287q0 -55 2 -110.5t12 -110.5q39 10 76 21 t66.5 29.5t48 48.5t18.5 79q0 37 -22.5 64.5t-56.5 46t-71.5 27.5t-68.5 9q-2 -27 -3 -52t-1 -52zM270 612q33 12 78 33t86 49.5t69.5 63.5t28.5 76q0 29 -14 50t-35.5 34.5t-48 19.5t-51.5 6q-37 0 -58.5 -42t-33.5 -97t-16.5 -110.5t-4.5 -82.5z" />
<glyph unicode="&#xe40;" horiz-adv-x="409" d="M39 385q-2 70 0 163t7 197.5t18.5 192.5t34 145.5t51.5 57.5q27 0 41 -10.5t21 -28t9 -38t2 -40.5q0 -57 -3 -137t-6 -164t-7 -164t-6 -139q47 0 92 -11.5t81 -36t57.5 -63.5t21.5 -94q0 -92 -52.5 -153.5t-142.5 -61.5q-74 0 -114 24.5t-60.5 65.5t-27.5 95.5t-13 113.5 q-2 16 -4 86zM205 266q4 -33 10 -65.5t29 -55.5q27 4 40 34t13 54q0 31 -19.5 38.5t-44.5 7.5q-10 0 -15 -3.5t-13 -9.5z" />
<glyph unicode="&#xe41;" horiz-adv-x="927" d="M39 385q-2 70 0 163t7 197.5t18.5 192.5t34 145.5t51.5 57.5q27 0 41 -10.5t21 -28t9 -38t2 -40.5q0 -57 -3 -137t-6 -164t-7 -164t-6 -139q47 0 92 -11.5t81 -36t57.5 -63.5t21.5 -94q0 -92 -52.5 -153.5t-142.5 -61.5q-74 0 -114 24.5t-60.5 65.5t-27.5 95.5t-13 113.5 q-2 16 -4 86zM205 266q4 -33 10 -65.5t29 -55.5q27 4 40 34t13 54q0 31 -19.5 38.5t-44.5 7.5q-10 0 -15 -3.5t-13 -9.5zM481 385q-2 70 0 163t7.5 197.5t18.5 192.5t33.5 145.5t51.5 57.5q27 0 41 -10.5t21.5 -28t9.5 -38t2 -40.5q0 -57 -3.5 -137t-6.5 -164t-7 -164 t-6 -139q47 0 92 -11.5t81 -36t57.5 -63.5t21.5 -94q0 -92 -52 -153.5t-143 -61.5q-74 0 -113.5 24.5t-60 65.5t-27.5 95.5t-14 113.5q-2 16 -4 86zM647 266q4 -33 10 -65.5t29 -55.5q27 4 40 34t13 54q0 31 -19.5 38.5t-43.5 7.5q-10 0 -15.5 -3.5t-13.5 -9.5z" />
<glyph unicode="&#xe42;" horiz-adv-x="475" d="M-180 1401q0 78 54 125t130 72.5t158 34.5t139 9q33 0 97.5 -5t128 -19t111.5 -42t48 -75q0 -41 -36 -62.5t-72 -21.5q-29 0 -53.5 9.5t-51.5 15.5q-53 12 -107.5 20t-109.5 8q-20 0 -70.5 -5t-97.5 -14t-77.5 -23.5t-14.5 -32.5q27 -16 55.5 -19.5t57.5 -3.5 q35 0 70.5 5t70.5 5q27 0 53.5 -6t47 -19.5t33.5 -35t13 -51.5q0 -115 -22.5 -219.5t-49 -213t-49 -226t-22.5 -259.5q29 6 53 6q37 0 72 -12t62.5 -35.5t45 -55.5t17.5 -71q0 -41 -18.5 -74.5t-48 -58t-66.5 -38t-76 -13.5q-76 0 -120 38t-66.5 95t-29.5 124t-7 124 q0 121 8 223.5t23.5 200.5t38 198.5t51.5 217.5q-45 0 -109 5t-122 23.5t-100 54t-42 97.5zM281 178q0 -12 3 -19t17 -7q10 0 23.5 6t13.5 18q0 14 -13.5 21.5t-25.5 7.5t-15 -8.5t-3 -18.5z" />
<glyph unicode="&#xe43;" horiz-adv-x="477" d="M-190 1497q0 61 20 118.5t57 102.5t89.5 72t117.5 27q90 0 145.5 -48.5t85 -120t39 -154.5t9.5 -153q20 10 45.5 29t52.5 36t53.5 30.5t46.5 13.5q31 0 54.5 -22.5t23.5 -53.5q0 -43 -30.5 -77.5t-75.5 -61.5t-92.5 -44t-81.5 -26q-16 -111 -33 -206t-32 -186t-28.5 -186 t-23.5 -208q12 2 25.5 3t25.5 1q84 0 138.5 -53.5t54.5 -136.5q0 -94 -64.5 -143.5t-152.5 -49.5q-72 0 -116 26.5t-67.5 71.5t-31 101.5t-7.5 115.5q0 119 9.5 220.5t22.5 200t31.5 198.5t37.5 217q-74 6 -137.5 32.5t-110.5 69.5t-73.5 104.5t-26.5 139.5zM6 1497 q0 -80 44 -126t122 -56v14q0 25 -4 78t-15.5 107.5t-33 95.5t-56.5 41q-14 -8 -25 -27.5t-18.5 -42t-10.5 -45.5t-3 -39zM266 170q0 -6 6.5 -10t10.5 -8q18 0 31.5 12t13.5 31q0 10 -6.5 19t-18.5 9q-16 0 -26.5 -19.5t-10.5 -33.5z" />
<glyph unicode="&#xe44;" horiz-adv-x="491" d="M-217 1591q0 29 26.5 42.5t63.5 15.5q31 2 56.5 -31t47 -81t40 -100.5t32.5 -88.5q14 29 40 72.5t57.5 84.5t68.5 71t74 30q55 0 74.5 -40t19.5 -87q0 -141 -15.5 -283.5t-35 -286t-35.5 -288t-18 -289.5q35 10 63 10q76 0 130 -46t54 -128q0 -86 -55 -130t-133 -44 q-74 0 -121 28.5t-74.5 74.5t-38 105.5t-10.5 121.5q0 256 32 493.5t75 489.5q-10 -12 -28.5 -42t-42.5 -60.5t-52.5 -54.5t-59.5 -24q-20 0 -44.5 27t-51 70t-51.5 96t-44.5 104.5t-31.5 96.5t-12 71zM307 170q0 -12 5 -22.5t20 -10.5q10 0 24.5 8.5t14.5 20.5 q0 14 -15.5 20.5t-25.5 6.5q-23 0 -23 -23z" />
<glyph unicode="&#xe45;" horiz-adv-x="632" d="M25 963q0 43 37.5 80.5t91 66.5t109.5 45t91 16q82 0 127 -26.5t67.5 -71.5t28 -103.5t7.5 -123.5q4 -133 6 -265t2 -266v-75t-1 -119.5t-3 -140t-6 -135t-10.5 -107.5t-16.5 -55q-39 -45 -92 -45q-37 0 -57.5 21.5t-30.5 52t-12.5 65.5t-2.5 61q0 188 6.5 374.5 t6.5 375.5q0 104 -2 209.5t-17 210.5q-2 12 -14 12q-14 0 -43 -21.5t-62.5 -47t-67.5 -47t-58 -21.5q-31 0 -57.5 23.5t-26.5 56.5z" />
<glyph unicode="&#xe46;" horiz-adv-x="722" d="M27 684q0 37 8 92t27.5 106.5t50 88.5t73.5 37q25 0 48.5 -17.5t46 -42t40 -51.5t29.5 -45q16 53 49 92t95 39q53 0 87.5 -30.5t55 -79t31 -108.5t13.5 -119.5t2 -114t-1 -89.5q0 -29 -4 -98.5t-12.5 -158.5t-20.5 -183t-30.5 -173t-41 -130t-51.5 -51q-25 0 -42 13 t-26.5 32.5t-13.5 42t-4 43.5q0 29 2 59.5t4 59.5q4 59 10.5 143t14.5 174t16.5 179t12.5 159t3 114t-10 44q-2 0 -4 -2q-6 6 -12 6q-16 0 -28.5 -29t-24.5 -62.5t-27.5 -62.5t-40.5 -29q-37 0 -58.5 27t-33.5 63.5t-19.5 77.5t-17.5 70q-8 6 -14 6q-14 0 -20.5 -32.5 t-11.5 -72.5t-13 -73t-29 -33q-20 0 -40.5 11.5t-35 28t-23.5 38t-9 41.5z" />
<glyph unicode="&#xe47;" d="M-719 1364q10 74 41 123t77 76.5t103.5 39t122.5 11.5q33 0 68 -2t69 -6q25 -2 33 19.5t13.5 47t15.5 47t41 21.5q41 0 58.5 -27.5t17.5 -62.5q0 -29 -11.5 -58.5t-31 -56.5t-46 -47.5t-57.5 -30.5q63 -4 91 -49t23 -97t-42 -95t-105 -43q-61 0 -126.5 24.5t-98.5 77.5 q-14 -12 -25.5 -29.5t-23.5 -33t-27.5 -26.5t-35.5 -11q-35 0 -63 18t-47.5 46t-28.5 60.5t-5 63.5zM-565 1339q20 16 51.5 38t58.5 22q25 0 51.5 -28t36.5 -48q0 68 35 98.5t68 40.5l-64 15q-8 2 -28 2q-29 0 -65 -7.5t-67.5 -22.5t-54 -42t-22.5 -68zM-264 1315 q0 -10 7 -14.5t15 -4.5t14.5 6.5t6.5 12.5t-5 15t-14 9q-8 0 -16 -7t-8 -17z" />
<glyph unicode="&#xe48;" d="M-180 1788q0 25 3 64.5t13 77.5t30.5 65.5t55.5 27.5t71 -22.5t36 -63.5q0 -16 -6.5 -51t-14.5 -72.5t-18 -72.5t-17 -49q-20 -43 -67 -43q-29 0 -46.5 13t-26.5 33.5t-11 45t-2 47.5z" />
<glyph unicode="&#xe49;" d="M-530 1911q0 37 19 65.5t50 48t67 29.5t68 10q55 0 89 -21.5t51.5 -57t21.5 -79.5t-2 -89q18 10 51 29.5t69 39t68.5 34.5t47.5 15q29 0 49 -18.5t20 -48.5q0 -39 -56 -83t-131 -82t-149.5 -62.5t-109.5 -24.5q-33 0 -53.5 16.5t-20.5 50.5q0 10 15.5 32t19.5 34v2 q-78 0 -131 37t-53 123zM-381 1890q0 -25 14.5 -36t30.5 -11q23 0 40 19.5t-3 50.5q-14 23 -35 22q-18 0 -32.5 -14.5t-14.5 -30.5z" />
<glyph unicode="&#xe4a;" horiz-adv-x="2" d="M-483 1788q0 47 17 92t49 80t74 55.5t91 20.5q53 0 75 -23.5t42 -68.5q10 10 20.5 25.5t20.5 28.5t23.5 23.5t31.5 10.5q74 0 108.5 -49.5t24.5 -118.5q10 10 25.5 26.5t34 31.5t37 25.5t32.5 10.5q25 0 54.5 -22.5t29.5 -49.5q0 -23 -35.5 -67.5t-84 -90t-96.5 -79 t-71 -33.5q-53 0 -87.5 30.5t-34.5 86.5q0 18 2 37.5t6 37.5q-25 -12 -47 -12q-6 0 -12.5 1t-14.5 3q12 -27 12 -57q0 -35 -15 -61.5t-41 -45t-57.5 -29t-62.5 -10.5q-41 0 -69.5 16.5t-47 43t-26.5 60.5t-8 71zM-334 1733.5q0 -13.5 12 -19.5q14 2 25 12q8 6 11 20.5 t-7 39.5q-4 6 -6 6q-6 0 -15.5 -10t-14.5 -22.5t-5 -26zM-305 1886q12 6 26 6q16 0 33.5 -11.5t40.5 -27.5q0 2 -2 7q0 4 -8 4q-10 16 -16.5 26.5t-6.5 18.5q-10 0 -26.5 -6.5t-40.5 -16.5z" />
<glyph unicode="&#xe4b;" d="M-395 1851q0 29 14 46.5t38 26.5t51.5 11t51.5 2h47q0 23 4.5 47.5t15.5 44t28.5 33t46.5 13.5q31 0 49 -13.5t27.5 -35t11.5 -47t2 -50.5q27 -2 59.5 -1t60 -5t47 -24.5t19.5 -59.5q0 -51 -39 -66.5t-86 -15.5q-25 0 -47 1t-39 3q-4 -23 -9 -48t-15.5 -46.5t-28.5 -36 t-47 -14.5q-31 0 -47.5 17.5t-22.5 43t-7 54t-1 49.5h-18q-18 0 -38 -1t-38 -1q-35 0 -62.5 18t-27.5 55z" />
<glyph unicode="&#xe4c;" d="M-451 1782q0 63 55.5 105t131.5 67.5t154.5 36t125.5 10.5q45 0 79 -17.5t34 -70.5q0 -35 -29.5 -51.5t-69.5 -22.5t-81 -7t-64 -5q8 -23 9 -51q0 -74 -49.5 -122t-123.5 -48t-123 52t-49 124zM-297 1767l14 -10q14 0 15 15q0 12 -6 24q-23 -9 -23 -29z" />
<glyph unicode="&#xe4d;" horiz-adv-x="2" d="M-381 1325q0 35 14.5 71t41 63.5t65.5 45t86 17.5t86 -18.5t66.5 -47.5t43 -65.5t15.5 -71.5q0 -76 -57.5 -131t-149.5 -55q-47 0 -86 15t-66.5 42t-43 61.5t-15.5 73.5zM-205 1321q0 -23 9.5 -30t19.5 -7q20 0 32.5 10.5t12.5 24.5q0 20 -12.5 31.5t-28.5 11.5 q-14 0 -23.5 -8t-9.5 -33z" />
<glyph unicode="&#xe4f;" horiz-adv-x="933" d="M94 438q0 68 26.5 131.5t76 113.5t118 80t152.5 30t152.5 -30t117.5 -80t76 -113.5t27 -131.5t-27 -131t-76 -112.5t-117.5 -79t-152.5 -29.5t-152.5 29.5t-118 79t-76 112.5t-26.5 131z" />
<glyph unicode="&#xe50;" horiz-adv-x="727" d="M35 252q0 43 12 123t35.5 174t57.5 192.5t76 177t91.5 130t102.5 51.5q88 0 141 -34t83 -89t40 -125t10 -141q0 -63 -10 -143.5t-33 -161t-57.5 -157.5t-83.5 -136.5t-113.5 -95t-146.5 -35.5q-63 0 -103.5 22.5t-63 59t-30.5 86t-8 102.5zM256 219q0 -23 2 -43.5 t6 -40.5q53 55 92 126t63.5 149.5t36 160.5t11.5 156q0 47 -5 89t-16 87v2q-33 -72 -66.5 -159t-61 -178t-45 -181t-17.5 -168z" />
<glyph unicode="&#xe51;" horiz-adv-x="448" d="M-12 739q0 23 30.5 68t70.5 93t81 89t59 51q37 20 76 21q23 0 41.5 -7t40.5 -14l21 -28v-13q0 -39 -6.5 -114.5t-16.5 -168.5t-24.5 -196.5t-29 -197t-29.5 -170t-30 -117.5q-10 -33 -34.5 -46.5t-57.5 -13.5q-41 0 -71.5 18.5t-30.5 65.5q0 18 2 29q14 68 32.5 159 t38 186t37 187.5t27.5 159.5l-117 -162q-6 -10 -18 -10q-14 0 -29.5 13.5t-30 33t-23.5 43t-9 41.5z" />
<glyph unicode="&#xe52;" horiz-adv-x="567" d="M-4 70q0 66 25.5 132t64.5 131.5t85 133.5t85 136.5t64.5 139t25.5 144.5q-6 12 -16 12q-16 0 -36 -28.5t-39 -62.5t-40.5 -62.5t-40.5 -28.5q-33 0 -56.5 17.5t-43.5 39.5q16 55 40.5 104.5t60.5 86t83 59.5t111 23q78 0 127 -50.5t49 -128.5q0 -104 -39 -196 t-92.5 -179t-106.5 -174.5t-82 -183.5h80q53 0 96 -9t97 -20q29 -14 22.5 -38.5t-28.5 -53.5q-23 -2 -61 -7t-83 -9t-92 -7t-88 -3q-72 0 -107 12q-23 0 -44 22.5t-21 47.5z" />
<glyph unicode="&#xe53;" horiz-adv-x="602" d="M25 229q0 33 16 64t55 31q41 0 58.5 -31t28 -67t19.5 -65.5t34 -27.5q16 2 33.5 28.5t32.5 67.5t28.5 90.5t24 95.5t15.5 83t5 51q-8 -4 -18.5 -16.5t-20.5 -24.5t-20.5 -21.5t-20.5 -9.5q-51 0 -82 19.5t-66 52.5q39 29 80 64.5t74 77.5t53.5 90t20.5 100q0 10 -4 30 q-20 -10 -36 -37.5t-31 -55t-36.5 -49t-56.5 -21.5t-66.5 16t-48.5 47q10 45 34 87t58.5 75t78.5 52t91 19q41 0 80 -11t69 -32.5t48 -55.5t18 -81q0 -68 -27.5 -132t-66.5 -118q53 -29 69.5 -73.5t16.5 -100.5q0 -66 -24.5 -143.5t-68.5 -145t-106.5 -112.5t-138.5 -45 q-53 0 -91 18.5t-62.5 51t-36.5 74.5t-12 91z" />
<glyph unicode="&#xe54;" horiz-adv-x="653" d="M27 481q0 16 8 60.5t21.5 101.5t28.5 121.5t30.5 120t29 94.5t21.5 47q37 37 88 37q35 0 61.5 -10.5t49.5 -38.5q-6 -63 -20.5 -127t-33 -125.5t-38 -122.5t-31.5 -125q4 0 7 -1t7 -1q27 0 57 10q12 14 21.5 51t16.5 86.5t13.5 104.5t13.5 105.5t17.5 89t24.5 53.5 q18 20 41.5 27.5t50.5 7.5q33 0 60.5 -14.5t27.5 -55.5q0 -12 -10 -86t-25.5 -178.5t-35 -223t-37 -221t-30.5 -172t-20 -78.5q-16 -23 -38.5 -30.5t-51.5 -7.5q-55 0 -82.5 24.5t-27.5 81.5q0 72 15 142.5t26 142.5q-27 2 -70 5t-84 14t-71.5 32.5t-30.5 58.5z" />
<glyph unicode="&#xe55;" horiz-adv-x="759" d="M31 102q0 47 28.5 66.5t71.5 19.5q37 0 53.5 -5t23.5 -16t13 -26.5t25 -36.5q31 16 68.5 75t70.5 128.5t55.5 137t22.5 104.5q0 10 -2 19.5t-10 15.5q-20 -6 -38 -26.5t-39.5 -44.5t-53 -42t-84.5 -18q-29 0 -59 12t-30 47q0 14 4.5 56t9.5 96.5t13 115t15.5 112.5 t13.5 90t10 46q16 37 44 50.5t69 13.5q94 0 186 -12.5t182 -39.5l-16 2q16 -10 32.5 -25.5t22.5 -33.5q-31 -61 -102 -61q-49 0 -98.5 5t-98.5 7q-23 -53 -28 -108.5t-11 -108.5q8 2 19.5 9t23 16.5t22.5 16.5t19 7q37 0 75 -16.5t67.5 -46t48 -68.5t18.5 -82 q0 -61 -33.5 -150.5t-87 -176.5t-116 -156.5t-121.5 -92.5q-23 -10 -48.5 -12t-50.5 -2q-31 0 -66.5 7t-65 23.5t-49 43t-19.5 65.5z" />
<glyph unicode="&#xe56;" horiz-adv-x="610" d="M39 121q0 33 9 102.5t24.5 159.5t35 188.5t39 185.5t38 153.5t30.5 93.5q16 31 41 52t61 21q53 0 74 -39t21 -84q0 -74 -18.5 -144.5t-37.5 -139.5q10 4 22.5 4h22.5q74 0 128.5 -39t54.5 -119q0 -74 -21.5 -166t-64.5 -174t-108.5 -137t-156.5 -55q-31 0 -64.5 7 t-63 24.5t-48 43t-18.5 62.5zM250 189.5q2 -23.5 14 -19.5q41 76 68 170t37 180q-2 0 -3 1t-4 1q-14 0 -30.5 -27.5t-31.5 -67.5t-27.5 -87t-18.5 -87t-4 -63.5z" />
<glyph unicode="&#xe57;" horiz-adv-x="567" d="M39 954q0 2 7 22.5t9 24.5q29 16 83.5 27.5t115.5 18t119.5 8.5t93.5 2q25 0 45 -14.5t37 -30.5q-18 -70 -41 -137.5t-45 -135.5q-12 -37 -27.5 -98t-33 -134t-37 -149.5t-38 -145.5t-36 -121t-33.5 -77q-23 -37 -53.5 -50t-71.5 -13q-59 0 -88 51q18 117 50 230.5 t68 226t72.5 225.5t67.5 225q-45 -4 -89 -8t-89 -4q-23 0 -54.5 15.5t-31.5 41.5z" />
<glyph unicode="&#xe58;" horiz-adv-x="620" d="M4 221q0 59 16.5 113.5t43 106t59.5 99.5t65 95q-18 31 -41.5 47t-44 33.5t-35 41t-14.5 68.5q0 53 33 99.5t82 81t105.5 55t103.5 20.5q55 0 106.5 -29.5t77.5 -78.5q47 -12 84 -51q-53 -72 -106.5 -141.5t-102.5 -143.5q20 -37 39 -68.5t33 -64.5t22.5 -69t8.5 -79 q0 -68 -25 -136t-69 -122.5t-105 -89.5t-133 -35q-49 0 -87 22.5t-63.5 57.5t-39 80t-13.5 88zM225 219q0 -39 8 -65q41 41 63.5 92t22.5 108q0 23 -5 46.5t-13 45.5q-33 -51 -54.5 -108.5t-21.5 -118.5zM279 805l10 -25q51 74 108 131l-12 11q-18 0 -36.5 -11.5t-34 -29 t-25.5 -38t-10 -38.5z" />
<glyph unicode="&#xe59;" horiz-adv-x="692" d="M16 573q0 63 33 148.5t86 161t120.5 128t139.5 52.5q25 0 49.5 -7t40.5 -28q43 47 109 47q12 0 28.5 -6t30 -16.5t22.5 -23.5t7 -28q-12 -59 -20.5 -100t-15.5 -74.5t-14 -64.5t-18 -72q-20 -74 -39.5 -163t-38 -176t-33 -167t-24.5 -137q-6 -39 -37.5 -50t-68.5 -11 q-16 0 -36 3t-37 11t-28.5 22.5t-11.5 34.5q0 90 17.5 177.5t39.5 173.5q-25 -10 -50 -16.5t-52 -6.5q-86 0 -142.5 49t-56.5 139zM242 557q31 29 61.5 75t58 99t49 106.5t31.5 92.5q-92 -59 -146 -160.5t-54 -212.5z" />
<glyph unicode="&#xe5a;" horiz-adv-x="1032" d="M29 913q0 45 18.5 84t49 69t71.5 46t84 16q82 0 128 -55t62 -127q10 16 31 45t44.5 55.5t49 46t47.5 19.5q18 0 39 -5t39.5 -15.5t29.5 -25.5t11 -38q0 -43 -9 -140t-26.5 -216t-42 -246t-54.5 -230.5t-63.5 -171t-70.5 -67.5q-8 0 -21.5 4t-25.5 11.5t-21.5 15.5 t-9.5 18q-20 23 -16 57q6 68 28.5 156t47 186.5t43 200t18.5 193.5q-57 -41 -121.5 -71t-136.5 -30q-94 0 -158.5 59.5t-64.5 155.5zM201 897q16 0 42.5 15.5t26.5 33.5q0 12 -11 22.5t-23 10.5q-23 0 -29 -25t-6 -41v-16zM653 63q8 68 24.5 153t37 181.5t41 198.5t35.5 203 q10 68 17 118t17.5 87.5t26.5 64.5t43 43q10 6 25 6q31 0 62.5 -26.5t31.5 -63.5q0 -43 -9.5 -140t-26.5 -216t-42 -246t-54.5 -230.5t-63.5 -171t-70 -67.5q-8 0 -21.5 4t-26 11.5t-21.5 15.5t-9 18q-21 22 -17 57z" />
<glyph unicode="&#xe5b;" horiz-adv-x="1378" d="M27 590q0 41 13 85t42 81t74 60.5t108 23.5q88 0 146.5 -42t74.5 -110q4 8 8.5 16.5t8.5 14.5q14 29 36.5 51.5t57.5 22.5q29 0 49.5 -18.5t28.5 -47.5q10 -18 16 -40.5t10 -45.5q0 -4 1 -8t1 -8q4 6 6.5 13t6.5 11t8 13.5t10 19.5q4 14 10 20q10 27 40 47.5t59 20.5 q27 0 48 -19.5t30 -43.5q16 23 44.5 38t75.5 15q18 0 50 -2t68 -7.5t67.5 -11.5t50.5 -12q8 -2 22.5 -9t27.5 -18.5t22.5 -27t9.5 -33.5q0 -29 -24.5 -43t-49.5 -14h-10l-219 24q-8 -23 -20.5 -52.5t-31 -55t-41 -44t-53.5 -18.5q-29 0 -51 18.5t-37 41.5 q-10 -23 -25.5 -50.5t-36 -51t-44 -40t-51.5 -16.5q-51 0 -76 40t-37 83q-47 -61 -101.5 -99t-138.5 -38q-63 0 -115.5 22.5t-90 59t-58 85t-20.5 99.5zM205 586q0 -41 19.5 -62t64.5 -37q-6 12 -6 27q0 18 10 37l14 29q8 16 13.5 31.5t5.5 27.5q0 23 -12.5 34t-30.5 11 q-33 0 -55.5 -25.5t-22.5 -72.5z" />
<glyph unicode="&#x2000;" horiz-adv-x="1037" />
<glyph unicode="&#x2001;" horiz-adv-x="2075" />
<glyph unicode="&#x2002;" horiz-adv-x="1037" />
<glyph unicode="&#x2003;" horiz-adv-x="2075" />
<glyph unicode="&#x2004;" horiz-adv-x="691" />
<glyph unicode="&#x2005;" horiz-adv-x="518" />
<glyph unicode="&#x2006;" horiz-adv-x="345" />
<glyph unicode="&#x2007;" horiz-adv-x="345" />
<glyph unicode="&#x2008;" horiz-adv-x="259" />
<glyph unicode="&#x2009;" horiz-adv-x="415" />
<glyph unicode="&#x200a;" horiz-adv-x="115" />
<glyph unicode="&#x2010;" horiz-adv-x="581" d="M57 547q0 27 15.5 48.5t46.5 25.5q57 12 115.5 17t117.5 9q37 4 75 3t75 5l22 4l13 -16q4 -12 8 -24.5t4 -26.5q0 -12 -5 -42t-26 -42l-10 -6h-12q-45 0 -90.5 -3t-90.5 -3h-174q-23 0 -53.5 10t-30.5 41z" />
<glyph unicode="&#x2011;" horiz-adv-x="581" d="M57 547q0 27 15.5 48.5t46.5 25.5q57 12 115.5 17t117.5 9q37 4 75 3t75 5l22 4l13 -16q4 -12 8 -24.5t4 -26.5q0 -12 -5 -42t-26 -42l-10 -6h-12q-45 0 -90.5 -3t-90.5 -3h-174q-23 0 -53.5 10t-30.5 41z" />
<glyph unicode="&#x2012;" horiz-adv-x="581" d="M57 547q0 27 15.5 48.5t46.5 25.5q57 12 115.5 17t117.5 9q37 4 75 3t75 5l22 4l13 -16q4 -12 8 -24.5t4 -26.5q0 -12 -5 -42t-26 -42l-10 -6h-12q-45 0 -90.5 -3t-90.5 -3h-174q-23 0 -53.5 10t-30.5 41z" />
<glyph unicode="&#x2013;" horiz-adv-x="927" d="M0 428v143h928v-143h-928z" />
<glyph unicode="&#x2014;" horiz-adv-x="1341" d="M0 428v143h1341v-143h-1341z" />
<glyph unicode="&#x2018;" horiz-adv-x="485" d="M96 905q0 92 49.5 157.5t147.5 98.5q10 4 18 4h15q29 0 46 -14t17 -41q0 -31 -25.5 -49.5t-50.5 -28.5q-6 -4 -11 -7t-9 -7q35 -16 56.5 -47t21.5 -66q0 -47 -37 -87t-101 -40q-61 0 -99 40t-38 87z" />
<glyph unicode="&#x2019;" horiz-adv-x="485" d="M96 834q0 27 14.5 40t24.5 17t29 15.5t29 17.5q-35 14 -55.5 42.5t-20.5 73.5q0 47 38 86t99 39t98 -40t37 -85q0 -92 -47 -158.5t-152 -99.5q-16 -4 -26 -4q-29 0 -48.5 13.5t-19.5 42.5z" />
<glyph unicode="&#x2022;" horiz-adv-x="780" d="M94 403q0 51 21.5 101.5t61.5 89.5t94.5 63.5t117.5 24.5q66 0 120 -24.5t93 -63.5t60.5 -89t21.5 -102q0 -51 -21.5 -102t-60.5 -90t-93 -63.5t-120 -24.5t-120 24.5t-93 63.5t-60.5 90t-21.5 102z" />
<glyph unicode="&#x2026;" horiz-adv-x="1142" d="M94 88q0 35 28 65.5t75 30.5t74.5 -30.5t27.5 -65.5t-28.5 -63.5t-73.5 -28.5t-74 28.5t-29 63.5zM471 88q0 35 27.5 65.5t74.5 30.5t75 -30.5t28 -65.5t-30 -63.5t-73 -28.5q-45 0 -73.5 28.5t-28.5 63.5zM844 88q0 35 27.5 65.5t74.5 30.5t75 -30.5t28 -65.5t-29 -63.5 t-74 -28.5t-73.5 28.5t-28.5 63.5z" />
<glyph unicode="&#x202f;" horiz-adv-x="415" />
<glyph unicode="&#x205f;" horiz-adv-x="518" />
<glyph unicode="&#x25cc;" horiz-adv-x="1114" d="M96 440q0 35 27 60.5t70 25.5t68.5 -28.5t25.5 -57.5t-23.5 -58.5t-70.5 -29.5t-72 28.5t-25 59.5zM207 193q0 31 24.5 59.5t69.5 28.5q43 0 69.5 -27t26.5 -61q0 -35 -26.5 -61t-69.5 -26q-45 0 -69.5 28t-24.5 59zM207 684q0 29 21.5 58.5t72.5 29.5q49 0 72.5 -27.5 t23.5 -60.5q0 -35 -26.5 -60.5t-69.5 -25.5q-45 0 -69.5 28.5t-24.5 57.5zM465 86q0 33 23.5 60.5t70.5 27.5q43 0 69.5 -26.5t26.5 -61.5q0 -33 -27.5 -59.5t-68.5 -26.5q-45 0 -69.5 27.5t-24.5 58.5zM465 793q0 35 25.5 59.5t68.5 24.5q39 0 67.5 -25t28.5 -59 q0 -35 -26.5 -61.5t-69.5 -26.5q-47 0 -70.5 27.5t-23.5 60.5zM719 193q0 35 26.5 61.5t69.5 26.5q45 0 69.5 -29t24.5 -59q0 -31 -23.5 -59t-70.5 -28q-43 0 -69.5 26t-26.5 61zM719 684q0 33 23.5 60.5t72.5 27.5q51 0 72.5 -29.5t21.5 -58.5q0 -31 -24.5 -58.5 t-69.5 -27.5q-43 0 -69.5 25.5t-26.5 60.5zM829 440q0 29 22.5 57.5t70.5 28.5q43 0 69.5 -25.5t26.5 -60.5q0 -33 -23.5 -60.5t-72.5 -27.5t-71 30.5t-22 57.5z" />
<glyph unicode="&#x25fc;" horiz-adv-x="1095" d="M0 0v1096h1096v-1096h-1096z" />
<glyph unicode="&#xf700;" horiz-adv-x="786" d="M45 492q0 37 15.5 69.5t43 56t64.5 38t78 14.5q47 0 84 -16.5t64.5 -43t50 -61.5t40.5 -72q-2 47 -12 91t-39 73q-18 18 -51 37.5t-70 35t-73.5 26t-65.5 10.5q-43 0 -80 21.5t-37 76.5q0 59 54.5 107.5t129 82t153.5 51t126 17.5q43 0 97.5 -7t93.5 -30 q16 -8 31.5 -24.5t15.5 -43.5q0 -41 -30 -54t-62 -13q-35 0 -77 7t-71 7q-119 0 -205 -67q80 -27 161 -75t124 -101q47 -59 61.5 -136t14.5 -139q0 -31 -6 -92.5t-22.5 -122.5t-46.5 -106.5t-77 -45.5q-23 0 -47 9.5t-37 19.5q-23 27 -34 55.5t-19 57t-14 58.5t-19 61 q0 4 -4 12q-43 -27 -98 -27q-41 0 -79 14.5t-65.5 40t-44 58.5t-16.5 70zM47 -53q0 76 54.5 128t146.5 52q74 0 130 -41t85 -109q16 20 42.5 36t63.5 16q35 0 79 -20.5t82 -52.5t63.5 -70t25.5 -70q0 -39 -28.5 -57.5t-61.5 -18.5q-43 0 -78 32.5t-57 67.5 q-4 -25 -11.5 -54.5t-19.5 -54t-33.5 -42t-52.5 -17.5q-51 0 -79.5 42t-43.5 85q-51 -33 -116 -32q-92 0 -141.5 55t-49.5 125zM209 489q0 -23 10 -25.5t14 -2.5q12 0 21.5 8t9.5 20t-10 21.5t-23 9.5q-10 0 -16 -11t-6 -20zM225 -55q0 -14 13 -19q6 -2 12 -2l2 2q4 0 4 2 q6 8 6 15q0 6 -4 12t-8 6q-25 0 -25 -16z" />
<glyph unicode="&#xf701;" d="M-1081 1343q0 55 33.5 94.5t83 63t105.5 34.5t99 11q154 0 269.5 -67.5t166.5 -218.5q6 -18 11.5 -37t5.5 -37q0 -53 -24.5 -78t-55.5 -25t-57 23q-86 45 -179.5 71.5t-189.5 36.5q-29 4 -75 9.5t-89 18.5t-73.5 37t-30.5 64zM-840 1376q78 -10 154.5 -22t148.5 -41 q-23 25 -39 44t-35.5 33.5t-44 21.5t-61.5 7q-72 0 -123 -43z" />
<glyph unicode="&#xf702;" d="M-1028 1364q0 53 36 86t86 50.5t105 23.5t96 6q47 0 82 -5t66 -17.5t59.5 -33t63.5 -51.5q25 92 47 123t45 31q16 0 32.5 -8t33.5 -19q12 -6 16 -35.5t1 -70.5t-12.5 -87t-23.5 -87t-31.5 -71t-38.5 -38q-37 -12 -94 -12q-59 0 -131 10t-143 23q-39 6 -89 17t-96.5 31.5 t-78 52.5t-31.5 81zM-805 1356q31 -8 68 -20.5t75.5 -24t76.5 -20.5t67 -15q-43 53 -96.5 69.5t-118.5 16.5q-35 0 -72 -6z" />
<glyph unicode="&#xf703;" horiz-adv-x="2" d="M-1112 1389q0 57 23.5 95t60.5 60.5t84 31.5t94 9q53 0 100.5 -21.5t83.5 -58.5q33 35 77 51.5t91 16.5q43 0 82 -15.5t68 -43t46 -65.5t17 -81t-18.5 -79t-49 -60.5t-69.5 -38.5t-80 -14q-39 0 -82 16q-29 0 -80 3t-109 11t-118.5 22.5t-110 36t-80 52.5t-30.5 72z M-954 1409q14 -8 49 -17.5t74.5 -17.5t76 -13t54.5 -7q-10 16 -27.5 30.5t-39 25.5t-44.5 18.5t-39 7.5q-8 0 -22.5 -2t-31 -5.5t-30.5 -8.5t-20 -11zM-547 1376q0 -20 19.5 -31.5t35.5 -11.5q14 0 19.5 10.5t5.5 22.5q0 16 -4 31.5t-25 15.5q-14 0 -32.5 -10.5t-18.5 -26.5 z" />
<glyph unicode="&#xf704;" d="M-1036 1376q0 45 16 79t44 57.5t65 35t75 11.5q78 0 145.5 -34t119.5 -91q0 18 10 37.5t26.5 35t35 25.5t36.5 10q10 0 21.5 -2t19.5 -12t11 -32.5t-1 -65.5q6 6 15.5 20t20.5 30.5t21.5 29t18.5 12.5q33 0 57.5 -22.5t24.5 -57.5q0 -27 -9 -76t-26.5 -98t-43 -85 t-58.5 -36q-12 0 -24.5 4t-23 16.5t-16.5 37t-4 63.5q-6 -14 -17 -35t-26.5 -39t-31 -31.5t-27.5 -13.5q-51 0 -132 7t-157 30.5t-131 68.5t-55 121zM-862 1368q0 -14 25.5 -24.5t58.5 -17.5t63.5 -11t42.5 -6q-29 35 -66.5 61.5t-82.5 26.5q-14 0 -27.5 -6.5t-13.5 -22.5z " />
<glyph unicode="&#xf705;" d="M-541 1403q0 25 3 64.5t13.5 77.5t31 65.5t55.5 27.5t70.5 -22.5t35.5 -63.5q0 -16 -6 -51t-14 -72.5t-18.5 -72.5t-16.5 -49q-20 -43 -68 -43q-29 0 -46 13t-26.5 33.5t-11.5 45t-2 47.5z" />
<glyph unicode="&#xf706;" d="M-940 1569q0 37 19.5 65.5t50 48t66.5 29.5t69 10q55 0 89 -21.5t51 -57t21.5 -79.5t-1.5 -89q16 10 49.5 29.5t69.5 39t68 34.5t48 15q29 0 49.5 -18.5t20.5 -48.5q0 -39 -53.5 -85t-125 -87t-142.5 -69t-105 -28q-33 0 -64 25t-31 59q0 10 15.5 32t19.5 34v2 q-78 0 -131 37t-53 123zM-797 1554q0 -16 10.5 -24t24.5 -8q41 0 41 39q0 49 -27 49q-16 0 -32.5 -18.5t-16.5 -37.5z" />
<glyph unicode="&#xf707;" horiz-adv-x="2" d="M-993 1417q0 47 10 91t32.5 78t57.5 53.5t84 19.5q53 0 88 -19.5t55 -64.5q8 35 45 60.5t72 25.5q37 0 55.5 -25.5t24.5 -62.5t3 -79t-9 -77q10 10 34.5 39t54.5 57.5t56.5 51t42.5 22.5q25 0 54.5 -22.5t29.5 -48.5q0 -23 -35.5 -68t-84 -90t-96.5 -79t-70 -34 q-53 0 -88 31t-35 86q0 18 2 37.5t6 38.5q-25 -12 -47 -13q-6 0 -12.5 1t-14.5 4q12 -27 12 -58q0 -35 -15 -61.5t-41 -45t-57.5 -28.5t-62.5 -10q-41 0 -69.5 16.5t-47 43t-26.5 60t-8 70.5zM-844 1362q0 -12 13 -19q14 2 24 11q8 8 11 22t-7 39q-2 4 -6 4q-6 0 -15.5 -9 t-14.5 -22.5t-5 -25.5zM-840 1518q12 6 27 6q16 0 33.5 -11.5t40.5 -27.5q0 2 -2 6q0 4 -9 4q-8 14 -23 35.5t-36 21.5q-20 0 -31 -34z" />
<glyph unicode="&#xf708;" d="M-877 1448q0 29 14.5 46t38 26.5t51.5 11.5t52 2h47q0 23 4 47.5t15.5 44t29 32.5t45.5 13q31 0 49.5 -13t27.5 -34.5t11.5 -47.5t2.5 -50q27 -2 55 -1t50 -6.5t34 -25.5t8 -59q-4 -29 -21.5 -41.5t-42 -17.5t-54 -7t-54.5 -10q-4 -23 -9 -48.5t-15.5 -47t-29 -36 t-46.5 -14.5q-31 0 -47.5 17.5t-22.5 43t-7 54.5t-1 49h-19q-18 0 -37.5 -1t-37.5 -1q-35 0 -63 18.5t-28 55.5z" />
<glyph unicode="&#xf709;" d="M-827 1423q0 63 55 105.5t131 68t154.5 35.5t126.5 10q45 0 78.5 -17t33.5 -71q0 -35 -29.5 -51t-69.5 -22t-81 -7t-64 -6q9 -22 9 -51q0 -74 -49.5 -122t-122.5 -48q-74 0 -123 52.5t-49 123.5zM-700 1414q-2 -11 6 -17q18 -12 35 -13q16 0 25 11.5t12.5 26t-1 27.5 t-16.5 15h-4q-12 0 -24.5 -8t-21.5 -19.5t-11 -22.5z" />
<glyph unicode="&#xf70a;" d="M-276 1370q0 25 3 65t13 77.5t30.5 65.5t55.5 28t70.5 -22.5t35.5 -63.5q0 -16 -6 -51t-14 -73t-18.5 -73t-16.5 -49q-20 -43 -67 -43q-29 0 -46.5 13t-26.5 33.5t-11 45t-2 47.5z" />
<glyph unicode="&#xf70b;" d="M-588 1520q0 37 19.5 65.5t50.5 48t66.5 29.5t68.5 10q55 0 89 -21.5t51.5 -57t21.5 -80t-2 -89.5q16 10 50 30t69.5 39t67.5 34.5t48 15.5q29 0 49.5 -18.5t20.5 -48.5q0 -39 -53.5 -85t-125 -87t-142 -69t-105.5 -28q-33 0 -63.5 24.5t-30.5 59.5q0 10 15 32t20 34v2 q-78 0 -131.5 37t-53.5 123zM-444 1505q0 -16 10 -24t24 -8q41 -1 41 38q0 49 -26 50q-16 0 -32.5 -18.5t-16.5 -37.5z" />
<glyph unicode="&#xf70c;" horiz-adv-x="2" d="M-606 1391q0 47 10 91t32.5 77.5t57.5 53t84 19.5q53 0 88 -19.5t55 -64.5q8 35 45 60.5t72 25.5q37 0 55.5 -25.5t24.5 -62.5t3 -79t-9 -76q10 10 34.5 38.5t54.5 57.5t57.5 51.5t41.5 22.5q25 0 54.5 -22.5t29.5 -49.5q0 -23 -35.5 -68t-84 -90t-96.5 -78.5t-70 -33.5 q-53 0 -88 30.5t-35 85.5q0 18 2 38t6 38q-25 -12 -47 -12q-6 0 -12.5 1t-14.5 3q12 -27 12 -57q0 -35 -15 -62t-40.5 -45t-57.5 -28.5t-63 -10.5q-41 0 -69.5 16.5t-47 43t-26.5 60.5t-8 71zM-457 1335.5q0 -12.5 13 -18.5q14 2 24 10q8 8 11 22.5t-7 39.5q-2 4 -6 4 q-6 0 -15 -9.5t-14.5 -22.5t-5.5 -25.5zM-453 1491q12 6 27 6q16 0 33.5 -11.5t40.5 -27.5q0 2 -2 6q0 4 -8 4q-8 14 -23.5 36t-36.5 22q-20 0 -31 -35z" />
<glyph unicode="&#xf70d;" d="M-551 1427q0 29 14.5 46.5t38 26.5t51 11t52.5 2h47q0 23 4 47.5t15.5 44t28.5 33t46 13.5q31 0 49.5 -13.5t27.5 -35t11 -47t2 -50.5q27 -2 55.5 -1t50 -6t34 -25.5t8.5 -59.5q-4 -29 -21.5 -41t-42 -17t-54.5 -7t-54 -11q-4 -23 -9.5 -48t-15.5 -46.5t-28.5 -36 t-47.5 -14.5q-31 0 -47 17.5t-22.5 43t-7.5 54t-1 49.5h-18q-18 0 -37.5 -1t-38.5 -1q-35 0 -62.5 18t-27.5 55z" />
<glyph unicode="&#xf70e;" d="M-559 1378q0 63 55 105.5t131 68t155 35.5t126 10q45 0 78.5 -17t33.5 -71q0 -35 -29.5 -51t-69.5 -22t-81 -7.5t-63 -5.5q8 -22 8 -51q0 -74 -49 -122t-123 -48t-123 52.5t-49 123.5zM-432 1369q-2 -11 6 -17q18 -12 35 -13q16 0 25.5 11.5t12.5 26t-1 27.5t-17 15h-4 q-12 0 -24.5 -8t-21.5 -19.5t-11 -22.5z" />
<glyph unicode="&#xf70f;" horiz-adv-x="1200" d="M23 745q0 74 49 138.5t120.5 114t154.5 77t153 27.5q94 0 165.5 -27.5t121 -77t75 -115t25.5 -141.5q0 -70 -12.5 -136t-12.5 -132q0 -10 1 -22.5t7 -22.5q10 14 17.5 26.5t11.5 22.5q27 53 40 114.5t24 127.5q2 10 6 49t10 80q4 23 5 44t5 38q8 41 23.5 68.5t66.5 27.5 q49 0 73 -31.5t24 -76.5q0 -41 -5.5 -109t-18.5 -143.5t-34.5 -153.5t-54.5 -140.5t-78 -102.5t-104 -42q25 -23 45 -49l18 12q18 12 33.5 21.5t23.5 26.5q10 18 32 30.5t42 12.5q35 0 54.5 -21.5t19.5 -56.5q0 -57 -45 -104.5t-107.5 -80t-129 -50t-107.5 -17.5 q-76 0 -134.5 40t-68.5 109q-20 -47 -64 -80.5t-114 -33.5q-43 0 -77 14t-69 39q-6 6 -10 8q-20 10 -35.5 34.5t-24.5 54.5t-14.5 59.5t-5.5 50.5q0 49 7 98q12 55 28.5 110.5t38.5 108.5q4 12 8 29q-37 2 -72.5 9t-65.5 24.5t-47 46t-17 73.5zM229 768q4 -4 24 -8t26 -4 q10 -2 18 -3t14 -1q53 -4 85 -24.5t32 -80.5q0 -27 -6 -63.5t-16.5 -73.5t-23.5 -72t-26 -61q-2 -4 -2 -10q10 2 33 2q45 0 79 -15.5t57.5 -40t35.5 -55.5t14 -61q23 39 65 62.5t95 23.5h6q-66 66 -65 161q0 72 16.5 143.5t16.5 145.5q0 86 -38 144.5t-124 58.5 q-68 0 -128.5 -26.5t-113.5 -63.5q-39 -27 -56.5 -47.5t-17.5 -30.5zM334 180q0 -16 12 -28.5t27 -12.5q8 0 18 10.5t10 40.5q0 23 -9 30t-19 7q-14 0 -26.5 -11t-12.5 -36zM715 121q0 -4 6 -11.5t41 -7.5q16 0 24 2l-12 19q-12 18 -31 18q-29 0 -28 -20z" />
<glyph unicode="&#xf710;" d="M-918 1376q0 37 16.5 65.5t43.5 49t59.5 32t65.5 11.5q43 0 80 -15.5t64.5 -43t46 -64.5t22.5 -78q25 4 54.5 18.5t58 31t51 29.5t32.5 13q29 0 51.5 -19.5t22.5 -47.5q0 -14 -8 -29q-25 -43 -69 -72.5t-94 -48t-104.5 -26.5t-101.5 -8q-45 0 -96 11t-94 35.5t-72 62.5 t-29 93zM-760 1362q0 -23 29 -32t45 -9q0 18 -9.5 44t-33.5 26q-10 0 -20.5 -9.5t-10.5 -19.5z" />
<glyph unicode="&#xf711;" horiz-adv-x="83" d="M-578 1376q0 39 15.5 77t45.5 67.5t71 48t92 18.5t93 -19.5t70.5 -51t45 -70.5t16.5 -78q0 -41 -16.5 -77t-46 -63.5t-70.5 -44t-88 -16.5q-51 0 -93 17.5t-72 46.5t-46.5 66.5t-16.5 78.5zM-399 1370q0 -37 43 -37q23 0 35 10.5t12 26.5q0 23 -13.5 34t-29.5 11 q-18 0 -32.5 -12t-14.5 -33z" />
<glyph unicode="&#xf712;" d="M-897 1382q10 74 41 123t77 77t103.5 39t122.5 11q33 0 67.5 -2t69.5 -6q25 -2 33 19.5t13 47t15.5 47t41.5 21.5q41 0 58 -27.5t17 -62.5q0 -29 -11 -58.5t-30.5 -56t-46 -47t-57.5 -30.5q63 -4 91 -49.5t23 -97.5t-42 -95t-105 -43q-61 0 -126.5 24.5t-98.5 77.5 q-14 -12 -25.5 -29.5t-23.5 -32.5t-27.5 -26.5t-36.5 -11.5q-35 0 -62.5 18.5t-47 46t-28.5 60t-5 63.5zM-743 1358q20 16 51.5 37.5t58.5 21.5q25 0 51.5 -27.5t36.5 -48.5q0 68 35 98.5t68 41.5l-64 14q-8 2 -29 2q-29 0 -64.5 -7t-67 -22.5t-54 -42t-22.5 -67.5z M-442 1333q0 -10 7 -14t15 -4t14.5 6t6.5 12t-5.5 15.5t-13.5 9.5t-16 -7.5t-8 -17.5z" />
<glyph unicode="&#xf713;" d="M-410 1755q0 25 3.5 65t13.5 77.5t30.5 65.5t55.5 28t70.5 -22.5t35.5 -63.5q0 -16 -6 -51t-14 -73t-18.5 -73t-16.5 -49q-20 -43 -68 -43q-29 0 -46 13t-26.5 33.5t-11.5 45t-2 47.5z" />
<glyph unicode="&#xf714;" d="M-795 1858q0 37 19.5 65.5t50.5 48t66.5 29.5t68.5 10q55 0 89 -21.5t51.5 -57.5t21.5 -80t-2 -89q18 10 51 29.5t69 39t67.5 35t47.5 15.5q29 0 49.5 -18.5t20.5 -48.5q0 -39 -56.5 -83t-131 -82t-149.5 -62.5t-109 -24.5q-33 0 -53.5 16t-20.5 51q0 10 15.5 31.5 t19.5 34.5v2q-78 0 -131.5 37t-53.5 123zM-645 1837q0 -25 14.5 -36t30.5 -11q23 0 40 19.5t-3 50.5q-14 23 -35 22q-18 0 -32.5 -14.5t-14.5 -30.5z" />
<glyph unicode="&#xf715;" horiz-adv-x="2" d="M-817 1769q0 47 17.5 92.5t49 80t73.5 55t91 20.5q53 0 75 -23.5t42 -68.5q10 10 20.5 25.5t20.5 29t23.5 23.5t31.5 10q74 0 89.5 -49t4.5 -119q10 10 25.5 26.5t34 32t36 25.5t33.5 10q25 0 54.5 -22.5t29.5 -48.5q0 -23 -35.5 -68t-83.5 -90t-96.5 -79t-70.5 -34 q-53 0 -68.5 31t-15.5 86q0 18 2 38t6 38q-25 -12 -47 -12q-6 0 -12.5 1t-14.5 3q12 -27 13 -58q0 -35 -15.5 -61.5t-41 -45t-57.5 -28.5t-63 -10q-41 0 -69.5 16.5t-47 43t-26.5 60.5t-8 70zM-668 1715.5q0 -13.5 13 -19.5q14 2 24 12q8 6 11 20t-7 39q-4 6 -6 7 q-6 0 -15 -10.5t-14.5 -22.5t-5.5 -25.5zM-639 1868q16 -4 28.5 -5t24 -3t22.5 -7.5t25 -17.5q0 2 -2 6q0 4 -8 4q-10 16 -16 26.5t-6 18.5q-4 0 -9.5 2t-13.5 2t-18.5 -5t-26.5 -21z" />
<glyph unicode="&#xf716;" d="M-641 1839q0 29 14.5 46.5t38 26.5t51 11t52.5 2h47q0 23 4 47.5t15 44t28.5 32.5t46.5 13q31 0 49.5 -13t27.5 -34.5t11 -47t2 -50.5h23h36q23 0 43.5 -2t36 -11.5t22.5 -26.5t3 -46q-4 -31 -25.5 -47.5t-50.5 -24.5t-59.5 -9t-53.5 -1q-4 -23 -9 -48.5t-15 -47 t-28.5 -35.5t-47.5 -14q-31 0 -47 17t-22.5 43t-7.5 54.5t-1 48.5h-18q-18 0 -37.5 -1t-38.5 -1q-35 0 -62.5 18.5t-27.5 55.5z" />
<glyph unicode="&#xf717;" d="M-623 1710q0 63 55.5 105.5t131.5 68t154.5 35.5t125.5 10q45 0 79 -17.5t34 -70.5q0 -35 -29.5 -51t-69.5 -22.5t-81 -7.5t-64 -5q8 -23 8 -51q0 -74 -49 -122t-123 -48t-123 52t-49 124zM-486 1682.5q1 -11.5 11 -17.5q14 -6 24 -6q14 0 21.5 10t8.5 23.5t-4 26 t-15 14.5h-6q-10 0 -19.5 -8.5t-15.5 -19.5t-5 -22.5z" />
<glyph unicode="&#xf718;" d="M-563 -205q0 76 55 116t125 40q90 0 147.5 -46t57.5 -141q0 -31 -10.5 -93t-31 -126.5t-49 -112.5t-67.5 -48q-35 0 -63.5 16t-28.5 57t14.5 82t24.5 80q-33 2 -64.5 17.5t-56.5 39t-39 54t-14 65.5zM-397 -219q0 -14 9 -19.5t21 -5.5t17.5 10.5t5.5 20.5q0 12 -7 23.5 t-22 11.5q-24 -14 -24 -41z" />
<glyph unicode="&#xf719;" d="M-741 -236q0 39 16 70t42 51.5t59.5 31.5t70.5 11q53 0 83 -23.5t43 -59t15 -77.5t1 -78t1 -59.5t15 -23.5q25 27 38 78t27.5 101t35 88t58.5 38q43 0 57.5 -31t14.5 -67q0 -53 -14.5 -129t-46 -144.5t-79.5 -118t-116 -49.5q-70 0 -98.5 42t-28.5 106q0 43 6 86 q-6 -2 -20 -2q-35 0 -66.5 11t-57.5 32.5t-41 50.5t-15 65zM-580 -236q0 -28 27 -28q10 0 15.5 12t5.5 21q0 23 -27 22q-20 0 -21 -27z" />
<glyph unicode="&#xf71a;" horiz-adv-x="94" d="M-182 -432q0 35 27.5 63.5t74.5 28.5t75 -28.5t28 -63.5t-27 -64.5t-76 -29.5t-75.5 29.5t-26.5 64.5z" />
<glyph unicode="&#xf71d;" horiz-adv-x="1226" d="M35 842q0 45 19.5 85t51 70.5t72.5 48t84 17.5q80 0 126 -29.5t68.5 -79t27.5 -111t5 -124.5q0 -106 2.5 -213t6.5 -213q20 43 33.5 88t27.5 90t29.5 90t38.5 84q12 23 26.5 33t40.5 10q29 0 48.5 -14.5t35.5 -36.5q16 -27 33.5 -82t34 -119.5t32 -126t29.5 -98.5 q31 43 53.5 111.5t38 144.5t22.5 148.5t7 125.5q0 6 -1 12.5t-1 12.5q-57 -25 -128 -42t-134 -17q-49 0 -101.5 15t-94.5 45t-68.5 74t-26.5 99q0 59 25.5 106.5t67.5 81t94.5 51t107.5 17.5q90 0 184.5 -27.5t159.5 -93.5q16 23 34.5 58.5t40 71.5t46 61.5t51.5 25.5 q33 0 65.5 -20.5t32.5 -57.5q0 -49 -17 -94t-44 -85t-60.5 -75.5t-66.5 -66.5q16 -43 20.5 -89t4.5 -93q0 -43 -7.5 -114t-21.5 -150.5t-39 -160.5t-59.5 -146.5t-80.5 -106.5t-106 -41q-53 0 -91 30.5t-62.5 75.5t-41 97.5t-26.5 93.5q-14 -39 -34.5 -88t-50.5 -93.5 t-68.5 -75t-88.5 -30.5q-80 0 -108 72q-14 35 -19.5 112.5t-7.5 165.5t-1 170t1 127q-10 -2 -21.5 -3t-21.5 -1q-39 0 -80 14.5t-74.5 40t-54 62.5t-20.5 80zM207 844q0 -27 17.5 -41.5t41.5 -14.5q27 0 37 23t10 45q0 20 -10 39.5t-33 19.5q-35 0 -49 -20t-14 -51zM668 930 q0 -39 27.5 -52.5t60.5 -13.5q53 0 116.5 25.5t108.5 54.5q-35 51 -85 73.5t-110 22.5q-47 0 -82.5 -31.5t-35.5 -78.5z" />
<glyph horiz-adv-x="514" d="M-676 1317q0 45 18.5 84t49 66.5t71.5 44t84 16.5q45 0 86 -17.5t72 -47t49.5 -69.5t18.5 -85q0 -43 -19.5 -80t-50.5 -63.5t-71 -41t-81 -14.5q-45 0 -85.5 14.5t-72.5 42t-50.5 65.5t-18.5 85zM-498 1311q0 -18 13.5 -27.5t29.5 -9.5t31.5 9t15.5 28q0 16 -12 31.5 t-31 15.5q-18 0 -32.5 -14.5t-14.5 -32.5zM6 924q0 41 32 77.5t76 64.5t93 44t84 16q66 0 103.5 -26.5t56 -69.5t22.5 -95t4 -104q0 -31 -2 -95t-6 -144t-10 -168t-14.5 -164t-18.5 -132t-23 -75q-16 -23 -36.5 -38t-49.5 -15q-35 0 -62.5 26.5t-27.5 61.5q0 59 7.5 115.5 t11.5 115.5q10 133 21.5 263.5t11.5 263.5q0 29 -2.5 58.5t-12.5 58.5q-25 -6 -48 -25.5t-46 -40t-42 -37t-36 -16.5q-33 0 -59.5 22.5t-26.5 57.5z" />
<glyph />
</font>
</defs>
</svg>
